osu file format v14

[General]
AudioFilename: Carly Rae Jepsen - I Really Like You.mp3
AudioLeadIn: 0
PreviewTime: 39454
Countdown: 0
SampleSet: Soft
StackLeniency: 0.7
Mode: 0
LetterboxInBreaks: 1
EpilepsyWarning: 1
WidescreenStoryboard: 1

[Editor]
Bookmarks: 170152
DistanceSpacing: 1.4
BeatDivisor: 4
GridSize: 4
TimelineZoom: 1.7

[Metadata]
Title:I Really Like You
TitleUnicode:I Really Like You
Artist:Carly Rae Jepsen
ArtistUnicode:Carly Rae Jepsen
Creator:tutuhaha
Version:Normal
Source:
Tags:Shad0w1and beren
BeatmapID:734432
BeatmapSetID:326748

[Difficulty]
HPDrainRate:3
CircleSize:3
OverallDifficulty:4
ApproachRate:5.5
SliderMultiplier:1.2
SliderTickRate:1

[Events]
//Background and Video events
0,0,"BG.jpg",0,0
//Break Periods
2,37688,38577
2,73145,75954
2,102606,103495
2,136341,148987
//Storyboard Layer 0 (Background)
//Storyboard Layer 1 (Fail)
//Storyboard Layer 2 (Pass)
//Storyboard Layer 3 (Foreground)
//Storyboard Sound Samples

[TimingPoints]
8227,491.803278688525,4,2,1,60,1,0
39702,-100,4,2,1,60,0,1
47079,-100,4,2,1,60,0,0
47571,-100,4,2,1,60,0,1
54948,-100,4,2,1,60,0,0
55440,-100,4,2,1,60,0,1
62817,-100,4,2,1,60,0,0
63308,-100,4,2,1,60,0,1
70686,-100,4,2,1,60,0,0
76341,-100,4,2,1,60,0,0
104620,-100,4,2,1,60,0,1
111997,-100,4,2,1,60,0,0
112489,-100,4,2,1,60,0,1
119866,-100,4,2,1,60,0,0
120358,-100,4,2,1,60,0,1
127735,-100,4,2,1,60,0,0
128227,-100,4,2,1,60,0,1
135604,-100,4,2,1,60,0,0
150112,-100,4,2,1,5,0,0
152940,-100,4,2,1,30,0,0
153431,491.803278688525,4,2,1,60,1,1
160808,-100,4,2,1,60,0,0
161299,-100,4,2,1,60,0,1
168676,-100,4,2,1,60,0,0
169168,-100,4,2,1,60,0,1
176545,-100,4,2,1,60,0,0
177037,-100,4,2,1,60,0,1
184414,-100,4,2,1,60,0,0
184906,-100,4,2,1,60,0,1
185029,-100,4,2,1,5,0,1
189332,-100,4,2,1,60,0,1
192283,-100,4,2,1,60,0,0
192775,-100,4,2,1,60,0,1
200152,-100,4,2,1,60,0,0
200521,-100,4,2,1,40,0,0

[Colours]
Combo1 : 255,192,0
Combo2 : 255,128,255
Combo3 : 18,124,255
Combo4 : 0,170,170

[HitObjects]
88,60,8226,5,0,0:0:0:0:
40,220,8718,2,0,P|92:236|160:204,1,120,0|0,1:0|0:0,0:0:0:0:
248,76,9702,2,0,P|284:48|364:44,1,120,0|0,1:0|0:0,0:0:0:0:
496,116,10686,1,0,1:0:0:0:
348,200,11177,6,0,L|352:284,1,60
432,280,11669,2,0,P|412:320|324:336,1,120,0|0,1:0|0:0,0:0:0:0:
176,360,12653,6,0,P|180:308|172:280,1,60,0|0,1:0|0:0,0:0:0:0:
104,260,13145,2,0,P|36:232|-4:176,1,120,0|0,0:0|1:0,0:0:0:0:
80,48,14128,6,0,P|156:24|216:24,1,120,0|0,0:0|1:0,0:0:0:0:
280,28,14866,1,0,0:0:0:0:
364,32,15112,2,0,L|440:28,2,60,0|0|0,0:0|0:0|1:0,0:0:0:0:
236,116,16095,6,0,P|192:144|152:212,1,120,0|0,0:0|1:0,0:0:0:0:
188,364,17079,2,0,P|232:336|272:268,1,120,0|0,0:0|1:0,0:0:0:0:
300,200,17817,1,0,0:0:0:0:
384,192,18063,6,0,L|512:196,1,120,0|0,0:0|1:0,0:0:0:0:
456,40,19046,2,0,L|392:52,1,60
320,88,19538,2,0,P|292:64|248:48,1,60,0|0,1:0|0:0,0:0:0:0:
188,32,20030,6,0,P|128:72|64:76,1,120,0|0,0:0|1:0,0:0:0:0:
8,228,21013,2,0,L|136:248,1,120,0|0,0:0|1:0,0:0:0:0:
144,328,21751,1,0,0:0:0:0:
224,304,21997,6,0,P|304:272|352:284,1,120,0|0,0:0|1:0,0:0:0:0:
496,232,22981,1,0,0:0:0:0:
456,156,23227,1,0,0:0:0:0:
384,112,23472,2,0,P|340:100|284:44,1,120,0|0,1:0|0:0,0:0:0:0:
120,40,24456,5,0,1:0:0:0:
132,208,24948,2,0,L|60:224,2,60,0|0|0,0:0|0:0|1:0,0:0:0:0:
244,332,25931,6,0,P|312:360|380:352,1,120,0|0,0:0|1:0,0:0:0:0:
468,232,26915,2,0,P|492:200|496:168,1,60
412,168,27407,2,0,L|280:168,1,120,0|0,1:0|0:0,0:0:0:0:
208,168,28145,5,0,0:0:0:0:
148,112,28390,2,0,P|80:84|40:28,2,120,0|0|0,1:0|0:0|1:0,0:0:0:0:
48,236,29866,6,0,L|60:364,1,120,0|0,0:0|1:0,0:0:0:0:
220,340,30849,2,0,P|276:296|300:232,1,120,0|0,0:0|1:0,0:0:0:0:
232,196,31587,6,0,L|212:120,1,60
340,28,32325,1,0,1:0:0:0:
472,132,32817,2,0,L|468:196,1,60
456,276,33308,1,0,1:0:0:0:
316,348,33800,6,0,P|256:316|180:324,1,120,0|0,0:0|1:0,0:0:0:0:
164,242,34538,2,0,L|24:254,1,120
10,174,35276,1,0,1:0:0:0:
89,26,35767,5,0,0:0:0:0:
205,147,36259,1,0,1:0:0:0:
336,40,36751,2,0,P|384:28|412:24,1,60
472,60,37243,2,0,L|488:128,1,60,0|0,1:0|0:0,0:0:0:0:
348,360,39702,6,0,P|344:300|308:244,1,120,4|0,0:0|1:0,0:0:0:0:
236,220,40440,1,0,0:0:0:0:
160,184,40686,2,0,P|128:116|128:64,1,120,0|0,0:0|1:0,0:0:0:0:
192,16,41423,1,0,0:0:0:0:
276,20,41669,6,0,L|412:24,1,120,0|0,0:0|1:0,0:0:0:0:
436,100,42407,1,0,0:0:0:0:
388,172,42653,2,0,P|384:212|408:304,1,120,0|0,0:0|1:0,0:0:0:0:
336,344,43390,1,0,0:0:0:0:
256,372,43636,1,0,0:0:0:0:
92,324,44128,6,0,L|80:256,1,60,0|0,1:0|0:0,0:0:0:0:
48,188,44620,2,0,P|56:112|48:52,1,120,0|0,0:0|1:0,0:0:0:0:
120,16,45358,1,0,0:0:0:0:
188,64,45604,6,0,P|256:76|316:64,1,120,0|0,0:0|1:0,0:0:0:0:
384,40,46341,1,0,0:0:0:0:
444,100,46587,2,0,L|504:156,1,60
440,208,47079,2,0,P|400:240|364:312,1,120,0|4,1:0|0:0,0:0:0:0:
300,352,47817,5,0,0:0:0:0:
216,340,48063,2,0,L|152:336,1,60,0|0,1:0|0:0,0:0:0:0:
180,256,48554,2,0,P|212:208|224:128,1,120,0|0,0:0|1:0,0:0:0:0:
180,76,49292,1,0,0:0:0:0:
112,24,49538,6,0,P|92:56|64:156,1,120,0|0,0:0|1:0,0:0:0:0:
36,212,50276,1,0,0:0:0:0:
28,296,50522,2,0,L|160:320,1,120,0|0,0:0|1:0,0:0:0:0:
196,252,51259,1,0,0:0:0:0:
204,168,51505,1,0,0:0:0:0:
328,56,51997,6,0,L|396:56,1,60,0|0,1:0|0:0,0:0:0:0:
452,112,52489,2,0,P|420:156|360:192,1,120,0|0,0:0|1:0,0:0:0:0:
288,228,53227,1,0,0:0:0:0:
252,304,53472,6,0,P|320:336|392:336,1,120,0|0,0:0|1:0,0:0:0:0:
448,348,54210,1,0,0:0:0:0:
468,268,54456,2,0,L|484:196,1,60
472,124,54948,2,0,P|432:140|404:164,1,60,0|0,1:0|0:0,0:0:0:0:
348,196,55440,6,0,P|296:204|220:172,1,120,4|0,0:0|1:0,0:0:0:0:
196,108,56177,1,0,0:0:0:0:
112,88,56423,2,0,P|112:132|132:164,1,60
144,228,56915,2,0,P|132:260|100:296,1,60,0|0,1:0|0:0,0:0:0:0:
44,320,57407,6,0,L|43:388,2,60,0|0|0,0:0|0:0|1:0,0:0:0:0:
24,236,58145,1,0,0:0:0:0:
32,152,58390,2,0,P|57:112|139:65,1,120,0|0,0:0|1:0,0:0:0:0:
192,32,59128,1,0,0:0:0:0:
276,24,59374,6,0,L|345:15,1,60
392,80,59866,2,0,L|461:71,1,60,0|0,1:0|0:0,0:0:0:0:
496,144,60358,2,0,P|470:197|402:230,1,120,0|0,0:0|1:0,0:0:0:0:
344,268,61095,1,0,0:0:0:0:
276,320,61341,6,0,P|260:280|260:248,1,60
260,180,61833,2,0,P|256:140|240:100,1,60,0|0,1:0|0:0,0:0:0:0:
180,72,62325,2,0,L|36:56,1,120,0|0,0:0|1:0,0:0:0:0:
68,228,63308,6,0,P|88:284|144:328,1,120,4|0,0:0|1:0,0:0:0:0:
212,348,64046,1,0,0:0:0:0:
256,276,64292,2,0,P|284:236|352:208,1,120,0|0,0:0|1:0,0:0:0:0:
428,240,65030,1,0,0:0:0:0:
476,168,65276,6,0,L|480:40,1,120,0|0,0:0|1:0,0:0:0:0:
396,36,66013,1,0,0:0:0:0:
312,40,66259,2,0,L|224:28,1,60
188,84,66751,2,0,L|100:72,1,60,0|0,1:0|0:0,0:0:0:0:
44,76,67243,6,0,P|28:128|36:204,1,120,0|0,0:0|1:0,0:0:0:0:
64,272,67981,1,0,0:0:0:0:
124,332,68227,2,0,L|196:328,1,60
268,320,68718,1,0,1:0:0:0:
224,156,69210,6,0,P|212:96|228:24,1,120,0|0,0:0|1:0,0:0:0:0:
308,40,69948,1,0,0:0:0:0:
392,36,70194,2,0,P|388:76|368:104,2,60,0|0|0,0:0|0:0|1:0,0:0:0:0:
288,312,77079,5,0,0:0:0:0:
128,260,77571,2,0,P|156:204|216:164,1,120,0|0,1:0|0:0,0:0:0:0:
252,104,78308,1,0,0:0:0:0:
212,32,78554,2,0,L|76:32,2,120,0|0|0,1:0|0:0|1:0,0:0:0:0:
332,128,80030,6,0,P|384:120|408:104,1,60
448,56,80522,1,0,1:0:0:0:
472,136,80767,1,0,0:0:0:0:
468,220,81013,5,0,0:0:0:0:
352,344,81505,2,0,P|316:312|232:300,1,120,0|0,1:0|0:0,0:0:0:0:
164,316,82243,1,0,0:0:0:0:
84,340,82489,2,0,P|84:300|92:268,1,60,0|0,1:0|0:0,0:0:0:0:
100,196,82981,6,0,P|88:132|40:80,1,120,0|0,0:0|1:0,0:0:0:0:
188,48,83964,2,0,B|260:60|260:60|328:44,1,120,0|0,0:0|1:0,0:0:0:0:
388,32,84702,6,0,L|464:36,1,60
448,204,85440,1,0,1:0:0:0:
364,192,85686,1,0,0:0:0:0:
280,184,85931,2,0,P|252:260|256:320,1,120,0|0,0:0|1:0,0:0:0:0:
172,328,86669,1,0,0:0:0:0:
92,360,86915,6,0,B|80:332|92:292|92:292|44:260,1,120,0|0,0:0|1:0,0:0:0:0:
20,100,87899,1,0,0:0:0:0:
104,112,88145,1,0,0:0:0:0:
136,32,88390,2,0,P|196:40|256:80,1,120,0|0,1:0|0:0,0:0:0:0:
316,224,89374,6,0,P|376:232|448:208,1,120,0|0,1:0|0:0,0:0:0:0:
492,156,90112,1,0,0:0:0:0:
452,80,90358,2,0,P|392:72|320:96,1,120,0|0,1:0|0:0,0:0:0:0:
172,48,91341,1,0,1:0:0:0:
80,188,91833,2,0,P|44:196|24:212,1,60
44,292,92325,2,0,P|108:316|144:364,1,120,0|0,1:0|0:0,0:0:0:0:
224,368,93063,5,0,0:0:0:0:
308,356,93308,1,0,1:0:0:0:
432,240,93800,1,0,0:0:0:0:
348,244,94046,1,0,0:0:0:0:
264,236,94292,2,0,P|204:216|156:168,1,120,0|0,1:0|0:0,0:0:0:0:
140,20,95276,6,0,P|172:36|196:56,1,60,0|0,1:0|0:0,0:0:0:0:
272,28,95767,2,0,P|300:40|332:76,1,60
348,140,96259,1,0,1:0:0:0:
228,256,96751,5,0,0:0:0:0:
360,364,97243,2,0,L|432:364,1,60,0|0,1:0|0:0,0:0:0:0:
468,296,97735,2,0,B|400:268|400:268|352:216,1,120,0|0,0:0|1:0,0:0:0:0:
224,144,98718,6,0,P|248:96|260:24,1,120,0|0,0:0|1:0,0:0:0:0:
180,8,99456,2,0,P|156:56|144:128,1,120
88,184,100194,2,0,L|92:256,1,60,0|0,1:0|0:0,0:0:0:0:
104,328,100686,5,0,0:0:0:0:
172,276,100931,1,0,0:0:0:0:
248,236,101177,2,0,P|288:256|320:272,1,60,0|0,1:0|0:0,0:0:0:0:
372,308,101669,2,0,P|412:296|444:280,1,60
460,212,102161,2,0,L|448:144,1,60,0|0,1:0|0:0,0:0:0:0:
164,24,104620,6,0,P|168:84|204:140,1,120,4|0,0:0|1:0,0:0:0:0:
276,164,105358,1,0,0:0:0:0:
352,200,105604,2,0,P|384:268|384:320,1,120,0|0,0:0|1:0,0:0:0:0:
320,368,106341,1,0,0:0:0:0:
236,364,106587,6,0,L|100:360,1,120,0|0,0:0|1:0,0:0:0:0:
76,284,107325,1,0,0:0:0:0:
124,212,107571,2,0,P|128:172|104:80,1,120,0|0,0:0|1:0,0:0:0:0:
176,40,108308,1,0,0:0:0:0:
256,12,108554,1,0,0:0:0:0:
420,60,109046,6,0,L|432:128,1,60,0|0,1:0|0:0,0:0:0:0:
464,196,109538,2,0,P|456:272|464:332,1,120,0|0,0:0|1:0,0:0:0:0:
392,368,110276,1,0,0:0:0:0:
324,320,110522,6,0,P|256:308|196:320,1,120,0|0,0:0|1:0,0:0:0:0:
128,344,111259,1,0,0:0:0:0:
68,284,111505,2,0,L|8:228,1,60
72,176,111997,2,0,P|112:144|148:72,1,120,0|4,1:0|0:0,0:0:0:0:
212,32,112735,5,0,0:0:0:0:
296,44,112981,2,0,L|360:48,1,60,0|0,1:0|0:0,0:0:0:0:
332,128,113472,2,0,P|300:176|288:256,1,120,0|0,0:0|1:0,0:0:0:0:
332,308,114210,1,0,0:0:0:0:
400,360,114456,6,0,P|420:328|448:228,1,120,0|0,0:0|1:0,0:0:0:0:
476,172,115194,1,0,0:0:0:0:
484,88,115440,2,0,L|352:64,1,120,0|0,0:0|1:0,0:0:0:0:
316,132,116177,1,0,0:0:0:0:
308,216,116423,1,0,0:0:0:0:
184,328,116915,6,0,L|116:328,1,60,0|0,1:0|0:0,0:0:0:0:
60,272,117407,2,0,P|92:228|152:192,1,120,0|0,0:0|1:0,0:0:0:0:
224,156,118145,1,0,0:0:0:0:
260,80,118390,6,0,P|192:48|120:48,1,120,0|0,0:0|1:0,0:0:0:0:
64,36,119128,1,0,0:0:0:0:
44,116,119374,2,0,L|28:188,1,60
40,260,119866,2,0,P|80:244|108:220,1,60,0|0,1:0|0:0,0:0:0:0:
164,188,120358,6,0,P|216:180|292:212,1,120,4|0,0:0|1:0,0:0:0:0:
316,276,121095,1,0,0:0:0:0:
400,296,121341,2,0,P|400:252|380:220,1,60
368,156,121833,2,0,P|380:124|412:88,1,60,0|0,1:0|0:0,0:0:0:0:
468,64,122325,6,0,L|469:-4,2,60,0|0|0,0:0|0:0|1:0,0:0:0:0:
488,148,123063,1,0,0:0:0:0:
480,232,123308,2,0,P|455:272|373:319,1,120,0|0,0:0|1:0,0:0:0:0:
320,352,124046,1,0,0:0:0:0:
236,360,124292,6,0,L|167:369,1,60
120,304,124784,2,0,L|51:313,1,60,0|0,1:0|0:0,0:0:0:0:
16,240,125276,2,0,P|42:187|110:154,1,120,0|0,0:0|1:0,0:0:0:0:
168,116,126013,1,0,0:0:0:0:
236,64,126259,6,0,P|252:104|252:136,1,60
252,204,126751,2,0,P|256:244|272:284,1,60,0|0,1:0|0:0,0:0:0:0:
332,312,127243,2,0,L|476:328,1,120,0|0,0:0|1:0,0:0:0:0:
444,156,128226,6,0,P|424:100|368:56,1,120,4|0,0:0|1:0,0:0:0:0:
300,36,128964,1,0,0:0:0:0:
256,108,129210,2,0,P|228:148|160:176,1,120,0|0,0:0|1:0,0:0:0:0:
84,144,129948,1,0,0:0:0:0:
36,216,130194,6,0,L|32:344,1,120,0|0,0:0|1:0,0:0:0:0:
116,348,130931,1,0,0:0:0:0:
200,344,131177,2,0,L|288:356,1,60
324,300,131669,2,0,L|412:312,1,60,0|0,1:0|0:0,0:0:0:0:
468,308,132161,6,0,P|484:256|476:180,1,120,0|0,0:0|1:0,0:0:0:0:
448,112,132899,1,0,0:0:0:0:
388,52,133145,2,0,L|316:56,1,60
244,64,133636,1,0,1:0:0:0:
288,228,134128,6,0,P|300:288|284:360,1,120,0|0,0:0|1:0,0:0:0:0:
204,344,134866,1,0,0:0:0:0:
120,348,135112,2,0,P|124:308|144:280,2,60,0|0|0,0:0|0:0|1:0,0:0:0:0:
256,192,150112,12,0,151833,0:0:0:0:
408,148,152940,6,0,P|364:128|324:60,1,120,0|4,1:0|0:0,0:0:0:0:
252,28,153676,5,0,0:0:0:0:
168,40,153922,2,0,L|64:124,1,120,0|0,1:0|0:0,0:0:0:0:
120,188,154660,1,0,0:0:0:0:
204,176,154906,2,0,P|260:160|336:192,1,120,0|0,1:0|0:0,0:0:0:0:
372,240,155644,5,0,0:0:0:0:
352,320,155890,2,0,P|296:344|216:328,1,120,0|0,1:0|0:0,0:0:0:0:
164,296,156627,1,0,0:0:0:0:
88,328,156873,2,0,L|32:288,1,60,0|0,1:0|0:0,0:0:0:0:
28,208,157365,6,0,P|32:136|56:88,1,120,0|0,0:0|1:0,0:0:0:0:
130,61,158103,1,0,0:0:0:0:
176,132,158349,2,0,P|220:96|244:20,1,120,0|0,0:0|1:0,0:0:0:0:
324,20,159086,1,0,0:0:0:0:
408,36,159332,6,0,L|460:156,1,120,0|0,0:0|1:0,0:0:0:0:
484,224,160070,1,0,0:0:0:0:
464,304,160316,2,0,P|432:288|408:260,1,60
336,296,160808,2,0,P|280:280|196:300,1,120,0|4,1:0|0:0,0:0:0:0:
144,328,161545,5,0,0:0:0:0:
68,360,161791,2,0,L|-8:368,1,60,0|0,1:0|0:0,0:0:0:0:
8,280,162283,2,0,P|48:228|52:156,1,120,0|0,0:0|1:0,0:0:0:0:
52,92,163021,1,0,0:0:0:0:
92,20,163267,6,0,P|116:40|152:144,1,120,0|0,0:0|1:0,0:0:0:0:
136,204,164004,1,0,0:0:0:0:
188,268,164250,2,0,L|264:300,1,60
288,220,164742,2,0,L|343:243,1,60,0|0,1:0|0:0,0:0:0:0:
412,292,165234,6,0,P|456:240|464:176,1,120,0|0,0:0|1:0,0:0:0:0:
484,108,165971,1,0,0:0:0:0:
416,60,166217,2,0,P|348:40|284:40,1,120,0|0,0:0|1:0,0:0:0:0:
232,88,166955,1,0,0:0:0:0:
172,148,167201,6,0,P|116:160|44:160,1,120,0|0,0:0|1:0,0:0:0:0:
20,84,167939,1,0,0:0:0:0:
100,64,168185,2,0,P|140:52|180:48,1,60
240,28,168676,2,0,P|296:80|356:108,1,120,0|4,1:0|0:0,0:0:0:0:
468,200,169660,6,0,L|456:276,1,60,0|0,1:0|0:0,0:0:0:0:
388,308,170152,1,0,0:0:0:0:
304,320,170398,1,0,0:0:0:0:
224,340,170644,2,0,P|172:332|152:324,1,60,0|0,1:0|0:0,0:0:0:0:
168,244,171135,6,0,P|128:196|56:168,1,120,0|0,0:0|1:0,0:0:0:0:
24,108,171873,1,0,0:0:0:0:
84,48,172119,2,0,B|152:64|216:48|220:48,1,120,0|0,0:0|1:0,0:0:0:0:
280,88,172857,1,0,0:0:0:0:
248,164,173103,6,0,P|224:208|220:244,1,60
264,292,173594,2,0,P|312:292|336:284,1,60,0|0,1:0|0:0,0:0:0:0:
404,264,174086,2,0,P|452:296|532:308,1,120,0|0,0:0|1:0,0:0:0:0:
500,224,174824,1,0,0:0:0:0:
428,180,175070,6,0,P|384:128|324:104,1,120,0|0,0:0|1:0,0:0:0:0:
260,144,175808,1,0,0:0:0:0:
176,128,176053,2,0,L|192:52,1,60
108,44,176545,2,0,P|88:104|40:164,1,120,0|4,1:0|0:0,0:0:0:0:
52,232,177283,5,0,0:0:0:0:
48,316,177529,2,0,P|88:308|120:288,1,60,0|0,1:0|0:0,0:0:0:0:
176,256,178021,2,0,P|220:220|304:200,1,120,0|0,0:0|1:0,0:0:0:0:
356,168,178758,1,0,0:0:0:0:
428,212,179004,6,0,L|444:356,1,120,0|0,0:0|1:0,0:0:0:0:
364,364,179742,1,0,0:0:0:0:
280,356,179988,2,0,P|252:296|248:232,1,120,0|0,0:0|1:0,0:0:0:0:
252,160,180726,1,0,0:0:0:0:
168,148,180971,6,0,P|88:168|32:156,1,120,0|0,0:0|1:0,0:0:0:0:
36,80,181709,1,0,0:0:0:0:
120,76,181955,2,0,P|156:48|244:24,1,120,0|0,0:0|1:0,0:0:0:0:
308,48,182693,1,0,0:0:0:0:
360,116,182939,6,0,P|324:144|236:168,1,120,0|0,0:0|1:0,0:0:0:0:
192,224,183676,1,0,0:0:0:0:
140,288,183922,2,0,L|144:360,1,60
60,348,184414,2,0,L|56:288,1,60,0|0,1:0|0:0,0:0:0:0:
60,204,184906,1,4,0:0:0:0:
256,192,185029,12,0,189332,1:0:0:0:
168,332,190316,5,0,1:0:0:0:
232,176,190808,2,0,P|276:172|356:216,1,120,0|0,0:0|1:0,0:0:0:0:
424,228,191545,1,0,0:0:0:0:
460,152,191791,2,0,P|464:108|456:80,1,60
376,80,192283,1,0,1:0:0:0:
292,76,192529,1,0,0:0:0:0:
212,48,192775,6,0,P|152:56|72:40,1,120,4|0,0:0|1:0,0:0:0:0:
20,88,193512,1,0,0:0:0:0:
12,172,193758,2,0,L|48:300,1,120,0|0,0:0|1:0,0:0:0:0:
107,343,194496,1,0,0:0:0:0:
188,324,194742,6,0,P|236:304|320:308,1,120,0|0,0:0|1:0,0:0:0:0:
384,332,195480,1,0,0:0:0:0:
436,264,195726,2,0,P|448:228|448:200,1,60
368,180,196217,2,0,P|356:216|356:244,1,60,0|0,1:0|0:0,0:0:0:0:
303,303,196709,6,0,P|248:276|208:220,1,120,0|0,0:0|1:0,0:0:0:0:
148,180,197447,1,0,0:0:0:0:
104,108,197693,2,0,L|28:100,2,60,0|0|0,0:0|0:0|1:0,0:0:0:0:
164,48,198431,1,0,0:0:0:0:
248,32,198676,6,0,L|307:38,2,60,0|0|0,0:0|0:0|1:0,0:0:0:0:
220,112,199414,1,0,0:0:0:0:
220,196,199660,2,0,L|224:268,1,60
284,316,200152,2,0,P|328:292|388:284,1,90,0|0,1:0|0:0,0:0:0:0:
