osu file format v14

[General]
AudioFilename: Carly Rae Jepsen - I Really Like You.mp3
AudioLeadIn: 0
PreviewTime: 39454
Countdown: 0
SampleSet: Soft
StackLeniency: 0.7
Mode: 0
LetterboxInBreaks: 1
EpilepsyWarning: 1
WidescreenStoryboard: 1

[Editor]
DistanceSpacing: 1.9
BeatDivisor: 4
GridSize: 4
TimelineZoom: 1.7

[Metadata]
Title:I Really Like You
TitleUnicode:I Really Like You
Artist:Carly Rae Jepsen
ArtistUnicode:Carly Rae Jepsen
Creator:tutuhaha
Version:Hard
Source:
Tags:Shad0w1and beren
BeatmapID:730119
BeatmapSetID:326748

[Difficulty]
HPDrainRate:5
CircleSize:3
OverallDifficulty:6
ApproachRate:7.5
SliderMultiplier:1.4
SliderTickRate:1

[Events]
//Background and Video events
0,0,"BG.jpg",0,0
//Break Periods
2,37688,38877
2,73145,75270
2,102606,103795
2,136341,149287
//Storyboard Layer 0 (Background)
//Storyboard Layer 1 (Fail)
//Storyboard Layer 2 (Pass)
//Storyboard Layer 3 (Foreground)
//Storyboard Sound Samples

[TimingPoints]
8227,491.803278688525,4,2,1,60,1,0
39702,-100,4,2,1,60,0,1
47079,-100,4,2,1,60,0,0
47571,-100,4,2,1,60,0,1
54948,-100,4,2,1,60,0,0
55440,-100,4,2,1,60,0,1
62817,-100,4,2,1,60,0,0
63308,-100,4,2,1,60,0,1
70686,-100,4,2,1,60,0,0
76341,-100,4,2,1,60,0,0
104620,-100,4,2,1,60,0,1
111997,-100,4,2,1,60,0,0
112489,-100,4,2,1,60,0,1
119866,-100,4,2,1,60,0,0
120358,-100,4,2,1,60,0,1
127735,-100,4,2,1,60,0,0
128227,-100,4,2,1,60,0,1
135604,-100,4,2,1,60,0,0
150112,-100,4,2,1,5,0,0
152940,-100,4,2,1,30,0,0
153431,491.803278688525,4,2,1,60,1,1
160808,-100,4,2,1,60,0,0
161299,-100,4,2,1,60,0,1
168676,-100,4,2,1,60,0,0
169168,-100,4,2,1,60,0,1
176545,-100,4,2,1,60,0,0
177037,-100,4,2,1,60,0,1
184414,-100,4,2,1,60,0,0
184906,-100,4,2,1,60,0,1
185029,-100,4,2,1,5,0,1
189332,-100,4,2,1,60,0,1
192283,-100,4,2,1,60,0,0
192775,-100,4,2,1,60,0,1
200152,-100,4,2,1,60,0,0
200521,-100,4,2,1,40,0,0

[Colours]
Combo1 : 255,192,0
Combo2 : 255,128,255
Combo3 : 18,124,255
Combo4 : 0,170,170

[HitObjects]
428,64,8226,5,0,0:0:0:0:
428,64,8718,2,0,P|432:124|448:148,1,70,0|0,1:0|0:0,0:0:0:0:
452,256,9210,1,0,0:0:0:0:
452,256,9456,2,0,L|504:240,2,35,0|0|0,0:0|0:0|1:0,0:0:0:0:
344,320,9948,1,0,0:0:0:0:
344,320,10194,6,0,P|304:320|256:340,1,70
123,229,10686,2,0,P|157:236|192:232,1,70,0|0,1:0|0:0,0:0:0:0:
228,112,11177,2,0,L|208:60,2,35
336,44,11669,1,0,1:0:0:0:
276,224,11915,1,0,0:0:0:0:
384,160,12161,1,0,0:0:0:0:
384,160,12653,6,0,P|432:156|464:136,1,70,0|0,1:0|0:0,0:0:0:0:
336,44,13145,1,0,0:0:0:0:
336,44,13390,1,0,0:0:0:0:
236,124,13636,2,0,P|232:164|244:208,1,70,0|0,1:0|0:0,0:0:0:0:
328,360,14128,6,0,P|288:320|196:328,1,140,0|0,0:0|1:0,0:0:0:0:
88,284,14866,1,0,0:0:0:0:
36,168,15112,2,0,L|8:128,2,35
88,284,15604,1,0,1:0:0:0:
244,224,15849,1,0,0:0:0:0:
272,60,16095,1,0,0:0:0:0:
272,60,16587,6,0,P|304:84|328:132,1,70,0|0,1:0|0:0,0:0:0:0:
472,215,17079,2,0,P|439:205|412:184,1,70
432,124,17448,1,0,0:0:0:0:
432,124,17571,2,0,L|376:52,1,70,0|0,1:0|0:0,0:0:0:0:
217,8,18063,6,0,L|260:64,1,70
255,236,18554,2,0,L|212:180,1,70,0|0,1:0|0:0,0:0:0:0:
104,120,19046,1,0,0:0:0:0:
72,244,19292,1,0,0:0:0:0:
192,280,19538,1,0,1:0:0:0:
104,120,19784,1,0,0:0:0:0:
268,28,20030,1,0,0:0:0:0:
268,28,20522,6,0,L|252:116,1,70,0|0,1:0|0:0,0:0:0:0:
228,220,21013,1,0,0:0:0:0:
228,220,21259,2,0,L|272:228,1,35
312,268,21505,2,0,P|360:264|404:276,1,70,0|0,1:0|0:0,0:0:0:0:
400,104,21997,2,0,P|424:180|492:204,1,140,0|0,0:0|1:0,0:0:0:0:
474,203,22981,6,0,L|491:155,1,35
508,112,23227,1,0,0:0:0:0:
420,24,23472,2,0,P|400:72|296:92,1,140,0|0,1:0|0:0,0:0:0:0:
212,36,24210,5,0,0:0:0:0:
96,88,24456,2,0,P|80:140|84:180,1,70,0|0,1:0|0:0,0:0:0:0:
143,333,24948,2,0,P|148:298|144:264,1,70
83,96,25440,2,0,P|70:129|68:164,1,70,0|0,1:0|0:0,0:0:0:0:
208,112,25931,6,0,P|256:128|296:124,1,70
412,24,26423,2,0,P|372:28|324:52,1,70,0|0,1:0|0:0,0:0:0:0:
448,132,26915,2,0,L|436:216,1,70
361,361,27407,2,0,L|352:292,1,70,0|0,1:0|0:0,0:0:0:0:
224,300,27899,5,0,0:0:0:0:
224,300,28145,1,0,0:0:0:0:
164,188,28390,1,0,1:0:0:0:
164,188,28636,1,0,0:0:0:0:
44,224,28882,1,0,0:0:0:0:
44,224,29128,1,0,0:0:0:0:
32,100,29374,1,0,1:0:0:0:
32,100,29620,1,0,0:0:0:0:
148,48,29866,6,0,P|196:40|232:48,1,70
380,123,30358,2,0,P|344:132|312:128,1,70,0|0,1:0|0:0,0:0:0:0:
228,224,30849,2,0,L|232:280,2,35
132,140,31341,1,0,1:0:0:0:
288,100,31587,1,0,0:0:0:0:
100,16,31833,6,0,P|52:44|32:68,2,70,0|0|0,0:0|0:0|1:0,0:0:0:0:
132,140,32571,1,0,0:0:0:0:
228,220,32817,2,0,P|284:244|316:248,1,70
400,180,33308,2,0,P|444:172|488:180,1,70,0|0,1:0|0:0,0:0:0:0:
456,344,33800,6,0,L|372:340,1,70
272,288,34292,1,0,1:0:0:0:
148,320,34538,2,0,P|104:320|72:332,2,70
188,200,35276,2,0,P|220:160|224:136,1,70,0|0,1:0|0:0,0:0:0:0:
100,44,35767,6,0,L|112:128,1,70
244,24,36259,2,0,L|232:108,1,70,0|0,1:0|0:0,0:0:0:0:
368,72,36751,2,0,L|380:156,1,70
512,52,37243,2,0,L|500:136,1,70,0|0,1:0|0:0,0:0:0:0:
444,316,39702,5,4,0:0:0:0:
324,352,39948,1,0,0:0:0:0:
224,276,40194,1,0,1:0:0:0:
112,332,40440,1,0,0:0:0:0:
16,252,40686,5,0,0:0:0:0:
128,196,40931,1,0,0:0:0:0:
136,72,41177,1,0,1:0:0:0:
260,76,41423,1,0,0:0:0:0:
284,196,41669,6,0,P|332:208|368:200,1,70
452,82,42161,2,0,P|418:77|384:84,1,70,0|0,1:0|0:0,0:0:0:0:
468,208,42653,2,0,L|456:276,1,70
320,352,43145,1,0,1:0:0:0:
236,200,43390,1,0,0:0:0:0:
360,160,43636,5,0,0:0:0:0:
360,160,43882,1,0,0:0:0:0:
260,80,44128,1,0,1:0:0:0:
140,116,44374,6,0,L|96:128,2,35
236,200,44866,1,0,0:0:0:0:
260,80,45112,1,0,1:0:0:0:
360,160,45358,6,0,L|393:150,2,35
236,200,45849,1,0,0:0:0:0:
260,80,46095,1,0,1:0:0:0:
140,116,46341,6,0,L|96:128,1,35
60,168,46587,2,0,L|56:256,1,70
224,328,47079,2,0,P|216:272|144:208,1,140,0|4,1:0|0:0,0:0:0:0:
128,92,47817,5,0,0:0:0:0:
240,32,48063,1,0,1:0:0:0:
352,84,48308,1,0,0:0:0:0:
468,36,48554,5,0,0:0:0:0:
352,84,48800,1,0,0:0:0:0:
400,200,49046,1,0,1:0:0:0:
320,300,49292,1,0,0:0:0:0:
220,224,49538,6,0,P|164:208|128:212,1,70
12,296,50030,2,0,P|45:308|80:312,1,70,0|0,1:0|0:0,0:0:0:0:
64,164,50522,2,0,L|84:88,1,70
225,36,51013,2,0,L|208:104,1,70,0|0,1:0|0:0,0:0:0:0:
260,220,51505,1,0,0:0:0:0:
260,220,51751,1,0,0:0:0:0:
384,244,51997,1,0,1:0:0:0:
492,180,52243,6,0,L|488:128,2,35
488,308,52735,1,0,0:0:0:0:
384,244,52981,1,0,1:0:0:0:
292,332,53227,6,0,L|294:366,2,35
384,244,53718,1,0,0:0:0:0:
488,308,53964,1,0,1:0:0:0:
492,180,54210,6,0,L|488:128,1,35
460,88,54456,2,0,P|416:56|396:32,1,70
240,140,54948,2,0,P|300:164|392:128,1,140,0|4,1:0|0:0,0:0:0:0:
288,24,55686,5,0,0:0:0:0:
240,140,55931,2,0,P|224:192|224:224,1,70,0|0,1:0|0:0,0:0:0:0:
232,332,56423,1,0,0:0:0:0:
232,332,56669,2,0,L|284:360,2,35,0|0|0,0:0|0:0|1:0,0:0:0:0:
120,272,57161,1,0,0:0:0:0:
240,140,57407,5,0,0:0:0:0:
116,148,57653,2,0,L|80:120,1,35
48,80,57899,2,0,P|96:52|124:28,1,70,0|0,1:0|0:0,0:0:0:0:
252,36,58390,2,0,L|308:36,2,35
364,152,58882,2,0,L|433:154,1,70,0|0,1:0|0:0,0:0:0:0:
284,248,59374,5,0,0:0:0:0:
200,340,59620,2,0,L|152:348,2,35,0|0|0,0:0|0:0|1:0,0:0:0:0:
284,248,60112,1,0,0:0:0:0:
228,136,60358,2,0,L|208:96,2,35
284,248,60849,1,0,1:0:0:0:
460,256,61095,1,0,0:0:0:0:
376,164,61341,5,0,0:0:0:0:
284,248,61587,2,0,L|268:279,2,35,0|0|0,0:0|0:0|1:0,0:0:0:0:
176,184,62079,1,0,0:0:0:0:
68,248,62325,2,0,L|48:200,1,35
72,156,62571,2,0,L|52:108,1,35
72,60,62817,2,0,P|112:40|216:68,1,140,0|4,1:0|0:0,0:0:0:0:
288,152,63554,5,0,0:0:0:0:
396,84,63800,1,0,1:0:0:0:
508,140,64046,1,0,0:0:0:0:
396,84,64292,5,0,0:0:0:0:
288,152,64538,1,0,0:0:0:0:
180,92,64784,1,0,1:0:0:0:
72,160,65030,1,0,0:0:0:0:
56,284,65276,6,0,P|88:324|120:344,1,70
283,316,65767,2,0,P|254:297|220:292,1,70,0|0,1:0|0:0,0:0:0:0:
144,192,66259,2,0,L|140:112,1,70
267,18,66751,2,0,L|264:88,1,70,0|0,1:0|0:0,0:0:0:0:
364,164,67243,5,0,0:0:0:0:
364,164,67489,2,0,L|396:124,1,35
444,108,67735,1,0,1:0:0:0:
464,244,67981,6,0,L|464:304,2,35
364,164,68472,1,0,0:0:0:0:
256,228,68718,1,0,1:0:0:0:
144,168,68964,6,0,L|144:133,2,35
256,228,69456,1,0,0:0:0:0:
344,320,69702,1,0,1:0:0:0:
464,279,69948,6,0,L|464:244,1,35
472,180,70194,2,0,P|416:156|392:140,1,70
348,40,70686,1,0,1:0:0:0:
72,72,76095,6,0,L|64:144,1,70,0|8,0:0|3:0,0:0:0:0:
108,260,76587,2,0,L|103:294,2,35
204,180,77079,1,0,0:0:0:0:
204,180,77571,6,0,L|288:176,1,70,0|0,1:0|0:0,0:0:0:0:
360,84,78063,1,0,0:0:0:0:
392,204,78308,1,0,0:0:0:0:
480,112,78554,1,0,1:0:0:0:
392,204,78800,1,0,0:0:0:0:
324,308,79046,6,0,P|328:356|336:384,2,70,0|0|0,0:0|0:0|1:0,0:0:0:0:
248,208,79784,1,0,0:0:0:0:
180,100,80030,2,0,L|176:40,2,35
112,208,80522,1,0,1:0:0:0:
248,208,80767,1,0,0:0:0:0:
336,108,81013,1,0,0:0:0:0:
336,108,81505,6,0,P|388:104|416:88,1,70,0|0,1:0|0:0,0:0:0:0:
496,196,81997,1,0,0:0:0:0:
496,196,82243,1,0,0:0:0:0:
460,316,82489,2,0,P|412:316|368:328,1,70,0|0,1:0|0:0,0:0:0:0:
268,348,82981,5,0,0:0:0:0:
140,348,83227,2,0,L|100:312,1,35
64,284,83472,2,0,P|72:244|64:200,1,70,0|0,1:0|0:0,0:0:0:0:
96,92,83964,2,0,L|76:44,2,35
224,56,84456,1,0,1:0:0:0:
356,56,84702,1,0,0:0:0:0:
472,116,84948,1,0,0:0:0:0:
472,116,85440,6,0,L|480:28,1,70,0|0,1:0|0:0,0:0:0:0:
400,212,85931,2,0,L|408:296,2,70,0|0|0,0:0|0:0|1:0,0:0:0:0:
296,140,86669,1,0,0:0:0:0:
296,140,86915,2,0,P|232:112|148:136,1,140,0|0,0:0|1:0,0:0:0:0:
165,124,87899,6,0,L|120:84,1,35
92,56,88145,1,0,0:0:0:0:
104,208,88390,2,0,P|84:264|-8:288,1,140,0|0,1:0|0:0,0:0:0:0:
156,344,89128,5,0,0:0:0:0:
156,344,89374,2,0,L|236:352,1,70,0|0,1:0|0:0,0:0:0:0:
340,300,89866,2,0,L|420:292,2,70,0|0|0,0:0|0:0|1:0,0:0:0:0:
240,220,90604,1,0,0:0:0:0:
136,152,90849,6,0,P|108:100|104:56,1,70
288,60,91341,2,0,P|316:112|320:156,1,70,0|0,1:0|0:0,0:0:0:0:
240,220,91833,2,0,L|216:268,2,35
318,122,92325,1,0,1:0:0:0:
444,140,92571,1,0,0:0:0:0:
364,240,92817,5,0,0:0:0:0:
364,240,93063,1,0,0:0:0:0:
428,348,93308,1,0,1:0:0:0:
428,348,93554,1,0,0:0:0:0:
300,348,93800,1,0,0:0:0:0:
300,348,94046,1,0,0:0:0:0:
176,372,94292,1,0,1:0:0:0:
176,372,94538,1,0,0:0:0:0:
52,344,94784,6,0,P|32:288|28:256,1,70
110,137,95276,2,0,P|123:170|132:204,1,70,0|0,1:0|0:0,0:0:0:0:
236,272,95767,2,0,L|224:312,2,35
320,176,96259,1,0,1:0:0:0:
432,236,96505,1,0,0:0:0:0:
320,176,96751,6,0,P|320:124|324:96,1,70
344,48,97120,2,0,L|360:12,1,35,0|0,0:0|1:0,0:0:0:0:
476,64,97489,1,0,0:0:0:0:
492,222,97735,2,0,P|493:205|496:188,2,35
380,324,98227,2,0,P|320:336|296:352,1,70,0|0,1:0|0:0,0:0:0:0:
122,362,98718,6,0,L|192:372,2,70,0|0|0,0:0|0:0|1:0,0:0:0:0:
88,240,99456,1,0,0:0:0:0:
72,116,99702,2,0,L|24:108,2,35
202,39,100194,2,0,L|272:36,1,70,0|0,1:0|0:0,0:0:0:0:
368,112,100686,5,0,0:0:0:0:
368,112,100931,1,0,0:0:0:0:
452,204,101177,2,0,L|464:292,1,70,0|0,1:0|0:0,0:0:0:0:
328,380,101669,2,0,L|340:292,1,70
220,208,102161,2,0,L|201:294,1,70,0|0,1:0|0:0,0:0:0:0:
68,68,104620,5,4,0:0:0:0:
188,32,104866,1,0,0:0:0:0:
288,108,105112,1,0,1:0:0:0:
400,52,105358,1,0,0:0:0:0:
496,132,105604,5,0,0:0:0:0:
384,188,105849,1,0,0:0:0:0:
376,312,106095,1,0,1:0:0:0:
252,308,106341,1,0,0:0:0:0:
228,188,106587,6,0,P|180:176|144:184,1,70
60,302,107079,2,0,P|94:307|128:300,1,70,0|0,1:0|0:0,0:0:0:0:
44,176,107571,2,0,L|56:108,1,70
192,32,108063,2,0,L|180:100,1,70,0|0,1:0|0:0,0:0:0:0:
152,224,108554,5,0,0:0:0:0:
152,224,108800,1,0,0:0:0:0:
252,304,109046,1,0,1:0:0:0:
372,268,109292,6,0,L|416:256,2,35
276,184,109784,1,0,0:0:0:0:
252,304,110030,1,0,1:0:0:0:
152,224,110276,6,0,L|119:234,2,35
276,184,110767,1,0,0:0:0:0:
252,304,111013,1,0,1:0:0:0:
372,268,111259,6,0,L|416:256,1,35
452,216,111505,2,0,L|456:128,1,70
288,56,111997,2,0,P|296:112|368:176,1,140,0|4,1:0|0:0,0:0:0:0:
384,292,112735,5,0,0:0:0:0:
272,352,112981,1,0,1:0:0:0:
160,300,113227,1,0,0:0:0:0:
44,348,113472,5,0,0:0:0:0:
160,300,113718,1,0,0:0:0:0:
112,184,113964,1,0,1:0:0:0:
192,84,114210,1,0,0:0:0:0:
292,160,114456,6,0,P|348:176|384:172,1,70
500,88,114948,2,0,P|467:76|432:72,1,70,0|0,1:0|0:0,0:0:0:0:
448,220,115440,2,0,L|428:296,1,70
287,348,115931,2,0,L|304:280,1,70,0|0,1:0|0:0,0:0:0:0:
252,164,116423,1,0,0:0:0:0:
252,164,116669,1,0,0:0:0:0:
128,140,116915,1,0,1:0:0:0:
20,204,117161,6,0,L|24:256,2,35
24,76,117653,1,0,0:0:0:0:
128,140,117899,1,0,1:0:0:0:
220,52,118145,6,0,L|218:18,2,35
128,140,118636,1,0,0:0:0:0:
24,76,118882,1,0,1:0:0:0:
20,204,119128,6,0,L|24:256,1,35
52,296,119374,2,0,P|96:328|116:352,1,70
272,244,119866,2,0,P|212:220|120:256,1,140,0|4,1:0|0:0,0:0:0:0:
224,360,120604,5,0,0:0:0:0:
272,244,120849,2,0,P|288:192|288:160,1,70,0|0,1:0|0:0,0:0:0:0:
280,52,121341,1,0,0:0:0:0:
280,52,121587,2,0,L|228:24,2,35,0|0|0,0:0|0:0|1:0,0:0:0:0:
392,112,122079,1,0,0:0:0:0:
272,244,122325,5,0,0:0:0:0:
396,236,122571,2,0,L|432:264,1,35
464,304,122817,2,0,P|416:332|388:356,1,70,0|0,1:0|0:0,0:0:0:0:
260,348,123308,2,0,L|204:348,2,35
148,232,123800,2,0,L|79:230,1,70,0|0,1:0|0:0,0:0:0:0:
228,136,124292,5,0,0:0:0:0:
312,44,124538,2,0,L|360:36,2,35,0|0|0,0:0|0:0|1:0,0:0:0:0:
228,136,125030,1,0,0:0:0:0:
284,248,125276,2,0,L|304:288,2,35
228,136,125767,1,0,1:0:0:0:
52,128,126013,1,0,0:0:0:0:
136,220,126259,5,0,0:0:0:0:
228,136,126505,2,0,L|244:105,2,35,0|0|0,0:0|0:0|1:0,0:0:0:0:
336,200,126997,1,0,0:0:0:0:
444,136,127243,2,0,L|464:184,1,35
440,228,127489,2,0,L|460:276,1,35
440,324,127735,2,0,P|400:344|296:316,1,140,0|4,1:0|0:0,0:0:0:0:
224,232,128472,5,0,0:0:0:0:
116,300,128718,1,0,1:0:0:0:
4,244,128964,1,0,0:0:0:0:
116,300,129210,5,0,0:0:0:0:
224,232,129456,1,0,0:0:0:0:
332,292,129702,1,0,1:0:0:0:
440,224,129948,1,0,0:0:0:0:
456,100,130194,6,0,P|424:60|392:40,1,70
229,68,130686,2,0,P|258:87|292:92,1,70,0|0,1:0|0:0,0:0:0:0:
368,192,131177,2,0,L|372:272,1,70
245,366,131669,2,0,L|248:296,1,70,0|0,1:0|0:0,0:0:0:0:
148,220,132161,5,0,0:0:0:0:
148,220,132407,1,0,0:0:0:0:
32,264,132653,1,0,1:0:0:0:
48,140,132899,6,0,L|48:80,2,35
148,220,133390,1,0,0:0:0:0:
256,156,133636,1,0,1:0:0:0:
368,216,133882,6,0,L|368:251,2,35
256,156,134374,1,0,0:0:0:0:
168,64,134620,1,0,1:0:0:0:
48,105,134866,6,0,L|48:140,1,35
40,204,135112,2,0,P|96:228|120:244,1,70
164,344,135604,1,0,1:0:0:0:
256,192,150112,12,0,151833,0:0:0:0:
356,68,152940,5,0,1:0:0:0:
356,68,153431,5,4,0:0:0:0:
244,124,153676,1,0,0:0:0:0:
124,84,153922,1,0,1:0:0:0:
20,152,154168,1,0,0:0:0:0:
124,84,154414,5,0,0:0:0:0:
244,124,154660,1,0,0:0:0:0:
192,240,154906,1,0,1:0:0:0:
296,312,155152,1,0,0:0:0:0:
412,360,155398,6,0,L|436:276,1,70
342,142,155890,2,0,L|336:212,1,70,0|0,1:0|0:0,0:0:0:0:
432,80,156381,2,0,P|396:44|376:32,1,70
252,32,156873,1,0,1:0:0:0:
252,32,157119,1,0,0:0:0:0:
342,142,157365,6,0,L|336:212,1,70
332,276,157734,2,0,L|336:328,1,35,0|0,0:0|1:0,0:0:0:0:
212,276,158103,6,0,L|192:232,2,35
108,348,158594,1,0,0:0:0:0:
32,248,158840,1,0,1:0:0:0:
212,276,159086,6,0,L|240:240,2,35
308,360,159578,1,0,0:0:0:0:
392,268,159824,1,0,1:0:0:0:
212,276,160070,6,0,L|192:232,1,35
168,188,160316,2,0,P|160:136|136:104,1,70
240,32,160808,1,0,1:0:0:0:
240,32,161053,1,0,0:0:0:0:
364,12,161299,5,4,0:0:0:0:
336,136,161545,1,0,0:0:0:0:
440,208,161791,1,0,1:0:0:0:
428,332,162037,1,0,0:0:0:0:
308,292,162283,5,0,0:0:0:0:
204,364,162529,1,0,0:0:0:0:
108,284,162775,1,0,1:0:0:0:
4,356,163021,1,0,0:0:0:0:
108,284,163267,6,0,P|112:232|100:204,1,70
29,54,163758,2,0,L|20:124,1,70,0|0,1:0|0:0,0:0:0:0:
192,140,164250,2,0,L|201:70,1,70
372,92,164742,2,0,L|362:161,1,70,0|0,1:0|0:0,0:0:0:0:
344,288,165234,5,0,0:0:0:0:
344,288,165480,1,0,0:0:0:0:
456,344,165726,1,0,1:0:0:0:
504,228,165971,6,0,L|504:176,2,35
344,288,166463,1,0,0:0:0:0:
248,372,166709,1,0,1:0:0:0:
176,268,166955,6,0,L|176:216,2,35
344,288,167447,1,0,0:0:0:0:
456,344,167693,1,0,1:0:0:0:
504,228,167939,6,0,L|504:176,1,35
488,132,168185,2,0,P|448:96|432:68,1,70
316,24,168676,2,0,P|304:80|224:112,1,140,0|4,1:0|0:0,0:0:0:0:
108,112,169414,5,0,0:0:0:0:
48,224,169660,2,0,P|64:264|88:288,1,70,0|0,1:0|0:0,0:0:0:0:
201,365,170152,2,0,L|208:296,1,70
216,232,170521,2,0,L|224:188,1,35,0|0,0:0|1:0,0:0:0:0:
244,72,170890,1,0,0:0:0:0:
244,72,171135,5,0,0:0:0:0:
344,148,171381,1,0,0:0:0:0:
464,108,171627,1,0,1:0:0:0:
344,148,171873,2,0,L|348:208,1,35
348,248,172119,2,0,P|364:292|368:344,1,70
244,348,172611,1,0,1:0:0:0:
204,228,172857,1,0,0:0:0:0:
344,148,173103,5,0,0:0:0:0:
420,48,173349,2,0,L|436:-8,2,35,0|0|0,0:0|0:0|1:0,0:0:0:0:
344,148,173840,1,0,0:0:0:0:
240,80,174086,1,0,0:0:0:0:
124,128,174332,2,0,L|108:172,1,35
96,224,174578,2,0,P|92:264|68:300,1,70,0|0,1:0|0:0,0:0:0:0:
200,324,175070,5,0,0:0:0:0:
260,212,175316,1,0,0:0:0:0:
124,128,175562,1,0,1:0:0:0:
240,80,175808,2,0,L|252:32,1,35
312,52,176053,2,0,L|332:6,2,35
356,196,176545,2,0,P|420:164|496:188,1,140,0|4,1:0|0:0,0:0:0:0:
444,300,177283,5,0,0:0:0:0:
316,296,177529,1,0,1:0:0:0:
212,368,177775,1,0,0:0:0:0:
88,352,178021,5,0,0:0:0:0:
164,252,178267,1,0,0:0:0:0:
56,184,178512,1,0,1:0:0:0:
124,76,178758,1,0,0:0:0:0:
232,140,179004,6,0,P|284:176|304:180,1,70
437,129,179496,2,0,P|411:105|380:92,1,70,0|0,1:0|0:0,0:0:0:0:
232,140,179988,2,0,L|248:228,1,70
136,312,180480,2,0,L|124:244,1,70,0|0,1:0|0:0,0:0:0:0:
48,144,180971,5,0,0:0:0:0:
48,144,181217,1,0,0:0:0:0:
132,48,181463,1,0,1:0:0:0:
244,104,181709,6,0,L|292:100,2,35
160,200,182201,1,0,0:0:0:0:
132,48,182447,1,0,1:0:0:0:
48,144,182693,6,0,L|16:196,2,35
132,48,183185,1,0,0:0:0:0:
160,200,183431,1,0,1:0:0:0:
244,104,183676,6,0,L|292:100,1,35
316,48,183922,2,0,L|352:56,1,35
408,32,184168,2,0,L|439:51,1,35
488,88,184414,2,0,P|472:128|512:216,1,140,0|4,1:0|0:0,0:0:0:0:
256,192,185029,12,0,189332,1:0:0:0:
476,312,189824,6,0,L|496:228,1,70
436,55,190316,2,0,P|454:84|459:119,1,70,0|0,1:0|0:0,0:0:0:0:
356,192,190808,1,0,0:0:0:0:
256,112,191053,5,0,0:0:0:0:
140,164,191299,1,0,1:0:0:0:
36,92,191545,1,0,0:0:0:0:
140,164,191791,5,0,0:0:0:0:
256,112,192037,1,0,0:0:0:0:
356,192,192283,1,0,1:0:0:0:
476,160,192529,1,0,0:0:0:0:
380,36,192775,6,0,P|360:65|352:99,1,70,4|0,0:0|0:0,0:0:0:0:
264,208,193267,2,0,P|260:256|244:292,1,70,0|0,1:0|0:0,0:0:0:0:
104,364,193758,2,0,L|120:288,1,70
20,200,194250,2,0,L|4:124,1,70,0|0,1:0|0:0,0:0:0:0:
92,40,194742,5,0,0:0:0:0:
92,40,194988,1,0,0:0:0:0:
212,76,195234,1,0,1:0:0:0:
212,76,195480,1,0,0:0:0:0:
328,28,195726,5,0,0:0:0:0:
448,68,195971,1,0,0:0:0:0:
328,28,196217,1,0,1:0:0:0:
212,76,196463,1,0,0:0:0:0:
312,224,196709,6,0,P|336:188|344:152,1,70
152,168,197201,2,0,L|164:256,1,70,0|0,1:0|0:0,0:0:0:0:
172,300,197570,5,0,0:0:0:0:
172,300,197693,2,0,P|212:328|232:356,1,70
348,376,198185,1,0,1:0:0:0:
312,224,198431,6,0,L|312:164,2,35
428,272,198922,1,0,0:0:0:0:
280,360,199168,1,0,1:0:0:0:
192,224,199414,2,0,L|184:172,1,35
180,128,199660,5,0,0:0:0:0:
276,48,199906,1,0,0:0:0:0:
396,84,200152,2,0,P|440:104|496:68,1,105,0|0,1:0|0:0,0:0:0:0:
