osu file format v14

[General]
AudioFilename: Carly Rae Jepsen - I Really Like You - Blasterjaxx Remix.mp3
AudioLeadIn: 0
PreviewTime: 84361
Countdown: 1
SampleSet: Normal
StackLeniency: 0.7
Mode: 0
LetterboxInBreaks: 0
EpilepsyWarning: 1
WidescreenStoryboard: 0

[Editor]
Bookmarks: 38892,76861,83423,113892,151861,166861,174361,181861
DistanceSpacing: 1.1
BeatDivisor: 4
GridSize: 4
TimelineZoom: 1

[Metadata]
Title:I Really Like You (Blasterjaxx Remix)
TitleUnicode:I Really Like You (Blasterjaxx Remix)
Artist:Carly Rae Jepsen
ArtistUnicode:Carly Rae Jepsen
Creator:AxelBrown
Version:Hard
Source:
Tags:
BeatmapID:889678
BeatmapSetID:409926

[Difficulty]
HPDrainRate:7
CircleSize:4.6
OverallDifficulty:6
ApproachRate:7.5
SliderMultiplier:1.6
SliderTickRate:2

[Events]
//Background and Video events
0,0,"carly wallpaper.jpg",0,0
//Break Periods
2,39560,53536
2,114560,136036
2,151592,166036
//Storyboard Layer 0 (Background)
//Storyboard Layer 1 (Fail)
//Storyboard Layer 2 (Pass)
//Storyboard Layer 3 (Foreground)
//Storyboard Sound Samples

[TimingPoints]
1861,468.75,4,2,0,100,1,0
1861,-133.333333333333,4,2,0,80,0,0
24361,-117.647058823529,4,2,0,80,0,0
84361,-100,4,1,0,60,0,1
114361,-100,4,1,0,80,0,0
136861,-117.647058823529,4,2,0,80,0,0
181861,-100,4,1,0,60,0,1
211861,-100,4,1,0,60,0,0

[Colours]
Combo1 : 255,128,64
Combo2 : 255,128,255
Combo3 : 255,0,128
Combo4 : 242,24,57

[HitObjects]
112,136,1861,6,0,L|184:136,1,60.0000022888184,2|0,0:0|0:0,0:0:0:0:
164,72,2329,2,0,L|240:48,1,60.0000022888184,2|0,0:0|0:0,0:0:0:0:
288,52,2798,2,0,L|364:80,1,60.0000022888184,2|0,0:0|0:0,0:0:0:0:
332,136,3267,2,0,L|396:136,1,60.0000022888184,2|0,0:0|0:0,0:0:0:0:
388,204,3736,6,0,L|328:204,1,60.0000022888184,2|0,0:0|0:0,0:0:0:0:
336,268,4204,2,0,L|278:286,1,60.0000022888184,2|0,0:0|0:0,0:0:0:0:
212,288,4673,2,0,L|155:267,1,60.0000022888184,2|0,0:0|0:0,0:0:0:0:
168,204,5142,2,0,L|108:204,1,60.0000022888184,2|0,0:0|0:0,0:0:0:0:
120,140,5611,6,0,P|108:112|120:72,1,60.0000022888184,2|0,0:0|0:0,0:0:0:0:
176,104,6079,2,0,P|208:92|224:60,1,60.0000022888184,2|0,0:0|0:0,0:0:0:0:
288,72,6548,2,0,P|305:95|333:104,1,60.0000022888184,2|0,0:0|0:0,0:0:0:0:
397,84,7016,2,0,P|401:113|389:140,1,60.0000022888184,2|0,0:0|0:0,0:0:0:0:
392,208,7486,6,0,P|403:235|399:264,1,60.0000022888184,2|0,0:0|0:0,0:0:0:0:
336,243,7954,2,0,P|307:251|290:275,1,60.0000022888184,2|0,0:0|0:0,0:0:0:0:
224,277,8423,2,0,P|206:253|178:244,1,60.0000022888184,2|0,0:0|0:0,0:0:0:0:
115,264,8891,2,0,P|110:234|122:207,1,60.0000022888184
140,144,9361,6,0,L|112:80,1,60.0000022888184,2|0,0:0|0:0,0:0:0:0:
148,32,9829,1,2,0:0:0:0:
212,52,10064,1,0,0:0:0:0:
228,116,10298,2,0,L|292:116,1,60.0000022888184,2|0,0:0|0:0,0:0:0:0:
308,52,10767,5,2,0:0:0:0:
372,32,11001,1,0,0:0:0:0:
408,88,11236,2,0,P|440:128|420:196,1,120.000004577637,2|2,0:0|0:0,0:0:0:0:
376,236,11939,6,0,L|400:290,1,60.0000022888184,0|2,0:0|0:0,0:0:0:0:
368,347,12407,1,0,0:0:0:0:
304,327,12642,1,2,0:0:0:0:
288,263,12876,2,0,L|228:263,1,60.0000022888184,0|2,0:0|0:0,0:0:0:0:
208,327,13345,5,0,0:0:0:0:
144,347,13579,1,2,0:0:0:0:
100,296,13814,1,0,0:0:0:0:
132,240,14048,2,2,P|148:184|112:136,1,120.000004577637
80,196,14751,1,0,0:0:0:0:
132,240,14986,2,2,L|260:240,1,120.000004577637
304,284,15689,5,0,0:0:0:0:
364,252,15923,1,2,0:0:0:0:
348,188,16157,1,0,0:0:0:0:
284,180,16392,1,2,0:0:0:0:
256,240,16626,1,0,0:0:0:0:
196,272,16861,2,0,P|188:240|204:196,1,60.0000022888184,2|0,0:0|0:0,0:0:0:0:
144,168,17329,6,0,L|144:96,2,60.0000022888184,2|0|2,0:0|0:0|0:0,0:0:0:0:
96,216,18032,1,0,0:0:0:0:
148,260,18267,2,0,P|152:292|176:312,1,60.0000022888184,2|0,0:0|0:0,0:0:0:0:
216,260,18736,2,0,B|288:224|264:272|340:240,1,120.000004577637,2|2,0:0|0:0,0:0:0:0:
396,264,19439,5,0,0:0:0:0:
456,236,19673,1,2,0:0:0:0:
428,176,19907,1,0,0:0:0:0:
456,116,20142,1,2,0:0:0:0:
456,116,20376,1,0,0:0:0:0:
396,84,20611,2,0,P|368:80|332:80,1,60.0000022888184,2|0,0:0|0:0,0:0:0:0:
296,132,21079,5,2,0:0:0:0:
232,112,21314,2,0,L|152:80,1,60.0000022888184,0|2,0:0|0:0,0:0:0:0:
65,143,21782,2,0,L|124:128,1,60.0000022888184,0|2,0:0|0:0,0:0:0:0:
156,188,22251,1,0,0:0:0:0:
112,240,22486,2,2,B|136:260|140:288|140:288|176:300|212:284,1,120.000004577637
84,108,24361,2,0,L|168:108,1,68.0000012969971,2|0,0:0|0:0,0:0:0:0:
180,176,24829,2,0,L|104:176,1,68.0000012969971,2|0,0:0|0:0,0:0:0:0:
80,244,25298,2,0,L|152:244,1,68.0000012969971,2|0,0:0|0:0,0:0:0:0:
112,176,25767,2,0,L|180:176,1,68.0000012969971,2|0,0:0|0:0,0:0:0:0:
200,104,26236,6,0,P|248:144|244:220,1,136.000002593994,2|2,0:0|0:0,0:0:0:0:
180,176,26939,1,0,0:0:0:0:
112,144,27173,2,2,P|112:212|168:252,1,136.000002593994
220,300,27876,6,0,P|256:308|296:300,1,68.0000012969971,0|2,0:0|0:0,0:0:0:0:
256,232,28345,2,0,P|268:200|256:156,1,68.0000012969971,0|2,0:0|0:0,0:0:0:0:
192,192,28814,2,0,P|156:200|124:192,1,68.0000012969971,0|2,0:0|0:0,0:0:0:0:
156,124,29282,1,0,0:0:0:0:
220,88,29517,2,0,L|296:88,1,68.0000012969971,2|0,0:0|0:0,0:0:0:0:
308,160,29986,6,0,P|328:188|368:192,1,68.0000012969971,2|0,0:0|0:0,0:0:0:0:
408,252,30454,2,0,P|408:284|384:312,1,68.0000012969971,2|0,0:0|0:0,0:0:0:0:
316,284,30923,2,2,P|256:260|188:284,1,136.000002593994
124,312,31626,5,0,0:0:0:0:
68,264,31861,2,0,L|68:172,1,68.0000012969971,2|0,0:0|0:0,0:0:0:0:
144,188,32329,2,0,L|144:96,1,68.0000012969971,2|0,0:0|0:0,0:0:0:0:
196,68,32798,1,2,0:0:0:0:
260,108,33032,1,0,0:0:0:0:
272,32,33267,2,0,P|304:44|328:72,1,68.0000012969971,2|0,0:0|0:0,0:0:0:0:
260,108,33736,6,0,P|284:136|332:144,1,68.0000012969971,2|0,0:0|0:0,0:0:0:0:
372,192,34204,1,2,0:0:0:0:
372,268,34439,2,0,L|296:268,1,68.0000012969971,0|2,0:0|0:0,0:0:0:0:
176,316,34907,2,0,L|244:316,1,68.0000012969971,0|2,0:0|0:0,0:0:0:0:
304,268,35376,1,0,0:0:0:0:
244,224,35611,22,0,B|280:160|276:104|212:72|188:140|188:140|112:120|104:240|196:232|248:224,1,408.000007781983,2|2,0:0|0:0,0:0:0:0:
216,296,37251,5,0,0:0:0:0:
140,292,37486,2,0,P|136:256|104:212,1,68.0000012969971,2|0,0:0|0:0,0:0:0:0:
64,180,37954,2,0,P|88:156|96:104,1,68.0000012969971,2|0,0:0|0:0,0:0:0:0:
172,128,38423,1,2,0:0:0:0:
224,76,38657,1,0,0:0:0:0:
284,120,38892,2,0,B|320:128|348:112|348:112|376:140|372:188,1,136.000002593994,2|6,0:0|0:0,0:0:0:0:
144,132,54361,6,0,B|208:116|256:60|256:60|296:116|376:136,1,272.000005187988,2|0,0:0|0:0,0:0:0:0:
439,157,55532,2,0,P|425:187|395:204,1,68.0000012969971,0|2,0:0|0:0,0:0:0:0:
416,276,56001,1,0,0:0:0:0:
344,284,56236,1,2,0:0:0:0:
288,232,56470,2,0,P|256:224|220:236,1,68.0000012969971
432,152,57407,6,0,P|399:160|368:148,1,68.0000012969971
400,80,57876,2,0,P|372:64|328:72,1,68.0000012969971,0|2,0:0|0:0,0:0:0:0:
276,112,58345,1,0,0:0:0:0:
200,100,58579,2,0,B|168:88|132:100|132:100|112:132|128:168,1,136.000002593994
196,192,59282,6,0,L|196:268,1,68.0000012969971
124,356,59751,2,0,L|124:288,1,68.0000012969971,0|2,0:0|0:0,0:0:0:0:
196,260,60220,1,0,0:0:0:0:
232,192,60454,2,0,B|264:216|268:244|268:244|360:248,1,136.000002593994
92,76,61861,6,0,L|168:76,1,68.0000012969971,2|0,0:0|0:0,0:0:0:0:
212,128,62329,2,0,L|212:168,2,34.0000006484985,2|0|0,0:0|0:0|0:0,0:0:0:0:
280,96,62798,2,0,L|280:52,2,34.0000006484985,2|0|0,0:0|0:0|0:0,0:0:0:0:
348,128,63267,2,0,L|348:168,2,34.0000006484985,2|0|0,0:0|0:0|0:0,0:0:0:0:
280,96,63736,6,0,L|280:48,2,34.0000006484985,2|0|0,0:0|0:0|0:0,0:0:0:0:
280,172,64204,2,0,L|280:216,2,34.0000006484985,2|0|0,0:0|0:0|0:0,0:0:0:0:
212,140,64673,2,0,L|212:96,2,34.0000006484985,2|0|0,0:0|0:0|0:0,0:0:0:0:
160,196,65142,1,2,0:0:0:0:
84,200,65376,2,0,P|52:212|32:244,1,68.0000012969971,0|2,0:0|0:0,0:0:0:0:
100,272,65845,5,0,0:0:0:0:
164,312,66079,2,0,L|164:348,2,34.0000006484985,2|0|0,0:0|0:0|0:0,0:0:0:0:
228,272,66548,1,2,0:0:0:0:
224,196,66782,2,0,P|256:184|296:196,1,68.0000012969971,0|2,0:0|0:0,0:0:0:0:
340,136,67251,5,0,0:0:0:0:
288,85,67486,2,0,P|255:91|224:80,1,68.0000012969971,2|0,0:0|0:0,0:0:0:0:
152,60,67954,2,0,L|92:104,1,68.0000012969971,2|0,0:0|0:0,0:0:0:0:
96,244,68423,2,0,L|96:176,1,68.0000012969971,2|0,0:0|0:0,0:0:0:0:
96,100,68892,2,2,B|168:96|156:132|232:128,1,136.000002593994
284,80,69595,6,0,L|360:88,1,68.0000012969971,0|2,0:0|0:0,0:0:0:0:
336,160,70064,2,0,L|408:192,1,68.0000012969971,0|2,0:0|0:0,0:0:0:0:
360,252,70532,2,0,L|408:312,1,68.0000012969971,0|2,0:0|0:0,0:0:0:0:
340,348,71001,2,0,L|296:288,1,68.0000012969971,0|2,0:0|0:0,0:0:0:0:
236,332,71470,2,0,L|180:276,1,68.0000012969971,0|2,0:0|0:0,0:0:0:0:
124,320,71939,2,0,L|60:288,1,68.0000012969971,0|2,0:0|0:0,0:0:0:0:
92,220,72407,1,0,0:0:0:0:
64,152,72642,2,2,P|116:120|192:112,1,136.000002593994
256,76,73345,6,0,L|336:76,1,68.0000012969971,0|2,0:0|0:0,0:0:0:0:
336,152,73814,2,0,L|408:188,1,68.0000012969971,0|2,0:0|0:0,0:0:0:0:
372,252,74282,2,0,L|416:332,1,68.0000012969971,0|2,0:0|0:0,0:0:0:0:
340,348,74751,2,0,L|304:284,1,68.0000012969971,0|2,0:0|0:0,0:0:0:0:
240,320,75220,2,0,L|224:248,1,68.0000012969971,0|2,0:0|0:0,0:0:0:0:
152,248,75689,2,0,L|172:168,1,68.0000012969971,0|2,0:0|0:0,0:0:0:0:
108,140,76157,1,0,0:0:0:0:
144,72,76392,2,0,P|176:80|232:76,1,68.0000012969971,2|0,0:0|0:0,0:0:0:0:
280,56,76861,5,10,0:0:0:0:
352,80,77095,1,2,0:0:0:0:
348,156,77329,1,2,0:0:0:0:
408,204,77564,1,2,0:0:0:0:
400,280,77798,1,2,0:0:0:0:
340,324,78032,1,2,0:0:0:0:
276,284,78267,1,2,0:0:0:0:
200,280,78501,1,2,0:0:0:0:
128,300,78736,5,10,0:0:0:0:
84,240,78970,1,2,0:0:0:0:
120,176,79204,1,2,0:0:0:0:
104,104,79439,1,2,0:0:0:0:
172,76,79673,1,2,0:0:0:0:
236,116,79907,1,2,0:0:0:0:
296,72,80142,1,2,0:0:0:0:
352,120,80376,1,2,0:0:0:0:
256,192,80611,12,0,82486,0:0:0:0:
128,96,82720,5,0,0:0:0:0:
204,104,82954,1,2,0:0:0:0:
220,176,83189,2,0,P|268:192|316:184,1,68.0000012969971,0|2,0:0|0:0,0:0:0:0:
344,240,83657,2,0,P|320:284|288:300,1,68.0000012969971,0|2,0:0|0:0,0:0:0:0:
336,120,84361,5,8,0:0:0:0:
256,80,84595,1,0,0:0:0:0:
252,168,84829,1,0,0:0:0:0:
176,120,85064,2,0,B|152:108|152:108|128:112|128:112|100:100,2,80
252,168,85767,5,0,0:0:0:0:
252,168,85884,1,0,0:0:0:0:
252,168,86001,1,0,0:0:0:0:
220,252,86236,2,0,P|272:256|304:240,1,80,8|0,0:0|0:0,0:0:0:0:
376,284,86704,1,0,0:0:0:0:
432,216,86939,1,0,0:0:0:0:
388,140,87173,1,0,0:0:0:0:
304,164,87407,6,0,L|216:164,1,80
92,236,87876,1,0,0:0:0:0:
92,236,87993,1,0,0:0:0:0:
92,236,88111,2,0,L|172:236,1,80,8|0,0:0|0:0,0:0:0:0:
256,268,88579,5,0,0:0:0:0:
188,324,88814,1,0,0:0:0:0:
172,236,89048,2,0,L|136:148,1,80,0|0,0:0|0:0,0:0:0:0:
188,88,89517,1,0,0:0:0:0:
276,76,89751,2,0,P|272:120|248:152,1,80,0|8,0:0|0:0,0:0:0:0:
252,236,90220,6,0,L|252:280,2,40,0|0|0,0:0|0:0|0:0,0:0:0:0:
328,192,90689,2,0,L|416:192,1,80,0|0,0:0|0:0,0:0:0:0:
472,252,91157,1,0,0:0:0:0:
328,312,91392,1,0,0:0:0:0:
328,312,91509,1,0,0:0:0:0:
328,312,91626,2,0,L|408:312,1,80,0|8,0:0|0:0,0:0:0:0:
472,252,92095,5,0,0:0:0:0:
408,312,92329,1,0,0:0:0:0:
380,228,92564,2,0,P|360:192|320:168,1,80,0|0,0:0|0:0,0:0:0:0:
292,252,93032,1,0,0:0:0:0:
236,184,93267,1,0,0:0:0:0:
236,184,93384,1,0,0:0:0:0:
236,184,93501,2,0,L|152:184,1,80,0|8,0:0|0:0,0:0:0:0:
112,108,93970,6,0,L|32:108,2,80,0|0|0,0:0|0:0|0:0,0:0:0:0:
180,52,94673,1,0,0:0:0:0:
256,96,94907,1,0,0:0:0:0:
332,52,95142,1,0,0:0:0:0:
332,52,95259,1,0,0:0:0:0:
332,52,95376,2,0,L|424:52,1,80,0|8,0:0|0:0,0:0:0:0:
452,132,95845,6,0,P|428:164|432:216,1,80,0|0,0:0|0:0,0:0:0:0:
348,244,96314,1,0,0:0:0:0:
268,204,96548,2,0,P|266:164|242:133,1,80,0|0,0:0|0:0,0:0:0:0:
180,196,97017,1,0,0:0:0:0:
100,232,97251,2,0,L|100:320,1,80,0|8,0:0|0:0,0:0:0:0:
180,348,97720,6,0,L|180:260,2,80,0|0|0,0:0|0:0|0:0,0:0:0:0:
260,312,98423,2,0,L|260:228,1,80,0|0,0:0|0:0,0:0:0:0:
344,204,98892,1,0,0:0:0:0:
344,204,99009,1,0,0:0:0:0:
344,204,99126,2,0,P|324:168|272:144,1,80,0|8,0:0|0:0,0:0:0:0:
252,228,99595,5,0,0:0:0:0:
172,192,99829,2,0,L|84:192,1,80,0|0,0:0|0:0,0:0:0:0:
32,128,100298,1,0,0:0:0:0:
116,100,100532,1,0,0:0:0:0:
172,36,100766,1,0,0:0:0:0:
256,64,101001,2,0,B|280:52|280:52|304:56|304:56|332:44,2,80,0|8|0,0:0|0:0|0:0,0:0:0:0:
260,152,101704,5,0,0:0:0:0:
176,180,101938,1,0,0:0:0:0:
144,264,102173,2,0,P|184:272|228:252,1,80,0|0,0:0|0:0,0:0:0:0:
384,288,102642,1,0,0:0:0:0:
384,288,102759,1,0,0:0:0:0:
384,288,102876,2,0,L|304:288,1,80,0|8,0:0|0:0,0:0:0:0:
219,258,103345,6,0,L|175:258,2,40,0|0|0,0:0|0:0|0:0,0:0:0:0:
264,184,103814,1,0,0:0:0:0:
200,124,104048,2,0,P|160:120|132:80,1,80,0|0,0:0|0:0,0:0:0:0:
56,132,104517,1,0,0:0:0:0:
56,220,104751,2,0,P|94:223|121:252,1,80,0|8,0:0|0:0,0:0:0:0:
160,332,105220,5,0,0:0:0:0:
244,304,105454,1,0,0:0:0:0:
212,220,105689,2,0,P|232:184|236:136,1,80,0|0,0:0|0:0,0:0:0:0:
144,156,106157,1,0,0:0:0:0:
148,68,106392,1,0,0:0:0:0:
148,68,106509,1,0,0:0:0:0:
148,68,106626,2,0,L|232:32,1,80,0|8,0:0|0:0,0:0:0:0:
272,108,107095,6,0,L|360:72,2,80,0|0|0,0:0|0:0|0:0,0:0:0:0:
256,196,107798,2,0,L|256:296,1,80,0|0,0:0|0:0,0:0:0:0:
172,308,108267,1,0,0:0:0:0:
172,308,108384,1,0,0:0:0:0:
172,308,108501,2,0,P|144:280|96:264,1,80,0|8,0:0|0:0,0:0:0:0:
156,192,108970,5,0,0:0:0:0:
68,192,109204,1,0,0:0:0:0:
112,116,109439,2,0,P|148:101|177:73,1,80,0|0,0:0|0:0,0:0:0:0:
256,112,109907,1,0,0:0:0:0:
336,72,110142,1,0,0:0:0:0:
336,72,110259,1,0,0:0:0:0:
336,72,110376,2,0,P|364:100|401:114,1,80,0|8,0:0|0:0,0:0:0:0:
360,192,110845,5,0,0:0:0:0:
448,192,111079,1,0,0:0:0:0:
404,268,111314,2,0,P|367:282|338:310,1,80,0|0,0:0|0:0,0:0:0:0:
256,344,111782,1,0,0:0:0:0:
256,256,112017,2,0,L|256:164,2,80,0|0|8,0:0|0:0|0:0,0:0:0:0:
184,308,112721,2,0,P|155:279|118:265,1,80,0|0,0:0|0:0,0:0:0:0:
40,228,113189,6,0,P|56:192|40:148,1,80,0|0,0:0|0:0,0:0:0:0:
116,104,113657,1,0,0:0:0:0:
192,148,113891,1,0,0:0:0:0:
192,148,114009,1,0,0:0:0:0:
192,148,114126,2,0,P|228:133|257:105,1,80,0|8,0:0|0:0,0:0:0:0:
104,88,136861,6,0,P|136:80|168:48,1,68.0000012969971,2|0,0:0|0:0,0:0:0:0:
224,100,137329,2,0,P|256:92|296:100,1,68.0000012969971,2|0,0:0|0:0,0:0:0:0:
352,56,137798,2,0,P|377:78|410:86,1,68.0000012969971,2|0,0:0|0:0,0:0:0:0:
412,160,138267,2,0,P|379:167|353:189,1,68.0000012969971,2|0,0:0|0:0,0:0:0:0:
388,256,138736,6,2,B|404:284|388:320|388:320|344:324|324:300,1,136.000002593994
256,268,139439,1,0,0:0:0:0:
188,300,139673,2,2,B|168:324|124:320|124:320|108:284|124:256,1,136.000002593994
84,192,140376,5,0,0:0:0:0:
120,128,140611,2,0,B|156:128|156:128|192:108,1,68.0000012969971,2|0,0:0|0:0,0:0:0:0:
220,48,141079,2,0,B|256:36|256:36|296:52,1,68.0000012969971,2|0,0:0|0:0,0:0:0:0:
316,116,141548,2,0,B|348:132|348:132|380:131,1,68.0000012969971,2|0,0:0|0:0,0:0:0:0:
380,208,142017,2,0,B|347:207|347:207|315:223,1,68.0000012969971,2|0,0:0|0:0,0:0:0:0:
316,300,142486,6,0,L|224:300,1,68.0000012969971,2|0,0:0|0:0,0:0:0:0:
120,344,142954,2,0,L|188:344,1,68.0000012969971,2|0,0:0|0:0,0:0:0:0:
248,300,143423,2,0,B|260:240|260:240|256:232|256:232|272:160,1,136.000002593994,2|2,0:0|0:0,0:0:0:0:
204,132,144126,5,0,0:0:0:0:
128,128,144361,2,0,P|136:96|168:68,1,68.0000012969971,2|0,0:0|0:0,0:0:0:0:
204,132,144829,2,0,P|232:152|236:208,1,68.0000012969971,2|0,0:0|0:0,0:0:0:0:
168,200,145298,2,0,P|136:208|96:200,1,68.0000012969971,2|0,0:0|0:0,0:0:0:0:
52,260,145767,5,2,0:0:0:0:
100,316,146001,1,0,0:0:0:0:
172,288,146236,2,0,L|248:288,1,68.0000012969971,2|0,0:0|0:0,0:0:0:0:
368,244,146704,2,0,L|300:244,1,68.0000012969971,2|0,0:0|0:0,0:0:0:0:
240,288,147173,1,2,0:0:0:0:
300,244,147407,1,0,0:0:0:0:
256,184,147642,6,0,B|248:152|264:148|256:92,1,68.0000012969971,2|0,0:0|0:0,0:0:0:0:
188,144,148111,2,0,P|112:112|200:212,1,408.000007781983,2|2,0:0|0:0,0:0:0:0:
124,192,149751,5,0,0:0:0:0:
124,192,149986,1,2,0:0:0:0:
192,228,150220,2,0,P|204:196|232:160,1,68.0000012969971,0|2,0:0|0:0,0:0:0:0:
272,224,150689,2,0,P|296:188|308:148,2,68.0000012969971,0|2|0,0:0|0:0|0:0,0:0:0:0:
256,296,151392,1,6,0:0:0:0:
132,256,166861,6,2,B|192:304|256:256|256:256|320:304|384:256,1,272.000005187988
324,208,168032,1,0,0:0:0:0:
296,140,168267,1,2,0:0:0:0:
220,140,168501,1,0,0:0:0:0:
188,208,168736,2,0,P|160:192|112:192,1,68.0000012969971,2|0,0:0|0:0,0:0:0:0:
416,120,169907,6,0,L|336:120,1,68.0000012969971,0|2,0:0|0:0,0:0:0:0:
280,88,170376,2,0,P|252:108|216:120,1,68.0000012969971,0|2,0:0|0:0,0:0:0:0:
152,88,170845,1,0,0:0:0:0:
88,128,171079,2,2,B|88:180|88:180|104:204|104:204|104:272,1,136.000002593994
160,312,171782,5,0,0:0:0:0:
208,256,172017,1,2,0:0:0:0:
256,200,172251,2,0,L|256:116,1,68.0000012969971,0|2,0:0|0:0,0:0:0:0:
308,76,172720,5,0,0:0:0:0:
368,120,172954,1,2,0:0:0:0:
420,172,173189,2,0,L|424:264,1,68.0000012969971,0|2,0:0|0:0,0:0:0:0:
376,296,173657,2,0,P|320:328|256:292,1,136.000002593994
188,276,174361,5,10,0:0:0:0:
116,292,174595,1,2,0:0:0:0:
76,228,174829,1,2,0:0:0:0:
120,168,175064,1,2,0:0:0:0:
192,192,175298,1,2,0:0:0:0:
236,132,175532,1,2,0:0:0:0:
192,72,175767,1,2,0:0:0:0:
120,92,176001,1,2,0:0:0:0:
120,168,176236,5,10,0:0:0:0:
192,192,176470,1,2,0:0:0:0:
236,132,176704,1,2,0:0:0:0:
308,148,176939,1,2,0:0:0:0:
316,224,177173,1,2,0:0:0:0:
244,248,177407,1,2,0:0:0:0:
192,192,177642,1,2,0:0:0:0:
236,132,177876,1,2,0:0:0:0:
256,192,178111,12,0,179986,0:0:0:0:
252,192,180220,5,0,0:0:0:0:
212,128,180454,2,0,P|180:136|144:128,1,68.0000012969971,2|0,0:0|0:0,0:0:0:0:
80,168,180923,2,0,L|80:248,1,68.0000012969971,2|0,0:0|0:0,0:0:0:0:
140,280,181392,1,6,0:0:0:0:
128,104,181861,6,0,P|160:84|208:88,1,80,8|0,0:0|0:0,0:0:0:0:
256,156,182329,1,0,0:0:0:0:
310,85,182564,2,0,P|350:83|384:104,1,80
376,192,183032,1,0,0:0:0:0:
310,298,183267,1,0,0:0:0:0:
310,298,183384,1,0,0:0:0:0:
310,298,183501,2,0,P|350:300|383:280,1,80,0|8,0:0|0:0,0:0:0:0:
459,233,183970,5,0,0:0:0:0:
376,192,184204,1,0,0:0:0:0:
294,224,184439,2,0,P|256:236|217:226,1,80
253,144,184907,1,0,0:0:0:0:
177,98,185142,1,0,0:0:0:0:
177,98,185259,1,0,0:0:0:0:
177,98,185376,2,0,L|89:98,1,80,0|8,0:0|0:0,0:0:0:0:
60,176,185845,6,0,P|92:196|112:252,1,80
28,260,186314,1,0,0:0:0:0:
92,320,186548,1,0,0:0:0:0:
172,284,186782,2,0,P|204:260|212:216,1,80
300,224,187251,2,0,P|309:262|341:285,1,80,0|8,0:0|0:0,0:0:0:0:
424,320,187720,5,0,0:0:0:0:
484,256,187954,1,0,0:0:0:0:
404,220,188189,2,0,P|428:188|468:172,1,80
404,108,188657,1,0,0:0:0:0:
320,128,188892,1,0,0:0:0:0:
320,128,189009,1,0,0:0:0:0:
320,128,189126,2,0,L|300:48,1,80,0|8,0:0|0:0,0:0:0:0:
212,52,189595,6,0,L|192:136,1,80
256,192,190064,1,0,0:0:0:0:
168,208,190298,2,0,P|128:204|88:224,1,80
67,306,190767,1,0,0:0:0:0:
67,306,190884,1,0,0:0:0:0:
67,306,191001,2,0,P|107:307|144:292,1,80,0|8,0:0|0:0,0:0:0:0:
212,344,191470,5,0,0:0:0:0:
256,268,191704,1,0,0:0:0:0:
336,300,191939,2,0,P|376:312|420:304,1,80
380,224,192407,1,0,0:0:0:0:
452,172,192642,1,0,0:0:0:0:
452,172,192759,1,0,0:0:0:0:
452,172,192876,2,0,L|452:76,1,80,0|8,0:0|0:0,0:0:0:0:
368,120,193345,6,0,L|368:36,2,80
284,88,194048,2,0,L|284:192,1,80
200,192,194517,1,0,0:0:0:0:
124,144,194751,2,0,B|84:144|84:144|52:176,1,80,0|8,0:0|0:0,0:0:0:0:
112,240,195220,5,0,0:0:0:0:
56,308,195454,2,0,B|84:336|84:336|124:336,1,80
212,336,195923,2,0,P|252:328|304:340,1,80
450,294,196392,1,0,0:0:0:0:
450,294,196509,1,0,0:0:0:0:
450,294,196626,2,0,P|411:302|372:296,1,80,0|8,0:0|0:0,0:0:0:0:
256,192,197095,12,0,200611,0:0:0:0:
256,64,200845,5,0,0:0:0:0:
172,92,201079,2,0,P|132:88|92:108,1,80
144,180,201548,2,0,P|156:224|188:256,1,80
232,180,202017,1,0,0:0:0:0:
292,116,202251,2,0,P|316:152|312:224,1,80,0|8,0:0|0:0,0:0:0:0:
396,236,202720,5,0,0:0:0:0:
464,180,202954,1,0,0:0:0:0:
436,96,203189,2,0,B|400:84|400:84|396:88|396:88|356:76,1,80
296,136,203657,1,0,0:0:0:0:
208,136,203892,1,0,0:0:0:0:
208,136,204009,1,0,0:0:0:0:
208,136,204126,2,0,L|144:200,1,80,0|8,0:0|0:0,0:0:0:0:
76,240,204595,6,0,P|60:204|68:164,2,80
124,316,205298,2,0,P|164:308|216:320,1,80
256,244,205767,1,0,0:0:0:0:
309,314,206001,2,0,P|349:308|388:316,1,80,0|8,0:0|0:0,0:0:0:0:
444,248,206470,5,0,0:0:0:0:
388,316,206704,1,0,0:0:0:0:
444,248,206939,2,0,L|416:164,1,80
332,152,207407,1,0,0:0:0:0:
268,216,207642,1,0,0:0:0:0:
268,216,207759,1,0,0:0:0:0:
268,216,207876,2,0,L|300:312,1,80,0|8,0:0|0:0,0:0:0:0:
212,328,208345,5,0,0:0:0:0:
124,320,208579,2,0,P|120:268|104:216,1,80
60,168,209048,2,0,B|96:148|108:108|108:108|152:112|184:88,1,160
256,140,209751,1,0,0:0:0:0:
328,88,209986,2,0,B|360:112|404:108|404:108|416:148|452:168,1,160,8|0,0:0|0:0,0:0:0:0:
480,252,210689,5,0,0:0:0:0:
436,328,210923,1,0,0:0:0:0:
352,308,211157,1,0,0:0:0:0:
340,220,211392,1,0,0:0:0:0:
256,192,211626,1,0,0:0:0:0:
256,192,211743,1,0,0:0:0:0:
256,192,211861,1,8,0:0:0:0:
