osu file format v14

[General]
AudioFilename: audio110.mp3
AudioLeadIn: 0
PreviewTime: -1
Countdown: 0
SampleSet: None
StackLeniency: 0.7
Mode: 3
LetterboxInBreaks: 0
SpecialStyle: 0
WidescreenStoryboard: 0

[Editor]
DistanceSpacing: 0.8
BeatDivisor: 4
GridSize: 8
TimelineZoom: 3.199999

[Metadata]
Title:Alarma Caramba! (Somebody Stole My Senorita)
TitleUnicode:¡Alarma Caramba! (Somebody Stole My Señorita)
Artist:Carlito
ArtistUnicode:Carlito
Creator:MrDorian
Version:Bandito [1,1x Rate]
Source:
Tags:fiesta jonny jakobsen
BeatmapID:1743826
BeatmapSetID:832359

[Difficulty]
HPDrainRate:9
CircleSize:4
OverallDifficulty:9
ApproachRate:5
SliderMultiplier:1.4
SliderTickRate:1

[Events]
//Background and Video events
0,0,"bg (2).jpg",0,0
//Break Periods
2,115340,121144
//Storyboard Layer 0 (Background)
//Storyboard Layer 1 (Fail)
//Storyboard Layer 2 (Pass)
//Storyboard Layer 3 (Foreground)
//Storyboard Sound Samples

[TimingPoints]
16172,294.840294840295,4,2,0,60,1,0

[HitObjects]
192,192,13831,5,0,0:0:0:0:
448,192,13831,1,0,0:0:0:0:
320,192,13831,1,0,0:0:0:0:
64,192,13831,1,0,0:0:0:0:
64,192,14274,1,0,0:0:0:0:
192,192,14274,1,0,0:0:0:0:
320,192,14274,1,0,0:0:0:0:
448,192,14274,1,0,0:0:0:0:
448,192,14864,1,0,0:0:0:0:
320,192,14864,1,0,0:0:0:0:
192,192,14864,1,0,0:0:0:0:
64,192,14864,1,0,0:0:0:0:
448,192,15748,1,0,0:0:0:0:
192,192,15748,1,0,0:0:0:0:
320,192,15748,1,0,0:0:0:0:
64,192,15748,1,0,0:0:0:0:
448,192,15895,1,0,0:0:0:0:
320,192,15895,1,0,0:0:0:0:
320,192,16043,1,0,0:0:0:0:
192,192,16043,1,0,0:0:0:0:
64,192,16175,1,0,0:0:0:0:
192,192,16175,1,0,0:0:0:0:
320,192,16175,1,0,0:0:0:0:
448,192,16175,1,0,0:0:0:0:
64,192,16319,1,0,0:0:0:0:
448,192,16319,1,0,0:0:0:0:
192,192,16466,1,0,0:0:0:0:
320,192,16466,1,0,0:0:0:0:
448,192,16466,1,0,0:0:0:0:
320,192,16615,1,0,0:0:0:0:
192,192,16615,1,0,0:0:0:0:
64,192,16615,1,0,0:0:0:0:
320,192,16762,1,0,0:0:0:0:
64,192,16762,1,0,0:0:0:0:
192,192,16909,1,0,0:0:0:0:
448,192,16909,1,0,0:0:0:0:
448,192,17056,1,0,0:0:0:0:
320,192,17056,1,0,0:0:0:0:
64,192,17056,1,0,0:0:0:0:
192,192,17204,1,0,0:0:0:0:
64,192,17204,1,0,0:0:0:0:
320,192,17351,1,0,0:0:0:0:
448,192,17351,1,0,0:0:0:0:
64,192,17351,1,0,0:0:0:0:
320,192,17499,1,0,0:0:0:0:
192,192,17499,1,0,0:0:0:0:
448,192,17646,1,0,0:0:0:0:
320,192,17646,1,0,0:0:0:0:
64,192,17646,1,0,0:0:0:0:
192,192,17794,1,0,0:0:0:0:
64,192,17794,1,0,0:0:0:0:
448,192,17794,1,0,0:0:0:0:
192,192,17941,1,0,0:0:0:0:
448,192,17941,1,0,0:0:0:0:
320,192,18088,1,0,0:0:0:0:
64,192,18088,1,0,0:0:0:0:
64,192,18235,1,0,0:0:0:0:
192,192,18235,1,0,0:0:0:0:
448,192,18235,1,0,0:0:0:0:
64,192,18384,1,0,0:0:0:0:
320,192,18384,1,0,0:0:0:0:
448,192,18384,1,0,0:0:0:0:
192,192,18531,1,0,0:0:0:0:
320,192,18531,1,0,0:0:0:0:
448,192,18531,1,0,0:0:0:0:
64,192,18678,1,0,0:0:0:0:
192,192,18678,1,0,0:0:0:0:
448,192,18825,1,0,0:0:0:0:
320,192,18825,1,0,0:0:0:0:
64,192,18825,1,0,0:0:0:0:
448,192,18973,1,0,0:0:0:0:
192,192,18973,1,0,0:0:0:0:
64,192,18973,1,0,0:0:0:0:
64,192,19120,1,0,0:0:0:0:
192,192,19120,1,0,0:0:0:0:
448,192,19267,1,0,0:0:0:0:
320,192,19267,1,0,0:0:0:0:
64,192,19415,1,0,0:0:0:0:
320,192,19415,1,0,0:0:0:0:
448,192,19415,1,0,0:0:0:0:
64,192,19563,1,0,0:0:0:0:
192,192,19563,1,0,0:0:0:0:
192,192,19710,1,0,0:0:0:0:
320,192,19710,1,0,0:0:0:0:
448,192,19710,1,0,0:0:0:0:
320,192,19857,1,0,0:0:0:0:
448,192,19857,1,0,0:0:0:0:
448,192,20005,128,0,20078:0:0:0:0:
320,192,20005,128,0,20078:0:0:0:0:
64,192,20005,128,0,20042:0:0:0:0:
192,192,20005,128,0,20042:0:0:0:0:
64,192,20152,1,0,0:0:0:0:
192,192,20152,1,0,0:0:0:0:
320,192,20300,128,0,20336:0:0:0:0:
64,192,20300,128,0,20374:0:0:0:0:
192,192,20300,128,0,20374:0:0:0:0:
448,192,20300,128,0,20336:0:0:0:0:
320,192,20447,1,0,0:0:0:0:
448,192,20447,1,0,0:0:0:0:
320,192,20595,1,0,0:0:0:0:
192,192,20595,1,0,0:0:0:0:
64,192,20595,1,0,0:0:0:0:
192,192,20742,1,0,0:0:0:0:
64,192,20742,1,0,0:0:0:0:
64,192,20889,1,0,0:0:0:0:
320,192,20889,1,0,0:0:0:0:
448,192,20889,1,0,0:0:0:0:
448,192,21036,1,0,0:0:0:0:
192,192,21036,1,0,0:0:0:0:
448,192,21185,1,0,0:0:0:0:
320,192,21185,1,0,0:0:0:0:
64,192,21185,1,0,0:0:0:0:
64,192,21332,1,0,0:0:0:0:
192,192,21332,1,0,0:0:0:0:
320,192,21332,1,0,0:0:0:0:
192,192,21479,1,0,0:0:0:0:
320,192,21479,1,0,0:0:0:0:
448,192,21626,1,0,0:0:0:0:
64,192,21626,1,0,0:0:0:0:
64,192,21774,1,0,0:0:0:0:
320,192,21774,1,0,0:0:0:0:
448,192,21774,1,0,0:0:0:0:
448,192,21921,1,0,0:0:0:0:
192,192,21921,1,0,0:0:0:0:
64,192,22069,1,0,0:0:0:0:
192,192,22069,1,0,0:0:0:0:
320,192,22069,1,0,0:0:0:0:
64,192,22216,1,0,0:0:0:0:
320,192,22216,1,0,0:0:0:0:
192,192,22364,1,0,0:0:0:0:
320,192,22364,1,0,0:0:0:0:
448,192,22364,1,0,0:0:0:0:
448,192,22511,1,0,0:0:0:0:
64,192,22511,1,0,0:0:0:0:
192,192,22511,1,0,0:0:0:0:
64,192,22658,1,0,0:0:0:0:
192,192,22658,1,0,0:0:0:0:
448,192,22805,1,0,0:0:0:0:
320,192,22805,1,0,0:0:0:0:
448,192,22954,1,0,0:0:0:0:
192,192,22954,1,0,0:0:0:0:
64,192,22954,1,0,0:0:0:0:
320,192,23101,1,0,0:0:0:0:
64,192,23101,1,0,0:0:0:0:
448,192,23248,1,0,0:0:0:0:
320,192,23248,1,0,0:0:0:0:
192,192,23248,1,0,0:0:0:0:
64,192,23395,1,0,0:0:0:0:
448,192,23395,1,0,0:0:0:0:
192,192,23543,1,0,0:0:0:0:
320,192,23543,1,0,0:0:0:0:
448,192,23543,1,0,0:0:0:0:
192,192,23690,1,0,0:0:0:0:
320,192,23690,1,0,0:0:0:0:
64,192,23690,1,0,0:0:0:0:
192,192,23838,1,0,0:0:0:0:
64,192,23838,1,0,0:0:0:0:
320,192,23985,1,0,0:0:0:0:
448,192,23985,1,0,0:0:0:0:
448,192,24133,1,0,0:0:0:0:
320,192,24133,1,0,0:0:0:0:
64,192,24133,1,0,0:0:0:0:
192,192,24280,1,0,0:0:0:0:
64,192,24280,1,0,0:0:0:0:
448,192,24427,1,0,0:0:0:0:
192,192,24427,128,0,24501:0:0:0:0:
320,192,24427,128,0,24465:0:0:0:0:
320,192,24575,128,0,24648:0:0:0:0:
64,192,24575,128,0,24612:0:0:0:0:
192,192,24575,1,0,0:0:0:0:
64,192,24722,128,0,24796:0:0:0:0:
320,192,24722,1,0,0:0:0:0:
448,192,24722,128,0,24759:0:0:0:0:
448,192,24870,128,0,24944:0:0:0:0:
192,192,24870,128,0,24906:0:0:0:0:
64,192,24870,1,0,0:0:0:0:
448,192,25017,128,0,25533:0:0:0:0:
320,192,25017,128,0,25533:0:0:0:0:
192,192,25017,128,0,25533:0:0:0:0:
64,192,25017,128,0,25533:0:0:0:0:
320,192,25606,1,0,0:0:0:0:
448,192,25606,1,0,0:0:0:0:
64,192,25606,1,0,0:0:0:0:
192,192,25606,1,0,0:0:0:0:
64,192,25755,1,0,0:0:0:0:
448,192,25755,1,0,0:0:0:0:
64,192,25902,1,0,0:0:0:0:
192,192,25902,1,0,0:0:0:0:
320,192,25902,1,0,0:0:0:0:
448,192,26049,1,0,0:0:0:0:
320,192,26049,1,0,0:0:0:0:
192,192,26049,1,0,0:0:0:0:
448,192,26196,1,0,0:0:0:0:
320,192,26196,1,0,0:0:0:0:
64,192,26344,1,0,0:0:0:0:
192,192,26344,1,0,0:0:0:0:
448,192,26491,1,0,0:0:0:0:
192,192,26491,1,0,0:0:0:0:
64,192,26491,1,0,0:0:0:0:
448,192,26639,1,0,0:0:0:0:
192,192,26639,1,0,0:0:0:0:
448,192,26786,1,0,0:0:0:0:
64,192,26786,1,0,0:0:0:0:
320,192,26786,1,0,0:0:0:0:
320,192,26934,1,0,0:0:0:0:
192,192,26934,1,0,0:0:0:0:
448,192,27081,1,0,0:0:0:0:
192,192,27081,1,0,0:0:0:0:
64,192,27081,1,0,0:0:0:0:
64,192,27228,1,0,0:0:0:0:
448,192,27228,1,0,0:0:0:0:
320,192,27228,1,0,0:0:0:0:
64,192,27375,1,0,0:0:0:0:
320,192,27375,1,0,0:0:0:0:
448,192,27524,1,0,0:0:0:0:
192,192,27524,1,0,0:0:0:0:
64,192,27671,1,0,0:0:0:0:
320,192,27671,1,0,0:0:0:0:
448,192,27671,1,0,0:0:0:0:
192,192,27818,1,0,0:0:0:0:
320,192,27818,1,0,0:0:0:0:
448,192,27818,1,0,0:0:0:0:
64,192,27965,1,0,0:0:0:0:
192,192,27965,1,0,0:0:0:0:
320,192,27965,1,0,0:0:0:0:
448,192,28113,1,0,0:0:0:0:
64,192,28113,1,0,0:0:0:0:
320,192,28260,1,0,0:0:0:0:
192,192,28260,1,0,0:0:0:0:
64,192,28260,1,0,0:0:0:0:
320,192,28408,1,0,0:0:0:0:
192,192,28408,1,0,0:0:0:0:
448,192,28408,1,0,0:0:0:0:
192,192,28555,1,0,0:0:0:0:
448,192,28555,1,0,0:0:0:0:
320,192,28703,1,0,0:0:0:0:
64,192,28703,1,0,0:0:0:0:
64,192,28850,1,0,0:0:0:0:
192,192,28850,1,0,0:0:0:0:
448,192,28850,1,0,0:0:0:0:
320,192,28997,1,0,0:0:0:0:
448,192,28997,1,0,0:0:0:0:
192,192,29145,1,0,0:0:0:0:
64,192,29145,1,0,0:0:0:0:
448,192,29145,1,0,0:0:0:0:
320,192,29293,1,0,0:0:0:0:
192,192,29293,1,0,0:0:0:0:
448,192,29440,128,0,29476:0:0:0:0:
64,192,29440,128,0,29476:0:0:0:0:
320,192,29440,128,0,29514:0:0:0:0:
192,192,29440,128,0,29514:0:0:0:0:
448,192,29587,1,0,0:0:0:0:
64,192,29587,1,0,0:0:0:0:
320,192,29735,128,0,29772:0:0:0:0:
192,192,29735,128,0,29772:0:0:0:0:
64,192,29735,128,0,29808:0:0:0:0:
448,192,29735,128,0,29808:0:0:0:0:
320,192,29882,1,0,0:0:0:0:
192,192,29882,1,0,0:0:0:0:
448,192,30029,1,0,0:0:0:0:
320,192,30029,1,0,0:0:0:0:
64,192,30029,1,0,0:0:0:0:
64,192,30176,1,0,0:0:0:0:
192,192,30176,1,0,0:0:0:0:
64,192,30325,1,0,0:0:0:0:
192,192,30325,1,0,0:0:0:0:
448,192,30325,1,0,0:0:0:0:
448,192,30472,1,0,0:0:0:0:
320,192,30472,1,0,0:0:0:0:
448,192,30619,1,0,0:0:0:0:
192,192,30619,1,0,0:0:0:0:
64,192,30619,1,0,0:0:0:0:
320,192,30766,1,0,0:0:0:0:
64,192,30766,1,0,0:0:0:0:
192,192,30766,1,0,0:0:0:0:
192,192,30914,1,0,0:0:0:0:
320,192,30914,1,0,0:0:0:0:
448,192,31061,1,0,0:0:0:0:
64,192,31061,1,0,0:0:0:0:
64,192,31209,1,0,0:0:0:0:
192,192,31209,1,0,0:0:0:0:
448,192,31209,1,0,0:0:0:0:
320,192,31356,1,0,0:0:0:0:
64,192,31356,1,0,0:0:0:0:
192,192,31504,1,0,0:0:0:0:
320,192,31504,1,0,0:0:0:0:
448,192,31504,1,0,0:0:0:0:
64,192,31651,1,0,0:0:0:0:
448,192,31651,1,0,0:0:0:0:
64,192,31798,1,0,0:0:0:0:
192,192,31798,1,0,0:0:0:0:
320,192,31798,1,0,0:0:0:0:
320,192,31945,1,0,0:0:0:0:
448,192,31945,1,0,0:0:0:0:
320,192,32094,1,0,0:0:0:0:
448,192,32094,1,0,0:0:0:0:
64,192,32094,1,0,0:0:0:0:
192,192,32241,1,0,0:0:0:0:
64,192,32241,1,0,0:0:0:0:
448,192,32388,1,0,0:0:0:0:
320,192,32388,1,0,0:0:0:0:
64,192,32388,1,0,0:0:0:0:
448,192,32535,1,0,0:0:0:0:
192,192,32535,1,0,0:0:0:0:
320,192,32683,1,0,0:0:0:0:
192,192,32683,1,0,0:0:0:0:
64,192,32683,1,0,0:0:0:0:
64,192,32830,1,0,0:0:0:0:
448,192,32830,1,0,0:0:0:0:
64,192,32978,1,0,0:0:0:0:
192,192,32978,1,0,0:0:0:0:
320,192,32978,1,0,0:0:0:0:
448,192,33125,1,0,0:0:0:0:
192,192,33125,1,0,0:0:0:0:
320,192,33125,1,0,0:0:0:0:
448,192,33273,1,0,0:0:0:0:
320,192,33273,1,0,0:0:0:0:
64,192,33420,1,0,0:0:0:0:
192,192,33420,1,0,0:0:0:0:
448,192,33567,1,0,0:0:0:0:
192,192,33567,1,0,0:0:0:0:
64,192,33567,1,0,0:0:0:0:
448,192,33715,1,0,0:0:0:0:
192,192,33715,1,0,0:0:0:0:
64,192,33715,1,0,0:0:0:0:
64,192,33863,128,0,33899:0:0:0:0:
320,192,33863,1,0,0:0:0:0:
448,192,33863,1,0,0:0:0:0:
320,192,34010,128,0,34046:0:0:0:0:
192,192,34010,1,0,0:0:0:0:
448,192,34010,1,0,0:0:0:0:
448,192,34157,128,0,34194:0:0:0:0:
64,192,34157,1,0,0:0:0:0:
192,192,34157,1,0,0:0:0:0:
320,192,34305,128,0,34342:0:0:0:0:
192,192,34305,1,0,0:0:0:0:
64,192,34305,1,0,0:0:0:0:
64,192,34452,128,0,34489:0:0:0:0:
448,192,34452,1,0,0:0:0:0:
192,192,34452,1,0,0:0:0:0:
64,192,34599,1,0,0:0:0:0:
448,192,34599,1,0,0:0:0:0:
320,192,34599,1,0,0:0:0:0:
448,192,34747,1,0,0:0:0:0:
320,192,34747,1,0,0:0:0:0:
192,192,34747,1,0,0:0:0:0:
320,192,34895,1,0,0:0:0:0:
192,192,34895,1,0,0:0:0:0:
64,192,34895,1,0,0:0:0:0:
64,192,35042,1,0,0:0:0:0:
192,192,35042,1,0,0:0:0:0:
320,192,35042,1,0,0:0:0:0:
448,192,35042,1,0,0:0:0:0:
448,192,35189,1,0,0:0:0:0:
320,192,35189,1,0,0:0:0:0:
448,192,35336,1,0,0:0:0:0:
192,192,35336,1,0,0:0:0:0:
64,192,35336,1,0,0:0:0:0:
320,192,35484,1,0,0:0:0:0:
448,192,35484,1,0,0:0:0:0:
192,192,35484,1,0,0:0:0:0:
320,192,35631,1,0,0:0:0:0:
192,192,35631,1,0,0:0:0:0:
64,192,35631,1,0,0:0:0:0:
64,192,35779,1,0,0:0:0:0:
448,192,35779,1,0,0:0:0:0:
320,192,35926,1,0,0:0:0:0:
192,192,35926,1,0,0:0:0:0:
64,192,35926,1,0,0:0:0:0:
320,192,36074,1,0,0:0:0:0:
192,192,36074,1,0,0:0:0:0:
320,192,36221,1,0,0:0:0:0:
64,192,36221,1,0,0:0:0:0:
192,192,36368,1,0,0:0:0:0:
448,192,36368,1,0,0:0:0:0:
64,192,36515,1,0,0:0:0:0:
192,192,36515,1,0,0:0:0:0:
448,192,36515,1,0,0:0:0:0:
320,192,36664,1,0,0:0:0:0:
448,192,36664,1,0,0:0:0:0:
192,192,36664,1,0,0:0:0:0:
448,192,36811,1,0,0:0:0:0:
64,192,36811,1,0,0:0:0:0:
320,192,36958,1,0,0:0:0:0:
64,192,36958,1,0,0:0:0:0:
448,192,36958,1,0,0:0:0:0:
192,192,37105,1,0,0:0:0:0:
320,192,37105,1,0,0:0:0:0:
64,192,37105,1,0,0:0:0:0:
64,192,37253,1,0,0:0:0:0:
192,192,37253,1,0,0:0:0:0:
320,192,37253,1,0,0:0:0:0:
192,192,37400,1,0,0:0:0:0:
320,192,37400,1,0,0:0:0:0:
448,192,37400,1,0,0:0:0:0:
448,192,37548,1,0,0:0:0:0:
64,192,37548,1,0,0:0:0:0:
448,192,37695,1,0,0:0:0:0:
64,192,37695,1,0,0:0:0:0:
192,192,37695,1,0,0:0:0:0:
320,192,37843,1,0,0:0:0:0:
192,192,37843,1,0,0:0:0:0:
64,192,37843,1,0,0:0:0:0:
192,192,37990,1,0,0:0:0:0:
448,192,37990,1,0,0:0:0:0:
320,192,37990,1,0,0:0:0:0:
448,192,38137,1,0,0:0:0:0:
64,192,38137,1,0,0:0:0:0:
64,192,38285,1,0,0:0:0:0:
448,192,38285,1,0,0:0:0:0:
320,192,38285,1,0,0:0:0:0:
320,192,38433,1,0,0:0:0:0:
64,192,38433,128,0,38469:0:0:0:0:
320,192,38580,1,0,0:0:0:0:
448,192,38580,128,0,38616:0:0:0:0:
320,192,38727,1,0,0:0:0:0:
64,192,38727,128,0,38764:0:0:0:0:
320,192,38875,1,0,0:0:0:0:
192,192,38875,128,0,38912:0:0:0:0:
320,192,39022,1,0,0:0:0:0:
448,192,39022,128,0,39059:0:0:0:0:
192,192,39169,128,0,39206:0:0:0:0:
64,192,39169,1,0,0:0:0:0:
320,192,39317,1,0,0:0:0:0:
192,192,39317,1,0,0:0:0:0:
320,192,39465,1,0,0:0:0:0:
448,192,39465,1,0,0:0:0:0:
64,192,39612,1,0,0:0:0:0:
448,192,39612,1,0,0:0:0:0:
192,192,39612,1,0,0:0:0:0:
320,192,39759,1,0,0:0:0:0:
448,192,39759,1,0,0:0:0:0:
64,192,39759,1,0,0:0:0:0:
192,192,39906,1,0,0:0:0:0:
320,192,39906,1,0,0:0:0:0:
64,192,40054,1,0,0:0:0:0:
192,192,40054,1,0,0:0:0:0:
448,192,40054,1,0,0:0:0:0:
320,192,40202,1,0,0:0:0:0:
64,192,40202,1,0,0:0:0:0:
192,192,40202,1,0,0:0:0:0:
320,192,40349,1,0,0:0:0:0:
448,192,40349,1,0,0:0:0:0:
64,192,40349,1,0,0:0:0:0:
448,192,40496,1,0,0:0:0:0:
192,192,40496,1,0,0:0:0:0:
448,192,40644,1,0,0:0:0:0:
320,192,40644,1,0,0:0:0:0:
192,192,40644,1,0,0:0:0:0:
320,192,40791,1,0,0:0:0:0:
64,192,40791,1,0,0:0:0:0:
320,192,40938,1,0,0:0:0:0:
192,192,40938,1,0,0:0:0:0:
448,192,41085,1,0,0:0:0:0:
64,192,41085,1,0,0:0:0:0:
64,192,41234,1,0,0:0:0:0:
320,192,41234,1,0,0:0:0:0:
192,192,41234,1,0,0:0:0:0:
192,192,41381,1,0,0:0:0:0:
320,192,41381,1,0,0:0:0:0:
448,192,41528,1,0,0:0:0:0:
64,192,41528,1,0,0:0:0:0:
192,192,41528,1,0,0:0:0:0:
320,192,41675,1,0,0:0:0:0:
448,192,41675,1,0,0:0:0:0:
192,192,41823,1,0,0:0:0:0:
64,192,41823,1,0,0:0:0:0:
320,192,41823,1,0,0:0:0:0:
64,192,41970,1,0,0:0:0:0:
448,192,41970,1,0,0:0:0:0:
448,192,42118,1,0,0:0:0:0:
64,192,42118,128,0,42228:0:0:0:0:
192,192,42118,128,0,42192:0:0:0:0:
320,192,42118,128,0,42155:0:0:0:0:
320,192,42265,1,0,0:0:0:0:
192,192,42413,1,0,0:0:0:0:
192,192,42560,128,0,42597:0:0:0:0:
320,192,42560,128,0,42634:0:0:0:0:
448,192,42560,128,0,42671:0:0:0:0:
64,192,42560,1,0,0:0:0:0:
64,192,42707,1,0,0:0:0:0:
192,192,42855,1,0,0:0:0:0:
320,192,43003,1,0,0:0:0:0:
448,192,43150,1,0,0:0:0:0:
320,192,43150,128,0,43186:0:0:0:0:
192,192,43150,128,0,43224:0:0:0:0:
64,192,43150,128,0,43260:0:0:0:0:
448,192,43297,1,0,0:0:0:0:
320,192,43445,1,0,0:0:0:0:
192,192,43592,1,0,0:0:0:0:
64,192,43739,1,0,0:0:0:0:
448,192,43739,1,0,0:0:0:0:
192,192,43739,1,0,0:0:0:0:
320,192,43887,1,0,0:0:0:0:
192,192,44035,1,0,0:0:0:0:
320,192,44035,1,0,0:0:0:0:
448,192,44035,1,0,0:0:0:0:
64,192,44035,1,0,0:0:0:0:
64,192,44182,1,0,0:0:0:0:
192,192,44182,1,0,0:0:0:0:
448,192,44182,1,0,0:0:0:0:
448,192,44329,1,0,0:0:0:0:
192,192,44329,1,0,0:0:0:0:
64,192,44329,1,0,0:0:0:0:
320,192,44476,1,0,0:0:0:0:
192,192,44476,1,0,0:0:0:0:
64,192,44476,1,0,0:0:0:0:
448,192,44476,1,0,0:0:0:0:
320,192,44624,1,0,0:0:0:0:
192,192,44624,1,0,0:0:0:0:
64,192,44772,1,0,0:0:0:0:
192,192,44772,1,0,0:0:0:0:
320,192,44772,1,0,0:0:0:0:
448,192,44772,1,0,0:0:0:0:
320,192,44919,1,0,0:0:0:0:
448,192,44919,1,0,0:0:0:0:
64,192,44919,1,0,0:0:0:0:
64,192,45066,1,0,0:0:0:0:
192,192,45066,1,0,0:0:0:0:
320,192,45066,1,0,0:0:0:0:
448,192,45066,1,0,0:0:0:0:
192,192,45214,1,0,0:0:0:0:
64,192,45214,1,0,0:0:0:0:
320,192,45361,1,0,0:0:0:0:
64,192,45361,1,0,0:0:0:0:
448,192,45361,1,0,0:0:0:0:
448,192,45508,1,0,0:0:0:0:
320,192,45508,1,0,0:0:0:0:
192,192,45508,1,0,0:0:0:0:
192,192,45656,1,0,0:0:0:0:
320,192,45656,1,0,0:0:0:0:
64,192,45656,1,0,0:0:0:0:
192,192,45804,1,0,0:0:0:0:
320,192,45804,1,0,0:0:0:0:
448,192,45804,1,0,0:0:0:0:
64,192,45951,1,0,0:0:0:0:
448,192,45951,1,0,0:0:0:0:
192,192,45951,1,0,0:0:0:0:
320,192,46098,1,0,0:0:0:0:
64,192,46098,1,0,0:0:0:0:
448,192,46098,1,0,0:0:0:0:
320,192,46245,1,0,0:0:0:0:
192,192,46245,1,0,0:0:0:0:
192,192,46393,1,0,0:0:0:0:
448,192,46393,1,0,0:0:0:0:
64,192,46393,1,0,0:0:0:0:
448,192,46540,1,0,0:0:0:0:
192,192,46540,1,0,0:0:0:0:
320,192,46540,1,0,0:0:0:0:
448,192,46688,1,0,0:0:0:0:
192,192,46688,1,0,0:0:0:0:
448,192,46835,1,0,0:0:0:0:
320,192,46835,1,0,0:0:0:0:
64,192,46835,1,0,0:0:0:0:
192,192,46983,1,0,0:0:0:0:
64,192,46983,1,0,0:0:0:0:
320,192,46983,1,0,0:0:0:0:
320,192,47130,1,0,0:0:0:0:
192,192,47130,1,0,0:0:0:0:
448,192,47130,1,0,0:0:0:0:
448,192,47277,1,0,0:0:0:0:
192,192,47277,1,0,0:0:0:0:
64,192,47277,1,0,0:0:0:0:
64,192,47425,1,0,0:0:0:0:
320,192,47425,1,0,0:0:0:0:
64,192,47573,1,0,0:0:0:0:
192,192,47573,1,0,0:0:0:0:
448,192,47573,1,0,0:0:0:0:
64,192,47720,1,0,0:0:0:0:
320,192,47720,1,0,0:0:0:0:
448,192,47720,1,0,0:0:0:0:
192,192,47867,1,0,0:0:0:0:
320,192,47867,1,0,0:0:0:0:
192,192,48015,1,0,0:0:0:0:
64,192,48015,1,0,0:0:0:0:
448,192,48015,1,0,0:0:0:0:
448,192,48162,1,0,0:0:0:0:
320,192,48162,1,0,0:0:0:0:
448,192,48309,1,0,0:0:0:0:
192,192,48309,1,0,0:0:0:0:
64,192,48309,1,0,0:0:0:0:
320,192,48457,1,0,0:0:0:0:
448,192,48457,1,0,0:0:0:0:
64,192,48457,1,0,0:0:0:0:
192,192,48605,1,0,0:0:0:0:
320,192,48605,1,0,0:0:0:0:
64,192,48752,1,0,0:0:0:0:
192,192,48752,1,0,0:0:0:0:
448,192,48752,1,0,0:0:0:0:
320,192,48899,1,0,0:0:0:0:
448,192,48899,1,0,0:0:0:0:
192,192,48899,1,0,0:0:0:0:
320,192,49046,1,0,0:0:0:0:
192,192,49046,1,0,0:0:0:0:
64,192,49046,1,0,0:0:0:0:
64,192,49194,1,0,0:0:0:0:
448,192,49194,1,0,0:0:0:0:
320,192,49194,1,0,0:0:0:0:
192,192,49194,1,0,0:0:0:0:
448,192,49342,1,0,0:0:0:0:
64,192,49342,1,0,0:0:0:0:
64,192,49489,1,0,0:0:0:0:
192,192,49489,1,0,0:0:0:0:
320,192,49489,1,0,0:0:0:0:
448,192,49489,1,0,0:0:0:0:
448,192,49636,1,0,0:0:0:0:
320,192,49636,1,0,0:0:0:0:
192,192,49636,1,0,0:0:0:0:
64,192,49784,1,0,0:0:0:0:
192,192,49784,1,0,0:0:0:0:
320,192,49784,1,0,0:0:0:0:
448,192,49784,1,0,0:0:0:0:
64,192,49931,1,0,0:0:0:0:
320,192,49931,1,0,0:0:0:0:
192,192,50078,1,0,0:0:0:0:
64,192,50078,1,0,0:0:0:0:
448,192,50078,1,0,0:0:0:0:
320,192,50226,1,0,0:0:0:0:
448,192,50226,1,0,0:0:0:0:
64,192,50226,1,0,0:0:0:0:
192,192,50374,1,0,0:0:0:0:
320,192,50374,1,0,0:0:0:0:
448,192,50374,1,0,0:0:0:0:
320,192,50521,1,0,0:0:0:0:
448,192,50521,1,0,0:0:0:0:
64,192,50521,1,0,0:0:0:0:
192,192,50668,1,0,0:0:0:0:
64,192,50668,1,0,0:0:0:0:
320,192,50668,1,0,0:0:0:0:
192,192,50815,1,0,0:0:0:0:
64,192,50815,1,0,0:0:0:0:
448,192,50815,1,0,0:0:0:0:
320,192,50963,1,0,0:0:0:0:
192,192,50963,1,0,0:0:0:0:
64,192,51111,1,0,0:0:0:0:
320,192,51111,1,0,0:0:0:0:
448,192,51111,1,0,0:0:0:0:
448,192,51258,1,0,0:0:0:0:
192,192,51258,1,0,0:0:0:0:
320,192,51258,1,0,0:0:0:0:
320,192,51405,1,0,0:0:0:0:
192,192,51405,1,0,0:0:0:0:
64,192,51553,1,0,0:0:0:0:
192,192,51553,1,0,0:0:0:0:
448,192,51553,1,0,0:0:0:0:
320,192,51700,1,0,0:0:0:0:
64,192,51700,1,0,0:0:0:0:
64,192,51847,1,0,0:0:0:0:
192,192,51847,1,0,0:0:0:0:
448,192,51847,1,0,0:0:0:0:
320,192,51995,1,0,0:0:0:0:
64,192,51995,1,0,0:0:0:0:
448,192,51995,1,0,0:0:0:0:
192,192,52143,1,0,0:0:0:0:
320,192,52143,1,0,0:0:0:0:
64,192,52290,1,0,0:0:0:0:
192,192,52290,1,0,0:0:0:0:
320,192,52290,1,0,0:0:0:0:
64,192,52437,1,0,0:0:0:0:
320,192,52437,1,0,0:0:0:0:
448,192,52437,1,0,0:0:0:0:
192,192,52585,1,0,0:0:0:0:
64,192,52585,1,0,0:0:0:0:
192,192,52732,1,0,0:0:0:0:
320,192,52732,1,0,0:0:0:0:
448,192,52732,1,0,0:0:0:0:
64,192,52732,1,0,0:0:0:0:
320,192,52879,1,0,0:0:0:0:
192,192,52879,1,0,0:0:0:0:
64,192,52879,1,0,0:0:0:0:
320,192,53027,1,0,0:0:0:0:
448,192,53027,1,0,0:0:0:0:
192,192,53027,1,0,0:0:0:0:
192,192,53175,1,0,0:0:0:0:
320,192,53175,1,0,0:0:0:0:
448,192,53175,1,0,0:0:0:0:
64,192,53175,1,0,0:0:0:0:
192,192,53322,1,0,0:0:0:0:
64,192,53322,1,0,0:0:0:0:
448,192,53322,1,0,0:0:0:0:
320,192,53469,1,0,0:0:0:0:
448,192,53469,1,0,0:0:0:0:
64,192,53469,1,0,0:0:0:0:
64,192,53616,1,0,0:0:0:0:
192,192,53616,1,0,0:0:0:0:
320,192,53616,1,0,0:0:0:0:
448,192,53616,1,0,0:0:0:0:
192,192,53764,1,0,0:0:0:0:
320,192,53764,1,0,0:0:0:0:
448,192,53912,1,0,0:0:0:0:
320,192,53912,1,0,0:0:0:0:
64,192,53912,1,0,0:0:0:0:
192,192,53912,1,0,0:0:0:0:
64,192,54059,1,0,0:0:0:0:
448,192,54059,1,0,0:0:0:0:
320,192,54206,1,0,0:0:0:0:
448,192,54206,1,0,0:0:0:0:
64,192,54206,1,0,0:0:0:0:
192,192,54206,1,0,0:0:0:0:
448,192,54354,1,0,0:0:0:0:
320,192,54354,1,0,0:0:0:0:
192,192,54354,1,0,0:0:0:0:
192,192,54501,1,0,0:0:0:0:
64,192,54501,1,0,0:0:0:0:
448,192,54501,1,0,0:0:0:0:
320,192,54501,1,0,0:0:0:0:
64,192,54648,1,0,0:0:0:0:
192,192,54648,1,0,0:0:0:0:
320,192,54796,1,0,0:0:0:0:
448,192,54796,1,0,0:0:0:0:
64,192,54796,1,0,0:0:0:0:
320,192,54944,1,0,0:0:0:0:
192,192,54944,1,0,0:0:0:0:
448,192,54944,1,0,0:0:0:0:
64,192,55091,1,0,0:0:0:0:
448,192,55091,1,0,0:0:0:0:
192,192,55091,1,0,0:0:0:0:
448,192,55238,1,0,0:0:0:0:
320,192,55238,1,0,0:0:0:0:
192,192,55238,1,0,0:0:0:0:
192,192,55385,1,0,0:0:0:0:
448,192,55385,1,0,0:0:0:0:
64,192,55385,1,0,0:0:0:0:
192,192,55533,1,0,0:0:0:0:
64,192,55533,1,0,0:0:0:0:
320,192,55533,1,0,0:0:0:0:
448,192,55681,1,0,0:0:0:0:
320,192,55681,1,0,0:0:0:0:
64,192,55828,1,0,0:0:0:0:
448,192,55828,1,0,0:0:0:0:
192,192,55828,1,0,0:0:0:0:
320,192,55975,1,0,0:0:0:0:
192,192,55975,1,0,0:0:0:0:
448,192,55975,1,0,0:0:0:0:
192,192,56123,1,0,0:0:0:0:
64,192,56123,1,0,0:0:0:0:
64,192,56270,1,0,0:0:0:0:
320,192,56270,1,0,0:0:0:0:
448,192,56270,1,0,0:0:0:0:
320,192,56417,1,0,0:0:0:0:
448,192,56417,1,0,0:0:0:0:
192,192,56417,1,0,0:0:0:0:
64,192,56565,1,0,0:0:0:0:
192,192,56565,1,0,0:0:0:0:
320,192,56565,1,0,0:0:0:0:
320,192,56713,1,0,0:0:0:0:
192,192,56713,1,0,0:0:0:0:
448,192,56713,1,0,0:0:0:0:
320,192,56860,1,0,0:0:0:0:
64,192,56860,1,0,0:0:0:0:
448,192,57007,1,0,0:0:0:0:
192,192,57007,1,0,0:0:0:0:
64,192,57007,1,0,0:0:0:0:
448,192,57155,1,0,0:0:0:0:
320,192,57155,1,0,0:0:0:0:
64,192,57155,1,0,0:0:0:0:
320,192,57302,1,0,0:0:0:0:
192,192,57302,1,0,0:0:0:0:
448,192,57449,1,0,0:0:0:0:
64,192,57449,1,0,0:0:0:0:
192,192,57449,1,0,0:0:0:0:
320,192,57597,1,0,0:0:0:0:
448,192,57597,1,0,0:0:0:0:
64,192,57745,1,0,0:0:0:0:
192,192,57745,1,0,0:0:0:0:
448,192,57745,1,0,0:0:0:0:
64,192,57892,1,0,0:0:0:0:
192,192,57892,1,0,0:0:0:0:
320,192,57892,1,0,0:0:0:0:
320,192,58039,1,0,0:0:0:0:
64,192,58039,1,0,0:0:0:0:
448,192,58186,1,0,0:0:0:0:
192,192,58186,1,0,0:0:0:0:
320,192,58186,1,0,0:0:0:0:
192,192,58334,1,0,0:0:0:0:
448,192,58334,1,0,0:0:0:0:
64,192,58334,1,0,0:0:0:0:
448,192,58482,1,0,0:0:0:0:
192,192,58482,1,0,0:0:0:0:
320,192,58482,1,0,0:0:0:0:
320,192,58629,1,0,0:0:0:0:
192,192,58629,1,0,0:0:0:0:
64,192,58629,1,0,0:0:0:0:
448,192,58629,1,0,0:0:0:0:
64,192,58776,1,0,0:0:0:0:
320,192,58776,1,0,0:0:0:0:
320,192,58924,1,0,0:0:0:0:
448,192,58924,1,0,0:0:0:0:
64,192,58924,1,0,0:0:0:0:
192,192,58924,1,0,0:0:0:0:
192,192,59071,1,0,0:0:0:0:
64,192,59071,1,0,0:0:0:0:
448,192,59071,1,0,0:0:0:0:
320,192,59218,1,0,0:0:0:0:
448,192,59218,1,0,0:0:0:0:
64,192,59218,1,0,0:0:0:0:
192,192,59218,1,0,0:0:0:0:
320,192,59366,1,0,0:0:0:0:
448,192,59366,1,0,0:0:0:0:
448,192,59514,1,0,0:0:0:0:
64,192,59514,1,0,0:0:0:0:
192,192,59514,1,0,0:0:0:0:
64,192,59661,1,0,0:0:0:0:
192,192,59661,1,0,0:0:0:0:
320,192,59661,1,0,0:0:0:0:
448,192,59808,1,0,0:0:0:0:
320,192,59808,1,0,0:0:0:0:
192,192,59808,1,0,0:0:0:0:
64,192,59955,1,0,0:0:0:0:
448,192,59955,1,0,0:0:0:0:
320,192,59955,1,0,0:0:0:0:
320,192,60103,1,0,0:0:0:0:
64,192,60103,1,0,0:0:0:0:
192,192,60103,1,0,0:0:0:0:
448,192,60251,1,0,0:0:0:0:
64,192,60251,1,0,0:0:0:0:
192,192,60251,1,0,0:0:0:0:
448,192,60398,1,0,0:0:0:0:
320,192,60398,1,0,0:0:0:0:
448,192,60545,1,0,0:0:0:0:
192,192,60545,1,0,0:0:0:0:
64,192,60545,1,0,0:0:0:0:
192,192,60693,1,0,0:0:0:0:
320,192,60693,1,0,0:0:0:0:
64,192,60693,1,0,0:0:0:0:
64,192,60840,1,0,0:0:0:0:
320,192,60840,1,0,0:0:0:0:
448,192,60987,1,0,0:0:0:0:
192,192,60987,1,0,0:0:0:0:
320,192,60987,1,0,0:0:0:0:
64,192,61135,1,0,0:0:0:0:
192,192,61135,1,0,0:0:0:0:
448,192,61283,1,0,0:0:0:0:
192,192,61283,1,0,0:0:0:0:
64,192,61283,1,0,0:0:0:0:
448,192,61430,1,0,0:0:0:0:
64,192,61430,1,0,0:0:0:0:
320,192,61430,1,0,0:0:0:0:
320,192,61577,1,0,0:0:0:0:
192,192,61577,1,0,0:0:0:0:
320,192,61725,1,0,0:0:0:0:
192,192,61725,1,0,0:0:0:0:
64,192,61725,1,0,0:0:0:0:
448,192,61872,1,0,0:0:0:0:
320,192,61872,1,0,0:0:0:0:
64,192,61872,1,0,0:0:0:0:
448,192,62020,1,0,0:0:0:0:
320,192,62020,1,0,0:0:0:0:
448,192,62167,1,0,0:0:0:0:
64,192,62167,1,0,0:0:0:0:
192,192,62167,1,0,0:0:0:0:
320,192,62167,1,0,0:0:0:0:
64,192,62315,1,0,0:0:0:0:
192,192,62315,1,0,0:0:0:0:
448,192,62315,1,0,0:0:0:0:
320,192,62462,1,0,0:0:0:0:
64,192,62462,1,0,0:0:0:0:
448,192,62462,1,0,0:0:0:0:
448,192,62609,1,0,0:0:0:0:
64,192,62609,1,0,0:0:0:0:
192,192,62609,1,0,0:0:0:0:
320,192,62609,1,0,0:0:0:0:
320,192,62756,1,0,0:0:0:0:
64,192,62756,1,0,0:0:0:0:
192,192,62756,1,0,0:0:0:0:
192,192,62904,1,0,0:0:0:0:
448,192,62904,1,0,0:0:0:0:
320,192,62904,1,0,0:0:0:0:
320,192,63052,1,0,0:0:0:0:
448,192,63052,1,0,0:0:0:0:
64,192,63052,1,0,0:0:0:0:
192,192,63052,1,0,0:0:0:0:
64,192,63199,1,0,0:0:0:0:
448,192,63199,1,0,0:0:0:0:
192,192,63346,128,0,63420:0:0:0:0:
64,192,63346,128,0,63457:0:0:0:0:
448,192,63346,128,0,63384:0:0:0:0:
320,192,63346,1,0,0:0:0:0:
320,192,63494,1,0,0:0:0:0:
64,192,63641,1,0,0:0:0:0:
192,192,63788,1,0,0:0:0:0:
64,192,63788,128,0,63825:0:0:0:0:
320,192,63788,128,0,63863:0:0:0:0:
448,192,63788,128,0,63899:0:0:0:0:
192,192,63936,1,0,0:0:0:0:
320,192,64084,1,0,0:0:0:0:
448,192,64231,1,0,0:0:0:0:
448,192,64378,128,0,64415:0:0:0:0:
192,192,64378,128,0,64452:0:0:0:0:
64,192,64378,128,0,64489:0:0:0:0:
320,192,64378,1,0,0:0:0:0:
320,192,64525,1,0,0:0:0:0:
192,192,64673,1,0,0:0:0:0:
64,192,64821,1,0,0:0:0:0:
320,192,64968,1,0,0:0:0:0:
448,192,65115,1,0,0:0:0:0:
448,192,65263,1,0,0:0:0:0:
320,192,65263,1,0,0:0:0:0:
192,192,65263,1,0,0:0:0:0:
64,192,65263,1,0,0:0:0:0:
192,192,65410,1,0,0:0:0:0:
64,192,65557,1,0,0:0:0:0:
320,192,65557,1,0,0:0:0:0:
448,192,65557,1,0,0:0:0:0:
448,192,65705,1,0,0:0:0:0:
320,192,65705,1,0,0:0:0:0:
192,192,65705,1,0,0:0:0:0:
64,192,65705,1,0,0:0:0:0:
192,192,65853,1,0,0:0:0:0:
448,192,65853,1,0,0:0:0:0:
64,192,66000,1,0,0:0:0:0:
192,192,66000,1,0,0:0:0:0:
320,192,66000,1,0,0:0:0:0:
448,192,66147,1,0,0:0:0:0:
320,192,66147,1,0,0:0:0:0:
64,192,66147,1,0,0:0:0:0:
448,192,66295,1,0,0:0:0:0:
64,192,66295,1,0,0:0:0:0:
192,192,66442,1,0,0:0:0:0:
320,192,66442,1,0,0:0:0:0:
448,192,66590,1,0,0:0:0:0:
192,192,66590,1,0,0:0:0:0:
64,192,66590,1,0,0:0:0:0:
448,192,66737,1,0,0:0:0:0:
320,192,66737,1,0,0:0:0:0:
448,192,66885,1,0,0:0:0:0:
64,192,66885,1,0,0:0:0:0:
192,192,66885,1,0,0:0:0:0:
320,192,67032,1,0,0:0:0:0:
192,192,67032,1,0,0:0:0:0:
448,192,67179,1,0,0:0:0:0:
192,192,67179,1,0,0:0:0:0:
64,192,67179,1,0,0:0:0:0:
64,192,67326,1,0,0:0:0:0:
448,192,67326,1,0,0:0:0:0:
320,192,67326,1,0,0:0:0:0:
448,192,67475,1,0,0:0:0:0:
320,192,67475,1,0,0:0:0:0:
64,192,67622,1,0,0:0:0:0:
192,192,67622,1,0,0:0:0:0:
64,192,67769,1,0,0:0:0:0:
320,192,67769,1,0,0:0:0:0:
448,192,67769,1,0,0:0:0:0:
320,192,67916,1,0,0:0:0:0:
192,192,67916,1,0,0:0:0:0:
64,192,68064,1,0,0:0:0:0:
192,192,68064,1,0,0:0:0:0:
320,192,68064,1,0,0:0:0:0:
448,192,68211,1,0,0:0:0:0:
320,192,68211,1,0,0:0:0:0:
448,192,68358,1,0,0:0:0:0:
192,192,68358,1,0,0:0:0:0:
64,192,68358,1,0,0:0:0:0:
320,192,68506,1,0,0:0:0:0:
64,192,68506,1,0,0:0:0:0:
448,192,68506,1,0,0:0:0:0:
320,192,68654,1,0,0:0:0:0:
64,192,68654,1,0,0:0:0:0:
192,192,68801,1,0,0:0:0:0:
448,192,68801,1,0,0:0:0:0:
64,192,68948,1,0,0:0:0:0:
192,192,68948,1,0,0:0:0:0:
448,192,68948,1,0,0:0:0:0:
320,192,69095,1,0,0:0:0:0:
448,192,69095,1,0,0:0:0:0:
192,192,69243,1,0,0:0:0:0:
320,192,69243,1,0,0:0:0:0:
64,192,69243,1,0,0:0:0:0:
64,192,69391,1,0,0:0:0:0:
192,192,69391,1,0,0:0:0:0:
448,192,69538,128,0,69575:0:0:0:0:
320,192,69538,128,0,69575:0:0:0:0:
64,192,69538,128,0,69612:0:0:0:0:
192,192,69538,128,0,69612:0:0:0:0:
320,192,69685,1,0,0:0:0:0:
448,192,69685,1,0,0:0:0:0:
320,192,69833,128,0,69906:0:0:0:0:
64,192,69833,128,0,69870:0:0:0:0:
192,192,69833,128,0,69870:0:0:0:0:
448,192,69833,128,0,69906:0:0:0:0:
64,192,69980,1,0,0:0:0:0:
192,192,69980,1,0,0:0:0:0:
448,192,70127,1,0,0:0:0:0:
320,192,70127,1,0,0:0:0:0:
64,192,70127,1,0,0:0:0:0:
192,192,70275,1,0,0:0:0:0:
320,192,70275,1,0,0:0:0:0:
64,192,70423,1,0,0:0:0:0:
192,192,70423,1,0,0:0:0:0:
448,192,70423,1,0,0:0:0:0:
320,192,70570,1,0,0:0:0:0:
64,192,70570,1,0,0:0:0:0:
448,192,70717,1,0,0:0:0:0:
192,192,70717,1,0,0:0:0:0:
64,192,70717,1,0,0:0:0:0:
192,192,70865,1,0,0:0:0:0:
320,192,70865,1,0,0:0:0:0:
448,192,70865,1,0,0:0:0:0:
192,192,71012,1,0,0:0:0:0:
320,192,71012,1,0,0:0:0:0:
448,192,71160,1,0,0:0:0:0:
64,192,71160,1,0,0:0:0:0:
64,192,71307,1,0,0:0:0:0:
192,192,71307,1,0,0:0:0:0:
448,192,71307,1,0,0:0:0:0:
320,192,71455,1,0,0:0:0:0:
64,192,71455,1,0,0:0:0:0:
192,192,71602,1,0,0:0:0:0:
320,192,71602,1,0,0:0:0:0:
448,192,71602,1,0,0:0:0:0:
64,192,71749,1,0,0:0:0:0:
448,192,71749,1,0,0:0:0:0:
64,192,71896,1,0,0:0:0:0:
192,192,71896,1,0,0:0:0:0:
320,192,71896,1,0,0:0:0:0:
192,192,72045,1,0,0:0:0:0:
448,192,72045,1,0,0:0:0:0:
64,192,72045,1,0,0:0:0:0:
192,192,72192,1,0,0:0:0:0:
448,192,72192,1,0,0:0:0:0:
320,192,72339,1,0,0:0:0:0:
64,192,72339,1,0,0:0:0:0:
448,192,72486,1,0,0:0:0:0:
320,192,72486,1,0,0:0:0:0:
64,192,72486,1,0,0:0:0:0:
64,192,72634,1,0,0:0:0:0:
192,192,72634,1,0,0:0:0:0:
320,192,72781,1,0,0:0:0:0:
192,192,72781,1,0,0:0:0:0:
448,192,72781,1,0,0:0:0:0:
64,192,72929,1,0,0:0:0:0:
448,192,72929,1,0,0:0:0:0:
64,192,73076,1,0,0:0:0:0:
192,192,73076,1,0,0:0:0:0:
448,192,73076,1,0,0:0:0:0:
448,192,73224,1,0,0:0:0:0:
320,192,73224,1,0,0:0:0:0:
64,192,73224,1,0,0:0:0:0:
192,192,73371,1,0,0:0:0:0:
320,192,73371,1,0,0:0:0:0:
64,192,73518,1,0,0:0:0:0:
192,192,73518,1,0,0:0:0:0:
448,192,73665,1,0,0:0:0:0:
192,192,73665,1,0,0:0:0:0:
64,192,73665,1,0,0:0:0:0:
64,192,73813,1,0,0:0:0:0:
320,192,73813,1,0,0:0:0:0:
192,192,73961,128,0,73997:0:0:0:0:
448,192,73961,128,0,74035:0:0:0:0:
320,192,73961,1,0,0:0:0:0:
192,192,74108,1,0,0:0:0:0:
320,192,74108,128,0,74145:0:0:0:0:
64,192,74108,128,0,74182:0:0:0:0:
64,192,74255,128,0,74293:0:0:0:0:
320,192,74255,1,0,0:0:0:0:
448,192,74255,128,0,74329:0:0:0:0:
192,192,74403,1,0,0:0:0:0:
448,192,74403,128,0,74440:0:0:0:0:
64,192,74403,128,0,74476:0:0:0:0:
320,192,74550,128,0,75066:0:0:0:0:
448,192,74550,128,0,75066:0:0:0:0:
64,192,74550,128,0,75066:0:0:0:0:
192,192,74550,128,0,75066:0:0:0:0:
448,192,75140,1,0,0:0:0:0:
320,192,75140,1,0,0:0:0:0:
192,192,75140,1,0,0:0:0:0:
64,192,75140,1,0,0:0:0:0:
64,192,75287,1,0,0:0:0:0:
448,192,75287,1,0,0:0:0:0:
192,192,75435,1,0,0:0:0:0:
320,192,75435,1,0,0:0:0:0:
448,192,75435,1,0,0:0:0:0:
320,192,75582,1,0,0:0:0:0:
192,192,75582,1,0,0:0:0:0:
64,192,75582,1,0,0:0:0:0:
192,192,75730,1,0,0:0:0:0:
64,192,75730,1,0,0:0:0:0:
320,192,75877,1,0,0:0:0:0:
448,192,75877,1,0,0:0:0:0:
448,192,76025,1,0,0:0:0:0:
320,192,76025,1,0,0:0:0:0:
64,192,76025,1,0,0:0:0:0:
320,192,76172,1,0,0:0:0:0:
64,192,76172,1,0,0:0:0:0:
192,192,76319,1,0,0:0:0:0:
448,192,76319,1,0,0:0:0:0:
64,192,76319,1,0,0:0:0:0:
320,192,76466,1,0,0:0:0:0:
192,192,76466,1,0,0:0:0:0:
448,192,76615,1,0,0:0:0:0:
320,192,76615,1,0,0:0:0:0:
64,192,76615,1,0,0:0:0:0:
192,192,76762,1,0,0:0:0:0:
64,192,76762,1,0,0:0:0:0:
448,192,76762,1,0,0:0:0:0:
192,192,76909,1,0,0:0:0:0:
448,192,76909,1,0,0:0:0:0:
320,192,77056,1,0,0:0:0:0:
64,192,77056,1,0,0:0:0:0:
64,192,77204,1,0,0:0:0:0:
192,192,77204,1,0,0:0:0:0:
448,192,77204,1,0,0:0:0:0:
192,192,77351,1,0,0:0:0:0:
320,192,77351,1,0,0:0:0:0:
192,192,77499,1,0,0:0:0:0:
320,192,77499,1,0,0:0:0:0:
448,192,77499,1,0,0:0:0:0:
448,192,77646,1,0,0:0:0:0:
64,192,77646,1,0,0:0:0:0:
448,192,77794,1,0,0:0:0:0:
320,192,77794,1,0,0:0:0:0:
192,192,77794,1,0,0:0:0:0:
64,192,77941,1,0,0:0:0:0:
320,192,77941,1,0,0:0:0:0:
192,192,77941,1,0,0:0:0:0:
64,192,78088,1,0,0:0:0:0:
320,192,78088,1,0,0:0:0:0:
448,192,78235,1,0,0:0:0:0:
192,192,78235,1,0,0:0:0:0:
64,192,78384,1,0,0:0:0:0:
320,192,78384,1,0,0:0:0:0:
448,192,78384,1,0,0:0:0:0:
64,192,78531,1,0,0:0:0:0:
448,192,78531,1,0,0:0:0:0:
64,192,78678,1,0,0:0:0:0:
192,192,78678,1,0,0:0:0:0:
448,192,78825,1,0,0:0:0:0:
192,192,78825,1,0,0:0:0:0:
192,192,78973,128,0,79046:0:0:0:0:
448,192,78973,128,0,79046:0:0:0:0:
64,192,78973,128,0,79010:0:0:0:0:
320,192,78973,128,0,79010:0:0:0:0:
320,192,79120,1,0,0:0:0:0:
64,192,79120,1,0,0:0:0:0:
320,192,79267,128,0,79342:0:0:0:0:
64,192,79267,128,0,79342:0:0:0:0:
192,192,79267,128,0,79305:0:0:0:0:
448,192,79267,128,0,79305:0:0:0:0:
448,192,79415,1,0,0:0:0:0:
192,192,79415,1,0,0:0:0:0:
448,192,79563,1,0,0:0:0:0:
192,192,79563,1,0,0:0:0:0:
64,192,79563,1,0,0:0:0:0:
320,192,79710,1,0,0:0:0:0:
192,192,79710,1,0,0:0:0:0:
64,192,79857,1,0,0:0:0:0:
320,192,79857,1,0,0:0:0:0:
448,192,79857,1,0,0:0:0:0:
192,192,80005,1,0,0:0:0:0:
64,192,80005,1,0,0:0:0:0:
448,192,80152,1,0,0:0:0:0:
320,192,80152,1,0,0:0:0:0:
64,192,80152,1,0,0:0:0:0:
320,192,80300,1,0,0:0:0:0:
448,192,80300,1,0,0:0:0:0:
192,192,80300,1,0,0:0:0:0:
192,192,80447,1,0,0:0:0:0:
320,192,80447,1,0,0:0:0:0:
448,192,80595,1,0,0:0:0:0:
64,192,80595,1,0,0:0:0:0:
64,192,80742,1,0,0:0:0:0:
320,192,80742,1,0,0:0:0:0:
448,192,80742,1,0,0:0:0:0:
448,192,80889,1,0,0:0:0:0:
192,192,80889,1,0,0:0:0:0:
64,192,81036,1,0,0:0:0:0:
192,192,81036,1,0,0:0:0:0:
320,192,81036,1,0,0:0:0:0:
64,192,81185,1,0,0:0:0:0:
448,192,81185,1,0,0:0:0:0:
192,192,81332,1,0,0:0:0:0:
320,192,81332,1,0,0:0:0:0:
448,192,81332,1,0,0:0:0:0:
64,192,81479,1,0,0:0:0:0:
192,192,81479,1,0,0:0:0:0:
448,192,81626,1,0,0:0:0:0:
64,192,81626,1,0,0:0:0:0:
192,192,81626,1,0,0:0:0:0:
448,192,81774,1,0,0:0:0:0:
320,192,81774,1,0,0:0:0:0:
448,192,81921,1,0,0:0:0:0:
192,192,81921,1,0,0:0:0:0:
64,192,81921,1,0,0:0:0:0:
320,192,82069,1,0,0:0:0:0:
64,192,82069,1,0,0:0:0:0:
448,192,82216,1,0,0:0:0:0:
320,192,82216,1,0,0:0:0:0:
192,192,82216,1,0,0:0:0:0:
64,192,82364,1,0,0:0:0:0:
448,192,82364,1,0,0:0:0:0:
192,192,82511,1,0,0:0:0:0:
320,192,82511,1,0,0:0:0:0:
448,192,82511,1,0,0:0:0:0:
192,192,82658,1,0,0:0:0:0:
320,192,82658,1,0,0:0:0:0:
64,192,82658,1,0,0:0:0:0:
192,192,82805,1,0,0:0:0:0:
64,192,82805,1,0,0:0:0:0:
320,192,82954,1,0,0:0:0:0:
448,192,82954,1,0,0:0:0:0:
448,192,83101,1,0,0:0:0:0:
192,192,83101,1,0,0:0:0:0:
64,192,83101,1,0,0:0:0:0:
448,192,83248,1,0,0:0:0:0:
192,192,83248,1,0,0:0:0:0:
64,192,83248,1,0,0:0:0:0:
64,192,83395,1,0,0:0:0:0:
320,192,83395,1,0,0:0:0:0:
448,192,83395,128,0,83433:0:0:0:0:
64,192,83543,1,0,0:0:0:0:
320,192,83543,1,0,0:0:0:0:
192,192,83543,128,0,83580:0:0:0:0:
320,192,83690,1,0,0:0:0:0:
448,192,83690,1,0,0:0:0:0:
64,192,83690,128,0,83727:0:0:0:0:
64,192,83838,1,0,0:0:0:0:
320,192,83838,1,0,0:0:0:0:
192,192,83838,128,0,83875:0:0:0:0:
320,192,83985,1,0,0:0:0:0:
192,192,83985,1,0,0:0:0:0:
448,192,83985,128,0,84022:0:0:0:0:
64,192,84133,1,0,0:0:0:0:
448,192,84133,1,0,0:0:0:0:
320,192,84280,1,0,0:0:0:0:
192,192,84280,1,0,0:0:0:0:
64,192,84280,1,0,0:0:0:0:
448,192,84427,1,0,0:0:0:0:
320,192,84427,1,0,0:0:0:0:
192,192,84427,1,0,0:0:0:0:
192,192,84575,1,0,0:0:0:0:
64,192,84575,1,0,0:0:0:0:
448,192,84575,1,0,0:0:0:0:
320,192,84575,1,0,0:0:0:0:
192,192,84722,1,0,0:0:0:0:
64,192,84722,1,0,0:0:0:0:
448,192,84870,1,0,0:0:0:0:
320,192,84870,1,0,0:0:0:0:
64,192,84870,1,0,0:0:0:0:
320,192,85017,1,0,0:0:0:0:
64,192,85017,1,0,0:0:0:0:
192,192,85017,1,0,0:0:0:0:
448,192,85165,1,0,0:0:0:0:
320,192,85165,1,0,0:0:0:0:
192,192,85165,1,0,0:0:0:0:
64,192,85312,1,0,0:0:0:0:
448,192,85312,1,0,0:0:0:0:
448,192,85459,1,0,0:0:0:0:
320,192,85459,1,0,0:0:0:0:
192,192,85459,1,0,0:0:0:0:
320,192,85606,1,0,0:0:0:0:
192,192,85606,1,0,0:0:0:0:
448,192,85755,1,0,0:0:0:0:
192,192,85755,1,0,0:0:0:0:
64,192,85902,1,0,0:0:0:0:
320,192,85902,1,0,0:0:0:0:
64,192,86049,1,0,0:0:0:0:
320,192,86049,1,0,0:0:0:0:
448,192,86049,1,0,0:0:0:0:
320,192,86196,1,0,0:0:0:0:
64,192,86196,1,0,0:0:0:0:
192,192,86196,1,0,0:0:0:0:
448,192,86344,1,0,0:0:0:0:
64,192,86344,1,0,0:0:0:0:
64,192,86491,1,0,0:0:0:0:
448,192,86491,1,0,0:0:0:0:
192,192,86491,1,0,0:0:0:0:
448,192,86639,1,0,0:0:0:0:
192,192,86639,1,0,0:0:0:0:
320,192,86639,1,0,0:0:0:0:
192,192,86786,1,0,0:0:0:0:
320,192,86786,1,0,0:0:0:0:
448,192,86786,1,0,0:0:0:0:
64,192,86934,1,0,0:0:0:0:
192,192,86934,1,0,0:0:0:0:
320,192,86934,1,0,0:0:0:0:
448,192,87081,1,0,0:0:0:0:
64,192,87081,1,0,0:0:0:0:
320,192,87228,1,0,0:0:0:0:
448,192,87228,1,0,0:0:0:0:
64,192,87228,1,0,0:0:0:0:
448,192,87375,1,0,0:0:0:0:
320,192,87375,1,0,0:0:0:0:
192,192,87375,1,0,0:0:0:0:
192,192,87524,1,0,0:0:0:0:
64,192,87524,1,0,0:0:0:0:
320,192,87524,1,0,0:0:0:0:
448,192,87671,1,0,0:0:0:0:
64,192,87671,1,0,0:0:0:0:
192,192,87818,1,0,0:0:0:0:
64,192,87818,1,0,0:0:0:0:
448,192,87818,1,0,0:0:0:0:
192,192,87965,1,0,0:0:0:0:
448,192,87965,128,0,88003:0:0:0:0:
320,192,88039,128,0,88076:0:0:0:0:
192,192,88113,1,0,0:0:0:0:
448,192,88113,128,0,88150:0:0:0:0:
192,192,88260,1,0,0:0:0:0:
448,192,88371,128,0,88408:0:0:0:0:
192,192,88408,1,0,0:0:0:0:
192,192,88555,1,0,0:0:0:0:
64,192,88555,128,0,88592:0:0:0:0:
448,192,88703,1,0,0:0:0:0:
320,192,88703,128,0,88739:0:0:0:0:
320,192,88850,1,0,0:0:0:0:
192,192,88850,1,0,0:0:0:0:
448,192,88924,128,0,88961:0:0:0:0:
64,192,88997,1,0,0:0:0:0:
192,192,88997,1,0,0:0:0:0:
64,192,89145,1,0,0:0:0:0:
448,192,89145,1,0,0:0:0:0:
320,192,89145,128,0,89182:0:0:0:0:
448,192,89293,1,0,0:0:0:0:
192,192,89293,1,0,0:0:0:0:
64,192,89293,128,0,89329:0:0:0:0:
192,192,89440,1,0,0:0:0:0:
320,192,89440,1,0,0:0:0:0:
64,192,89587,1,0,0:0:0:0:
320,192,89587,1,0,0:0:0:0:
448,192,89587,1,0,0:0:0:0:
320,192,89735,1,0,0:0:0:0:
448,192,89735,1,0,0:0:0:0:
192,192,89735,1,0,0:0:0:0:
448,192,89882,1,0,0:0:0:0:
64,192,89882,1,0,0:0:0:0:
192,192,89882,1,0,0:0:0:0:
320,192,90029,1,0,0:0:0:0:
64,192,90029,1,0,0:0:0:0:
320,192,90176,1,0,0:0:0:0:
192,192,90176,1,0,0:0:0:0:
64,192,90176,1,0,0:0:0:0:
448,192,90325,1,0,0:0:0:0:
192,192,90325,1,0,0:0:0:0:
320,192,90472,1,0,0:0:0:0:
192,192,90472,1,0,0:0:0:0:
448,192,90619,1,0,0:0:0:0:
64,192,90619,1,0,0:0:0:0:
320,192,90766,1,0,0:0:0:0:
192,192,90766,1,0,0:0:0:0:
448,192,90766,1,0,0:0:0:0:
192,192,90914,1,0,0:0:0:0:
320,192,90914,1,0,0:0:0:0:
320,192,91061,1,0,0:0:0:0:
448,192,91061,1,0,0:0:0:0:
64,192,91061,1,0,0:0:0:0:
64,192,91209,1,0,0:0:0:0:
192,192,91209,1,0,0:0:0:0:
192,192,91356,1,0,0:0:0:0:
448,192,91356,1,0,0:0:0:0:
320,192,91356,1,0,0:0:0:0:
64,192,91504,1,0,0:0:0:0:
448,192,91504,1,0,0:0:0:0:
320,192,91651,128,0,91725:0:0:0:0:
192,192,91651,128,0,91688:0:0:0:0:
64,192,91651,1,0,0:0:0:0:
448,192,91651,128,0,91762:0:0:0:0:
192,192,91798,1,0,0:0:0:0:
320,192,91945,1,0,0:0:0:0:
64,192,92094,128,0,92204:0:0:0:0:
448,192,92094,1,0,0:0:0:0:
320,192,92094,128,0,92130:0:0:0:0:
192,192,92094,128,0,92167:0:0:0:0:
448,192,92241,1,0,0:0:0:0:
320,192,92388,1,0,0:0:0:0:
192,192,92535,1,0,0:0:0:0:
320,192,92683,128,0,92756:0:0:0:0:
448,192,92683,128,0,92794:0:0:0:0:
64,192,92683,1,0,0:0:0:0:
192,192,92683,128,0,92720:0:0:0:0:
64,192,92830,1,0,0:0:0:0:
192,192,92978,1,0,0:0:0:0:
320,192,93125,1,0,0:0:0:0:
320,192,93273,1,0,0:0:0:0:
64,192,93273,1,0,0:0:0:0:
448,192,93273,1,0,0:0:0:0:
192,192,93420,1,0,0:0:0:0:
64,192,93567,1,0,0:0:0:0:
448,192,93567,1,0,0:0:0:0:
320,192,93567,1,0,0:0:0:0:
192,192,93567,1,0,0:0:0:0:
64,192,93715,1,0,0:0:0:0:
320,192,93715,1,0,0:0:0:0:
448,192,93715,1,0,0:0:0:0:
448,192,93863,1,0,0:0:0:0:
320,192,93863,1,0,0:0:0:0:
64,192,93863,1,0,0:0:0:0:
448,192,94010,1,0,0:0:0:0:
64,192,94010,1,0,0:0:0:0:
192,192,94010,1,0,0:0:0:0:
320,192,94010,1,0,0:0:0:0:
320,192,94157,1,0,0:0:0:0:
192,192,94157,1,0,0:0:0:0:
192,192,94305,1,0,0:0:0:0:
64,192,94305,1,0,0:0:0:0:
448,192,94305,1,0,0:0:0:0:
320,192,94305,1,0,0:0:0:0:
192,192,94452,1,0,0:0:0:0:
448,192,94452,1,0,0:0:0:0:
64,192,94452,1,0,0:0:0:0:
192,192,94599,1,0,0:0:0:0:
64,192,94599,1,0,0:0:0:0:
448,192,94599,1,0,0:0:0:0:
320,192,94599,1,0,0:0:0:0:
448,192,94747,1,0,0:0:0:0:
320,192,94747,1,0,0:0:0:0:
64,192,94895,1,0,0:0:0:0:
448,192,94895,1,0,0:0:0:0:
192,192,94895,1,0,0:0:0:0:
320,192,95042,1,0,0:0:0:0:
192,192,95042,1,0,0:0:0:0:
64,192,95042,1,0,0:0:0:0:
448,192,95189,1,0,0:0:0:0:
192,192,95189,1,0,0:0:0:0:
320,192,95189,1,0,0:0:0:0:
64,192,95336,1,0,0:0:0:0:
192,192,95336,1,0,0:0:0:0:
320,192,95336,1,0,0:0:0:0:
320,192,95484,1,0,0:0:0:0:
64,192,95484,1,0,0:0:0:0:
448,192,95484,1,0,0:0:0:0:
64,192,95631,1,0,0:0:0:0:
448,192,95631,1,0,0:0:0:0:
192,192,95631,1,0,0:0:0:0:
320,192,95779,1,0,0:0:0:0:
192,192,95779,1,0,0:0:0:0:
448,192,95926,1,0,0:0:0:0:
64,192,95926,1,0,0:0:0:0:
320,192,95926,1,0,0:0:0:0:
192,192,96074,1,0,0:0:0:0:
320,192,96074,1,0,0:0:0:0:
64,192,96074,1,0,0:0:0:0:
320,192,96221,1,0,0:0:0:0:
64,192,96221,1,0,0:0:0:0:
448,192,96368,1,0,0:0:0:0:
192,192,96368,1,0,0:0:0:0:
64,192,96368,1,0,0:0:0:0:
192,192,96515,1,0,0:0:0:0:
448,192,96515,1,0,0:0:0:0:
320,192,96515,1,0,0:0:0:0:
64,192,96664,1,0,0:0:0:0:
320,192,96664,1,0,0:0:0:0:
192,192,96664,1,0,0:0:0:0:
448,192,96811,1,0,0:0:0:0:
320,192,96811,1,0,0:0:0:0:
64,192,96811,1,0,0:0:0:0:
192,192,96958,1,0,0:0:0:0:
448,192,96958,1,0,0:0:0:0:
64,192,97105,1,0,0:0:0:0:
320,192,97105,1,0,0:0:0:0:
448,192,97105,1,0,0:0:0:0:
64,192,97253,1,0,0:0:0:0:
192,192,97253,1,0,0:0:0:0:
448,192,97253,1,0,0:0:0:0:
192,192,97400,1,0,0:0:0:0:
320,192,97400,1,0,0:0:0:0:
64,192,97548,1,0,0:0:0:0:
448,192,97548,1,0,0:0:0:0:
320,192,97548,1,0,0:0:0:0:
192,192,97695,1,0,0:0:0:0:
64,192,97695,1,0,0:0:0:0:
448,192,97843,1,0,0:0:0:0:
320,192,97843,1,0,0:0:0:0:
64,192,97843,1,0,0:0:0:0:
448,192,97990,1,0,0:0:0:0:
64,192,97990,1,0,0:0:0:0:
192,192,97990,1,0,0:0:0:0:
192,192,98137,1,0,0:0:0:0:
320,192,98137,1,0,0:0:0:0:
64,192,98285,1,0,0:0:0:0:
320,192,98285,1,0,0:0:0:0:
448,192,98285,1,0,0:0:0:0:
320,192,98433,1,0,0:0:0:0:
64,192,98433,1,0,0:0:0:0:
192,192,98433,1,0,0:0:0:0:
448,192,98580,1,0,0:0:0:0:
320,192,98580,1,0,0:0:0:0:
192,192,98580,1,0,0:0:0:0:
192,192,98727,1,0,0:0:0:0:
320,192,98727,1,0,0:0:0:0:
448,192,98727,1,0,0:0:0:0:
64,192,98727,1,0,0:0:0:0:
448,192,98875,1,0,0:0:0:0:
64,192,98875,1,0,0:0:0:0:
192,192,99022,1,0,0:0:0:0:
64,192,99022,1,0,0:0:0:0:
448,192,99022,1,0,0:0:0:0:
320,192,99022,1,0,0:0:0:0:
320,192,99169,1,0,0:0:0:0:
192,192,99169,1,0,0:0:0:0:
64,192,99169,1,0,0:0:0:0:
192,192,99317,1,0,0:0:0:0:
64,192,99317,1,0,0:0:0:0:
448,192,99317,1,0,0:0:0:0:
320,192,99317,1,0,0:0:0:0:
192,192,99465,1,0,0:0:0:0:
448,192,99465,1,0,0:0:0:0:
64,192,99612,1,0,0:0:0:0:
448,192,99612,1,0,0:0:0:0:
320,192,99612,1,0,0:0:0:0:
448,192,99759,1,0,0:0:0:0:
64,192,99759,1,0,0:0:0:0:
192,192,99759,1,0,0:0:0:0:
64,192,99906,1,0,0:0:0:0:
192,192,99906,1,0,0:0:0:0:
320,192,99906,1,0,0:0:0:0:
448,192,100054,1,0,0:0:0:0:
64,192,100054,1,0,0:0:0:0:
192,192,100054,1,0,0:0:0:0:
192,192,100202,1,0,0:0:0:0:
448,192,100202,1,0,0:0:0:0:
320,192,100202,1,0,0:0:0:0:
64,192,100349,1,0,0:0:0:0:
448,192,100349,1,0,0:0:0:0:
320,192,100349,1,0,0:0:0:0:
320,192,100496,1,0,0:0:0:0:
192,192,100496,1,0,0:0:0:0:
64,192,100644,1,0,0:0:0:0:
192,192,100644,1,0,0:0:0:0:
448,192,100644,1,0,0:0:0:0:
192,192,100791,1,0,0:0:0:0:
320,192,100791,1,0,0:0:0:0:
64,192,100791,1,0,0:0:0:0:
320,192,100938,1,0,0:0:0:0:
192,192,100938,1,0,0:0:0:0:
64,192,101085,1,0,0:0:0:0:
320,192,101085,1,0,0:0:0:0:
448,192,101085,1,0,0:0:0:0:
448,192,101234,1,0,0:0:0:0:
192,192,101234,1,0,0:0:0:0:
64,192,101381,1,0,0:0:0:0:
320,192,101381,1,0,0:0:0:0:
448,192,101381,1,0,0:0:0:0:
64,192,101528,1,0,0:0:0:0:
448,192,101528,1,0,0:0:0:0:
192,192,101528,1,0,0:0:0:0:
192,192,101675,1,0,0:0:0:0:
320,192,101675,1,0,0:0:0:0:
192,192,101823,1,0,0:0:0:0:
320,192,101823,1,0,0:0:0:0:
448,192,101823,1,0,0:0:0:0:
64,192,101970,1,0,0:0:0:0:
192,192,101970,1,0,0:0:0:0:
448,192,101970,1,0,0:0:0:0:
192,192,102118,1,0,0:0:0:0:
320,192,102118,1,0,0:0:0:0:
64,192,102265,1,0,0:0:0:0:
448,192,102265,1,0,0:0:0:0:
320,192,102265,1,0,0:0:0:0:
192,192,102265,1,0,0:0:0:0:
448,192,102413,1,0,0:0:0:0:
320,192,102413,1,0,0:0:0:0:
64,192,102413,1,0,0:0:0:0:
448,192,102560,1,0,0:0:0:0:
64,192,102560,1,0,0:0:0:0:
192,192,102560,1,0,0:0:0:0:
64,192,102707,1,0,0:0:0:0:
448,192,102707,1,0,0:0:0:0:
320,192,102707,1,0,0:0:0:0:
192,192,102707,1,0,0:0:0:0:
192,192,102855,1,0,0:0:0:0:
448,192,102855,1,0,0:0:0:0:
320,192,102855,1,0,0:0:0:0:
320,192,103003,1,0,0:0:0:0:
64,192,103003,1,0,0:0:0:0:
192,192,103003,1,0,0:0:0:0:
192,192,103150,1,0,0:0:0:0:
64,192,103150,1,0,0:0:0:0:
448,192,103150,1,0,0:0:0:0:
320,192,103150,1,0,0:0:0:0:
192,192,103297,1,0,0:0:0:0:
448,192,103297,1,0,0:0:0:0:
448,192,103445,1,0,0:0:0:0:
320,192,103445,1,0,0:0:0:0:
64,192,103445,1,0,0:0:0:0:
192,192,103445,1,0,0:0:0:0:
64,192,103592,1,0,0:0:0:0:
320,192,103592,1,0,0:0:0:0:
448,192,103739,1,0,0:0:0:0:
320,192,103739,1,0,0:0:0:0:
192,192,103739,1,0,0:0:0:0:
64,192,103739,1,0,0:0:0:0:
320,192,103887,1,0,0:0:0:0:
448,192,103887,1,0,0:0:0:0:
64,192,103887,1,0,0:0:0:0:
64,192,104035,1,0,0:0:0:0:
192,192,104035,1,0,0:0:0:0:
320,192,104035,1,0,0:0:0:0:
448,192,104035,1,0,0:0:0:0:
192,192,104182,1,0,0:0:0:0:
448,192,104182,1,0,0:0:0:0:
448,192,104329,1,0,0:0:0:0:
64,192,104329,1,0,0:0:0:0:
192,192,104329,1,0,0:0:0:0:
64,192,104476,1,0,0:0:0:0:
320,192,104476,1,0,0:0:0:0:
192,192,104476,1,0,0:0:0:0:
320,192,104624,1,0,0:0:0:0:
64,192,104624,1,0,0:0:0:0:
448,192,104624,1,0,0:0:0:0:
320,192,104772,1,0,0:0:0:0:
192,192,104772,1,0,0:0:0:0:
64,192,104772,1,0,0:0:0:0:
448,192,104919,1,0,0:0:0:0:
64,192,104919,1,0,0:0:0:0:
320,192,104919,1,0,0:0:0:0:
192,192,105066,1,0,0:0:0:0:
448,192,105066,1,0,0:0:0:0:
320,192,105066,1,0,0:0:0:0:
192,192,105214,1,0,0:0:0:0:
64,192,105214,1,0,0:0:0:0:
320,192,105361,1,0,0:0:0:0:
64,192,105361,1,0,0:0:0:0:
448,192,105361,1,0,0:0:0:0:
64,192,105508,1,0,0:0:0:0:
320,192,105508,1,0,0:0:0:0:
192,192,105508,1,0,0:0:0:0:
448,192,105656,1,0,0:0:0:0:
320,192,105656,1,0,0:0:0:0:
64,192,105804,1,0,0:0:0:0:
192,192,105804,1,0,0:0:0:0:
448,192,105804,1,0,0:0:0:0:
320,192,105951,1,0,0:0:0:0:
64,192,105951,1,0,0:0:0:0:
192,192,105951,1,0,0:0:0:0:
192,192,106098,1,0,0:0:0:0:
320,192,106098,1,0,0:0:0:0:
448,192,106098,1,0,0:0:0:0:
64,192,106245,1,0,0:0:0:0:
320,192,106245,1,0,0:0:0:0:
192,192,106245,1,0,0:0:0:0:
448,192,106393,1,0,0:0:0:0:
192,192,106393,1,0,0:0:0:0:
448,192,106540,1,0,0:0:0:0:
320,192,106540,1,0,0:0:0:0:
64,192,106540,1,0,0:0:0:0:
448,192,106688,1,0,0:0:0:0:
192,192,106688,1,0,0:0:0:0:
64,192,106688,1,0,0:0:0:0:
320,192,106835,1,0,0:0:0:0:
192,192,106835,1,0,0:0:0:0:
320,192,106983,1,0,0:0:0:0:
448,192,106983,1,0,0:0:0:0:
64,192,106983,1,0,0:0:0:0:
64,192,107130,1,0,0:0:0:0:
192,192,107130,1,0,0:0:0:0:
64,192,107277,1,0,0:0:0:0:
320,192,107277,1,0,0:0:0:0:
448,192,107277,1,0,0:0:0:0:
192,192,107425,1,0,0:0:0:0:
320,192,107425,1,0,0:0:0:0:
448,192,107425,1,0,0:0:0:0:
448,192,107573,1,0,0:0:0:0:
192,192,107573,1,0,0:0:0:0:
192,192,107720,1,0,0:0:0:0:
320,192,107720,1,0,0:0:0:0:
64,192,107720,1,0,0:0:0:0:
448,192,107867,1,0,0:0:0:0:
64,192,107867,1,0,0:0:0:0:
320,192,107867,1,0,0:0:0:0:
192,192,108015,1,0,0:0:0:0:
320,192,108015,1,0,0:0:0:0:
64,192,108015,1,0,0:0:0:0:
448,192,108162,1,0,0:0:0:0:
64,192,108162,1,0,0:0:0:0:
192,192,108162,1,0,0:0:0:0:
320,192,108162,1,0,0:0:0:0:
192,192,108309,1,0,0:0:0:0:
448,192,108309,1,0,0:0:0:0:
448,192,108457,1,0,0:0:0:0:
320,192,108457,1,0,0:0:0:0:
192,192,108457,1,0,0:0:0:0:
64,192,108457,1,0,0:0:0:0:
64,192,108605,1,0,0:0:0:0:
448,192,108605,1,0,0:0:0:0:
320,192,108605,1,0,0:0:0:0:
448,192,108752,1,0,0:0:0:0:
320,192,108752,1,0,0:0:0:0:
192,192,108752,1,0,0:0:0:0:
64,192,108752,1,0,0:0:0:0:
64,192,108899,1,0,0:0:0:0:
192,192,108899,1,0,0:0:0:0:
320,192,109046,1,0,0:0:0:0:
448,192,109046,1,0,0:0:0:0:
64,192,109046,1,0,0:0:0:0:
192,192,109194,1,0,0:0:0:0:
320,192,109194,1,0,0:0:0:0:
448,192,109194,1,0,0:0:0:0:
320,192,109342,1,0,0:0:0:0:
192,192,109342,1,0,0:0:0:0:
64,192,109342,1,0,0:0:0:0:
192,192,109489,1,0,0:0:0:0:
64,192,109489,1,0,0:0:0:0:
448,192,109489,1,0,0:0:0:0:
320,192,109636,1,0,0:0:0:0:
448,192,109636,1,0,0:0:0:0:
192,192,109636,1,0,0:0:0:0:
320,192,109784,1,0,0:0:0:0:
448,192,109784,1,0,0:0:0:0:
64,192,109784,1,0,0:0:0:0:
192,192,109931,1,0,0:0:0:0:
64,192,109931,1,0,0:0:0:0:
448,192,110078,1,0,0:0:0:0:
320,192,110078,1,0,0:0:0:0:
64,192,110078,1,0,0:0:0:0:
448,192,110226,1,0,0:0:0:0:
192,192,110226,1,0,0:0:0:0:
320,192,110226,1,0,0:0:0:0:
192,192,110374,1,0,0:0:0:0:
448,192,110374,1,0,0:0:0:0:
192,192,110521,1,0,0:0:0:0:
320,192,110521,1,0,0:0:0:0:
64,192,110521,1,0,0:0:0:0:
320,192,110668,1,0,0:0:0:0:
448,192,110668,1,0,0:0:0:0:
448,192,110815,1,0,0:0:0:0:
320,192,110815,1,0,0:0:0:0:
64,192,110815,1,0,0:0:0:0:
192,192,110963,1,0,0:0:0:0:
448,192,110963,1,0,0:0:0:0:
64,192,110963,1,0,0:0:0:0:
320,192,111111,1,0,0:0:0:0:
192,192,111111,1,0,0:0:0:0:
448,192,111258,1,0,0:0:0:0:
320,192,111258,1,0,0:0:0:0:
192,192,111258,1,0,0:0:0:0:
448,192,111405,1,0,0:0:0:0:
192,192,111405,1,0,0:0:0:0:
64,192,111405,1,0,0:0:0:0:
320,192,111553,1,0,0:0:0:0:
64,192,111553,1,0,0:0:0:0:
320,192,111700,1,0,0:0:0:0:
192,192,111700,1,0,0:0:0:0:
64,192,111700,1,0,0:0:0:0:
448,192,111700,1,0,0:0:0:0:
448,192,111847,1,0,0:0:0:0:
320,192,111847,1,0,0:0:0:0:
192,192,111847,1,0,0:0:0:0:
320,192,111995,1,0,0:0:0:0:
64,192,111995,1,0,0:0:0:0:
192,192,111995,1,0,0:0:0:0:
320,192,112143,1,0,0:0:0:0:
192,192,112143,1,0,0:0:0:0:
64,192,112143,1,0,0:0:0:0:
448,192,112143,1,0,0:0:0:0:
64,192,112290,1,0,0:0:0:0:
448,192,112290,1,0,0:0:0:0:
192,192,112290,1,0,0:0:0:0:
448,192,112437,1,0,0:0:0:0:
64,192,112437,1,0,0:0:0:0:
320,192,112437,1,0,0:0:0:0:
448,192,112585,1,0,0:0:0:0:
320,192,112585,1,0,0:0:0:0:
192,192,112585,1,0,0:0:0:0:
64,192,112585,1,0,0:0:0:0:
64,192,112732,1,0,0:0:0:0:
448,192,112732,1,0,0:0:0:0:
64,192,112879,128,0,112916:0:0:0:0:
192,192,112879,1,0,0:0:0:0:
320,192,112879,128,0,112954:0:0:0:0:
448,192,112879,128,0,112990:0:0:0:0:
192,192,113027,1,0,0:0:0:0:
448,192,113175,1,0,0:0:0:0:
192,192,113322,128,0,113395:0:0:0:0:
64,192,113322,128,0,113433:0:0:0:0:
320,192,113322,1,0,0:0:0:0:
448,192,113322,128,0,113358:0:0:0:0:
320,192,113469,1,0,0:0:0:0:
192,192,113616,1,0,0:0:0:0:
64,192,113764,1,0,0:0:0:0:
448,192,113912,128,0,114022:0:0:0:0:
192,192,113912,1,0,0:0:0:0:
64,192,113912,128,0,113948:0:0:0:0:
320,192,113912,128,0,113985:0:0:0:0:
192,192,114059,1,0,0:0:0:0:
320,192,114206,1,0,0:0:0:0:
448,192,114354,1,0,0:0:0:0:
192,192,114501,1,0,0:0:0:0:
64,192,114648,1,0,0:0:0:0:
320,192,114796,1,0,0:0:0:0:
448,192,114796,1,0,0:0:0:0:
64,192,114796,1,0,0:0:0:0:
192,192,114796,1,0,0:0:0:0:
320,192,114944,1,0,0:0:0:0:
64,192,115091,1,0,0:0:0:0:
192,192,115091,1,0,0:0:0:0:
448,192,115091,1,0,0:0:0:0:
320,192,115238,1,0,0:0:0:0:
448,192,115238,1,0,0:0:0:0:
64,192,115238,1,0,0:0:0:0:
192,192,115238,1,0,0:0:0:0:
64,192,122315,5,0,0:0:0:0:
192,192,122462,1,0,0:0:0:0:
448,192,122609,1,0,0:0:0:0:
320,192,122756,1,0,0:0:0:0:
192,192,122904,1,0,0:0:0:0:
64,192,123052,1,0,0:0:0:0:
320,192,123199,1,0,0:0:0:0:
448,192,123346,1,0,0:0:0:0:
64,192,123494,1,0,0:0:0:0:
320,192,123641,1,0,0:0:0:0:
192,192,123788,1,0,0:0:0:0:
448,192,123936,1,0,0:0:0:0:
64,192,124084,1,0,0:0:0:0:
320,192,124231,1,0,0:0:0:0:
448,192,124378,1,0,0:0:0:0:
192,192,124525,1,0,0:0:0:0:
320,192,124673,1,0,0:0:0:0:
64,192,124673,128,0,124710:0:0:0:0:
192,192,124673,128,0,124747:0:0:0:0:
448,192,124673,128,0,124784:0:0:0:0:
320,192,124821,1,0,0:0:0:0:
64,192,124968,1,0,0:0:0:0:
192,192,125115,1,0,0:0:0:0:
448,192,125115,128,0,125152:0:0:0:0:
320,192,125115,128,0,125189:0:0:0:0:
64,192,125115,128,0,125226:0:0:0:0:
192,192,125263,1,0,0:0:0:0:
448,192,125410,1,0,0:0:0:0:
320,192,125557,1,0,0:0:0:0:
192,192,125705,1,0,0:0:0:0:
64,192,125705,128,0,125742:0:0:0:0:
320,192,125705,128,0,125779:0:0:0:0:
448,192,125705,128,0,125815:0:0:0:0:
192,192,125853,1,0,0:0:0:0:
64,192,126000,1,0,0:0:0:0:
320,192,126000,1,0,0:0:0:0:
448,192,126000,1,0,0:0:0:0:
320,192,126147,1,0,0:0:0:0:
192,192,126147,1,0,0:0:0:0:
64,192,126147,1,0,0:0:0:0:
192,192,126295,1,0,0:0:0:0:
320,192,126295,1,0,0:0:0:0:
448,192,126295,1,0,0:0:0:0:
448,192,126442,1,0,0:0:0:0:
64,192,126442,1,0,0:0:0:0:
192,192,126442,1,0,0:0:0:0:
448,192,126590,1,0,0:0:0:0:
320,192,126590,1,0,0:0:0:0:
192,192,126590,1,0,0:0:0:0:
64,192,126590,1,0,0:0:0:0:
64,192,126737,1,0,0:0:0:0:
192,192,126737,1,0,0:0:0:0:
320,192,126737,1,0,0:0:0:0:
192,192,126885,1,0,0:0:0:0:
64,192,126885,1,0,0:0:0:0:
320,192,126885,1,0,0:0:0:0:
64,192,127032,1,0,0:0:0:0:
192,192,127032,1,0,0:0:0:0:
448,192,127032,1,0,0:0:0:0:
320,192,127032,1,0,0:0:0:0:
448,192,127179,1,0,0:0:0:0:
64,192,127179,1,0,0:0:0:0:
64,192,127326,1,0,0:0:0:0:
192,192,127326,1,0,0:0:0:0:
320,192,127326,1,0,0:0:0:0:
448,192,127326,1,0,0:0:0:0:
192,192,127475,1,0,0:0:0:0:
320,192,127475,1,0,0:0:0:0:
448,192,127475,1,0,0:0:0:0:
448,192,127622,1,0,0:0:0:0:
320,192,127622,1,0,0:0:0:0:
192,192,127622,1,0,0:0:0:0:
64,192,127622,1,0,0:0:0:0:
192,192,127769,1,0,0:0:0:0:
64,192,127769,1,0,0:0:0:0:
64,192,127916,1,0,0:0:0:0:
448,192,127916,1,0,0:0:0:0:
320,192,127916,1,0,0:0:0:0:
448,192,128064,1,0,0:0:0:0:
192,192,128064,1,0,0:0:0:0:
320,192,128064,1,0,0:0:0:0:
192,192,128211,1,0,0:0:0:0:
448,192,128211,1,0,0:0:0:0:
64,192,128211,1,0,0:0:0:0:
192,192,128358,1,0,0:0:0:0:
320,192,128358,1,0,0:0:0:0:
448,192,128358,1,0,0:0:0:0:
64,192,128506,1,0,0:0:0:0:
448,192,128506,1,0,0:0:0:0:
192,192,128506,1,0,0:0:0:0:
320,192,128654,1,0,0:0:0:0:
64,192,128654,1,0,0:0:0:0:
192,192,128654,1,0,0:0:0:0:
320,192,128801,1,0,0:0:0:0:
448,192,128801,1,0,0:0:0:0:
192,192,128948,1,0,0:0:0:0:
448,192,128948,1,0,0:0:0:0:
64,192,128948,1,0,0:0:0:0:
448,192,129095,1,0,0:0:0:0:
192,192,129095,1,0,0:0:0:0:
320,192,129095,1,0,0:0:0:0:
64,192,129243,1,0,0:0:0:0:
192,192,129243,1,0,0:0:0:0:
448,192,129391,1,0,0:0:0:0:
320,192,129391,1,0,0:0:0:0:
64,192,129391,1,0,0:0:0:0:
192,192,129538,1,0,0:0:0:0:
448,192,129538,1,0,0:0:0:0:
320,192,129538,1,0,0:0:0:0:
320,192,129685,1,0,0:0:0:0:
192,192,129685,1,0,0:0:0:0:
64,192,129685,1,0,0:0:0:0:
448,192,129833,1,0,0:0:0:0:
192,192,129833,1,0,0:0:0:0:
320,192,129833,1,0,0:0:0:0:
64,192,129980,1,0,0:0:0:0:
320,192,129980,1,0,0:0:0:0:
64,192,130127,1,0,0:0:0:0:
192,192,130127,1,0,0:0:0:0:
448,192,130127,1,0,0:0:0:0:
64,192,130275,1,0,0:0:0:0:
320,192,130275,1,0,0:0:0:0:
448,192,130275,1,0,0:0:0:0:
192,192,130423,1,0,0:0:0:0:
320,192,130423,1,0,0:0:0:0:
192,192,130570,1,0,0:0:0:0:
64,192,130570,1,0,0:0:0:0:
448,192,130570,1,0,0:0:0:0:
448,192,130717,1,0,0:0:0:0:
320,192,130717,1,0,0:0:0:0:
448,192,130865,1,0,0:0:0:0:
192,192,130865,1,0,0:0:0:0:
64,192,130865,1,0,0:0:0:0:
320,192,131012,1,0,0:0:0:0:
192,192,131012,1,0,0:0:0:0:
64,192,131012,1,0,0:0:0:0:
64,192,131160,1,0,0:0:0:0:
320,192,131160,1,0,0:0:0:0:
320,192,131307,1,0,0:0:0:0:
192,192,131307,1,0,0:0:0:0:
448,192,131307,1,0,0:0:0:0:
64,192,131455,1,0,0:0:0:0:
448,192,131455,1,0,0:0:0:0:
192,192,131455,1,0,0:0:0:0:
320,192,131602,1,0,0:0:0:0:
192,192,131602,1,0,0:0:0:0:
448,192,131602,1,0,0:0:0:0:
64,192,131749,1,0,0:0:0:0:
448,192,131749,1,0,0:0:0:0:
320,192,131749,1,0,0:0:0:0:
192,192,131749,1,0,0:0:0:0:
320,192,131896,1,0,0:0:0:0:
64,192,131896,1,0,0:0:0:0:
64,192,132045,1,0,0:0:0:0:
192,192,132045,1,0,0:0:0:0:
320,192,132045,1,0,0:0:0:0:
448,192,132045,1,0,0:0:0:0:
448,192,132192,1,0,0:0:0:0:
64,192,132192,1,0,0:0:0:0:
192,192,132192,1,0,0:0:0:0:
64,192,132339,1,0,0:0:0:0:
192,192,132339,1,0,0:0:0:0:
320,192,132339,1,0,0:0:0:0:
448,192,132339,1,0,0:0:0:0:
448,192,132486,1,0,0:0:0:0:
320,192,132486,1,0,0:0:0:0:
192,192,132634,1,0,0:0:0:0:
64,192,132634,1,0,0:0:0:0:
448,192,132634,1,0,0:0:0:0:
320,192,132781,1,0,0:0:0:0:
192,192,132781,1,0,0:0:0:0:
64,192,132781,1,0,0:0:0:0:
192,192,132929,1,0,0:0:0:0:
320,192,132929,1,0,0:0:0:0:
448,192,132929,1,0,0:0:0:0:
320,192,133076,1,0,0:0:0:0:
448,192,133076,1,0,0:0:0:0:
64,192,133076,1,0,0:0:0:0:
192,192,133224,1,0,0:0:0:0:
64,192,133224,1,0,0:0:0:0:
320,192,133224,1,0,0:0:0:0:
192,192,133371,1,0,0:0:0:0:
64,192,133371,1,0,0:0:0:0:
448,192,133371,1,0,0:0:0:0:
320,192,133518,1,0,0:0:0:0:
448,192,133518,1,0,0:0:0:0:
64,192,133665,1,0,0:0:0:0:
192,192,133665,1,0,0:0:0:0:
448,192,133665,1,0,0:0:0:0:
64,192,133813,1,0,0:0:0:0:
320,192,133813,1,0,0:0:0:0:
192,192,133813,1,0,0:0:0:0:
320,192,133961,1,0,0:0:0:0:
64,192,133961,1,0,0:0:0:0:
320,192,134108,1,0,0:0:0:0:
192,192,134108,1,0,0:0:0:0:
448,192,134108,1,0,0:0:0:0:
192,192,134255,1,0,0:0:0:0:
64,192,134255,1,0,0:0:0:0:
64,192,134403,1,0,0:0:0:0:
192,192,134403,1,0,0:0:0:0:
448,192,134403,1,0,0:0:0:0:
320,192,134550,1,0,0:0:0:0:
64,192,134550,1,0,0:0:0:0:
448,192,134550,1,0,0:0:0:0:
192,192,134697,1,0,0:0:0:0:
320,192,134697,1,0,0:0:0:0:
64,192,134845,1,0,0:0:0:0:
192,192,134845,1,0,0:0:0:0:
320,192,134845,1,0,0:0:0:0:
64,192,134993,1,0,0:0:0:0:
320,192,134993,1,0,0:0:0:0:
448,192,134993,1,0,0:0:0:0:
320,192,135140,1,0,0:0:0:0:
448,192,135140,1,0,0:0:0:0:
192,192,135287,1,0,0:0:0:0:
320,192,135287,1,0,0:0:0:0:
448,192,135287,1,0,0:0:0:0:
64,192,135287,1,0,0:0:0:0:
448,192,135435,1,0,0:0:0:0:
192,192,135435,1,0,0:0:0:0:
64,192,135435,1,0,0:0:0:0:
448,192,135582,1,0,0:0:0:0:
64,192,135582,1,0,0:0:0:0:
320,192,135582,1,0,0:0:0:0:
192,192,135730,1,0,0:0:0:0:
320,192,135730,1,0,0:0:0:0:
448,192,135730,1,0,0:0:0:0:
64,192,135730,1,0,0:0:0:0:
192,192,135877,1,0,0:0:0:0:
64,192,135877,1,0,0:0:0:0:
320,192,135877,1,0,0:0:0:0:
320,192,136025,1,0,0:0:0:0:
448,192,136025,1,0,0:0:0:0:
192,192,136025,1,0,0:0:0:0:
64,192,136172,1,0,0:0:0:0:
192,192,136172,1,0,0:0:0:0:
320,192,136172,1,0,0:0:0:0:
448,192,136172,1,0,0:0:0:0:
448,192,136319,1,0,0:0:0:0:
64,192,136319,1,0,0:0:0:0:
64,192,136466,1,0,0:0:0:0:
192,192,136466,1,0,0:0:0:0:
320,192,136466,1,0,0:0:0:0:
448,192,136466,1,0,0:0:0:0:
192,192,136615,1,0,0:0:0:0:
320,192,136615,1,0,0:0:0:0:
448,192,136762,1,0,0:0:0:0:
320,192,136762,1,0,0:0:0:0:
192,192,136762,1,0,0:0:0:0:
64,192,136762,1,0,0:0:0:0:
64,192,136909,1,0,0:0:0:0:
448,192,136909,1,0,0:0:0:0:
192,192,136909,1,0,0:0:0:0:
448,192,137056,1,0,0:0:0:0:
320,192,137056,1,0,0:0:0:0:
192,192,137056,1,0,0:0:0:0:
64,192,137056,1,0,0:0:0:0:
320,192,137204,1,0,0:0:0:0:
448,192,137204,1,0,0:0:0:0:
192,192,137351,1,0,0:0:0:0:
448,192,137351,1,0,0:0:0:0:
64,192,137351,1,0,0:0:0:0:
64,192,137499,1,0,0:0:0:0:
192,192,137499,1,0,0:0:0:0:
320,192,137499,1,0,0:0:0:0:
320,192,137646,1,0,0:0:0:0:
192,192,137646,1,0,0:0:0:0:
448,192,137646,1,0,0:0:0:0:
320,192,137794,1,0,0:0:0:0:
192,192,137794,1,0,0:0:0:0:
64,192,137794,1,0,0:0:0:0:
448,192,137941,1,0,0:0:0:0:
64,192,137941,1,0,0:0:0:0:
320,192,137941,1,0,0:0:0:0:
192,192,138088,1,0,0:0:0:0:
448,192,138088,1,0,0:0:0:0:
64,192,138088,1,0,0:0:0:0:
192,192,138235,1,0,0:0:0:0:
320,192,138235,1,0,0:0:0:0:
320,192,138384,1,0,0:0:0:0:
64,192,138384,1,0,0:0:0:0:
448,192,138384,1,0,0:0:0:0:
64,192,138531,1,0,0:0:0:0:
320,192,138531,1,0,0:0:0:0:
192,192,138531,1,0,0:0:0:0:
64,192,138678,1,0,0:0:0:0:
320,192,138678,1,0,0:0:0:0:
64,192,138825,1,0,0:0:0:0:
192,192,138825,1,0,0:0:0:0:
448,192,138825,1,0,0:0:0:0:
320,192,138973,1,0,0:0:0:0:
448,192,138973,1,0,0:0:0:0:
192,192,138973,1,0,0:0:0:0:
192,192,139120,1,0,0:0:0:0:
320,192,139120,1,0,0:0:0:0:
64,192,139120,1,0,0:0:0:0:
64,192,139267,1,0,0:0:0:0:
320,192,139267,1,0,0:0:0:0:
448,192,139267,1,0,0:0:0:0:
448,192,139415,1,0,0:0:0:0:
192,192,139415,1,0,0:0:0:0:
448,192,139563,1,0,0:0:0:0:
320,192,139563,1,0,0:0:0:0:
64,192,139563,1,0,0:0:0:0:
448,192,139710,1,0,0:0:0:0:
192,192,139710,1,0,0:0:0:0:
64,192,139710,1,0,0:0:0:0:
320,192,139857,1,0,0:0:0:0:
192,192,139857,1,0,0:0:0:0:
320,192,140005,1,0,0:0:0:0:
448,192,140005,1,0,0:0:0:0:
64,192,140005,1,0,0:0:0:0:
64,192,140152,1,0,0:0:0:0:
192,192,140152,1,0,0:0:0:0:
64,192,140300,1,0,0:0:0:0:
320,192,140300,1,0,0:0:0:0:
448,192,140300,1,0,0:0:0:0:
192,192,140447,1,0,0:0:0:0:
64,192,140447,1,0,0:0:0:0:
448,192,140447,1,0,0:0:0:0:
320,192,140595,1,0,0:0:0:0:
192,192,140595,1,0,0:0:0:0:
448,192,140742,1,0,0:0:0:0:
320,192,140742,1,0,0:0:0:0:
64,192,140742,1,0,0:0:0:0:
192,192,140889,1,0,0:0:0:0:
64,192,140889,1,0,0:0:0:0:
320,192,140889,1,0,0:0:0:0:
192,192,141036,1,0,0:0:0:0:
320,192,141036,1,0,0:0:0:0:
448,192,141036,1,0,0:0:0:0:
448,192,141185,1,0,0:0:0:0:
64,192,141185,1,0,0:0:0:0:
192,192,141185,1,0,0:0:0:0:
320,192,141185,1,0,0:0:0:0:
64,192,141332,1,0,0:0:0:0:
448,192,141332,1,0,0:0:0:0:
448,192,141479,1,0,0:0:0:0:
320,192,141479,1,0,0:0:0:0:
192,192,141479,1,0,0:0:0:0:
64,192,141479,1,0,0:0:0:0:
64,192,141626,1,0,0:0:0:0:
192,192,141626,1,0,0:0:0:0:
320,192,141626,1,0,0:0:0:0:
448,192,141774,1,0,0:0:0:0:
320,192,141774,1,0,0:0:0:0:
192,192,141774,1,0,0:0:0:0:
64,192,141774,1,0,0:0:0:0:
448,192,141921,1,0,0:0:0:0:
192,192,141921,1,0,0:0:0:0:
320,192,142069,1,0,0:0:0:0:
448,192,142069,1,0,0:0:0:0:
64,192,142069,1,0,0:0:0:0:
192,192,142216,1,0,0:0:0:0:
64,192,142216,1,0,0:0:0:0:
448,192,142216,1,0,0:0:0:0:
320,192,142364,1,0,0:0:0:0:
192,192,142364,1,0,0:0:0:0:
64,192,142364,1,0,0:0:0:0:
192,192,142511,1,0,0:0:0:0:
64,192,142511,1,0,0:0:0:0:
448,192,142511,1,0,0:0:0:0:
320,192,142658,1,0,0:0:0:0:
448,192,142658,1,0,0:0:0:0:
192,192,142658,1,0,0:0:0:0:
320,192,142805,1,0,0:0:0:0:
448,192,142805,1,0,0:0:0:0:
64,192,142805,1,0,0:0:0:0:
192,192,142954,1,0,0:0:0:0:
320,192,142954,1,0,0:0:0:0:
448,192,143101,1,0,0:0:0:0:
192,192,143101,1,0,0:0:0:0:
64,192,143101,1,0,0:0:0:0:
64,192,143248,1,0,0:0:0:0:
320,192,143248,1,0,0:0:0:0:
192,192,143248,1,0,0:0:0:0:
192,192,143395,1,0,0:0:0:0:
320,192,143395,1,0,0:0:0:0:
448,192,143543,1,0,0:0:0:0:
320,192,143543,1,0,0:0:0:0:
64,192,143543,1,0,0:0:0:0:
192,192,143690,1,0,0:0:0:0:
448,192,143690,1,0,0:0:0:0:
448,192,143838,1,0,0:0:0:0:
320,192,143838,1,0,0:0:0:0:
64,192,143838,1,0,0:0:0:0:
192,192,143985,1,0,0:0:0:0:
448,192,143985,1,0,0:0:0:0:
64,192,143985,1,0,0:0:0:0:
320,192,144133,1,0,0:0:0:0:
192,192,144133,1,0,0:0:0:0:
448,192,144280,1,0,0:0:0:0:
320,192,144280,1,0,0:0:0:0:
192,192,144280,1,0,0:0:0:0:
448,192,144427,1,0,0:0:0:0:
192,192,144427,1,0,0:0:0:0:
64,192,144427,1,0,0:0:0:0:
320,192,144575,1,0,0:0:0:0:
192,192,144575,1,0,0:0:0:0:
320,192,144722,1,0,0:0:0:0:
192,192,144722,1,0,0:0:0:0:
64,192,144722,1,0,0:0:0:0:
448,192,144722,1,0,0:0:0:0:
64,192,144870,1,0,0:0:0:0:
320,192,144870,1,0,0:0:0:0:
448,192,144870,1,0,0:0:0:0:
192,192,145017,1,0,0:0:0:0:
64,192,145017,1,0,0:0:0:0:
448,192,145017,1,0,0:0:0:0:
320,192,145165,1,0,0:0:0:0:
192,192,145165,1,0,0:0:0:0:
64,192,145165,1,0,0:0:0:0:
448,192,145165,1,0,0:0:0:0:
320,192,145312,1,0,0:0:0:0:
448,192,145312,1,0,0:0:0:0:
192,192,145312,1,0,0:0:0:0:
192,192,145459,1,0,0:0:0:0:
64,192,145459,1,0,0:0:0:0:
320,192,145459,1,0,0:0:0:0:
448,192,145606,1,0,0:0:0:0:
320,192,145606,1,0,0:0:0:0:
192,192,145606,1,0,0:0:0:0:
64,192,145606,1,0,0:0:0:0:
64,192,145755,1,0,0:0:0:0:
192,192,145755,1,0,0:0:0:0:
448,192,145902,1,0,0:0:0:0:
320,192,145902,1,0,0:0:0:0:
64,192,145902,1,0,0:0:0:0:
192,192,145902,1,0,0:0:0:0:
192,192,146049,1,0,0:0:0:0:
448,192,146049,1,0,0:0:0:0:
320,192,146196,1,0,0:0:0:0:
448,192,146196,1,0,0:0:0:0:
64,192,146196,1,0,0:0:0:0:
192,192,146196,1,0,0:0:0:0:
448,192,146344,1,0,0:0:0:0:
64,192,146344,1,0,0:0:0:0:
192,192,146344,1,0,0:0:0:0:
192,192,146491,1,0,0:0:0:0:
64,192,146491,1,0,0:0:0:0:
448,192,146491,1,0,0:0:0:0:
320,192,146491,1,0,0:0:0:0:
64,192,146639,1,0,0:0:0:0:
320,192,146639,1,0,0:0:0:0:
320,192,146786,1,0,0:0:0:0:
448,192,146786,1,0,0:0:0:0:
64,192,146786,1,0,0:0:0:0:
320,192,146934,1,0,0:0:0:0:
192,192,146934,1,0,0:0:0:0:
448,192,146934,1,0,0:0:0:0:
64,192,147081,1,0,0:0:0:0:
448,192,147081,1,0,0:0:0:0:
192,192,147081,1,0,0:0:0:0:
448,192,147228,1,0,0:0:0:0:
320,192,147228,1,0,0:0:0:0:
192,192,147228,1,0,0:0:0:0:
192,192,147375,1,0,0:0:0:0:
448,192,147375,1,0,0:0:0:0:
64,192,147375,1,0,0:0:0:0:
192,192,147524,1,0,0:0:0:0:
64,192,147524,1,0,0:0:0:0:
320,192,147524,1,0,0:0:0:0:
448,192,147671,1,0,0:0:0:0:
320,192,147671,1,0,0:0:0:0:
64,192,147818,1,0,0:0:0:0:
448,192,147818,1,0,0:0:0:0:
192,192,147818,1,0,0:0:0:0:
320,192,147965,1,0,0:0:0:0:
192,192,147965,1,0,0:0:0:0:
448,192,147965,1,0,0:0:0:0:
192,192,148113,1,0,0:0:0:0:
64,192,148113,1,0,0:0:0:0:
64,192,148260,1,0,0:0:0:0:
320,192,148260,1,0,0:0:0:0:
448,192,148260,1,0,0:0:0:0:
320,192,148408,1,0,0:0:0:0:
448,192,148408,1,0,0:0:0:0:
192,192,148408,1,0,0:0:0:0:
64,192,148555,1,0,0:0:0:0:
192,192,148555,1,0,0:0:0:0:
320,192,148555,1,0,0:0:0:0:
320,192,148703,1,0,0:0:0:0:
192,192,148703,1,0,0:0:0:0:
448,192,148703,1,0,0:0:0:0:
320,192,148850,1,0,0:0:0:0:
64,192,148850,1,0,0:0:0:0:
448,192,148997,1,0,0:0:0:0:
192,192,148997,1,0,0:0:0:0:
64,192,148997,1,0,0:0:0:0:
448,192,149145,1,0,0:0:0:0:
320,192,149145,1,0,0:0:0:0:
64,192,149145,1,0,0:0:0:0:
320,192,149293,1,0,0:0:0:0:
192,192,149293,1,0,0:0:0:0:
448,192,149440,1,0,0:0:0:0:
64,192,149440,1,0,0:0:0:0:
192,192,149440,1,0,0:0:0:0:
320,192,149587,1,0,0:0:0:0:
448,192,149587,1,0,0:0:0:0:
64,192,149735,1,0,0:0:0:0:
192,192,149735,1,0,0:0:0:0:
448,192,149735,1,0,0:0:0:0:
64,192,149882,1,0,0:0:0:0:
192,192,149882,1,0,0:0:0:0:
320,192,149882,1,0,0:0:0:0:
320,192,150029,1,0,0:0:0:0:
64,192,150029,1,0,0:0:0:0:
448,192,150176,1,0,0:0:0:0:
192,192,150176,1,0,0:0:0:0:
320,192,150176,1,0,0:0:0:0:
192,192,150325,1,0,0:0:0:0:
448,192,150325,1,0,0:0:0:0:
64,192,150325,1,0,0:0:0:0:
448,192,150472,1,0,0:0:0:0:
192,192,150472,1,0,0:0:0:0:
320,192,150472,1,0,0:0:0:0:
320,192,150619,1,0,0:0:0:0:
192,192,150619,1,0,0:0:0:0:
64,192,150619,1,0,0:0:0:0:
448,192,150619,1,0,0:0:0:0:
64,192,150766,1,0,0:0:0:0:
320,192,150766,1,0,0:0:0:0:
320,192,150914,1,0,0:0:0:0:
448,192,150914,1,0,0:0:0:0:
64,192,150914,1,0,0:0:0:0:
192,192,150914,1,0,0:0:0:0:
192,192,151061,1,0,0:0:0:0:
64,192,151061,1,0,0:0:0:0:
448,192,151061,1,0,0:0:0:0:
320,192,151209,1,0,0:0:0:0:
448,192,151209,1,0,0:0:0:0:
64,192,151209,1,0,0:0:0:0:
192,192,151209,1,0,0:0:0:0:
320,192,151356,1,0,0:0:0:0:
448,192,151356,1,0,0:0:0:0:
448,192,151504,1,0,0:0:0:0:
64,192,151504,1,0,0:0:0:0:
192,192,151504,1,0,0:0:0:0:
64,192,151651,1,0,0:0:0:0:
192,192,151651,1,0,0:0:0:0:
320,192,151651,1,0,0:0:0:0:
448,192,151798,1,0,0:0:0:0:
320,192,151798,1,0,0:0:0:0:
192,192,151798,1,0,0:0:0:0:
64,192,151945,1,0,0:0:0:0:
448,192,151945,1,0,0:0:0:0:
320,192,151945,1,0,0:0:0:0:
320,192,152094,1,0,0:0:0:0:
64,192,152094,1,0,0:0:0:0:
192,192,152094,1,0,0:0:0:0:
448,192,152241,1,0,0:0:0:0:
64,192,152241,1,0,0:0:0:0:
192,192,152241,1,0,0:0:0:0:
448,192,152388,1,0,0:0:0:0:
320,192,152388,1,0,0:0:0:0:
448,192,152535,1,0,0:0:0:0:
192,192,152535,1,0,0:0:0:0:
64,192,152535,1,0,0:0:0:0:
192,192,152683,1,0,0:0:0:0:
320,192,152683,1,0,0:0:0:0:
64,192,152683,1,0,0:0:0:0:
64,192,152830,1,0,0:0:0:0:
320,192,152830,1,0,0:0:0:0:
448,192,152978,1,0,0:0:0:0:
192,192,152978,1,0,0:0:0:0:
320,192,152978,1,0,0:0:0:0:
64,192,153125,1,0,0:0:0:0:
192,192,153125,1,0,0:0:0:0:
448,192,153273,1,0,0:0:0:0:
192,192,153273,1,0,0:0:0:0:
64,192,153273,1,0,0:0:0:0:
448,192,153420,1,0,0:0:0:0:
64,192,153420,1,0,0:0:0:0:
320,192,153420,1,0,0:0:0:0:
320,192,153567,1,0,0:0:0:0:
192,192,153567,1,0,0:0:0:0:
320,192,153715,1,0,0:0:0:0:
192,192,153715,1,0,0:0:0:0:
64,192,153715,1,0,0:0:0:0:
448,192,153863,1,0,0:0:0:0:
320,192,153863,1,0,0:0:0:0:
64,192,153863,1,0,0:0:0:0:
448,192,154010,1,0,0:0:0:0:
192,192,154010,1,0,0:0:0:0:
448,192,154157,1,0,0:0:0:0:
64,192,154157,1,0,0:0:0:0:
192,192,154157,1,0,0:0:0:0:
320,192,154157,1,0,0:0:0:0:
320,192,154305,1,0,0:0:0:0:
192,192,154305,1,0,0:0:0:0:
64,192,154305,1,0,0:0:0:0:
320,192,154452,1,0,0:0:0:0:
448,192,154452,1,0,0:0:0:0:
192,192,154452,1,0,0:0:0:0:
448,192,154599,1,0,0:0:0:0:
64,192,154599,1,0,0:0:0:0:
192,192,154599,1,0,0:0:0:0:
320,192,154599,1,0,0:0:0:0:
320,192,154747,1,0,0:0:0:0:
64,192,154747,1,0,0:0:0:0:
448,192,154747,1,0,0:0:0:0:
192,192,154895,1,0,0:0:0:0:
448,192,154895,1,0,0:0:0:0:
64,192,154895,1,0,0:0:0:0:
320,192,155042,1,0,0:0:0:0:
448,192,155042,1,0,0:0:0:0:
64,192,155042,1,0,0:0:0:0:
192,192,155042,1,0,0:0:0:0:
64,192,155189,1,0,0:0:0:0:
448,192,155189,1,0,0:0:0:0:
192,192,155336,1,0,0:0:0:0:
320,192,155336,1,0,0:0:0:0:
448,192,155336,1,0,0:0:0:0:
64,192,155336,1,0,0:0:0:0:
192,192,155484,1,0,0:0:0:0:
320,192,155484,1,0,0:0:0:0:
448,192,155631,1,0,0:0:0:0:
320,192,155631,1,0,0:0:0:0:
192,192,155631,1,0,0:0:0:0:
64,192,155631,1,0,0:0:0:0:
192,192,155779,1,0,0:0:0:0:
64,192,155779,1,0,0:0:0:0:
448,192,155779,1,0,0:0:0:0:
448,192,155926,1,0,0:0:0:0:
320,192,155926,1,0,0:0:0:0:
192,192,155926,1,0,0:0:0:0:
64,192,155926,1,0,0:0:0:0:
320,192,156074,1,0,0:0:0:0:
448,192,156074,1,0,0:0:0:0:
192,192,156221,1,0,0:0:0:0:
448,192,156221,1,0,0:0:0:0:
64,192,156221,1,0,0:0:0:0:
64,192,156368,1,0,0:0:0:0:
192,192,156368,1,0,0:0:0:0:
320,192,156368,1,0,0:0:0:0:
320,192,156515,1,0,0:0:0:0:
192,192,156515,1,0,0:0:0:0:
448,192,156515,1,0,0:0:0:0:
320,192,156664,1,0,0:0:0:0:
192,192,156664,1,0,0:0:0:0:
64,192,156664,1,0,0:0:0:0:
448,192,156811,1,0,0:0:0:0:
64,192,156811,1,0,0:0:0:0:
320,192,156811,1,0,0:0:0:0:
192,192,156958,1,0,0:0:0:0:
448,192,156958,1,0,0:0:0:0:
64,192,156958,1,0,0:0:0:0:
192,192,157105,1,0,0:0:0:0:
320,192,157105,1,0,0:0:0:0:
320,192,157253,1,0,0:0:0:0:
64,192,157253,1,0,0:0:0:0:
448,192,157253,1,0,0:0:0:0:
64,192,157400,1,0,0:0:0:0:
320,192,157400,1,0,0:0:0:0:
192,192,157400,1,0,0:0:0:0:
64,192,157548,1,0,0:0:0:0:
320,192,157548,1,0,0:0:0:0:
64,192,157695,1,0,0:0:0:0:
192,192,157695,1,0,0:0:0:0:
448,192,157695,1,0,0:0:0:0:
320,192,157843,1,0,0:0:0:0:
448,192,157843,1,0,0:0:0:0:
192,192,157843,1,0,0:0:0:0:
192,192,157990,1,0,0:0:0:0:
320,192,157990,1,0,0:0:0:0:
64,192,157990,1,0,0:0:0:0:
64,192,158137,1,0,0:0:0:0:
320,192,158137,1,0,0:0:0:0:
448,192,158137,1,0,0:0:0:0:
448,192,158285,1,0,0:0:0:0:
192,192,158285,1,0,0:0:0:0:
448,192,158433,1,0,0:0:0:0:
320,192,158433,1,0,0:0:0:0:
64,192,158433,1,0,0:0:0:0:
448,192,158580,1,0,0:0:0:0:
192,192,158580,1,0,0:0:0:0:
64,192,158580,1,0,0:0:0:0:
320,192,158727,1,0,0:0:0:0:
192,192,158727,1,0,0:0:0:0:
320,192,158875,1,0,0:0:0:0:
448,192,158875,1,0,0:0:0:0:
64,192,158875,1,0,0:0:0:0:
64,192,159022,1,0,0:0:0:0:
192,192,159022,1,0,0:0:0:0:
64,192,159169,1,0,0:0:0:0:
320,192,159169,1,0,0:0:0:0:
448,192,159169,1,0,0:0:0:0:
192,192,159317,1,0,0:0:0:0:
64,192,159317,1,0,0:0:0:0:
448,192,159317,1,0,0:0:0:0:
320,192,159465,1,0,0:0:0:0:
192,192,159465,1,0,0:0:0:0:
448,192,159612,1,0,0:0:0:0:
320,192,159612,1,0,0:0:0:0:
64,192,159612,1,0,0:0:0:0:
192,192,159759,1,0,0:0:0:0:
64,192,159759,1,0,0:0:0:0:
320,192,159759,1,0,0:0:0:0:
192,192,159906,1,0,0:0:0:0:
320,192,159906,1,0,0:0:0:0:
448,192,159906,1,0,0:0:0:0:
448,192,160054,1,0,0:0:0:0:
64,192,160054,1,0,0:0:0:0:
192,192,160054,1,0,0:0:0:0:
320,192,160054,1,0,0:0:0:0:
64,192,160202,1,0,0:0:0:0:
448,192,160202,1,0,0:0:0:0:
448,192,160349,1,0,0:0:0:0:
320,192,160349,1,0,0:0:0:0:
192,192,160349,1,0,0:0:0:0:
64,192,160349,1,0,0:0:0:0:
64,192,160496,1,0,0:0:0:0:
192,192,160496,1,0,0:0:0:0:
320,192,160496,1,0,0:0:0:0:
448,192,160644,1,0,0:0:0:0:
320,192,160644,1,0,0:0:0:0:
192,192,160644,1,0,0:0:0:0:
64,192,160644,1,0,0:0:0:0:
448,192,160791,1,0,0:0:0:0:
192,192,160791,1,0,0:0:0:0:
320,192,160938,1,0,0:0:0:0:
448,192,160938,1,0,0:0:0:0:
64,192,160938,1,0,0:0:0:0:
192,192,161085,1,0,0:0:0:0:
64,192,161085,1,0,0:0:0:0:
448,192,161085,1,0,0:0:0:0:
320,192,161234,1,0,0:0:0:0:
192,192,161234,1,0,0:0:0:0:
64,192,161234,1,0,0:0:0:0:
192,192,161381,1,0,0:0:0:0:
64,192,161381,1,0,0:0:0:0:
448,192,161381,1,0,0:0:0:0:
320,192,161528,1,0,0:0:0:0:
448,192,161528,1,0,0:0:0:0:
192,192,161528,1,0,0:0:0:0:
320,192,161675,1,0,0:0:0:0:
448,192,161675,1,0,0:0:0:0:
64,192,161675,1,0,0:0:0:0:
192,192,161823,1,0,0:0:0:0:
320,192,161823,1,0,0:0:0:0:
448,192,161970,1,0,0:0:0:0:
192,192,161970,1,0,0:0:0:0:
64,192,161970,1,0,0:0:0:0:
64,192,162118,1,0,0:0:0:0:
320,192,162118,1,0,0:0:0:0:
192,192,162118,1,0,0:0:0:0:
192,192,162265,1,0,0:0:0:0:
320,192,162265,1,0,0:0:0:0:
448,192,162413,1,0,0:0:0:0:
320,192,162413,1,0,0:0:0:0:
64,192,162413,1,0,0:0:0:0:
192,192,162560,1,0,0:0:0:0:
448,192,162560,1,0,0:0:0:0:
448,192,162707,1,0,0:0:0:0:
320,192,162707,1,0,0:0:0:0:
64,192,162707,1,0,0:0:0:0:
192,192,162855,1,0,0:0:0:0:
448,192,162855,1,0,0:0:0:0:
64,192,162855,1,0,0:0:0:0:
320,192,163003,1,0,0:0:0:0:
192,192,163003,1,0,0:0:0:0:
448,192,163150,1,0,0:0:0:0:
320,192,163150,1,0,0:0:0:0:
192,192,163150,1,0,0:0:0:0:
448,192,163297,1,0,0:0:0:0:
192,192,163297,1,0,0:0:0:0:
64,192,163297,1,0,0:0:0:0:
320,192,163445,1,0,0:0:0:0:
448,192,163445,1,0,0:0:0:0:
320,192,163592,1,0,0:0:0:0:
192,192,163592,1,0,0:0:0:0:
64,192,163592,1,0,0:0:0:0:
448,192,163592,1,0,0:0:0:0:
192,192,163739,1,0,0:0:0:0:
320,192,163739,1,0,0:0:0:0:
448,192,163739,1,0,0:0:0:0:
192,192,163887,1,0,0:0:0:0:
64,192,163887,1,0,0:0:0:0:
320,192,163887,1,0,0:0:0:0:
320,192,164035,1,0,0:0:0:0:
192,192,164035,1,0,0:0:0:0:
64,192,164035,1,0,0:0:0:0:
448,192,164035,1,0,0:0:0:0:
320,192,164182,1,0,0:0:0:0:
448,192,164182,1,0,0:0:0:0:
64,192,164182,1,0,0:0:0:0:
192,192,164329,1,0,0:0:0:0:
64,192,164329,1,0,0:0:0:0:
448,192,164329,1,0,0:0:0:0:
448,192,164476,1,0,0:0:0:0:
320,192,164476,1,0,0:0:0:0:
192,192,164476,1,0,0:0:0:0:
64,192,164476,1,0,0:0:0:0:
320,192,164624,1,0,0:0:0:0:
192,192,164624,1,0,0:0:0:0:
448,192,164772,1,0,0:0:0:0:
64,192,164772,128,0,164808:0:0:0:0:
192,192,164772,128,0,164882:0:0:0:0:
320,192,164772,128,0,164845:0:0:0:0:
448,192,164919,1,0,0:0:0:0:
64,192,165066,1,0,0:0:0:0:
64,192,165214,1,0,0:0:0:0:
448,192,165214,128,0,165251:0:0:0:0:
192,192,165214,128,0,165287:0:0:0:0:
320,192,165214,128,0,165325:0:0:0:0:
192,192,165361,1,0,0:0:0:0:
320,192,165508,1,0,0:0:0:0:
448,192,165656,1,0,0:0:0:0:
448,192,165804,1,0,0:0:0:0:
320,192,165804,128,0,165840:0:0:0:0:
192,192,165804,128,0,165914:0:0:0:0:
64,192,165804,128,0,165877:0:0:0:0:
320,192,165951,1,0,0:0:0:0:
192,192,166098,1,0,0:0:0:0:
64,192,166245,1,0,0:0:0:0:
64,192,166393,1,0,0:0:0:0:
320,192,166393,1,0,0:0:0:0:
448,192,166393,1,0,0:0:0:0:
320,192,166540,1,0,0:0:0:0:
448,192,166688,1,0,0:0:0:0:
320,192,166688,1,0,0:0:0:0:
192,192,166688,1,0,0:0:0:0:
64,192,166688,1,0,0:0:0:0:
64,192,166835,1,0,0:0:0:0:
192,192,166835,1,0,0:0:0:0:
448,192,166835,1,0,0:0:0:0:
320,192,166983,1,0,0:0:0:0:
448,192,166983,1,0,0:0:0:0:
64,192,166983,1,0,0:0:0:0:
448,192,167277,128,0,167425:0:0:0:0:
192,192,167277,128,0,167351:0:0:0:0:
64,192,167277,128,0,167315:0:0:0:0:
320,192,167277,128,0,167388:0:0:0:0:
