osu file format v14

[General]
AudioFilename: audio.mp3
AudioLeadIn: 0
PreviewTime: 34474
Countdown: 0
SampleSet: Drum
StackLeniency: 0.7
Mode: 0
LetterboxInBreaks: 0
WidescreenStoryboard: 1

[Editor]
Bookmarks: 8902,23360,34203,34926,46493,58059,69625,81191,92758,104324,115890,127456,139023,150589
DistanceSpacing: 1
BeatDivisor: 4
GridSize: 32
TimelineZoom: 2.3

[Metadata]
Title:Up
TitleUnicode:Up
Artist:Cardi B
ArtistUnicode:Cardi B
Creator:wafer
Version:wafertime's Insane
Source:
Tags:english rap hip-hop hip hop jasontime jasontime12345 -_ascended_- -ascended- ascended vanchanical ancel ancelysia goopert kami no kotoba jounzan evilelvis natteke desu evilelvisv2
BeatmapID:2843113
BeatmapSetID:1375452

[Difficulty]
HPDrainRate:4.5
CircleSize:4
OverallDifficulty:8
ApproachRate:8.6
SliderMultiplier:2.6
SliderTickRate:1

[Events]
//Background and Video events
0,0,"alex-harvey-nqSUnXINsp4-unsplash.jpg",0,0
//Break Periods
//Storyboard Layer 0 (Background)
//Storyboard Layer 1 (Fail)
//Storyboard Layer 2 (Pass)
//Storyboard Layer 3 (Foreground)
//Storyboard Layer 4 (Overlay)
//Storyboard Sound Samples

[TimingPoints]
228,722.89156626506,4,3,0,50,1,0
228,-71.4285714285714,4,3,0,50,0,0
950,-133.333333333333,4,3,1,50,0,0
1312,-133.333333333333,4,3,0,50,0,0
2035,-71.4285714285714,4,3,0,50,0,0
2577,-83.3333333333333,4,3,0,50,0,0
3119,-71.4285714285714,4,3,0,50,0,0
3842,-100,4,3,1,50,0,0
4023,-100,4,3,0,50,0,0
4926,-71.4285714285714,4,3,0,50,0,0
5468,-83.3333333333333,4,3,0,50,0,0
6011,-83.3333333333333,4,3,0,45,0,0
8902,-133.333333333333,4,3,0,50,0,0
9625,-133.333333333333,4,3,0,53,0,0
10348,-83.3333333333333,4,3,0,56,0,0
11071,-71.4285714285714,4,3,0,62,0,0
11794,-133.333333333333,4,3,0,65,0,0
12517,-100,4,3,1,65,0,0
12697,-100,4,3,0,65,0,0
15408,-100,4,3,1,65,0,0
15770,-100,4,3,0,65,0,0
18300,-100,4,3,1,65,0,0
18661,-100,4,3,0,65,0,0
21191,-100,4,3,1,65,0,0
21372,-100,4,3,0,65,0,0
22276,-66.6666666666667,4,2,2,65,0,0
23360,-100,4,3,0,65,0,0
24083,-100,4,3,1,65,0,0
24264,-100,4,3,0,65,0,0
26974,-100,4,3,1,65,0,0
27155,-100,4,3,0,65,0,0
29143,-100,4,3,0,50,0,0
29505,-133.333333333333,4,3,0,50,0,0
29866,-133.333333333333,4,3,1,50,0,0
30047,-133.333333333333,4,3,0,50,0,0
32035,-133.333333333333,4,3,0,54,0,0
32758,-133.333333333333,4,3,0,58,0,0
33481,-83.3333333333333,4,3,0,62,0,0
34203,-71.4285714285714,4,3,0,66,0,0
34926,-71.4285714285714,4,3,0,70,0,0
35649,-71.4285714285714,4,3,1,70,0,0
35830,-71.4285714285714,4,3,0,70,0,0
38541,-71.4285714285714,4,3,1,70,0,0
38721,-71.4285714285714,4,3,0,70,0,0
41432,-71.4285714285714,4,3,1,70,0,0
41613,-71.4285714285714,4,3,0,70,0,0
44324,-71.4285714285714,4,3,1,70,0,0
44505,-71.4285714285714,4,3,0,70,0,0
46493,-83.3333333333333,4,3,0,65,0,0
47215,-83.3333333333333,4,3,1,65,0,0
47396,-83.3333333333333,4,3,0,65,0,0
50107,-83.3333333333333,4,3,1,65,0,0
50288,-83.3333333333333,4,3,0,65,0,0
52999,-83.3333333333333,4,3,1,65,0,0
53179,-83.3333333333333,4,3,0,65,0,0
55890,-83.3333333333333,4,3,0,45,0,0
56613,-200,4,3,0,45,0,0
58059,-83.3333333333333,4,3,0,50,0,0
58782,-83.3333333333333,4,3,1,50,0,0
58962,-83.3333333333333,4,3,0,50,0,0
61673,-83.3333333333333,4,3,1,50,0,0
61854,-83.3333333333333,4,3,0,50,0,0
64565,-83.3333333333333,4,3,1,50,0,0
64746,-83.3333333333333,4,3,0,50,0,0
67457,-83.3333333333333,4,3,0,53,0,0
68180,-83.3333333333333,4,3,0,56,0,0
68903,-83.3333333333333,4,3,0,62,0,0
69626,-83.3333333333333,4,3,0,65,0,0
70348,-83.3333333333333,4,3,1,65,0,0
70528,-83.3333333333333,4,3,0,65,0,0
73239,-83.3333333333333,4,3,1,65,0,0
73420,-83.3333333333333,4,3,0,65,0,0
76131,-83.3333333333333,4,3,1,65,0,0
76492,-83.3333333333333,4,3,0,65,0,0
79022,-83.3333333333333,4,3,1,65,0,0
79203,-83.3333333333333,4,3,0,65,0,0
80107,-66.6666666666667,4,2,2,65,0,0
81191,-66.6666666666667,4,3,0,65,0,0
81914,-66.6666666666667,4,3,1,65,0,0
82095,-66.6666666666667,4,3,0,65,0,0
84805,-66.6666666666667,4,3,1,65,0,0
84986,-66.6666666666667,4,3,0,65,0,0
86975,-66.6666666666667,4,3,0,50,0,0
87697,-66.6666666666667,4,3,1,50,0,0
87878,-66.6666666666667,4,3,0,50,0,0
88782,-133.333333333333,4,3,0,50,0,0
89505,-100,4,3,0,50,0,0
89866,-83.3333333333333,4,3,0,54,0,0
90590,-83.3333333333333,4,3,0,58,0,0
91312,-71.4285714285714,4,3,0,62,0,0
92035,-71.4285714285714,4,3,0,66,0,0
92758,-71.4285714285714,4,3,0,70,0,0
93481,-71.4285714285714,4,3,1,70,0,0
93661,-71.4285714285714,4,3,0,70,0,0
96372,-71.4285714285714,4,3,1,70,0,0
96553,-71.4285714285714,4,3,0,70,0,0
99264,-71.4285714285714,4,3,1,70,0,0
99444,-71.4285714285714,4,3,0,70,0,0
102155,-71.4285714285714,4,3,1,70,0,0
102336,-71.4285714285714,4,3,0,70,0,0
104324,-83.3333333333333,4,3,0,50,0,0
105047,-83.3333333333333,4,3,1,50,0,0
105227,-83.3333333333333,4,3,0,50,0,0
107938,-83.3333333333333,4,3,1,50,0,0
108119,-83.3333333333333,4,3,0,50,0,0
110830,-83.3333333333333,4,3,1,50,0,0
111011,-83.3333333333333,4,3,0,50,0,0
112999,-83.3333333333333,4,3,8,50,0,0
113722,-83.3333333333333,4,3,8,53,0,0
114445,-83.3333333333333,4,3,8,56,0,0
115168,-83.3333333333333,4,3,8,62,0,0
115890,-83.3333333333333,4,3,0,65,0,0
127095,-66.6666666666667,4,3,0,65,0,0
129264,-83.3333333333333,4,3,0,65,0,0
130348,-71.4285714285714,4,3,0,65,0,0
131071,-71.4285714285714,4,3,1,65,0,0
131252,-71.4285714285714,4,3,0,65,0,0
133240,-71.4285714285714,4,3,0,50,0,0
133962,-71.4285714285714,4,3,1,50,0,0
134143,-71.4285714285714,4,3,0,50,0,0
136132,-71.4285714285714,4,3,0,40,0,0
139023,-71.4285714285714,4,3,0,70,0,0
139746,-71.4285714285714,4,3,1,70,0,0
139926,-71.4285714285714,4,3,0,70,0,0
142637,-71.4285714285714,4,3,1,70,0,0
142818,-71.4285714285714,4,3,0,70,0,0
144806,-100,4,3,0,70,0,0
145529,-100,4,3,1,70,0,0
145709,-100,4,3,0,70,0,0
147697,-100,4,3,0,70,0,0
149143,-83.3333333333333,4,3,0,70,0,0
149866,-71.4285714285714,4,3,0,70,0,0
150589,-133.333333333333,4,2,2,35,0,0

[Colours]
Combo1 : 163,174,125
Combo2 : 255,176,138
Combo3 : 167,205,143
Combo4 : 226,156,80

[HitObjects]
33,54,228,6,0,B|86:16|134:68|107:82|148:118|202:90,1,181.999994445801,2|2,1:3|0:2,0:0:0:0:
300,19,770,1,0,1:0:0:0:
281,185,950,6,0,L|269:88,1,97.50000371933,2|0,1:2|1:0,0:0:0:0:
300,19,1493,1,0,1:0:0:0:
423,68,1673,6,0,P|434:70|420:57,1,48.750001859665,2|0,0:0|0:0,0:0:0:0:
374,130,2035,6,0,P|360:195|339:313,1,181.999994445801,4|8,1:3|0:2,0:0:0:0:
168,282,2577,6,0,P|241:298|234:395,1,155.999995239258,4|2,1:3|0:2,0:0:0:0:
95,249,3119,6,0,P|79:159|60:70,1,181.999994445801,4|2,1:3|0:0,0:0:0:0:
99,6,3661,1,0,1:0:0:0:
167,206,3842,6,0,P|159:161|149:116,1,65,2|0,1:2|0:0,0:0:0:0:
258,4,4203,1,0,1:0:0:0:
298,66,4384,1,0,1:0:0:0:
245,190,4565,6,0,P|237:145|227:100,1,65,2|8,0:2|0:2,0:0:0:0:
431,52,4926,6,0,B|443:116|375:137|374:107|324:129|326:189,1,181.999994445801,4|8,1:3|0:2,0:0:0:0:
413,310,5468,6,0,P|451:275|395:199,1,155.999995239258,4|0,1:3|0:0,0:0:0:0:
296,249,6011,5,4,0:0:0:0:
296,249,7818,1,4,0:0:0:0:
245,190,8360,1,4,0:0:0:0:
245,190,8902,6,0,P|183:200|131:210,1,97.50000371933,4|2,1:3|0:2,0:0:0:0:
89,255,9444,1,0,1:0:0:0:
259,272,9625,6,0,P|197:282|145:292,1,97.50000371933,4|2,1:3|0:2,0:0:0:0:
109,344,10167,1,0,1:0:0:0:
269,261,10348,6,0,P|340:283|358:356,1,155.999995239258,8|2,1:3|0:2,0:0:0:0:
345,358,10890,1,8,1:3:0:0:
448,311,11071,2,0,P|456:260|466:214,1,90.9999972229005,8|0,1:3|0:0,0:0:0:0:
410,129,11432,1,2,0:2:0:0:
413,144,11613,1,0,1:0:0:0:
409,161,11794,6,0,P|383:194|326:189,1,97.50000371933,4|2,1:2|0:0,0:0:0:0:
257,136,12336,1,0,1:0:0:0:
250,121,12517,6,0,P|256:82|264:48,1,65,2|0,1:2|0:0,0:0:0:0:
172,17,12878,1,0,1:0:0:0:
187,25,13059,1,0,1:0:0:0:
127,99,13240,6,0,P|56:113|-15:130,1,130,2|0,0:0|1:0,0:0:0:0:
70,193,13782,1,0,0:0:0:0:
136,85,13962,2,0,P|173:93|192:119,1,65,8|0,1:2|1:0,0:0:0:0:
252,224,14324,2,0,L|263:158,1,65,2|2,0:0|0:2,0:0:0:0:
157,247,14685,1,0,1:0:0:0:
161,261,14866,1,0,0:0:0:0:
238,234,15047,5,2,0:0:0:0:
285,306,15227,1,0,1:0:0:0:
243,368,15408,2,0,L|318:354,1,65,2|0,1:2|0:0,0:0:0:0:
442,317,15770,2,0,L|399:394,1,65,0|0,1:0|1:0,0:0:0:0:
352,201,16131,5,2,0:0:0:0:
331,126,16312,1,8,0:2:0:0:
343,208,16493,1,0,1:0:0:0:
358,287,16673,1,0,0:0:0:0:
243,240,16854,6,0,L|252:175,1,65,8|0,1:2|1:0,0:0:0:0:
144,137,17215,1,2,0:3:0:0:
150,155,17396,1,2,0:2:0:0:
101,258,17577,6,0,P|28:248|4:183,1,130,0|2,1:0|0:0,0:0:0:0:
14,191,18119,1,0,1:0:0:0:
82,65,18300,6,0,P|75:96|70:129,1,65,2|0,1:2|0:0,0:0:0:0:
174,79,18661,2,0,P|169:111|162:143,1,65,0|0,1:0|1:0,0:0:0:0:
255,241,19023,5,2,0:0:0:0:
176,256,19203,1,0,0:0:0:0:
261,232,19384,1,0,1:0:0:0:
343,210,19565,1,0,0:0:0:0:
455,116,19746,6,0,P|428:126|410:166,1,65,8|0,1:2|1:0,0:0:0:0:
503,258,20107,2,0,P|471:251|440:246,1,65,2|2,0:0|0:2,0:0:0:0:
365,347,20468,1,0,1:0:0:0:
351,342,20830,6,0,L|266:357,1,65,2|0,0:2|1:0,0:0:0:0:
190,375,21191,1,2,1:2:0:0:
115,315,21372,1,0,0:0:0:0:
58,366,21553,1,0,1:0:0:0:
20,343,21734,1,0,1:0:0:0:
8,350,22276,5,6,2:0:0:0:
136,334,22456,1,2,2:0:0:0:
4,338,22637,6,0,P|15:278|48:263,1,97.50000371933,6|0,2:0|0:0,0:0:0:0:
232,197,22999,2,0,P|185:183|140:164,1,97.50000371933,6|0,2:0|0:0,0:0:0:0:
49,17,23360,6,0,P|98:46|78:117,1,130,4|2,1:3|0:2,0:0:0:0:
29,161,23902,1,0,1:0:0:0:
176,99,24083,2,0,P|206:110|237:119,1,65,2|0,1:2|0:0,0:0:0:0:
380,27,24444,5,0,1:0:0:0:
300,66,24624,1,0,1:0:0:0:
376,41,24806,1,2,0:0:0:0:
454,49,24987,1,0,0:0:0:0:
433,240,25167,6,0,P|421:165|409:103,1,130,4|8,1:3|1:2,0:0:0:0:
358,290,25709,6,0,P|347:226|335:162,1,130,4|0,1:3|0:0,0:0:0:0:
352,305,26252,6,0,B|276:299|312:351|218:344,1,130,4|2,1:3|0:2,0:0:0:0:
142,298,26794,1,0,1:0:0:0:
52,372,26974,6,0,P|59:341|64:309,1,65,2|0,1:2|0:0,0:0:0:0:
43,204,27335,1,0,1:0:0:0:
26,133,27516,1,0,1:0:0:0:
58,67,27697,1,2,0:0:0:0:
38,129,27878,1,8,0:2:0:0:
154,225,28059,6,0,P|217:213|282:202,1,130,4|0,1:3|0:0,0:0:0:0:
135,144,28601,2,0,P|199:133|264:122,1,130,4|0,1:3|0:0,0:0:0:0:
338,144,29143,5,4,0:0:0:0:
347,152,29505,1,0,0:0:0:0:
419,135,29685,1,2,0:2:0:0:
438,145,29866,2,0,P|451:165|451:189,1,48.750001859665,2|0,1:2|0:0,0:0:0:0:
425,263,30227,1,0,0:0:0:0:
353,246,30407,1,0,0:0:0:0:
286,273,30589,2,0,P|272:293|272:317,1,48.750001859665
357,376,30950,5,4,0:0:0:0:
357,376,31493,1,4,0:0:0:0:
357,376,32035,6,0,P|419:366|471:356,1,97.50000371933,4|2,1:3|0:2,0:0:0:0:
511,308,32577,1,0,1:0:0:0:
338,292,32758,6,0,P|400:282|452:272,1,97.50000371933,4|2,1:3|0:2,0:0:0:0:
488,220,33300,1,0,1:0:0:0:
321,281,33481,6,0,B|234:268|278:330|172:320,1,155.999995239258,8|0,1:3|0:0,0:0:0:0:
108,281,34023,1,2,1:2:0:0:
145,151,34203,6,0,B|249:135|217:225|323:197,1,181.999994445801,8|0,1:3|0:0,0:0:0:0:
374,151,34745,1,2,0:2:0:0:
255,0,34926,5,4,1:3:0:0:
403,72,35288,5,2,0:2:0:0:
406,56,35468,1,2,0:2:0:0:
255,0,35649,6,0,P|290:11|323:59,1,90.9999972229005,2|0,1:2|0:0,0:0:0:0:
403,72,36011,5,0,1:0:0:0:
406,56,36191,1,0,1:0:0:0:
255,0,36372,6,0,P|290:11|323:59,1,90.9999972229005,2|0,0:0|0:0,0:0:0:0:
406,56,36734,5,4,1:3:0:0:
403,72,36914,1,2,0:2:0:0:
487,160,37095,2,0,P|441:165|416:205,1,90.9999972229005,8|4,1:2|1:3,0:0:0:0:
332,236,37456,5,0,0:0:0:0:
337,251,37637,1,2,0:0:0:0:
255,0,37818,5,4,1:3:0:0:
107,72,38179,5,2,0:2:0:0:
104,56,38359,1,4,1:3:0:0:
255,0,38541,6,0,P|220:11|187:59,1,90.9999972229005,2|0,1:2|0:0,0:0:0:0:
107,72,38903,5,0,1:0:0:0:
104,56,39083,1,0,1:0:0:0:
255,0,39264,6,0,P|220:11|187:59,1,90.9999972229005,2|0,0:0|0:0,0:0:0:0:
104,56,39626,5,4,1:3:0:0:
107,72,39806,1,0,0:0:0:0:
23,160,39987,1,8,1:2:0:0:
70,239,40167,2,0,L|53:132,1,90.9999972229005,2|2,0:0|0:1,0:0:0:0:
91,249,40529,1,4,1:3:0:0:
256,190,40709,6,0,L|278:92,1,90.9999972229005,4|0,1:3|0:0,0:0:0:0:
173,179,41071,1,2,0:2:0:0:
262,208,41252,1,0,1:0:0:0:
391,149,41432,6,0,L|371:60,1,90.9999972229005,2|0,1:2|0:0,0:0:0:0:
483,140,41794,1,0,1:0:0:0:
384,164,41974,1,0,1:0:0:0:
236,89,42155,6,0,L|255:0,1,90.9999972229005,2|0,0:0|0:0,0:0:0:0:
144,75,42517,1,4,0:0:0:0:
242,105,42697,1,0,0:0:0:0:
397,137,42878,6,0,P|353:160|344:211,1,90.9999972229005,8|4,1:2|0:0,0:0:0:0:
414,263,43240,1,0,0:0:0:0:
431,270,43420,1,2,0:0:0:0:
256,382,43601,6,0,L|256:277,1,90.9999972229005,4|0,1:3|0:0,0:0:0:0:
159,236,43962,5,2,0:2:0:0:
75,256,44143,1,0,1:0:0:0:
256,188,44324,6,0,L|256:83,1,90.9999972229005,2|0,1:2|0:0,0:0:0:0:
338,50,44685,5,0,1:0:0:0:
424,72,44866,1,0,1:0:0:0:
260,7,45047,5,2,0:0:0:0:
260,7,45227,1,0,0:0:0:0:
176,83,45408,6,0,P|132:81|105:34,1,90.9999972229005,4|0,1:3|0:0,0:0:0:0:
42,145,45770,1,2,1:3:0:0:
133,188,45950,1,8,1:3:0:0:
38,126,46312,1,8,1:3:0:0:
148,183,46493,5,4,1:3:0:0:
134,259,46673,1,0,0:2:0:0:
174,327,46854,1,0,0:2:0:0:
125,272,47034,1,0,1:2:0:0:
206,228,47215,2,0,L|296:241,1,77.999997619629,2|0,1:2|0:2,0:0:0:0:
396,197,47577,1,0,1:0:0:0:
313,311,47758,1,0,1:0:0:0:
454,242,47938,5,2,0:2:0:0:
468,166,48118,1,0,0:2:0:0:
428,98,48299,1,4,1:3:0:0:
477,153,48481,1,0,0:2:0:0:
396,197,48661,1,10,1:2:0:0:
333,151,48842,2,0,P|241:137|207:132,2,77.999997619629,4|0|2,1:3|0:2|0:2,0:0:0:0:
477,27,49384,5,4,1:3:0:0:
403,13,49565,1,0,0:2:0:0:
313,75,49746,1,0,0:2:0:0:
278,62,49926,1,0,1:0:0:0:
236,79,50107,1,2,1:2:0:0:
184,23,50288,1,0,0:2:0:0:
135,81,50468,1,0,1:2:0:0:
139,93,50649,1,0,1:2:0:0:
219,163,50830,5,0,0:2:0:0:
198,236,51011,1,8,1:2:0:0:
126,259,51191,2,0,L|43:241,1,77.999997619629,4|0,1:3|0:2,0:0:0:0:
194,315,51553,1,10,0:2:0:0:
278,291,51734,2,0,L|358:279,1,77.999997619629,4|0,1:3|0:2,0:0:0:0:
281,302,52095,1,8,1:2:0:0:
388,215,52276,5,4,1:3:0:0:
463,185,52457,1,0,0:2:0:0:
511,245,52638,1,0,0:2:0:0:
460,194,52818,1,0,1:0:0:0:
445,115,52999,2,0,P|470:47|481:17,1,77.999997619629,2|0,1:2|0:2,0:0:0:0:
370,97,53360,1,0,1:2:0:0:
362,88,53541,1,0,1:2:0:0:
277,50,53721,5,0,0:2:0:0:
210,82,53902,1,0,0:2:0:0:
184,177,54083,1,4,1:3:0:0:
184,177,54264,1,0,0:2:0:0:
127,123,54444,1,10,1:2:0:0:
51,138,54625,2,0,P|29:197|23:217,2,77.999997619629,4|4|0,1:3|0:2|0:2,0:0:0:0:
73,283,55167,6,0,P|160:309|192:374,1,155.999995239258,4|2,1:3|0:2,0:0:0:0:
180,377,55709,1,0,1:0:0:0:
214,250,55890,5,8,0:2:0:0:
214,250,56613,2,0,L|259:243,1,32.5
309,291,56974,1,0,0:0:0:0:
309,291,57155,1,0,0:0:0:0:
374,213,57336,2,0,L|367:258,2,32.5
383,207,58059,6,0,L|362:121,1,77.999997619629,2|0,1:0|0:0,0:0:0:0:
420,34,58420,1,2,0:0:0:0:
416,51,58601,1,0,1:0:0:0:
289,66,58782,2,0,P|325:80|351:110,1,77.999997619629,2|0,1:2|0:0,0:0:0:0:
200,183,59143,1,0,1:0:0:0:
276,146,59324,1,0,1:0:0:0:
107,74,59505,2,0,B|70:56|70:56|111:49,1,77.999997619629,0|2,0:0|0:2,0:0:0:0:
188,102,59866,6,0,P|174:163|156:258,1,155.999995239258,4|8,1:3|0:2,0:0:0:0:
204,337,60408,2,0,P|234:276|322:267,1,155.999995239258,4|2,1:3|0:2,0:0:0:0:
350,341,60950,5,4,1:3:0:0:
431,310,61131,1,0,0:0:0:0:
404,228,61312,1,2,0:0:0:0:
421,232,61493,1,0,1:0:0:0:
377,152,61673,5,2,1:2:0:0:
329,166,61854,1,0,0:0:0:0:
512,114,62035,1,0,1:0:0:0:
394,61,62215,1,0,1:0:0:0:
302,145,62396,2,0,B|257:134|257:134|300:121,1,77.999997619629,0|2,1:0|1:2,0:0:0:0:
403,173,62758,6,0,P|392:234|379:333,1,155.999995239258,4|8,1:3|0:2,0:0:0:0:
319,379,63300,2,0,B|227:388|276:306|172:309,1,155.999995239258,4|2,1:3|0:2,0:0:0:0:
74,364,63842,5,4,1:3:0:0:
54,283,64023,1,0,0:0:0:0:
139,231,64203,1,2,0:0:0:0:
135,248,64384,1,0,1:0:0:0:
57,269,64565,5,2,1:2:0:0:
37,188,64746,1,0,0:0:0:0:
134,68,64926,5,0,1:0:0:0:
118,153,65107,1,0,1:0:0:0:
43,45,65288,1,2,0:2:0:0:
39,32,65469,1,2,0:2:0:0:
140,57,65649,6,0,B|231:37|208:119|296:97,1,155.999995239258,4|8,1:3|0:1,0:0:0:0:
373,151,66191,2,0,B|469:97|336:89|324:259,1,155.999995239258,4|0,1:3|0:0,0:0:0:0:
348,283,66734,5,4,1:3:0:0:
352,292,67095,1,2,0:2:0:0:
432,280,67276,1,0,1:0:0:0:
276,380,67456,5,4,1:3:0:0:
177,298,67818,5,2,0:2:0:0:
267,292,67999,1,0,1:0:0:0:
94,384,68179,5,4,1:3:0:0:
4,315,68541,5,2,0:2:0:0:
88,308,68721,1,0,1:0:0:0:
167,195,68902,6,0,P|119:167|117:134,1,77.999997619629,4|0,1:3|0:0,0:0:0:0:
167,40,69264,1,2,0:2:0:0:
147,50,69444,1,0,1:0:0:0:
0,0,69625,6,0,P|27:97|35:187,1,155.999995239258,4|2,1:2|0:0,0:0:0:0:
10,273,70167,1,0,1:0:0:0:
81,325,70348,2,0,P|87:274|98:232,1,77.999997619629,2|0,1:2|0:0,0:0:0:0:
207,114,70709,1,0,1:0:0:0:
257,175,70890,1,0,1:0:0:0:
447,114,71071,6,0,P|350:87|260:79,1,155.999995239258,2|0,0:0|1:0,0:0:0:0:
205,273,71613,1,0,0:0:0:0:
169,191,71794,2,0,P|219:184|261:173,1,77.999997619629,8|0,1:2|1:0,0:0:0:0:
367,61,72155,1,2,0:0:0:0:
312,8,72336,1,2,0:2:0:0:
217,97,72517,6,0,P|179:79|126:83,2,77.999997619629,0|2|2,1:0|0:2|0:0,0:0:0:0:
223,109,73059,1,0,1:0:0:0:
312,215,73240,2,0,P|387:218|432:142,1,155.999995239258,2|0,1:2|1:0,0:0:0:0:
420,83,73782,1,0,1:0:0:0:
372,26,73962,6,0,B|346:-2|346:-2|387:80,1,77.999997619629,2|8,0:0|0:2,0:0:0:0:
431,157,74324,1,0,1:0:0:0:
502,180,74505,1,0,0:0:0:0:
366,220,74685,2,0,P|271:236|263:238,1,77.999997619629,8|0,1:2|1:0,0:0:0:0:
497,307,75047,2,0,P|458:302|419:295,1,77.999997619629,2|2,0:0|0:2,0:0:0:0:
234,174,75408,6,0,P|196:164|143:160,2,77.999997619629,0|0|2,1:0|0:0|0:0,0:0:0:0:
291,230,75950,1,0,1:0:0:0:
216,95,76131,2,0,P|179:66|121:57,1,77.999997619629,2|0,1:2|0:0,0:0:0:0:
191,247,76493,2,0,P|154:276|96:285,1,77.999997619629,0|0,1:0|1:0,0:0:0:0:
93,119,76854,6,0,P|69:119|85:124,1,77.999997619629,2|0,0:0|0:0,0:0:0:0:
64,196,77215,1,0,1:0:0:0:
0,234,77396,1,0,0:0:0:0:
130,276,77577,2,0,P|225:292|233:294,1,77.999997619629,8|0,1:2|1:0,0:0:0:0:
0,358,77938,2,0,P|38:354|77:347,1,77.999997619629,2|2,0:0|0:2,0:0:0:0:
233,218,78300,6,0,P|316:276|346:342,1,155.999995239258,0|2,1:0|0:2,0:0:0:0:
409,362,78842,1,0,1:0:0:0:
452,221,79023,2,0,P|427:254|409:300,2,77.999997619629,2|0|0,1:2|0:0|1:0,0:0:0:0:
506,168,79565,1,0,1:0:0:0:
257,3,80107,5,6,2:0:0:0:
385,19,80287,1,2,2:0:0:0:
253,15,80468,6,0,P|265:50|286:122,1,97.50000371933,6|0,2:0|0:0,0:0:0:0:
489,90,80830,2,0,P|442:104|426:158,1,97.50000371933,6|0,2:0|0:0,0:0:0:0:
502,276,81191,5,4,1:3:0:0:
188,208,81553,1,2,0:2:0:0:
501,261,81914,1,2,1:2:0:0:
420,316,82095,2,0,P|412:268|401:221,1,97.50000371933,0|0,0:0|1:0,0:0:0:0:
431,327,82456,1,0,1:0:0:0:
326,255,82637,6,0,B|262:251|238:300|268:303|243:369|180:354,2,195.00000743866,2|4|8,0:2|1:3|0:2,0:0:0:0:
222,202,83541,1,4,1:3:0:0:
293,155,83721,1,0,0:0:0:0:
141,182,83902,1,0,0:0:0:0:
82,48,84083,6,0,P|70:88|54:158,1,97.50000371933,4|0,1:3|0:0,0:0:0:0:
55,248,84444,2,0,P|44:187|40:152,1,97.50000371933,2|0,0:2|1:0,0:0:0:0:
196,54,84806,5,2,1:2:0:0:
181,42,84987,1,0,0:0:0:0:
354,75,85167,1,0,1:0:0:0:
252,111,85348,1,0,1:0:0:0:
443,13,85529,5,2,0:2:0:0:
444,120,85709,2,0,L|425:16,1,97.50000371933,8|4,0:2|1:3,0:0:0:0:
461,131,86071,1,0,0:0:0:0:
352,182,86252,2,0,L|305:393,1,195.00000743866,8|0,0:2|0:0,0:0:0:0:
368,307,86794,1,0,0:0:0:0:
298,379,86974,5,4,0:0:0:0:
217,351,87336,1,0,0:0:0:0:
137,369,87697,5,2,1:2:0:0:
214,338,87878,1,0,0:0:0:0:
65,331,88059,5,0,0:0:0:0:
134,380,88240,1,0,0:0:0:0:
0,381,88420,5,0,0:0:0:0:
67,342,88601,1,0,0:0:0:0:
34,251,88782,6,0,L|11:135,1,97.50000371933,4|8,0:0|0:2,0:0:0:0:
74,94,89324,1,4,0:0:0:0:
29,152,89505,2,0,L|54:77,1,65
171,24,89866,5,4,1:3:0:0:
97,0,90047,1,0,0:0:0:0:
226,108,90227,5,0,0:0:0:0:
182,33,90408,1,0,1:0:0:0:
338,138,90589,5,4,1:3:0:0:
240,126,90770,1,0,0:0:0:0:
443,57,90950,5,0,0:0:0:0:
354,146,91131,1,0,1:0:0:0:
500,342,91312,6,0,P|489:297|472:254,1,90.9999972229005,8|0,1:3|0:0,0:0:0:0:
289,286,91673,1,0,0:0:0:0:
376,331,91854,1,8,1:3:0:0:
345,158,92035,1,8,1:3:0:0:
180,346,92396,5,2,0:3:0:0:
180,346,92577,1,8,1:3:0:0:
255,384,92758,6,0,L|242:237,1,90.9999972229005,4|0,1:3|0:0,0:0:0:0:
403,312,93120,5,2,0:2:0:0:
406,328,93300,1,2,0:2:0:0:
255,384,93481,2,0,L|242:237,1,90.9999972229005,2|0,1:2|0:0,0:0:0:0:
403,312,93843,5,0,1:0:0:0:
406,328,94023,1,0,1:0:0:0:
255,384,94203,2,0,L|242:237,1,90.9999972229005,2|0,0:0|0:0,0:0:0:0:
406,328,94566,5,4,1:3:0:0:
403,312,94746,1,2,0:2:0:0:
246,293,94926,2,0,L|259:440,1,90.9999972229005,8|4,1:2|1:3,0:0:0:0:
298,216,95288,5,0,0:0:0:0:
332,148,95469,1,2,0:0:0:0:
265,90,95649,6,0,L|257:0,1,90.9999972229005,4|0,1:3|0:0,0:0:0:0:
109,72,96011,5,2,0:2:0:0:
106,56,96191,1,2,0:2:0:0:
265,90,96372,2,0,L|257:0,1,90.9999972229005,2|0,1:2|0:0,0:0:0:0:
109,72,96734,5,0,1:0:0:0:
106,56,96914,1,0,1:0:0:0:
265,90,97095,2,0,L|257:0,1,90.9999972229005,2|10,0:0|0:2,0:0:0:0:
106,56,97457,5,4,1:3:0:0:
109,72,97637,1,2,0:2:0:0:
257,0,97818,2,0,L|266:91,1,90.9999972229005,8|8,1:2|0:3,0:0:0:0:
204,230,98360,1,4,1:3:0:0:
195,246,98541,6,0,P|169:202|173:138,1,90.9999972229005,4|0,1:3|0:0,0:0:0:0:
344,62,98903,1,2,0:2:0:0:
360,131,99084,1,0,1:0:0:0:
433,157,99264,6,0,P|459:113|438:50,1,90.9999972229005,2|0,1:2|0:0,0:0:0:0:
483,244,99626,1,0,1:0:0:0:
475,249,99806,1,0,1:0:0:0:
359,307,99987,6,0,P|358:254|419:215,1,90.9999972229005,2|0,0:0|0:0,0:0:0:0:
482,342,100349,1,4,0:0:0:0:
420,380,100529,1,0,0:0:0:0:
235,290,100710,6,0,P|279:313|288:364,1,90.9999972229005,8|4,1:2|0:0,0:0:0:0:
214,216,101071,5,0,0:0:0:0:
180,148,101252,1,2,0:0:0:0:
246,90,101432,6,0,L|255:0,1,90.9999972229005,4|0,1:3|0:0,0:0:0:0:
403,72,101794,5,2,0:2:0:0:
406,56,101974,1,2,0:2:0:0:
246,90,102155,2,0,L|255:0,1,90.9999972229005,2|0,1:2|0:0,0:0:0:0:
403,72,102517,5,0,1:0:0:0:
406,56,102697,1,0,1:0:0:0:
246,90,102878,2,0,L|255:0,1,90.9999972229005,2|0,0:0|0:0,0:0:0:0:
406,56,103240,5,4,1:3:0:0:
403,72,103420,1,0,0:0:0:0:
169,0,103601,2,0,L|160:90,2,90.9999972229005,2|8|0,1:3|1:3|0:0,0:0:0:0:
150,102,104143,1,8,1:3:0:0:
33,114,104324,6,0,P|64:135|80:170,1,77.999997619629,4|0,1:3|0:0,0:0:0:0:
165,248,104685,2,0,P|126:255|89:268,1,77.999997619629,0|0,0:0|1:0,0:0:0:0:
30,355,105047,5,2,1:2:0:0:
25,338,105227,1,0,0:0:0:0:
125,355,105408,1,0,1:0:0:0:
222,369,105589,1,0,1:0:0:0:
220,384,105770,2,0,L|205:302,1,77.999997619629,2|0,0:2|0:0,0:0:0:0:
335,158,106131,6,0,P|317:234|303:310,1,155.999995239258,4|8,1:3|1:2,0:0:0:0:
369,378,106673,2,0,P|393:316|477:310,1,155.999995239258,4|2,1:3|0:0,0:0:0:0:
493,207,107215,6,0,B|515:239|515:239|512:201,1,77.999997619629,4|0,1:3|0:0,0:0:0:0:
457,127,107577,2,0,P|414:141|405:173,1,77.999997619629,2|0,0:2|0:0,0:0:0:0:
339,227,107938,5,2,1:2:0:0:
258,244,108119,1,0,0:0:0:0:
196,171,108300,1,0,1:0:0:0:
250,253,108481,1,0,1:0:0:0:
244,341,108661,2,0,L|259:265,1,77.999997619629,0|8,0:0|0:2,0:0:0:0:
114,227,109023,5,4,1:3:0:0:
153,288,109203,1,0,0:0:0:0:
27,268,109384,5,8,0:2:0:0:
119,213,109565,2,0,P|96:180|58:180,1,77.999997619629,4|0,1:3|0:0,0:0:0:0:
31,278,109926,1,8,0:2:0:0:
150,310,110107,5,4,1:3:0:0:
222,248,110288,1,0,0:0:0:0:
183,160,110468,2,0,L|168:73,1,77.999997619629,2|0,0:2|0:0,0:0:0:0:
339,24,110830,5,2,1:2:0:0:
324,16,111011,1,0,0:0:0:0:
312,104,111191,1,0,1:0:0:0:
300,193,111372,1,0,1:0:0:0:
315,187,111553,2,0,P|360:199|377:244,1,77.999997619629,2|0,0:2|0:0,0:0:0:0:
490,158,111914,6,0,P|475:222|457:320,1,155.999995239258,4|8,1:3|1:2,0:0:0:0:
369,384,112456,2,0,B|276:378|336:311|234:298,1,155.999995239258,4|0,1:3|0:0,0:0:0:0:
156,337,112999,5,4,1:3:0:0:
162,354,113179,1,2,0:2:0:0:
56,297,113360,1,2,0:2:0:0:
126,209,113541,1,2,1:2:0:0:
48,136,113721,5,4,1:3:0:0:
33,140,113902,1,2,0:2:0:0:
99,43,114083,1,2,0:2:0:0:
198,113,114264,1,2,1:2:0:0:
271,33,114444,5,4,1:3:0:0:
267,19,114625,1,2,0:2:0:0:
368,85,114806,1,2,0:2:0:0:
300,182,114987,1,2,1:2:0:0:
405,247,115167,5,4,1:3:0:0:
313,299,115348,1,2,0:2:0:0:
450,317,115529,5,2,0:2:0:0:
315,284,115709,1,2,1:2:0:0:
255,192,115890,6,0,L|161:206,1,77.999997619629,4|0,1:3|0:0,0:0:0:0:
119,153,116252,1,2,0:2:0:0:
51,186,116432,1,4,3:0:0:0:
84,71,116613,2,0,B|232:83|232:83|250:110,1,155.999995239258,0|4,1:0|0:0,0:0:0:0:
255,192,117155,1,2,0:2:0:0:
291,38,117336,6,0,B|312:8|312:8|250:31,1,77.999997619629,2|0,0:0|0:0,0:0:0:0:
353,125,117697,1,4,0:0:0:0:
428,107,117878,1,0,0:0:0:0:
501,217,118059,1,8,0:2:0:0:
428,107,118240,5,4,0:0:0:0:
512,64,118420,2,0,L|495:176,1,77.999997619629
429,253,118782,5,4,0:0:0:0:
448,328,118962,1,0,0:0:0:0:
378,292,119144,1,0,0:0:0:0:
411,237,119324,1,4,0:0:0:0:
321,343,119505,2,0,B|235:323|252:378|152:363,1,155.999995239258,0|4,1:0|0:0,0:0:0:0:
100,328,120047,1,4,0:0:0:0:
143,216,120227,5,0,0:0:0:0:
183,292,120408,1,8,0:2:0:0:
70,182,120589,1,4,0:0:0:0:
10,232,120770,1,0,0:0:0:0:
216,211,120951,1,8,0:2:0:0:
210,203,121132,5,8,0:0:0:0:
183,292,121312,2,0,L|295:275,1,77.999997619629,2|8,0:1|0:0,0:0:0:0:
381,211,121673,5,4,0:0:0:0:
423,143,121854,1,0,0:0:0:0:
337,124,122034,1,0,0:0:0:0:
263,144,122215,1,4,0:0:0:0:
190,34,122396,1,0,1:0:0:0:
285,12,122577,1,0,0:0:0:0:
168,109,122758,1,4,0:0:0:0:
168,109,122848,2,0,L|106:101,1,38.9999988098145,0|4,0:0|0:0,0:0:0:0:
263,144,123119,6,0,B|341:139|309:54|401:68,1,155.999995239258,0|4,0:0|0:0,0:0:0:0:
467,92,123661,1,0,0:0:0:0:
408,190,123842,2,0,B|420:206|435:182|425:141|381:130|364:141,1,77.999997619629,8|4,0:2|0:0,0:0:0:0:
268,264,124203,5,0,0:0:0:0:
277,275,124384,1,0,0:0:0:0:
359,284,124565,2,0,P|381:270|365:294,1,77.999997619629,4|0,0:0|0:0,0:3:0:0:
477,259,124926,1,0,0:0:0:0:
435,352,125107,1,4,0:0:0:0:
277,275,125288,6,2,B|196:244|220:325|155:317|116:304,1,155.999995239258,10|4,0:1|0:0,0:1:0:0:
76,261,125830,1,4,0:0:0:0:
132,126,127095,6,2,B|111:138|105:165|105:165|104:139|84:116,1,97.50000371933,6|0,0:1|0:0,0:1:0:0:
24,77,127456,5,2,1:3:0:0:
111,35,127818,1,2,0:2:0:0:
210,90,128179,5,2,0:2:0:0:
119,49,128360,1,2,0:2:0:0:
286,33,128541,5,2,0:2:0:0:
202,74,128721,1,2,0:2:0:0:
370,87,128902,5,2,0:2:0:0:
287,46,129083,1,2,0:2:0:0:
464,39,129264,5,4,1:3:0:0:
376,102,129444,2,0,B|377:143|377:143|395:111,1,77.999997619629,0|8,0:0|1:2,0:0:0:0:
287,46,129806,5,4,1:3:0:0:
210,90,129987,1,0,0:0:0:0:
111,35,130167,1,0,0:0:0:0:
12,99,130348,6,0,P|22:129|37:193,1,90.9999972229005,4|0,1:3|0:0,0:0:0:0:
154,280,130709,1,2,0:0:0:0:
55,345,130890,1,0,1:0:0:0:
159,294,131071,2,0,P|111:273|108:233,1,90.9999972229005,2|0,1:2|0:0,0:0:0:0:
287,188,131432,5,0,1:0:0:0:
197,208,131613,1,0,1:0:0:0:
296,176,131794,1,0,0:0:0:0:
395,150,131974,1,8,0:2:0:0:
468,14,132155,6,0,P|403:75|386:163,1,181.999994445801,4|8,1:3|0:2,0:0:0:0:
494,212,132697,2,0,B|533:207|515:152|470:218,1,90.9999972229005,4|0,1:3|0:0,0:0:0:0:
460,313,133059,1,8,0:1:0:0:
469,329,133240,5,4,0:0:0:0:
52,265,133601,1,0,0:0:0:0:
141,239,133782,1,4,0:0:0:0:
35,258,133962,5,2,1:2:0:0:
151,222,134143,1,0,0:0:0:0:
217,312,134324,1,0,1:0:0:0:
302,341,134505,1,0,1:0:0:0:
358,292,134685,2,0,P|312:317|270:347,1,90.9999972229005,2|2,0:2|0:2,0:0:0:0:
471,242,135047,6,0,P|367:211|293:187,1,181.999994445801,4|8,1:3|0:2,0:0:0:0:
236,118,135589,1,4,1:3:0:0:
302,54,135770,2,0,P|255:64|226:116,1,90.9999972229005,0|2,0:0|0:2,0:0:0:0:
127,31,136131,5,0,0:0:0:0:
127,31,136312,1,0,0:0:0:0:
127,31,136493,1,0,0:0:0:0:
41,47,136854,5,0,0:0:0:0:
41,47,137035,1,0,0:0:0:0:
41,47,137215,1,0,0:0:0:0:
41,47,137396,1,0,0:0:0:0:
104,128,137577,5,0,0:0:0:0:
104,128,137758,1,0,0:0:0:0:
19,189,137938,5,0,0:0:0:0:
19,189,138119,1,0,0:0:0:0:
164,210,138300,5,2,0:2:0:0:
187,63,138661,1,0,0:0:0:0:
187,63,138842,1,2,0:2:0:0:
256,1,139023,5,4,1:3:0:0:
404,73,139385,5,2,0:2:0:0:
407,57,139566,1,2,0:2:0:0:
266,91,139746,6,0,L|255:0,1,90.9999972229005,2|0,1:2|0:0,0:0:0:0:
404,73,140108,5,0,1:0:0:0:
407,57,140288,1,0,1:0:0:0:
266,91,140468,6,0,L|255:0,1,90.9999972229005,2|0,0:0|0:0,0:0:0:0:
407,57,140831,5,4,1:3:0:0:
404,73,141011,1,2,0:2:0:0:
487,160,141192,2,0,P|441:165|416:205,1,90.9999972229005,8|4,1:2|1:3,0:0:0:0:
333,237,141554,5,0,0:0:0:0:
338,252,141734,1,2,0:0:0:0:
256,383,141914,5,4,1:3:0:0:
108,311,142276,5,2,0:2:0:0:
105,327,142457,1,2,0:2:0:0:
256,383,142637,6,0,L|246:293,1,90.9999972229005,2|0,1:2|0:0,0:0:0:0:
108,311,142999,5,0,1:0:0:0:
105,327,143179,1,0,1:0:0:0:
256,383,143360,6,0,L|245:292,1,90.9999972229005,2|0,0:0|0:0,0:0:0:0:
105,327,143722,5,4,1:3:0:0:
108,311,143902,1,2,0:2:0:0:
94,203,144083,2,0,P|140:208|165:248,1,90.9999972229005,8|4,1:2|0:3,0:0:0:0:
333,147,144445,5,0,0:0:0:0:
338,132,144625,1,2,0:0:0:0:
256,0,144806,5,4,0:0:0:0:
149,78,145168,1,0,0:0:0:0:
160,88,145349,1,2,0:2:0:0:
256,0,145529,5,2,0:2:0:0:
338,71,145890,1,0,0:0:0:0:
327,81,146071,1,0,0:0:0:0:
256,0,146252,5,0,0:0:0:0:
149,78,146613,1,4,0:0:0:0:
160,88,146794,1,0,0:0:0:0:
318,184,146974,5,8,0:2:0:0:
160,237,147337,1,2,0:1:0:0:
143,244,147517,1,0,0:0:0:0:
257,383,147698,6,0,L|257:278,1,65,4|0,1:3|0:0,0:0:0:0:
160,237,148060,5,2,0:2:0:0:
77,274,148240,1,0,1:0:0:0:
333,342,148421,6,0,L|333:237,1,65,4|0,1:3|0:0,0:0:0:0:
156,156,148782,5,2,0:2:0:0:
73,193,148962,1,0,1:0:0:0:
256,224,149143,6,0,L|256:119,1,77.999997619629,8|0,1:3|0:0,0:0:0:0:
141,67,149505,5,2,0:2:0:0:
58,104,149685,1,0,1:0:0:0:
334,192,149866,6,0,L|334:87,1,90.9999972229005,8|0,1:3|0:0,0:0:0:0:
246,3,150227,1,2,0:0:0:0:
253,12,150408,1,0,0:0:0:0:
263,21,150589,6,0,L|317:11,2,48.750001859665,2|2|2,2:0|2:0|2:0,2:0:0:0:
144,98,151312,2,0,P|79:84|26:78,1,108.333337465922,2|2,2:0|0:3,2:0:0:0:
222,176,152035,6,0,L|243:98,2,73.1250027894975,2|2|2,2:0|2:0|2:0,2:0:0:0:
128,223,152758,2,0,P|142:288|148:341,1,108.333337465922,2|2,2:0|0:3,2:0:0:0:
