osu file format v14

[General]
AudioFilename: audio.mp3
AudioLeadIn: 0
PreviewTime: 34474
Countdown: 0
SampleSet: Drum
StackLeniency: 0.7
Mode: 0
LetterboxInBreaks: 0
WidescreenStoryboard: 1

[Editor]
Bookmarks: 8902,23360,34203,34926,46493,58059,69625,81191,92758,104324,115890,127456,139023,150589
DistanceSpacing: 1.7
BeatDivisor: 8
GridSize: 32
TimelineZoom: 1.5

[Metadata]
Title:Up
TitleUnicode:Up
Artist:Cardi B
ArtistUnicode:Cardi B
Creator:wafer
Version:Vanchanical's Hard
Source:
Tags:english rap hip-hop hip hop jasontime jasontime12345 -_ascended_- -ascended- ascended vanchanical ancel ancelysia goopert kami no kotoba jounzan evilelvis natteke desu evilelvisv2
BeatmapID:2845809
BeatmapSetID:1375452

[Difficulty]
HPDrainRate:4
CircleSize:4
OverallDifficulty:6
ApproachRate:8
SliderMultiplier:2.3
SliderTickRate:1

[Events]
//Background and Video events
0,0,"alex-harvey-nqSUnXINsp4-unsplash.jpg",0,0
//Break Periods
2,6211,8152
2,29343,31285
2,56090,57309
2,87174,89116
//Storyboard Layer 0 (Background)
//Storyboard Layer 1 (Fail)
//Storyboard Layer 2 (Pass)
//Storyboard Layer 3 (Foreground)
//Storyboard Layer 4 (Overlay)
//Storyboard Sound Samples

[TimingPoints]
228,722.89156626506,4,3,0,50,1,0
228,-100,4,3,0,50,0,0
950,-100,4,3,1,50,0,0
1312,-100,4,3,0,50,0,0
3842,-100,4,3,1,50,0,0
4023,-100,4,3,0,50,0,0
6011,-100,4,3,0,45,0,0
8902,-100,4,3,0,50,0,0
9625,-100,4,3,0,53,0,0
10348,-100,4,3,0,56,0,0
11071,-100,4,3,0,62,0,0
11794,-100,4,3,0,65,0,0
12517,-100,4,3,1,65,0,0
12697,-100,4,3,0,65,0,0
15408,-100,4,3,1,65,0,0
15770,-100,4,3,0,65,0,0
18300,-100,4,3,1,65,0,0
18661,-100,4,3,0,65,0,0
21191,-100,4,3,1,65,0,0
21372,-100,4,3,0,65,0,0
22276,-100,4,2,2,65,0,0
23360,-100,4,3,0,65,0,0
24083,-100,4,3,1,65,0,0
24264,-100,4,3,0,65,0,0
26974,-100,4,3,1,65,0,0
27155,-100,4,3,0,65,0,0
29143,-100,4,3,0,50,0,0
29866,-100,4,3,1,50,0,0
30047,-100,4,3,0,50,0,0
32035,-100,4,3,0,54,0,0
32758,-100,4,3,0,58,0,0
33481,-100,4,3,0,62,0,0
34203,-100,4,3,0,66,0,0
34565,-100,4,3,0,66,0,0
34926,-100,4,3,0,70,0,1
35649,-100,4,3,1,70,0,1
35830,-100,4,3,0,70,0,1
38541,-100,4,3,1,70,0,1
38721,-100,4,3,0,70,0,1
41432,-100,4,3,1,70,0,1
41613,-100,4,3,0,70,0,1
44324,-100,4,3,1,70,0,1
44505,-100,4,3,0,70,0,1
46493,-100,4,3,0,65,0,0
47215,-100,4,3,1,65,0,0
47396,-100,4,3,0,65,0,0
50107,-100,4,3,1,65,0,0
50288,-100,4,3,0,65,0,0
52999,-100,4,3,1,65,0,0
53179,-100,4,3,0,65,0,0
55890,-100,4,3,0,45,0,0
58059,-100,4,3,0,50,0,0
58782,-100,4,3,1,50,0,0
58962,-100,4,3,0,50,0,0
61673,-100,4,3,1,50,0,0
61854,-100,4,3,0,50,0,0
64565,-100,4,3,1,50,0,0
64746,-100,4,3,0,50,0,0
67457,-100,4,3,0,53,0,0
68180,-100,4,3,0,56,0,0
68903,-100,4,3,0,62,0,0
69626,-100,4,3,0,65,0,0
70348,-100,4,3,1,65,0,0
70528,-100,4,3,0,65,0,0
73239,-100,4,3,1,65,0,0
73420,-100,4,3,0,65,0,0
76131,-100,4,3,1,65,0,0
76492,-100,4,3,0,65,0,0
79022,-100,4,3,1,65,0,0
79203,-100,4,3,0,65,0,0
80107,-100,4,2,2,65,0,0
81191,-100,4,3,0,65,0,0
81914,-100,4,3,1,65,0,0
82095,-100,4,3,0,65,0,0
84805,-100,4,3,1,65,0,0
84986,-100,4,3,0,65,0,0
86975,-100,4,3,0,50,0,0
87697,-100,4,3,1,50,0,0
87878,-100,4,3,0,50,0,0
89867,-100,4,3,0,54,0,0
90590,-100,4,3,0,58,0,0
91313,-100,4,3,0,62,0,0
92035,-100,4,3,0,66,0,0
92396,-100,4,3,0,66,0,0
92758,-100,4,3,0,70,0,1
93481,-100,4,3,1,70,0,1
93661,-100,4,3,0,70,0,1
96372,-100,4,3,1,70,0,1
96553,-100,4,3,0,70,0,1
99264,-100,4,3,1,70,0,1
99444,-100,4,3,0,70,0,1
102155,-100,4,3,1,70,0,1
102336,-100,4,3,0,70,0,1
104324,-100,4,3,0,50,0,0
105047,-100,4,3,1,50,0,0
105227,-100,4,3,0,50,0,0
107938,-100,4,3,1,50,0,0
108119,-100,4,3,0,50,0,0
110830,-100,4,3,1,50,0,0
111011,-100,4,3,0,50,0,0
112999,-100,4,3,8,50,0,0
113722,-100,4,3,8,53,0,0
114445,-100,4,3,8,56,0,0
115168,-100,4,3,8,62,0,0
115890,-100,4,3,0,65,0,0
127456,-100,4,3,0,65,0,0
131071,-100,4,3,1,65,0,0
131252,-100,4,3,0,65,0,0
133240,-100,4,3,0,50,0,0
133962,-100,4,3,1,50,0,0
136132,-100,4,3,1,40,0,0
138661,-100,4,3,0,40,0,0
139023,-100,4,3,0,70,0,1
139746,-100,4,3,1,70,0,1
139926,-100,4,3,0,70,0,1
142637,-100,4,3,1,70,0,1
142818,-100,4,3,0,70,0,1
145529,-100,4,3,1,70,0,1
145709,-100,4,3,0,70,0,1
150589,-100,4,2,2,35,0,0

[Colours]
Combo1 : 163,174,125
Combo2 : 255,176,138
Combo3 : 167,205,143
Combo4 : 226,156,80

[HitObjects]
512,348,228,6,0,B|444:340|444:340|405:361|405:361|329:355,1,172.5,2|0,1:3|1:0,0:0:0:0:
293,295,950,2,0,L|209:306,1,57.5,2|0,1:2|0:0,0:0:0:0:
183,364,1312,1,0,1:0:0:0:
183,364,1493,1,0,1:0:0:0:
114,322,1673,2,0,L|106:255,1,57.5,2|0,0:0|0:0,0:0:0:0:
32,221,2035,6,0,L|44:84,1,115,4|8,1:3|0:2,0:0:0:0:
65,29,2577,2,0,P|123:44|163:10,1,115,4|2,1:3|0:2,0:0:0:0:
224,64,3119,6,0,B|256:45|331:56|296:91|356:128|396:106,1,172.5,4|0,1:3|1:0,0:0:0:0:
455,135,3842,2,0,P|465:176|458:213,1,57.5,2|0,1:2|0:0,0:0:0:0:
497,269,4203,1,0,1:0:0:0:
497,269,4384,1,0,1:0:0:0:
441,327,4565,2,0,L|376:323,1,57.5,2|8,0:2|0:2,0:0:0:0:
318,276,4926,6,0,B|271:281|271:281|249:303|249:303|195:309,1,115,4|8,1:3|0:2,0:0:0:0:
143,266,5468,2,0,P|163:216|126:157,1,115,4|0,1:3|0:0,0:0:0:0:
61,135,6011,1,4,0:0:0:0:
444,83,8902,6,0,P|391:109|336:84,1,115,4|2,1:3|0:2,0:0:0:0:
341,90,9444,1,0,1:0:0:0:
290,27,9625,2,0,P|237:8|187:34,1,115,4|2,1:3|0:2,0:0:0:0:
112,53,10167,5,0,1:0:0:0:
112,53,10348,2,0,P|155:85|158:161,1,115,8|2,1:3|0:2,0:0:0:0:
236,189,10890,5,8,1:3:0:0:
236,189,11071,2,0,P|229:242|165:282,1,115,8|2,1:3|0:2,0:0:0:0:
111,311,11613,5,0,1:0:0:0:
111,311,11794,2,0,B|149:283|199:305|175:342|226:380|282:341,1,172.5,4|0,1:2|1:0,0:0:0:0:
326,303,12517,2,0,L|407:305,1,57.5,2|0,1:2|0:0,0:0:0:0:
452,355,12878,1,0,1:0:0:0:
452,355,13059,2,0,P|429:294|457:239,1,115,0|0,1:0|0:0,0:0:0:0:
507,197,13601,2,0,L|500:131,1,57.5,0|0,1:0|0:0,0:0:0:0:
455,72,13962,6,0,P|424:66|386:82,1,57.5,8|0,1:2|1:0,0:0:0:0:
332,117,14324,2,0,P|301:123|263:107,1,57.5,2|2,0:0|0:2,0:0:0:0:
223,55,14685,2,0,B|188:41|150:57|176:78|129:97|103:86,1,115,0|2,1:0|0:0,0:0:0:0:
47,118,15227,1,0,1:0:0:0:
47,118,15408,2,0,L|50:182,1,57.5,2|0,1:2|0:0,0:0:0:0:
6,244,15770,1,0,1:0:0:0:
108,367,16131,6,0,L|173:362,1,57.5,2|8,0:0|0:2,0:0:0:0:
228,311,16493,2,0,L|293:316,1,57.5,0|0,1:0|0:0,0:0:0:0:
345,368,16854,2,0,P|367:299|339:250,1,115,8|2,1:2|0:0,0:0:0:0:
351,262,17396,1,2,0:2:0:0:
301,199,17577,6,0,L|304:126,1,57.5,0|0,1:0|0:0,0:0:0:0:
358,81,17938,1,2,0:0:0:0:
358,81,18119,1,0,1:0:0:0:
421,131,18300,6,0,P|429:170|415:202,1,57.5,2|0,1:2|0:0,0:0:0:0:
487,236,18661,2,0,P|457:262|422:266,1,57.5,0|0,1:0|1:0,0:0:0:0:
396,334,19023,2,0,L|327:327,1,57.5,2|0,0:0|0:0,0:0:0:0:
283,269,19384,2,0,L|214:276,1,57.5,0|0,1:0|0:0,0:0:0:0:
168,331,19746,2,0,B|120:323|120:323|90:338|90:338|42:331,1,115,8|2,1:2|0:0,0:0:0:0:
26,175,20468,6,0,P|8:127|27:84,1,86.25,0|0,1:0|2:0,0:0:0:0:
52,74,20830,2,0,L|133:68,1,57.5,2|0,0:2|1:0,0:0:0:0:
179,118,21191,1,2,1:2:0:0:
179,118,21372,1,0,0:0:0:0:
237,62,21553,2,0,P|267:55|304:65,1,57.5,0|0,1:0|1:0,0:0:0:0:
351,114,21914,1,0,0:0:0:0:
484,319,23360,6,0,P|452:311|413:325,1,57.5,4|0,1:3|2:0,0:0:0:0:
365,366,23721,2,0,P|332:374|293:358,1,57.5,2|0,0:2|0:0,0:0:0:0:
258,312,24083,1,2,1:2:0:0:
258,312,24264,1,0,0:0:0:0:
188,271,24444,6,0,L|121:275,1,57.5,0|0,1:0|1:0,0:0:0:0:
74,332,24806,2,0,P|96:275|68:227,1,115,2|4,0:0|1:3,0:0:0:0:
72,230,25348,1,0,0:0:0:0:
13,174,25529,2,0,L|18:110,1,57.5,8|4,1:2|1:3,0:0:0:0:
72,57,25890,1,0,0:0:0:0:
72,57,26071,1,0,0:0:0:0:
146,88,26252,6,0,B|188:93|188:93|216:75|216:75|268:79,1,115,4|2,1:3|0:2,0:0:0:0:
320,30,26794,1,0,1:0:0:0:
382,79,26974,2,0,P|391:113|385:138,1,57.5,2|0,1:2|0:0,0:0:0:0:
334,196,27336,2,0,P|325:230|331:255,1,57.5,0|0,1:0|1:0,0:0:0:0:
391,302,27697,1,2,0:0:0:0:
391,302,27878,1,8,0:2:0:0:
336,361,28059,6,0,B|308:379|269:357|282:344|241:316|210:337,1,115,4|0,1:3|0:0,0:0:0:0:
166,378,28601,2,0,P|189:326|161:269,1,115,4|0,1:3|0:0,0:0:0:0:
96,237,29143,1,4,0:0:0:0:
38,106,32035,6,0,P|94:81|145:108,1,115,4|2,1:3|0:2,0:0:0:0:
139,101,32577,1,0,1:0:0:0:
188,164,32758,2,0,P|244:189|295:162,1,115,4|2,1:3|0:2,0:0:0:0:
307,92,33300,5,0,1:0:0:0:
307,92,33481,2,0,P|355:116|371:178,1,115,8|0,1:3|0:0,0:0:0:0:
439,225,34023,5,2,1:2:0:0:
439,225,34204,2,0,P|442:278|396:323,1,115,8|0,1:3|0:0,0:0:0:0:
322,376,34746,5,2,0:2:0:0:
322,376,34926,2,0,L|253:368,1,57.5,4|0,1:3|0:0,0:0:0:0:
203,306,35288,1,2,0:2:0:0:
203,306,35468,1,2,0:2:0:0:
203,306,35649,2,0,L|134:298,1,57.5,2|0,1:2|0:0,0:0:0:0:
82,237,36011,1,0,1:0:0:0:
82,237,36191,1,0,1:0:0:0:
82,237,36372,2,0,L|13:229,1,57.5,2|0,0:0|0:0,0:0:0:0:
11,141,36734,5,4,1:3:0:0:
11,141,36914,1,2,0:2:0:0:
11,141,37095,2,0,P|20:104|8:75,1,57.5,8|4,1:2|1:3,0:0:0:0:
78,13,37456,5,0,0:0:0:0:
78,13,37637,1,2,0:0:0:0:
78,13,37818,2,0,L|147:6,1,57.5,4|0,1:3|0:0,0:0:0:0:
219,74,38179,1,2,0:2:0:0:
219,74,38360,1,4,1:3:0:0:
219,74,38541,2,0,L|288:67,1,57.5,2|0,1:2|0:0,0:0:0:0:
369,122,38902,1,0,1:0:0:0:
369,122,39083,1,0,1:0:0:0:
369,122,39264,2,0,L|438:115,1,57.5,2|0,0:0|0:0,0:0:0:0:
512,68,39625,5,4,1:3:0:0:
512,68,39806,1,0,0:0:0:0:
512,68,39987,2,0,P|499:101|504:135,1,57.5,8|0,1:2|0:0,0:0:0:0:
442,201,40348,1,2,0:1:0:0:
476,370,40709,6,0,L|409:361,1,57.5,4|0,1:3|0:0,0:0:0:0:
353,303,41071,1,2,0:2:0:0:
353,303,41252,1,0,1:0:0:0:
353,303,41432,1,2,1:2:0:0:
166,337,41794,5,0,1:0:0:0:
166,337,41974,1,0,1:0:0:0:
166,337,42155,2,0,L|99:328,1,57.5,2|0,0:0|0:0,0:0:0:0:
20,359,42517,1,4,0:0:0:0:
20,359,42698,1,0,0:0:0:0:
20,359,42878,1,8,1:2:0:0:
146,154,43240,5,0,0:0:0:0:
146,154,43420,1,2,0:0:0:0:
146,154,43601,2,0,P|182:146|208:154,1,57.5,4|0,1:3|0:0,0:0:0:0:
272,232,43962,1,2,0:2:0:0:
272,232,44142,1,0,1:0:0:0:
272,232,44324,2,0,P|308:240|337:228,1,57.5,2|0,1:2|0:0,0:0:0:0:
382,156,44685,1,0,1:0:0:0:
382,156,44865,1,0,1:0:0:0:
382,156,45046,2,0,P|418:148|444:156,1,57.5,2|0,0:0|0:0,0:0:0:0:
508,234,45408,5,4,1:3:0:0:
508,234,45589,1,0,0:0:0:0:
508,234,45770,1,2,1:3:0:0:
382,359,46131,6,0,L|319:356,1,57.5,2|8,0:0|1:3,0:0:0:0:
259,307,46493,2,0,P|284:249|260:200,1,115,4|0,1:3|0:2,0:0:0:0:
265,205,47035,1,0,1:2:0:0:
199,159,47215,2,0,L|199:83,1,57.5,2|0,1:2|0:2,0:0:0:0:
245,34,47577,1,0,1:0:0:0:
388,107,47938,6,0,P|413:163|389:217,1,115,2|4,0:2|1:3,0:0:0:0:
395,210,48481,1,0,0:2:0:0:
331,258,48661,2,0,L|259:254,1,57.5,10|4,1:2|1:3,0:0:0:0:
213,309,49023,1,0,0:2:0:0:
96,198,49384,6,0,L|23:205,2,57.5,4|0|0,1:3|0:2|0:2,0:0:0:0:
146,134,49926,1,0,1:0:0:0:
146,134,50107,2,0,L|220:137,1,57.5,2|0,1:2|0:2,0:0:0:0:
272,95,50468,1,0,1:2:0:0:
272,95,50649,1,0,1:2:0:0:
339,139,50830,6,0,P|345:179|337:200,1,57.5,0|8,0:2|1:2,0:0:0:0:
395,252,51191,2,0,P|363:277|341:280,1,57.5,4|0,1:3|0:2,0:0:0:0:
288,335,51553,1,10,0:2:0:0:
288,335,51734,1,4,1:3:0:0:
228,281,51914,2,0,L|231:223,1,57.5,0|8,0:2|1:2,0:0:0:0:
162,329,52276,6,0,P|117:319|104:302,1,57.5,4|0,1:3|0:2,0:0:0:0:
42,346,52637,2,0,P|28:302|36:282,1,57.5,0|0,0:2|1:0,0:0:0:0:
80,229,52999,1,2,1:2:0:0:
80,229,53179,1,0,0:2:0:0:
133,168,53360,2,0,P|140:132|131:102,1,57.5,0|0,1:2|1:2,0:0:0:0:
65,72,53721,1,0,0:2:0:0:
65,72,53902,1,0,0:2:0:0:
123,16,54083,6,0,B|161:0|194:13|177:41|223:49|248:38,1,115,4|10,1:3|1:2,0:0:0:0:
300,79,54625,2,0,L|422:71,1,115,4|0,1:3|0:2,0:0:0:0:
476,123,55167,2,0,P|450:171|475:226,1,115,4|2,1:3|0:2,0:0:0:0:
471,223,55709,1,0,1:0:0:0:
434,295,55890,1,8,0:2:0:0:
434,295,58059,6,0,B|394:275|348:303|377:322|326:373|266:344,1,172.5,2|0,1:0|1:0,0:0:0:0:
220,300,58782,2,0,L|149:308,1,57.5,2|0,1:2|0:0,0:0:0:0:
105,363,59143,1,0,1:0:0:0:
105,363,59324,1,0,1:0:0:0:
8,234,59685,5,2,0:2:0:0:
49,164,59866,2,0,L|169:154,1,115,4|8,1:3|0:2,0:0:0:0:
222,209,60408,2,0,P|195:159|207:104,1,115,4|2,1:3|0:2,0:0:0:0:
262,45,60950,6,0,B|338:55|338:55|361:91|361:91|437:103,1,172.5,4|0,1:3|1:0,0:0:0:0:
467,158,61673,2,0,P|460:194|479:229,1,57.5,2|0,1:2|0:0,0:0:0:0:
510,287,62035,1,0,1:0:0:0:
510,287,62215,1,0,1:0:0:0:
372,371,62577,5,2,1:2:0:0:
311,317,62758,2,0,B|264:322|264:322|242:343|242:343|185:352,1,115,4|8,1:3|0:2,0:0:0:0:
124,353,63300,2,0,P|138:276|108:237,1,115,4|2,1:3|0:2,0:0:0:0:
57,197,63842,6,0,P|43:120|73:81,1,115,4|2,1:3|0:0,0:0:0:0:
125,45,64384,1,0,1:0:0:0:
125,45,64565,2,0,L|199:50,1,57.5,2|0,1:2|0:0,0:0:0:0:
247,97,64926,1,0,1:0:0:0:
247,97,65107,1,0,1:0:0:0:
307,149,65288,2,0,P|341:157|372:147,1,57.5,2|2,0:2|0:2,0:0:0:0:
420,95,65649,6,0,P|442:162|418:210,1,115,4|8,1:3|0:1,0:0:0:0:
380,267,66191,2,0,L|243:274,1,115,4|0,1:3|0:0,0:0:0:0:
247,352,66734,6,0,P|194:327|176:261,1,115,4|2,1:3|0:2,0:0:0:0:
102,309,67276,1,0,1:0:0:0:
102,309,67456,2,0,P|97:250|145:202,1,115,4|2,1:3|0:2,0:0:0:0:
67,165,67999,5,0,1:0:0:0:
67,165,68179,2,0,P|115:131|181:149,1,115,4|2,1:3|0:2,0:0:0:0:
226,202,68721,5,0,1:0:0:0:
226,202,68902,2,0,P|274:235|340:217,1,115,4|2,1:3|0:2,0:0:0:0:
411,238,69444,5,0,1:0:0:0:
411,238,69625,2,0,B|399:181|399:181|418:139|418:139|400:61,1,172.5,4|0,1:2|1:0,0:0:0:0:
339,22,70348,2,0,L|267:18,1,57.5,2|0,1:2|0:0,0:0:0:0:
208,52,70709,1,0,1:0:0:0:
143,3,70890,2,0,P|125:56|148:107,1,115,0|0,1:0|0:0,0:0:0:0:
212,157,71432,2,0,L|207:227,1,57.5,0|0,1:0|0:0,0:0:0:0:
232,291,71793,6,0,P|204:297|176:291,1,57.5,8|0,1:2|1:0,0:0:0:0:
114,239,72155,2,0,P|86:232|58:238,1,57.5,0|2,0:0|0:2,0:0:0:0:
0,295,72517,2,0,P|22:243|-12:179,1,115,0|2,1:0|0:0,0:0:0:0:
9,114,73058,1,0,1:0:0:0:
9,114,73239,2,0,L|86:112,1,57.5,2|0,1:2|0:0,0:0:0:0:
115,47,73601,1,0,1:0:0:0:
247,137,73962,6,0,L|312:132,1,57.5,2|8,0:0|0:2,0:0:0:0:
355,69,74324,2,0,L|420:74,1,57.5,0|0,1:0|0:0,0:0:0:0:
474,124,74685,2,0,P|490:177|467:229,1,115,8|2,1:2|0:0,0:0:0:0:
408,283,75227,1,2,0:2:0:0:
340,327,75408,6,0,L|267:324,1,57.5,0|0,1:0|0:0,0:0:0:0:
216,370,75769,1,2,0:0:0:0:
216,370,75950,1,0,1:0:0:0:
148,326,76131,6,0,P|140:287|154:255,1,57.5,2|0,1:2|0:0,0:0:0:0:
82,221,76492,2,0,P|112:195|147:191,1,57.5,0|0,1:0|1:0,0:0:0:0:
174,123,76854,2,0,L|243:130,1,57.5,2|0,0:0|0:0,0:0:0:0:
287,188,77215,2,0,L|356:181,1,57.5,0|0,1:0|0:0,0:0:0:0:
427,223,77577,2,0,P|405:277|431:329,1,115,8|2,1:2|0:0,0:0:0:0:
257,350,78300,6,0,L|151:346,1,86.25,0|0,1:0|2:0,0:0:0:0:
130,343,78661,2,0,P|137:308|122:273,1,57.5,2|0,0:2|1:0,0:0:0:0:
77,234,79022,1,2,1:2:0:0:
77,234,79203,1,0,0:0:0:0:
20,176,79384,2,0,L|19:95,1,57.5,0|0,1:0|1:0,0:0:0:0:
76,61,79745,1,0,0:0:0:0:
463,31,81191,6,0,P|475:62|461:100,1,57.5,4|0,1:3|2:0,0:0:0:0:
405,133,81553,2,0,P|396:172|414:201,1,57.5,2|0,0:2|0:0,0:0:0:0:
466,243,81914,1,2,1:2:0:0:
466,243,82095,1,0,0:0:0:0:
449,320,82276,6,0,L|376:328,1,57.5,0|0,1:0|1:0,0:0:0:0:
322,367,82637,2,0,L|207:354,1,115,2|4,0:2|1:3,0:0:0:0:
141,308,83179,1,0,0:0:0:0:
196,249,83360,2,0,P|203:217|196:186,1,57.5,8|4,0:2|1:3,0:0:0:0:
138,147,83721,1,0,0:0:0:0:
138,147,83902,1,0,0:0:0:0:
64,180,84083,6,0,P|83:235|60:292,1,115,4|2,1:3|0:2,0:0:0:0:
5,340,84625,1,0,1:0:0:0:
73,382,84806,2,0,L|132:379,1,57.5,2|0,1:2|0:0,0:0:0:0:
197,333,85167,2,0,L|256:336,1,57.5,0|0,1:0|1:0,0:0:0:0:
331,372,85528,1,2,0:2:0:0:
331,372,85709,1,8,0:2:0:0:
388,315,85890,6,0,P|366:258|401:202,1,115,4|8,1:3|0:2,0:0:0:0:
456,170,86432,2,0,P|479:118|451:61,1,115,4|0,1:3|0:0,0:0:0:0:
392,20,86974,1,4,0:0:0:0:
446,155,89866,6,0,L|325:139,1,115,4|0,1:3|0:0,0:0:0:0:
331,139,90408,1,0,1:0:0:0:
268,190,90589,2,0,L|147:206,1,115,4|0,1:3|0:0,0:0:0:0:
113,135,91131,5,0,1:0:0:0:
113,135,91312,2,0,P|78:175|80:241,1,115,8|0,1:3|0:0,0:0:0:0:
0,236,91854,5,8,1:3:0:0:
0,236,92035,2,0,P|17:286|75:317,1,115,8|2,1:3|0:3,0:0:0:0:
137,366,92577,5,8,1:3:0:0:
137,366,92758,2,0,L|212:354,1,57.5,4|0,1:3|0:0,0:0:0:0:
331,303,93119,5,2,0:2:0:0:
331,303,93300,1,2,0:2:0:0:
331,303,93481,2,0,L|256:291,1,57.5,2|0,1:2|0:0,0:0:0:0:
166,219,93842,5,0,1:0:0:0:
166,219,94023,1,0,1:0:0:0:
166,219,94204,2,0,L|241:207,1,57.5,2|0,0:0|0:0,0:0:0:0:
326,151,94565,5,4,1:3:0:0:
326,151,94746,1,2,0:2:0:0:
326,151,94927,2,0,P|327:115|308:80,1,57.5,8|4,1:2|1:3,0:0:0:0:
231,24,95288,5,0,0:0:0:0:
231,24,95468,1,2,0:0:0:0:
231,24,95649,2,0,L|156:36,1,57.5,4|0,1:3|0:0,0:0:0:0:
44,111,96010,5,2,0:2:0:0:
44,111,96191,1,2,0:2:0:0:
44,111,96372,2,0,L|119:123,1,57.5,2|0,1:2|0:0,0:0:0:0:
194,213,96733,5,0,1:0:0:0:
194,213,96914,1,0,1:0:0:0:
194,213,97095,2,0,L|119:225,1,57.5,2|10,0:0|0:2,0:0:0:0:
19,243,97456,5,4,1:3:0:0:
19,243,97637,1,2,0:2:0:0:
19,243,97818,2,0,P|18:279|37:314,1,57.5,8|8,1:2|0:3,0:0:0:0:
86,351,98179,1,2,0:1:0:0:
231,284,98541,6,0,L|307:288,1,57.5,4|0,1:3|0:0,0:0:0:0:
355,348,98902,1,2,0:2:0:0:
355,348,99083,1,0,1:0:0:0:
355,348,99264,1,2,1:2:0:0:
474,239,99625,5,0,1:0:0:0:
474,239,99806,1,0,1:0:0:0:
474,239,99987,2,0,L|470:162,1,57.5,2|0,0:0|0:0,0:0:0:0:
410,115,100348,1,4,0:0:0:0:
410,115,100529,1,0,0:0:0:0:
410,115,100710,1,8,1:2:0:0:
336,261,101071,5,0,0:0:0:0:
336,261,101252,1,2,0:0:0:0:
336,261,101432,2,0,P|300:269|277:259,1,57.5,4|0,1:3|0:0,0:0:0:0:
222,175,101794,1,2,0:2:0:0:
222,175,101975,1,2,0:2:0:0:
222,175,102155,2,0,P|186:167|163:177,1,57.5,2|0,1:2|0:0,0:0:0:0:
124,296,102517,1,0,1:0:0:0:
124,296,102698,1,0,1:0:0:0:
124,296,102878,2,0,P|88:304|65:294,1,57.5,2|0,0:0|0:0,0:0:0:0:
0,226,103240,5,4,1:3:0:0:
0,226,103420,1,0,0:0:0:0:
0,226,103601,1,2,1:3:0:0:
71,66,103962,6,0,L|144:56,1,57.5,2|8,0:0|1:3,0:0:0:0:
184,115,104324,2,0,B|229:117|229:117|256:139|256:139|313:142,1,115,4|0,1:3|0:0,0:0:0:0:
357,96,104866,1,0,1:0:0:0:
409,156,105046,2,0,P|418:189|413:211,1,57.5,2|0,1:2|0:0,0:0:0:0:
370,279,105408,1,0,1:0:0:0:
370,279,105589,1,0,1:0:0:0:
318,340,105770,6,0,L|167:329,1,115,2|4,0:2|1:3,0:0:0:0:
136,374,106312,1,0,0:0:0:0:
136,374,106493,1,8,1:2:0:0:
70,327,106673,2,0,P|88:255|67:214,1,115,4|2,1:3|0:0,0:0:0:0:
19,167,107215,5,4,1:3:0:0:
19,167,107396,1,0,0:0:0:0:
76,110,107577,2,0,L|150:113,1,57.5,2|0,0:2|0:0,0:0:0:0:
193,58,107938,1,2,1:2:0:0:
193,58,108119,1,0,0:0:0:0:
251,113,108300,6,0,P|257:153|249:174,1,57.5,0|0,1:0|1:0,0:0:0:0:
211,238,108661,2,0,P|205:278|213:299,1,57.5,0|8,0:0|0:2,0:0:0:0:
268,356,109022,1,4,1:3:0:0:
268,356,109203,1,0,0:0:0:0:
331,306,109384,2,0,L|409:303,1,57.5,8|4,0:2|1:3,0:0:0:0:
452,353,109746,1,0,0:0:0:0:
511,203,110107,6,0,L|438:205,1,57.5,4|0,1:3|0:0,0:0:0:0:
402,142,110468,2,0,L|329:140,1,57.5,2|0,0:2|0:0,0:0:0:0:
291,202,110830,1,2,1:2:0:0:
291,202,111010,1,0,0:0:0:0:
223,158,111191,2,0,P|216:122|225:92,1,57.5,0|0,1:0|1:0,0:0:0:0:
285,53,111552,1,2,0:2:0:0:
285,53,111733,1,0,0:0:0:0:
219,6,111914,6,0,B|181:-10|148:3|165:31|119:39|94:28,1,115,4|8,1:3|1:2,0:0:0:0:
46,77,112456,2,0,L|54:199,1,115,4|0,1:3|0:0,0:0:0:0:
20,265,112998,6,0,P|68:239|123:264,1,115,4|2,1:3|0:2,0:0:0:0:
151,340,113540,1,0,0:0:0:0:
151,340,113721,2,0,P|171:289|229:273,1,115,4|2,1:3|0:2,0:0:0:0:
299,314,114264,5,2,1:2:0:0:
299,314,114445,2,0,P|281:262|315:212,1,115,4|2,1:3|0:2,0:0:0:0:
394,199,114987,5,2,1:2:0:0:
394,199,115168,2,0,P|347:170|341:110,1,115,4|2,1:3|0:2,0:0:0:0:
357,38,115709,5,2,1:2:0:0:
357,38,115890,2,0,B|319:10|269:32|284:71|231:103|186:68,1,172.5,4|4,1:3|3:0,0:0:0:0:
136,33,116613,2,0,P|98:24|67:36,1,57.5,0|0,1:0|0:0,0:0:0:0:
19,80,116974,1,4,0:0:0:0:
64,146,117155,2,0,P|81:199|58:250,1,115,2|0,0:2|0:0,0:0:0:0:
15,319,117697,1,4,0:0:0:0:
15,319,117878,1,0,0:0:0:0:
78,367,118059,6,0,P|109:373|147:357,1,57.5,8|4,0:2|0:0,0:0:0:0:
201,322,118420,1,0,0:0:0:0:
201,322,118601,1,0,0:0:0:0:
267,367,118781,2,0,B|302:381|340:365|314:344|361:325|387:336,1,115,4|0,0:0|0:0,0:0:0:0:
452,351,119323,1,4,0:0:0:0:
452,351,119504,2,0,L|455:287,1,57.5,0|0,1:0|0:0,0:0:0:0:
503,228,119866,1,4,0:0:0:0:
449,76,120227,6,0,L|384:81,1,57.5,0|8,0:0|0:2,0:0:0:0:
316,111,120589,2,0,L|251:106,1,57.5,4|0,0:0|0:0,0:0:0:0:
204,46,120950,2,0,P|220:99|197:151,1,115,8|2,0:2|0:1,0:0:0:0:
123,180,121492,1,8,0:0:0:0:
48,210,121673,6,0,P|42:243|63:288,1,57.5,4|0,0:0|0:0,0:0:0:0:
99,334,122034,1,0,0:0:0:0:
99,334,122215,1,4,0:0:0:0:
161,283,122396,6,0,L|232:289,1,57.5,0|0,1:0|0:0,0:0:0:0:
285,341,122758,1,4,0:0:0:0:
285,341,122938,1,4,0:0:0:0:
355,302,123119,6,0,P|374:243|336:185,1,115,0|4,0:0|0:0,0:0:0:0:
352,197,123661,1,0,0:0:0:0:
298,136,123842,2,0,P|279:77|317:19,1,115,8|0,0:2|0:0,0:0:0:0:
378,9,124384,1,0,0:0:0:0:
455,31,124565,6,0,L|452:111,1,57.5,4|0,0:0|0:0,0:0:0:0:
416,160,124926,2,0,L|419:240,1,57.5,0|4,0:0|0:0,0:0:0:0:
478,271,125288,2,0,P|417:296|358:265,1,115,10|4,0:1|0:0,0:0:0:0:
305,342,125830,1,4,0:0:0:0:
39,222,127095,6,0,L|42:150,1,57.5,6|0,0:1|0:0,0:0:0:0:
0,76,127456,2,0,B|95:-16|220:49|146:159|301:210|412:90,1,460,2|2,1:3|0:2,0:0:0:0:
399,103,129264,2,0,L|405:220,1,115,4|8,1:3|1:2,0:0:0:0:
480,278,129806,1,4,1:3:0:0:
480,278,129987,1,0,0:0:0:0:
436,358,130167,1,0,0:0:0:0:
353,315,130348,6,0,L|284:319,1,57.5,4|0,1:3|0:0,0:0:0:0:
227,379,130709,1,2,0:0:0:0:
227,379,130890,1,0,1:0:0:0:
158,316,131071,2,0,P|149:283|158:250,1,57.5,2|0,1:2|0:0,0:0:0:0:
228,206,131432,1,0,1:0:0:0:
228,206,131613,1,0,1:0:0:0:
166,137,131794,6,0,L|97:137,1,57.5,0|8,0:0|0:2,0:0:0:0:
52,70,132155,1,4,1:3:0:0:
52,70,132336,1,0,0:0:0:0:
119,7,132517,1,8,0:2:0:0:
279,12,132878,6,0,P|270:52|289:83,1,57.5,0|8,0:0|0:1,0:0:0:0:
323,131,133240,2,0,L|401:131,1,57.5,4|0,0:0|0:0,0:0:0:0:
457,153,133601,2,0,P|468:191|454:222,1,57.5,0|4,0:0|0:0,0:0:0:0:
435,283,133963,2,0,L|357:283,1,57.5,2|0,1:2|0:0,0:0:0:0:
314,332,134324,5,0,1:0:0:0:
314,332,134505,1,0,1:0:0:0:
235,381,134685,2,0,P|200:387|164:371,1,57.5,2|2,0:2|0:2,0:0:0:0:
100,331,135047,2,0,L|103:258,1,57.5,4|0,1:3|0:0,0:0:0:0:
44,208,135408,1,8,0:2:0:0:
44,208,135589,1,4,1:3:0:0:
95,131,135770,2,0,P|131:124|160:136,1,57.5,0|2,0:0|0:2,0:0:0:0:
214,202,136131,5,0,0:0:0:0:
214,202,136312,1,0,0:0:0:0:
292,153,136493,1,0,0:0:0:0:
225,41,136854,5,0,0:0:0:0:
225,41,137035,1,0,0:0:0:0:
309,4,137215,2,0,L|377:10,1,57.5
454,43,137577,5,0,0:0:0:0:
511,115,137758,1,0,0:0:0:0:
454,187,137938,1,0,0:0:0:0:
369,150,138119,1,0,0:0:0:0:
311,221,138300,1,2,0:2:0:0:
289,371,138661,5,0,0:0:0:0:
289,371,138842,1,2,0:2:0:0:
289,371,139023,2,0,P|253:361|235:339,1,57.5,4|0,1:3|0:0,0:0:0:0:
98,309,139384,5,2,0:2:0:0:
98,309,139565,1,2,0:2:0:0:
98,309,139746,2,0,P|134:299|152:277,1,57.5,2|0,1:2|0:0,0:0:0:0:
263,207,140107,5,0,1:0:0:0:
263,207,140288,1,0,1:0:0:0:
263,207,140469,2,0,P|227:197|209:175,1,57.5,2|0,0:0|0:0,0:0:0:0:
154,47,140830,5,4,1:3:0:0:
154,47,141011,1,2,0:2:0:0:
154,47,141192,2,0,P|163:83|153:109,1,57.5,8|4,1:2|1:3,0:0:0:0:
2,134,141553,5,0,0:0:0:0:
2,134,141734,1,2,0:0:0:0:
2,134,141915,2,0,P|38:144|56:166,1,57.5,4|0,1:3|0:0,0:0:0:0:
218,198,142276,5,2,0:2:0:0:
218,198,142457,1,0,0:0:0:0:
218,198,142638,2,0,P|182:208|164:230,1,57.5,2|0,1:2|0:0,0:0:0:0:
47,297,142999,5,0,1:0:0:0:
47,297,143180,1,0,0:0:0:0:
47,297,143361,2,0,P|83:307|101:329,1,57.5
176,384,143722,5,4,1:3:0:0:
176,384,143903,1,0,0:0:0:0:
176,384,144084,1,8,1:2:0:0:
284,298,144444,6,0,L|369:303,1,57.5,0|2,0:0|0:0,0:0:0:0:
422,256,144806,2,0,P|407:215|438:143,1,115,4|0,0:0|0:0,0:0:0:0:
430,150,145348,1,2,0:2:0:0:
454,61,145529,2,0,L|336:71,1,115,2|0,0:2|0:0,0:0:0:0:
339,70,146071,1,0,0:0:0:0:
280,141,146252,6,0,B|242:152|210:134|224:120|181:104|150:122,1,115,0|4,0:0|0:0,0:0:0:0:
171,115,146794,1,0,0:0:0:0:
117,189,146974,2,0,L|120:258,1,57.5,8|0,0:2|0:0,0:0:0:0:
58,316,147336,1,2,0:1:0:0:
58,316,147517,1,0,0:0:0:0:
125,377,147697,6,0,P|178:385|230:346,1,115,4|2,1:3|0:2,0:0:0:0:
256,266,148240,5,0,1:0:0:0:
256,266,148420,2,0,P|291:306|356:309,1,115,4|2,1:3|0:2,0:0:0:0:
435,278,148962,5,0,1:0:0:0:
502,214,149143,2,0,L|506:97,1,115,8|2,1:3|0:2,0:0:0:0:
435,39,149685,5,0,1:0:0:0:
375,109,149866,2,0,P|315:121|270:95,1,115,8|2,1:3|0:0,0:0:0:0:
220,18,150408,1,0,0:0:0:0:
