osu file format v14

[General]
AudioFilename: audio.mp3
AudioLeadIn: 0
PreviewTime: 34474
Countdown: 0
SampleSet: Drum
StackLeniency: 0.7
Mode: 0
LetterboxInBreaks: 0
WidescreenStoryboard: 1

[Editor]
Bookmarks: 8902,14685,23360,34203,34926,37818,46493,58059,69625,71071,72517,81191,92758,104324,115890,127456,139023,139746,150589
DistanceSpacing: 1.7
BeatDivisor: 8
GridSize: 32
TimelineZoom: 2.3

[Metadata]
Title:Up
TitleUnicode:Up
Artist:Cardi B
ArtistUnicode:Cardi B
Creator:wafer
Version:Ascended's Normal
Source:
Tags:english rap hip-hop hip hop jasontime jasontime12345 -_ascended_- -ascended- ascended vanchanical ancel ancelysia goopert kami no kotoba jounzan evilelvis natteke desu evilelvisv2
BeatmapID:2844661
BeatmapSetID:1375452

[Difficulty]
HPDrainRate:3
CircleSize:3.3
OverallDifficulty:4
ApproachRate:5.5
SliderMultiplier:2.2
SliderTickRate:1

[Events]
//Background and Video events
0,0,"alex-harvey-nqSUnXINsp4-unsplash.jpg",0,0
//Break Periods
2,6211,7777
2,29343,30910
2,56090,56934
2,87174,88741
2,127656,129223
2,136331,137536
//Storyboard Layer 0 (Background)
//Storyboard Layer 1 (Fail)
//Storyboard Layer 2 (Pass)
//Storyboard Layer 3 (Foreground)
//Storyboard Layer 4 (Overlay)
//Storyboard Sound Samples

[TimingPoints]
228,722.89156626506,4,3,0,50,1,0
950,-100,4,3,1,50,0,0
1312,-100,4,3,0,50,0,0
3842,-100,4,3,1,50,0,0
4023,-100,4,3,0,50,0,0
6011,-100,4,3,0,45,0,0
8902,-100,4,3,0,50,0,0
9625,-100,4,3,0,53,0,0
10348,-100,4,3,0,56,0,0
11071,-100,4,3,0,62,0,0
11794,-100,4,3,0,65,0,0
12517,-100,4,3,1,65,0,0
12697,-100,4,3,0,65,0,0
15408,-100,4,3,1,65,0,0
15770,-100,4,3,0,65,0,0
18300,-100,4,3,1,65,0,0
18661,-100,4,3,0,65,0,0
21191,-100,4,3,1,65,0,0
21372,-100,4,3,0,65,0,0
22276,-100,4,2,2,65,0,0
23360,-100,4,3,0,65,0,0
24083,-100,4,3,1,65,0,0
24264,-100,4,3,0,65,0,0
26974,-100,4,3,1,65,0,0
27155,-100,4,3,0,65,0,0
29143,-100,4,3,0,50,0,0
29866,-100,4,3,1,50,0,0
30047,-100,4,3,0,50,0,0
32035,-100,4,3,0,54,0,0
32758,-100,4,3,0,58,0,0
33481,-100,4,3,0,62,0,0
34203,-100,4,3,0,66,0,0
34926,-90.9090909090909,4,3,0,70,0,1
35649,-90.9090909090909,4,3,1,70,0,1
35830,-90.9090909090909,4,3,0,70,0,1
38541,-90.9090909090909,4,3,1,70,0,1
38721,-90.9090909090909,4,3,0,70,0,1
41432,-90.9090909090909,4,3,1,70,0,1
41613,-90.9090909090909,4,3,0,70,0,1
44324,-90.9090909090909,4,3,1,70,0,1
44505,-90.9090909090909,4,3,0,70,0,1
46493,-100,4,3,0,65,0,0
47215,-100,4,3,1,65,0,0
47396,-100,4,3,0,65,0,0
50107,-100,4,3,1,65,0,0
50288,-100,4,3,0,65,0,0
52999,-100,4,3,1,65,0,0
53179,-100,4,3,0,65,0,0
55890,-100,4,3,0,45,0,0
58059,-100,4,3,0,50,0,0
58782,-100,4,3,1,50,0,0
58962,-100,4,3,0,50,0,0
61673,-100,4,3,1,50,0,0
61854,-100,4,3,0,50,0,0
64565,-100,4,3,1,50,0,0
64746,-100,4,3,0,50,0,0
67457,-100,4,3,0,53,0,0
68180,-100,4,3,0,56,0,0
68903,-100,4,3,0,62,0,0
69626,-100,4,3,0,65,0,0
70348,-100,4,3,1,65,0,0
70528,-100,4,3,0,65,0,0
73239,-100,4,3,1,65,0,0
73420,-100,4,3,0,65,0,0
76131,-100,4,3,1,65,0,0
76492,-100,4,3,0,65,0,0
79022,-100,4,3,1,65,0,0
79203,-100,4,3,0,65,0,0
80107,-100,4,2,2,65,0,0
81191,-100,4,3,0,65,0,0
81914,-100,4,3,1,65,0,0
82095,-100,4,3,0,65,0,0
84805,-100,4,3,1,65,0,0
84986,-100,4,3,0,65,0,0
86975,-100,4,3,0,50,0,0
87697,-100,4,3,1,50,0,0
87878,-100,4,3,0,50,0,0
89867,-100,4,3,0,54,0,0
90590,-100,4,3,0,58,0,0
91313,-100,4,3,0,62,0,0
92035,-100,4,3,0,66,0,0
92758,-90.9090909090909,4,3,0,70,0,1
93481,-90.9090909090909,4,3,1,70,0,1
93661,-90.9090909090909,4,3,0,70,0,1
96372,-90.9090909090909,4,3,1,70,0,1
96553,-90.9090909090909,4,3,0,70,0,1
99264,-90.9090909090909,4,3,1,70,0,1
99444,-90.9090909090909,4,3,0,70,0,1
102155,-90.9090909090909,4,3,1,70,0,1
102336,-90.9090909090909,4,3,0,70,0,1
104324,-100,4,3,0,50,0,0
105047,-100,4,3,1,50,0,0
105227,-100,4,3,0,50,0,0
107938,-100,4,3,1,50,0,0
108119,-100,4,3,0,50,0,0
110830,-100,4,3,1,50,0,0
111011,-100,4,3,0,50,0,0
112999,-100,4,3,8,50,0,0
113722,-100,4,3,8,53,0,0
114445,-100,4,3,8,56,0,0
115168,-100,4,3,8,62,0,0
115890,-100,4,3,0,65,0,0
131071,-100,4,3,1,65,0,0
131252,-100,4,3,0,65,0,0
133240,-100,4,3,0,50,0,0
133962,-100,4,3,1,50,0,0
134143,-100,4,3,0,50,0,0
136132,-100,4,3,0,40,0,0
139023,-90.9090909090909,4,3,0,70,0,1
139746,-90.9090909090909,4,3,1,70,0,1
139926,-90.9090909090909,4,3,0,70,0,1
142637,-90.9090909090909,4,3,1,70,0,1
142818,-90.9090909090909,4,3,0,70,0,1
144806,-100,4,3,0,70,0,0
145529,-100,4,3,1,70,0,0
145709,-100,4,3,0,70,0,0
147697,-100,4,3,0,70,0,1
150589,-100,4,2,2,35,0,0

[Colours]
Combo1 : 163,174,125
Combo2 : 255,176,138
Combo3 : 167,205,143
Combo4 : 226,156,80

[HitObjects]
46,306,228,6,0,B|147:287|118:351|213:337,1,165,2|0,1:3|1:0,0:0:0:0:
250,312,950,1,2,1:2:0:0:
203,217,1312,1,0,1:0:0:0:
203,217,1493,1,0,1:0:0:0:
303,86,2035,2,0,P|351:61|408:72,1,110,4|8,1:3|0:2,0:0:0:0:
437,113,2577,2,0,P|426:168|421:224,1,110,4|2,1:3|0:2,0:0:0:0:
427,276,3119,5,4,1:3:0:0:
283,357,3661,2,0,L|227:348,1,55,0|2,1:0|1:2,0:0:0:0:
119,337,4203,1,0,1:0:0:0:
119,337,4384,1,0,1:0:0:0:
67,180,4926,2,0,P|121:142|174:148,1,110,4|8,1:3|0:2,0:0:0:0:
201,183,5468,2,0,P|255:221|308:215,1,110,4|0,1:3|0:0,0:0:0:0:
344,190,6011,1,4,0:0:0:0:
57,36,8902,6,0,P|85:111|93:146,1,110,4|2,1:3|0:2,0:0:0:0:
138,168,9444,1,0,1:0:0:0:
138,168,9625,2,0,P|110:243|102:278,1,110,4|2,1:3|0:2,0:0:0:0:
206,310,10348,2,0,P|234:235|242:200,1,110,8|2,1:3|0:2,0:0:0:0:
287,178,10890,1,8,1:3:0:0:
287,178,11071,2,0,P|259:103|251:68,1,110,8|2,1:3|0:2,0:0:0:0:
338,5,11794,6,0,P|403:13|435:57,1,110,4|2,1:2|0:0,0:0:0:0:
490,136,12517,1,2,1:2:0:0:
487,245,12878,1,0,1:0:0:0:
387,291,13240,2,0,P|316:238|258:216,1,110,2|0,0:0|1:0,0:0:0:0:
241,229,13782,1,0,0:0:0:0:
241,229,13962,1,8,1:2:0:0:
243,118,14324,1,2,0:0:0:0:
145,66,14685,6,0,L|160:-3,2,55,0|2|2,1:0|0:2|0:0,0:0:0:0:
97,89,15227,1,0,1:0:0:0:
97,89,15408,1,2,1:2:0:0:
116,197,15770,1,0,1:0:0:0:
207,257,16131,2,0,L|192:326,2,55,2|8|0,0:0|0:2|1:0,0:0:0:0:
255,234,16673,1,0,0:0:0:0:
255,234,16854,1,8,1:2:0:0:
236,126,17216,1,2,0:0:0:0:
345,113,17577,6,0,P|382:116|409:130,1,55,0|0,1:0|0:0,0:0:0:0:
437,161,17938,2,0,P|434:198|420:225,1,55,2|0,0:0|1:0,0:0:0:0:
384,249,18300,2,0,P|444:269|438:340,1,110,2|0,1:2|1:0,0:0:0:0:
360,367,19023,2,0,P|323:364|296:350,1,55,2|0,0:0|0:0,0:0:0:0:
268,319,19384,2,0,P|271:282|285:255,1,55,0|0,1:0|0:0,0:0:0:0:
258,213,19746,1,8,1:2:0:0:
334,134,20107,1,2,0:0:0:0:
287,34,20468,6,0,L|170:21,1,110,0|2,1:0|0:2,0:0:0:0:
114,111,21191,2,0,P|116:149|132:171,1,55,2|0,1:2|0:0,0:0:0:0:
164,202,21553,2,0,P|202:199|224:183,1,55,0|0,1:0|1:0,0:0:0:0:
260,159,21914,1,0,0:0:0:0:
327,384,23360,6,0,P|338:318|336:275,1,110,4|2,1:3|0:2,0:0:0:0:
269,186,24083,2,0,L|204:200,1,55,2|0,1:2|0:0,0:0:0:0:
163,216,24444,2,0,L|98:202,1,55,0|0,1:0|1:0,0:0:0:0:
54,193,24806,1,2,0:0:0:0:
39,84,25167,2,0,P|65:37|117:24,1,110,4|8,1:3|1:2,0:0:0:0:
201,94,25890,1,0,0:0:0:0:
283,21,26252,6,0,P|344:26|410:39,1,110,4|2,1:3|0:2,0:0:0:0:
439,62,26794,1,0,1:0:0:0:
439,62,26974,2,0,P|426:100|421:126,1,55,2|0,1:2|0:0,0:0:0:0:
429,169,27336,1,0,1:0:0:0:
321,190,27697,2,0,L|256:204,1,55,2|8,0:0|0:2,0:0:0:0:
215,220,28059,2,0,L|150:206,1,55,4|0,1:3|0:0,0:0:0:0:
106,197,28420,1,0,0:0:0:0:
43,288,28782,1,0,0:0:0:0:
120,366,29143,5,4,0:0:0:0:
437,113,32035,5,4,1:3:0:0:
284,50,32577,1,0,1:0:0:0:
284,50,32758,1,4,1:3:0:0:
124,77,33300,1,0,1:0:0:0:
124,77,33481,1,8,1:3:0:0:
18,204,34023,1,2,1:2:0:0:
18,204,34204,1,8,1:3:0:0:
27,369,34746,1,2,0:2:0:0:
27,369,34926,6,0,B|85:370|85:370|127:322,1,121.000003692627,4|2,1:3|0:2,0:0:0:0:
121,270,35468,1,2,0:2:0:0:
121,270,35649,2,0,B|179:271|179:271|221:223,1,121.000003692627,2|0,1:2|1:0,0:0:0:0:
229,171,36191,1,0,1:0:0:0:
229,171,36372,2,0,B|287:172|287:172|329:124,1,121.000003692627,2|4,0:0|1:3,0:0:0:0:
431,66,37095,1,8,1:2:0:0:
466,181,37456,2,0,L|458:248,1,60.5000018463135,0|2,0:0|0:0,0:0:0:0:
454,301,37818,6,0,B|395:302|395:302|353:254,1,121.000003692627,4|2,1:3|0:2,0:0:0:0:
360,202,38360,1,4,1:3:0:0:
360,202,38541,2,0,B|301:203|301:203|259:155,1,121.000003692627,2|0,1:2|1:0,0:0:0:0:
252,103,39083,1,0,1:0:0:0:
252,103,39264,2,0,B|193:104|193:104|151:56,1,121.000003692627,2|4,0:0|1:3,0:0:0:0:
46,2,39987,1,8,1:2:0:0:
11,113,40348,1,2,0:1:0:0:
17,233,40709,6,0,B|75:234|75:234|117:186,1,121.000003692627,4|2,1:3|0:2,0:0:0:0:
111,134,41251,1,0,1:0:0:0:
111,134,41432,2,0,B|169:135|169:135|211:87,1,121.000003692627,2|0,1:2|1:0,0:0:0:0:
297,174,42155,2,0,B|355:175|355:175|397:127,1,121.000003692627,2|4,0:0|0:0,0:0:0:0:
411,76,42697,1,0,0:0:0:0:
411,76,42878,1,8,1:2:0:0:
481,174,43240,1,0,0:0:0:0:
492,294,43601,6,0,B|433:295|433:295|391:247,1,121.000003692627,4|2,1:3|0:2,0:0:0:0:
398,195,44143,1,0,1:0:0:0:
398,195,44324,2,0,B|339:196|339:196|297:148,1,121.000003692627,2|0,1:2|1:0,0:0:0:0:
290,96,44866,1,0,1:0:0:0:
290,96,45047,2,0,B|231:97|231:97|189:49,1,121.000003692627,2|4,0:0|1:3,0:0:0:0:
75,15,45770,1,2,1:3:0:0:
30,127,46131,1,2,0:0:0:0:
40,236,46493,6,0,L|101:256,1,55,4|0,1:3|0:2,0:0:0:0:
134,288,46854,2,0,L|195:268,1,55,0|0,0:2|1:2,0:0:0:0:
239,255,47215,1,2,1:2:0:0:
210,148,47577,1,0,1:0:0:0:
285,67,47938,2,0,L|346:47,1,55,2|0,0:2|0:2,0:0:0:0:
379,15,48300,2,0,L|440:35,1,55,4|0,1:3|0:2,0:0:0:0:
484,48,48660,1,10,1:2:0:0:
455,155,49022,1,0,0:2:0:0:
479,262,49384,6,0,L|418:282,1,55,4|0,1:3|0:2,0:0:0:0:
385,314,49746,2,0,L|324:294,1,55,0|0,0:2|1:0,0:0:0:0:
279,281,50107,2,0,L|261:333,2,55,2|0|0,1:2|0:2|1:2,0:0:0:0:
308,174,50830,2,0,L|247:154,1,55,0|8,0:2|1:2,0:0:0:0:
214,122,51192,2,0,L|153:142,1,55,4|0,1:3|0:2,0:0:0:0:
108,155,51553,2,0,L|90:102,2,55,10|4|0,0:2|1:3|0:2,0:0:0:0:
53,250,52276,6,0,P|39:313|82:344,1,110,4|0,1:3|0:2,0:0:0:0:
122,346,52818,1,0,1:0:0:0:
122,346,52999,1,2,1:2:0:0:
224,307,53360,1,0,1:2:0:0:
322,355,53721,2,0,L|342:294,1,55,0|0,0:2|0:2,0:0:0:0:
374,261,54083,2,0,L|354:200,1,55,4|0,1:3|0:2,0:0:0:0:
341,155,54444,2,0,L|394:137,2,55,10|4|4,1:2|1:3|0:2,0:0:0:0:
234,165,55167,5,4,1:3:0:0:
126,140,55529,2,0,P|132:108|134:74,1,55,2|0,0:2|1:0,0:0:0:0:
137,30,55890,1,8,0:2:0:0:
400,160,58059,6,0,B|336:142|356:189|288:169,1,110,2|2,1:0|0:0,0:0:0:0:
252,136,58601,1,0,1:0:0:0:
252,136,58782,1,2,1:2:0:0:
155,188,59143,1,0,1:0:0:0:
155,298,59505,2,0,B|219:279|199:326|267:306,1,110,2|4,0:2|1:3,0:0:0:0:
304,274,60047,1,0,0:0:0:0:
304,274,60227,2,0,P|325:325|389:337,1,110,8|0,0:2|0:0,0:0:0:0:
441,254,60950,6,0,P|453:190|467:138,1,110,4|2,1:3|0:0,0:0:0:0:
466,91,61493,1,0,1:0:0:0:
466,91,61673,2,0,P|411:40|374:53,1,110,2|0,1:2|1:0,0:0:0:0:
305,123,62396,1,0,1:0:0:0:
198,93,62758,2,0,P|179:102|141:112,1,55,4|0,1:3|0:0,0:0:0:0:
92,99,63119,2,0,P|105:152|115:206,1,110,8|0,0:2|0:0,0:0:0:0:
116,316,63842,6,0,P|171:288|228:289,1,110,4|2,1:3|0:0,0:0:0:0:
258,324,64384,1,0,1:0:0:0:
258,324,64565,2,0,L|277:209,1,110,2|0,1:2|1:0,0:0:0:0:
282,105,65288,2,0,P|337:133|394:132,1,110,2|4,0:2|1:3,0:0:0:0:
424,97,65830,1,0,0:0:0:0:
424,97,66011,2,0,L|443:212,1,110,8|0,0:1|0:0,0:0:0:0:
416,312,66734,5,4,1:3:0:0:
251,331,67276,1,0,1:0:0:0:
251,331,67457,1,4,1:3:0:0:
105,261,67999,1,0,1:0:0:0:
105,261,68180,1,4,1:3:0:0:
38,109,68722,1,0,1:0:0:0:
38,109,68903,1,4,1:3:0:0:
180,26,69444,1,0,1:0:0:0:
180,26,69625,6,0,P|213:69|230:135,1,110,4|2,1:2|0:0,0:0:0:0:
236,231,70348,1,2,1:2:0:0:
321,300,70709,1,0,1:0:0:0:
431,294,71071,2,0,P|462:244|456:179,1,110,2|0,0:0|1:0,0:0:0:0:
440,148,71613,1,0,0:0:0:0:
440,148,71793,1,8,1:2:0:0:
335,111,72155,1,2,0:0:0:0:
248,179,72517,6,0,L|263:248,2,55,0|2|2,1:0|0:2|0:0,0:0:0:0:
200,156,73059,1,0,1:0:0:0:
200,156,73240,1,2,1:2:0:0:
206,46,73602,1,0,1:0:0:0:
315,53,73962,2,0,L|300:-16,2,55,2|8|0,0:0|0:2|1:0,0:0:0:0:
363,76,74504,1,0,0:0:0:0:
363,76,74685,1,8,1:2:0:0:
357,186,75047,1,2,0:0:0:0:
291,273,75408,6,0,L|225:258,1,55,0|0,1:0|0:0,0:0:0:0:
184,278,75770,2,0,L|118:263,1,55,2|0,0:0|1:0,0:0:0:0:
76,256,76131,2,0,L|56:147,1,110,2|0,1:2|1:0,0:0:0:0:
134,70,76854,2,0,L|200:85,1,55,2|0,0:0|0:0,0:0:0:0:
241,65,77216,2,0,L|307:80,1,55,0|0,1:0|0:0,0:0:0:0:
348,88,77577,1,8,1:2:0:0:
368,195,77938,1,2,0:0:0:0:
314,291,78300,6,0,P|245:265|228:220,1,110,0|2,1:0|0:2,0:0:0:0:
245,126,79023,2,0,P|221:88|196:74,1,55,2|0,1:2|0:0,0:0:0:0:
184,35,79384,2,0,P|139:36|114:51,1,55,0|0,1:0|1:0,0:0:0:0:
75,39,79746,1,0,0:0:0:0:
181,369,81191,6,0,L|172:260,1,110,4|2,1:3|0:2,0:0:0:0:
245,177,81914,2,0,P|274:181|310:191,1,55,2|0,1:2|0:0,0:0:0:0:
340,224,82276,2,0,P|369:220|405:210,1,55,0|0,1:0|1:0,0:0:0:0:
445,193,82637,1,2,0:2:0:0:
442,83,82998,2,0,P|416:36|364:23,1,110,4|8,1:3|0:2,0:0:0:0:
262,66,83721,1,2,0:0:0:0:
154,41,84083,6,0,P|159:102|172:168,1,110,4|2,1:3|0:2,0:0:0:0:
161,208,84625,1,0,1:0:0:0:
161,208,84806,2,0,L|97:190,1,55,2|0,1:2|0:0,0:0:0:0:
54,198,85167,1,0,1:0:0:0:
93,300,85529,2,0,P|122:304|158:314,1,55,2|8,0:2|0:2,0:0:0:0:
188,347,85891,2,0,P|217:343|253:333,1,55,4|0,1:3|0:0,0:0:0:0:
293,316,86252,1,8,0:2:0:0:
340,216,86613,1,2,0:0:0:0:
334,106,86974,5,4,0:0:0:0:
75,73,89866,5,4,1:3:0:0:
228,10,90408,1,0,1:0:0:0:
228,10,90589,1,4,1:3:0:0:
388,37,91131,1,0,1:0:0:0:
388,37,91312,1,8,1:3:0:0:
494,164,91854,1,8,1:3:0:0:
494,164,92035,1,8,1:3:0:0:
485,329,92577,1,8,1:3:0:0:
485,329,92758,6,0,B|430:350|430:350|392:295,1,121.000003692627,4|2,1:3|0:2,0:0:0:0:
358,249,93300,1,2,0:2:0:0:
358,249,93481,2,0,B|303:270|303:270|265:215,1,121.000003692627,2|0,1:2|1:0,0:0:0:0:
231,170,94023,1,0,1:0:0:0:
231,170,94204,2,0,B|176:191|176:191|138:136,1,121.000003692627,2|4,0:0|1:3,0:0:0:0:
46,64,94926,1,8,1:2:0:0:
17,181,95288,2,0,P|28:217|31:249,1,60.5000018463135,0|2,0:0|0:0,0:0:0:0:
32,300,95649,6,0,B|86:321|86:321|124:266,1,121.000003692627,4|2,1:3|0:2,0:0:0:0:
159,220,96191,1,2,0:2:0:0:
159,220,96372,2,0,B|213:241|213:241|251:186,1,121.000003692627,2|0,1:2|1:0,0:0:0:0:
286,141,96914,1,0,1:0:0:0:
286,141,97095,2,0,B|340:162|340:162|378:107,1,121.000003692627,2|4,0:0|1:3,0:0:0:0:
471,35,97817,1,8,1:2:0:0:
490,154,98179,1,2,0:1:0:0:
509,273,98541,6,0,B|454:294|454:294|416:239,1,121.000003692627,4|2,1:3|0:2,0:0:0:0:
382,194,99083,1,0,1:0:0:0:
382,194,99264,2,0,B|327:215|327:215|289:160,1,121.000003692627,2|0,1:2|1:0,0:0:0:0:
172,184,99987,2,0,B|117:205|117:205|79:150,1,121.000003692627,2|4,0:0|0:0,0:0:0:0:
45,105,100529,1,0,0:0:0:0:
45,105,100709,1,8,1:2:0:0:
17,223,101071,1,0,0:0:0:0:
42,341,101432,6,0,B|96:362|96:362|134:307,1,121.000003692627,4|2,1:3|0:2,0:0:0:0:
169,261,101974,1,2,0:2:0:0:
169,261,102155,2,0,B|223:282|223:282|261:227,1,121.000003692627,2|0,1:2|1:0,0:0:0:0:
296,182,102697,1,0,1:0:0:0:
296,182,102878,2,0,B|350:203|350:203|388:148,1,121.000003692627,2|4,0:0|1:3,0:0:0:0:
444,45,103601,1,2,1:3:0:0:
505,148,103962,1,2,0:0:0:0:
465,250,104324,6,0,P|451:286|442:322,1,55,4|0,1:3|0:0,0:0:0:0:
454,356,104685,2,0,P|413:310|331:301,1,110,0|2,0:0|1:2,0:0:0:0:
266,339,105408,1,0,1:0:0:0:
258,229,105770,1,2,0:2:0:0:
250,119,106131,2,0,L|261:63,1,55,4|0,1:3|0:0,0:0:0:0:
220,26,106493,1,8,1:2:0:0:
220,26,106673,2,0,B|153:25|175:71|135:99,1,110,4|2,1:3|0:0,0:0:0:0:
88,92,107215,6,0,L|84:37,2,55,4|0|2,1:3|0:0|0:2,0:0:0:0:
51,196,107938,2,0,L|54:250,2,55,2|0|0,1:2|0:0|1:0,0:0:0:0:
161,197,108661,2,0,P|214:213|232:264,1,110,0|4,0:0|1:3,0:0:0:0:
192,363,109384,1,8,0:2:0:0:
192,363,109565,2,0,P|269:346|316:350,1,110,4|8,1:3|0:2,0:0:0:0:
354,342,110107,6,0,L|408:352,2,55,4|0|2,1:3|0:0|0:2,0:0:0:0:
399,241,110830,2,0,L|453:251,2,55,2|0|0,1:2|0:0|1:0,0:0:0:0:
342,146,111553,2,0,P|297:152|279:165,1,55,2|0,0:2|0:0,0:0:0:0:
246,190,111914,2,0,P|201:184|183:171,1,55,4|0,1:3|0:0,0:0:0:0:
149,146,112276,1,8,1:2:0:0:
53,91,112637,1,0,0:0:0:0:
127,9,112999,5,4,1:3:0:0:
295,26,113541,1,2,1:2:0:0:
295,26,113722,1,4,1:3:0:0:
431,128,114264,1,2,1:2:0:0:
431,128,114445,1,4,1:3:0:0:
438,296,114987,1,2,1:2:0:0:
438,296,115168,1,4,1:3:0:0:
279,325,115709,1,2,1:2:0:0:
279,325,115890,6,0,L|222:310,1,55,4|0,1:3|0:0,0:0:0:0:
175,336,116252,2,0,L|118:351,1,55,2|4,0:2|3:0,0:0:0:0:
67,360,116613,1,0,1:0:0:0:
30,257,116974,2,0,P|31:225|47:196,1,55,4|2,0:0|0:2,0:0:0:0:
81,169,117336,2,0,L|187:197,2,110,2|4|8,0:0|0:0|0:2,0:0:0:0:
56,61,118420,1,0,0:0:0:0:
164,38,118782,6,0,L|221:53,1,55,4|0,0:0|0:0,0:0:0:0:
268,27,119144,2,0,L|325:12,1,55,0|4,0:0|0:0,0:0:0:0:
376,3,119505,1,0,1:0:0:0:
414,106,119866,2,0,P|413:138|397:167,1,55,4|4,0:0|0:0,0:0:0:0:
362,194,120228,2,0,L|255:166,2,110,0|4|8,0:0|0:0|0:2,0:0:0:0:
432,278,121312,1,2,0:1:0:0:
331,322,121673,6,0,P|291:339|271:336,1,55,4|0,0:0|0:0,0:0:0:0:
230,362,122035,2,0,P|194:336|187:317,1,55,0|4,0:0|0:0,0:0:0:0:
145,296,122396,1,0,1:0:0:0:
68,218,122758,2,0,L|80:156,1,55,4|4,0:0|0:0,0:0:0:0:
122,131,123119,2,0,L|98:7,2,110,0|4|8,0:0|0:0|0:2,0:0:0:0:
210,196,124203,1,0,0:0:0:0:
295,265,124565,6,0,P|334:282|354:279,1,55,4|0,0:0|0:0,0:3:0:0:
396,305,124927,2,0,P|431:279|438:260,1,55,0|4,0:0|0:0,0:0:0:0:
481,239,125288,2,2,P|461:173|460:127,1,110,10|0,0:1|0:0,0:1:0:0:
469,78,125830,1,4,0:0:0:0:
469,78,126011,1,0,0:0:0:0:
143,21,127095,5,6,0:1:0:0:
160,129,127456,1,2,1:3:0:0:
249,353,130348,6,0,L|258:289,1,55,4|0,1:3|0:0,0:0:0:0:
292,256,130709,2,0,L|283:192,1,55,2|0,0:0|1:0,0:0:0:0:
258,152,131071,2,0,L|267:88,2,55,2|0|0,1:2|0:0|1:0,0:0:0:0:
177,227,131794,2,0,P|123:224|103:210,1,55,0|8,0:0|0:2,0:0:0:0:
90,179,132155,2,0,P|93:125|107:105,1,55,4|0,1:3|0:0,0:0:0:0:
134,88,132517,1,8,0:2:0:0:
234,43,132878,1,2,0:0:0:0:
296,133,133240,6,0,L|289:257,1,110,4|0,0:0|0:0,0:0:0:0:
287,352,133962,2,0,L|349:355,1,55,2|0,1:2|0:0,0:0:0:0:
390,382,134324,2,0,L|452:378,1,55,0|0,1:0|1:0,0:0:0:0:
495,356,134685,2,0,P|499:329|497:294,1,55,2|2,0:2|0:2,0:0:0:0:
472,252,135047,1,4,1:3:0:0:
390,178,135408,2,0,P|386:151|388:116,1,55,8|4,0:2|1:3,0:0:0:0:
413,74,135770,1,0,0:0:0:0:
510,124,136131,5,0,0:0:0:0:
33,242,138661,6,0,P|53:254|54:298,1,55,0|2,0:0|0:2,0:0:0:0:
58,344,139023,6,0,B|83:358|114:360|114:360|138:334|143:303,1,121.000003692627,4|2,1:3|0:2,0:0:0:0:
161,248,139565,1,2,0:2:0:0:
161,248,139746,2,0,B|186:262|217:264|217:264|241:238|246:207,1,121.000003692627,2|0,1:2|1:0,0:0:0:0:
264,152,140287,1,0,1:0:0:0:
264,152,140468,2,0,B|289:166|320:168|320:168|344:142|349:111,1,121.000003692627,2|4,0:0|1:3,0:0:0:0:
453,52,141191,1,8,1:2:0:0:
471,171,141553,2,0,L|459:232,1,60.5000018463135,0|2,0:0|0:0,0:0:0:0:
435,286,141915,6,0,B|409:300|378:302|378:302|354:276|349:245,1,121.000003692627,4|2,1:3|0:2,0:0:0:0:
332,190,142457,1,2,0:2:0:0:
332,190,142638,2,0,B|306:204|275:206|275:206|251:180|246:149,1,121.000003692627,2|0,1:2|1:0,0:0:0:0:
229,94,143179,1,0,1:0:0:0:
229,94,143360,2,0,B|203:108|172:110|172:110|148:84|143:53,1,121.000003692627,2|4,0:0|1:3,0:0:0:0:
30,12,144083,1,8,1:2:0:0:
7,130,144444,1,0,0:0:0:0:
55,228,144806,6,0,B|78:241|105:242|105:242|128:219|132:191,1,110,4|0,0:0|0:0,0:0:0:0:
167,89,145529,1,2,0:2:0:0:
263,141,145890,2,0,L|256:202,1,55
292,238,146252,2,0,B|315:251|342:252|342:252|365:229|369:201,1,110,0|4,0:0|0:0,0:0:0:0:
404,99,146975,1,8,0:2:0:0:
473,184,147336,2,0,P|463:227|461:257,1,55,2|0,0:1|0:0,0:0:0:0:
456,292,147697,5,4,1:3:0:0:
313,372,148239,1,0,1:0:0:0:
313,372,148420,1,4,1:3:0:0:
153,352,148962,1,0,1:0:0:0:
153,352,149143,1,8,1:3:0:0:
45,234,149685,1,0,1:0:0:0:
45,234,149866,1,8,1:3:0:0:
43,66,150408,1,0,0:0:0:0:
43,66,150589,5,2,2:0:0:0:
