osu file format v14

[General]
AudioFilename: The Limit Does Not Exist.mp3
AudioLeadIn: 0
PreviewTime: 7369
Countdown: 0
SampleSet: Normal
StackLeniency: 0.7
Mode: 3
LetterboxInBreaks: 0
SpecialStyle: 0
WidescreenStoryboard: 1

[Editor]
DistanceSpacing: 1.8
BeatDivisor: 4
GridSize: 16
TimelineZoom: 2.4

[Metadata]
Title:The Limit Does Not Exist
TitleUnicode:The Limit Does Not Exist
Artist:Cardboard Box
ArtistUnicode:Cardboard Box
Creator:iJinjin
Version:Infinity
Source:
Tags:tristan97 jinjin chiptune 8bit tachyon epsilon stepmania itg in the groove tldne
BeatmapID:831204
BeatmapSetID:379758

[Difficulty]
HPDrainRate:8.5
CircleSize:7
OverallDifficulty:8.2
ApproachRate:5
SliderMultiplier:1.4
SliderTickRate:1

[Events]
//Background and Video events
0,0,"the limit does not exist bg.jpg",0,0
//Break Periods
//Storyboard Layer 0 (Background)
//Storyboard Layer 1 (Fail)
//Storyboard Layer 2 (Pass)
//Storyboard Layer 3 (Foreground)
//Storyboard Sound Samples

[TimingPoints]
-15,230.769230769231,4,1,1,30,1,0
95985,-100,4,1,1,30,0,1
110754,-100,4,1,1,30,0,0

[HitObjects]
109,192,1831,5,0,0:0:0:0:
402,192,1831,1,0,0:0:0:0:
182,192,1831,1,2,0:0:0:0:
329,192,2061,1,0,0:0:0:0:
402,192,2061,1,0,0:0:0:0:
182,192,2177,1,2,0:0:0:0:
109,192,2177,1,0,0:0:0:0:
182,192,2408,1,2,0:0:0:0:
109,192,2408,1,0,0:0:0:0:
329,192,2523,1,0,0:0:0:0:
402,192,2523,1,0,0:0:0:0:
329,192,2638,1,0,0:0:0:0:
256,192,2754,1,0,0:0:0:0:
182,192,2754,1,2,0:0:0:0:
256,192,2869,1,0,0:0:0:0:
182,192,2869,1,2,0:0:0:0:
402,192,2985,1,0,0:0:0:0:
475,192,2985,1,0,0:0:0:0:
109,192,3215,1,2,0:0:0:0:
36,192,3215,1,0,0:0:0:0:
109,192,3331,1,2,0:0:0:0:
36,192,3331,1,0,0:0:0:0:
256,192,3446,1,0,0:0:0:0:
329,192,3446,1,0,0:0:0:0:
109,192,3677,1,0,0:0:0:0:
402,192,3677,1,0,0:0:0:0:
256,192,3677,1,2,0:0:0:0:
329,192,3908,1,0,0:0:0:0:
475,192,3908,1,0,0:0:0:0:
182,192,4023,1,2,0:0:0:0:
36,192,4023,1,0,0:0:0:0:
109,192,4254,1,0,0:0:0:0:
182,192,4254,1,2,0:0:0:0:
329,192,4369,1,0,0:0:0:0:
402,192,4369,1,0,0:0:0:0:
329,192,4485,1,0,0:0:0:0:
182,192,4600,1,2,0:0:0:0:
36,192,4600,1,0,0:0:0:0:
182,192,4715,1,2,0:0:0:0:
36,192,4715,1,0,0:0:0:0:
329,192,4831,1,0,0:0:0:0:
475,192,4831,1,0,0:0:0:0:
109,192,5061,1,0,0:0:0:0:
182,192,5061,1,2,0:0:0:0:
182,192,5177,1,2,0:0:0:0:
109,192,5177,1,0,0:0:0:0:
329,192,5292,1,0,0:0:0:0:
402,192,5292,1,0,0:0:0:0:
182,192,5523,1,2,0:0:0:0:
36,192,5523,1,0,0:0:0:0:
475,192,5523,1,0,0:0:0:0:
329,192,5754,1,0,0:0:0:0:
475,192,5754,1,0,0:0:0:0:
182,192,5869,1,2,0:0:0:0:
36,192,5869,1,0,0:0:0:0:
329,192,6100,1,2,0:0:0:0:
36,192,6100,1,0,0:0:0:0:
182,192,6215,1,0,0:0:0:0:
475,192,6215,1,0,0:0:0:0:
329,192,6331,1,0,0:0:0:0:
109,192,6446,1,2,0:0:0:0:
256,192,6446,1,0,0:0:0:0:
109,192,6561,1,2,0:0:0:0:
256,192,6561,1,0,0:0:0:0:
329,192,6677,1,0,0:0:0:0:
402,192,6677,1,0,0:0:0:0:
256,192,6908,1,0,0:0:0:0:
402,192,6908,1,2,0:0:0:0:
402,192,7023,1,2,0:0:0:0:
256,192,7023,1,0,0:0:0:0:
182,192,7138,1,0,0:0:0:0:
109,192,7138,1,0,0:0:0:0:
36,192,7369,1,0,0:0:0:0:
256,192,7369,1,2,0:0:0:0:
475,192,7369,1,0,0:0:0:0:
402,192,7369,1,0,0:0:0:0:
109,192,7408,1,0,0:0:0:0:
182,192,7446,1,0,0:0:0:0:
329,192,7485,1,0,0:0:0:0:
475,192,7600,1,0,0:0:0:0:
402,192,7600,1,0,0:0:0:0:
36,192,7600,1,0,0:0:0:0:
402,192,7715,1,2,0:0:0:0:
36,192,7715,1,0,0:0:0:0:
475,192,7715,1,0,0:0:0:0:
109,192,7754,1,0,0:0:0:0:
182,192,7792,1,0,0:0:0:0:
329,192,7831,1,0,0:0:0:0:
402,192,7946,1,2,0:0:0:0:
475,192,7946,1,0,0:0:0:0:
36,192,7946,1,0,0:0:0:0:
36,192,8061,1,0,0:0:0:0:
475,192,8061,1,0,0:0:0:0:
402,192,8061,1,0,0:0:0:0:
109,192,8100,1,0,0:0:0:0:
182,192,8138,1,0,0:0:0:0:
256,192,8177,1,0,0:0:0:0:
329,192,8177,1,0,0:0:0:0:
36,192,8292,1,0,0:0:0:0:
182,192,8292,1,2,0:0:0:0:
475,192,8292,1,0,0:0:0:0:
36,192,8408,1,0,0:0:0:0:
182,192,8408,1,2,0:0:0:0:
329,192,8408,1,0,0:0:0:0:
182,192,8523,1,0,0:0:0:0:
36,192,8523,1,0,0:0:0:0:
475,192,8523,1,0,0:0:0:0:
402,192,8561,1,0,0:0:0:0:
329,192,8600,1,0,0:0:0:0:
256,192,8638,1,0,0:0:0:0:
329,192,8754,1,2,0:0:0:0:
475,192,8754,1,0,0:0:0:0:
36,192,8754,1,0,0:0:0:0:
329,192,8869,1,2,0:0:0:0:
475,192,8869,1,0,0:0:0:0:
182,192,8869,1,0,0:0:0:0:
329,192,8985,1,0,0:0:0:0:
475,192,8985,1,0,0:0:0:0:
36,192,8985,1,0,0:0:0:0:
109,192,9023,1,0,0:0:0:0:
182,192,9061,1,0,0:0:0:0:
256,192,9100,1,0,0:0:0:0:
109,192,9215,1,2,0:0:0:0:
36,192,9215,1,0,0:0:0:0:
475,192,9215,1,0,0:0:0:0:
182,192,9215,1,0,0:0:0:0:
402,192,9254,1,0,0:0:0:0:
329,192,9292,1,0,0:0:0:0:
182,192,9331,1,0,0:0:0:0:
475,192,9446,1,0,0:0:0:0:
109,192,9446,1,0,0:0:0:0:
36,192,9446,1,0,0:0:0:0:
36,192,9561,1,0,0:0:0:0:
109,192,9561,1,2,0:0:0:0:
475,192,9561,1,0,0:0:0:0:
402,192,9600,1,0,0:0:0:0:
329,192,9638,1,0,0:0:0:0:
182,192,9677,1,0,0:0:0:0:
36,192,9792,1,0,0:0:0:0:
475,192,9792,1,0,0:0:0:0:
109,192,9792,1,2,0:0:0:0:
475,192,9908,1,0,0:0:0:0:
109,192,9908,1,0,0:0:0:0:
36,192,9908,1,0,0:0:0:0:
402,192,9946,1,0,0:0:0:0:
329,192,9985,1,0,0:0:0:0:
182,192,10023,1,0,0:0:0:0:
256,192,10023,1,0,0:0:0:0:
36,192,10138,1,0,0:0:0:0:
329,192,10138,1,2,0:0:0:0:
475,192,10138,1,0,0:0:0:0:
329,192,10254,1,2,0:0:0:0:
182,192,10254,1,0,0:0:0:0:
475,192,10254,1,0,0:0:0:0:
475,192,10369,1,0,0:0:0:0:
329,192,10369,1,0,0:0:0:0:
36,192,10369,1,0,0:0:0:0:
109,192,10408,1,0,0:0:0:0:
182,192,10446,1,0,0:0:0:0:
256,192,10485,1,0,0:0:0:0:
36,192,10600,1,0,0:0:0:0:
475,192,10600,1,0,0:0:0:0:
182,192,10600,1,2,0:0:0:0:
36,192,10715,1,0,0:0:0:0:
329,192,10715,1,0,0:0:0:0:
182,192,10715,1,2,0:0:0:0:
182,192,10831,1,0,0:0:0:0:
475,192,10831,1,0,0:0:0:0:
36,192,10831,1,0,0:0:0:0:
402,192,10869,1,0,0:0:0:0:
329,192,10908,1,0,0:0:0:0:
256,192,10946,1,0,0:0:0:0:
36,192,11061,1,0,0:0:0:0:
402,192,11061,1,2,0:0:0:0:
475,192,11061,1,0,0:0:0:0:
182,192,11061,1,0,0:0:0:0:
329,192,11119,1,0,0:0:0:0:
256,192,11177,1,0,0:0:0:0:
109,192,11177,1,0,0:0:0:0:
402,192,11235,1,0,0:0:0:0:
329,192,11292,1,0,0:0:0:0:
182,192,11292,1,0,0:0:0:0:
36,192,11350,1,0,0:0:0:0:
256,192,11408,1,2,0:0:0:0:
402,192,11408,1,0,0:0:0:0:
109,192,11465,1,0,0:0:0:0:
182,192,11523,1,0,0:0:0:0:
329,192,11523,1,0,0:0:0:0:
36,192,11581,1,0,0:0:0:0:
256,192,11638,1,2,0:0:0:0:
402,192,11638,1,0,0:0:0:0:
182,192,11696,1,0,0:0:0:0:
329,192,11754,1,0,0:0:0:0:
475,192,11754,1,0,0:0:0:0:
109,192,11811,1,0,0:0:0:0:
256,192,11869,1,0,0:0:0:0:
402,192,11869,1,0,0:0:0:0:
36,192,11927,1,0,0:0:0:0:
475,192,11985,1,0,0:0:0:0:
329,192,11985,1,2,0:0:0:0:
402,192,11985,1,0,0:0:0:0:
182,192,12042,1,0,0:0:0:0:
329,192,12100,1,2,0:0:0:0:
402,192,12100,1,0,0:0:0:0:
475,192,12100,1,0,0:0:0:0:
256,192,12158,1,0,0:0:0:0:
36,192,12215,1,0,0:0:0:0:
109,192,12215,1,0,0:0:0:0:
182,192,12215,1,0,0:0:0:0:
475,192,12273,1,0,0:0:0:0:
402,192,12331,1,0,0:0:0:0:
329,192,12331,1,0,0:0:0:0:
256,192,12388,1,0,0:0:0:0:
36,192,12446,1,0,0:0:0:0:
109,192,12446,1,0,0:0:0:0:
182,192,12446,1,2,0:0:0:0:
329,192,12504,1,0,0:0:0:0:
182,192,12561,1,2,0:0:0:0:
109,192,12561,1,0,0:0:0:0:
36,192,12561,1,0,0:0:0:0:
256,192,12619,1,0,0:0:0:0:
329,192,12677,1,0,0:0:0:0:
402,192,12677,1,0,0:0:0:0:
475,192,12677,1,0,0:0:0:0:
36,192,12735,1,0,0:0:0:0:
109,192,12792,1,0,0:0:0:0:
182,192,12792,1,0,0:0:0:0:
256,192,12850,1,0,0:0:0:0:
329,192,12908,1,2,0:0:0:0:
475,192,12908,1,0,0:0:0:0:
36,192,12908,1,0,0:0:0:0:
182,192,12965,1,0,0:0:0:0:
109,192,13023,1,0,0:0:0:0:
256,192,13023,1,0,0:0:0:0:
402,192,13081,1,0,0:0:0:0:
182,192,13138,1,0,0:0:0:0:
329,192,13138,1,0,0:0:0:0:
36,192,13196,1,0,0:0:0:0:
256,192,13254,1,2,0:0:0:0:
475,192,13254,1,0,0:0:0:0:
109,192,13311,1,0,0:0:0:0:
182,192,13369,1,0,0:0:0:0:
329,192,13369,1,0,0:0:0:0:
36,192,13427,1,0,0:0:0:0:
256,192,13485,1,2,0:0:0:0:
402,192,13485,1,0,0:0:0:0:
109,192,13542,1,0,0:0:0:0:
329,192,13600,1,0,0:0:0:0:
475,192,13600,1,0,0:0:0:0:
182,192,13658,1,0,0:0:0:0:
256,192,13715,1,0,0:0:0:0:
36,192,13715,1,0,0:0:0:0:
109,192,13773,1,0,0:0:0:0:
329,192,13831,1,2,0:0:0:0:
402,192,13831,1,0,0:0:0:0:
475,192,13831,1,0,0:0:0:0:
182,192,13888,1,0,0:0:0:0:
329,192,13946,1,2,0:0:0:0:
402,192,13946,1,0,0:0:0:0:
475,192,13946,1,0,0:0:0:0:
256,192,14004,1,0,0:0:0:0:
182,192,14061,1,0,0:0:0:0:
109,192,14061,1,0,0:0:0:0:
36,192,14061,1,0,0:0:0:0:
475,192,14119,1,0,0:0:0:0:
402,192,14177,1,0,0:0:0:0:
329,192,14177,1,0,0:0:0:0:
256,192,14235,1,0,0:0:0:0:
182,192,14292,1,2,0:0:0:0:
109,192,14292,1,0,0:0:0:0:
36,192,14292,1,0,0:0:0:0:
329,192,14350,1,0,0:0:0:0:
182,192,14408,1,2,0:0:0:0:
109,192,14408,1,0,0:0:0:0:
36,192,14408,1,0,0:0:0:0:
256,192,14465,1,0,0:0:0:0:
329,192,14523,1,0,0:0:0:0:
402,192,14523,1,0,0:0:0:0:
475,192,14523,1,0,0:0:0:0:
109,192,14581,1,0,0:0:0:0:
182,192,14638,1,0,0:0:0:0:
329,192,14638,1,0,0:0:0:0:
402,192,14696,1,0,0:0:0:0:
109,192,14754,1,0,0:0:0:0:
36,192,14754,1,0,0:0:0:0:
475,192,14754,1,2,0:0:0:0:
182,192,14754,1,0,0:0:0:0:
256,192,14792,1,0,0:0:0:0:
329,192,14831,1,0,0:0:0:0:
402,192,14869,1,0,0:0:0:0:
109,192,14985,1,0,0:0:0:0:
256,192,14985,1,0,0:0:0:0:
36,192,14985,1,0,0:0:0:0:
109,192,15100,1,2,0:0:0:0:
475,192,15100,1,0,0:0:0:0:
36,192,15100,1,0,0:0:0:0:
402,192,15138,1,0,0:0:0:0:
329,192,15177,1,0,0:0:0:0:
182,192,15215,1,0,0:0:0:0:
109,192,15331,1,2,0:0:0:0:
36,192,15331,1,0,0:0:0:0:
475,192,15331,1,0,0:0:0:0:
475,192,15446,1,0,0:0:0:0:
36,192,15446,1,0,0:0:0:0:
109,192,15446,1,0,0:0:0:0:
402,192,15485,1,0,0:0:0:0:
329,192,15523,1,0,0:0:0:0:
182,192,15561,1,0,0:0:0:0:
256,192,15561,1,0,0:0:0:0:
475,192,15677,1,0,0:0:0:0:
329,192,15677,1,2,0:0:0:0:
36,192,15677,1,0,0:0:0:0:
475,192,15792,1,0,0:0:0:0:
329,192,15792,1,2,0:0:0:0:
182,192,15792,1,0,0:0:0:0:
329,192,15908,1,0,0:0:0:0:
475,192,15908,1,0,0:0:0:0:
36,192,15908,1,0,0:0:0:0:
109,192,15946,1,0,0:0:0:0:
182,192,15985,1,0,0:0:0:0:
256,192,16023,1,0,0:0:0:0:
182,192,16138,1,2,0:0:0:0:
36,192,16138,1,0,0:0:0:0:
475,192,16138,1,0,0:0:0:0:
182,192,16254,1,2,0:0:0:0:
36,192,16254,1,0,0:0:0:0:
329,192,16254,1,0,0:0:0:0:
182,192,16369,1,0,0:0:0:0:
36,192,16369,1,0,0:0:0:0:
475,192,16369,1,0,0:0:0:0:
402,192,16408,1,0,0:0:0:0:
329,192,16446,1,0,0:0:0:0:
256,192,16485,1,0,0:0:0:0:
402,192,16600,1,0,0:0:0:0:
475,192,16600,1,0,0:0:0:0:
36,192,16600,1,0,0:0:0:0:
329,192,16600,1,2,0:0:0:0:
109,192,16638,1,0,0:0:0:0:
182,192,16677,1,0,0:0:0:0:
256,192,16715,1,0,0:0:0:0:
36,192,16831,1,0,0:0:0:0:
402,192,16831,1,0,0:0:0:0:
475,192,16831,1,0,0:0:0:0:
475,192,16946,1,0,0:0:0:0:
402,192,16946,1,2,0:0:0:0:
36,192,16946,1,0,0:0:0:0:
109,192,16985,1,0,0:0:0:0:
182,192,17023,1,0,0:0:0:0:
329,192,17061,1,0,0:0:0:0:
475,192,17177,1,0,0:0:0:0:
36,192,17177,1,0,0:0:0:0:
402,192,17177,1,2,0:0:0:0:
36,192,17292,1,0,0:0:0:0:
402,192,17292,1,0,0:0:0:0:
475,192,17292,1,0,0:0:0:0:
109,192,17331,1,0,0:0:0:0:
182,192,17369,1,0,0:0:0:0:
256,192,17408,1,0,0:0:0:0:
329,192,17408,1,0,0:0:0:0:
475,192,17523,1,0,0:0:0:0:
182,192,17523,1,2,0:0:0:0:
36,192,17523,1,0,0:0:0:0:
182,192,17638,1,2,0:0:0:0:
329,192,17638,1,0,0:0:0:0:
36,192,17638,1,0,0:0:0:0:
36,192,17754,1,0,0:0:0:0:
182,192,17754,1,0,0:0:0:0:
475,192,17754,1,0,0:0:0:0:
402,192,17792,1,0,0:0:0:0:
329,192,17831,1,0,0:0:0:0:
256,192,17869,1,0,0:0:0:0:
475,192,17985,1,0,0:0:0:0:
36,192,17985,1,0,0:0:0:0:
329,192,17985,1,2,0:0:0:0:
475,192,18100,1,0,0:0:0:0:
182,192,18100,1,0,0:0:0:0:
329,192,18100,1,2,0:0:0:0:
329,192,18215,1,0,0:0:0:0:
36,192,18215,1,0,0:0:0:0:
475,192,18215,1,0,0:0:0:0:
109,192,18254,1,0,0:0:0:0:
182,192,18292,1,0,0:0:0:0:
256,192,18331,1,0,0:0:0:0:
36,192,18446,1,0,0:0:0:0:
109,192,18446,1,0,0:0:0:0:
329,192,18446,1,2,0:0:0:0:
475,192,18446,1,0,0:0:0:0:
182,192,18504,1,0,0:0:0:0:
256,192,18561,1,0,0:0:0:0:
402,192,18561,1,0,0:0:0:0:
109,192,18619,1,0,0:0:0:0:
329,192,18677,1,0,0:0:0:0:
475,192,18677,1,0,0:0:0:0:
182,192,18735,1,0,0:0:0:0:
256,192,18792,1,2,0:0:0:0:
402,192,18792,1,0,0:0:0:0:
329,192,18850,1,0,0:0:0:0:
36,192,18908,1,0,0:0:0:0:
182,192,18908,1,0,0:0:0:0:
402,192,18965,1,0,0:0:0:0:
109,192,19023,1,0,0:0:0:0:
256,192,19023,1,2,0:0:0:0:
475,192,19081,1,0,0:0:0:0:
36,192,19138,1,0,0:0:0:0:
182,192,19138,1,0,0:0:0:0:
329,192,19196,1,0,0:0:0:0:
109,192,19254,1,0,0:0:0:0:
256,192,19254,1,0,0:0:0:0:
402,192,19311,1,0,0:0:0:0:
182,192,19369,1,2,0:0:0:0:
36,192,19369,1,0,0:0:0:0:
475,192,19369,1,0,0:0:0:0:
256,192,19427,1,0,0:0:0:0:
329,192,19485,1,2,0:0:0:0:
402,192,19485,1,0,0:0:0:0:
109,192,19485,1,0,0:0:0:0:
182,192,19542,1,0,0:0:0:0:
256,192,19600,1,0,0:0:0:0:
475,192,19600,1,0,0:0:0:0:
36,192,19600,1,0,0:0:0:0:
402,192,19658,1,0,0:0:0:0:
329,192,19715,1,0,0:0:0:0:
182,192,19715,1,0,0:0:0:0:
109,192,19773,1,0,0:0:0:0:
36,192,19831,1,0,0:0:0:0:
256,192,19831,1,2,0:0:0:0:
475,192,19831,1,0,0:0:0:0:
329,192,19888,1,0,0:0:0:0:
182,192,19946,1,2,0:0:0:0:
109,192,19946,1,0,0:0:0:0:
402,192,19946,1,0,0:0:0:0:
256,192,20004,1,0,0:0:0:0:
329,192,20061,1,0,0:0:0:0:
475,192,20061,1,0,0:0:0:0:
36,192,20061,1,0,0:0:0:0:
109,192,20119,1,0,0:0:0:0:
182,192,20177,1,0,0:0:0:0:
402,192,20177,1,0,0:0:0:0:
329,192,20235,1,0,0:0:0:0:
256,192,20292,1,0,0:0:0:0:
36,192,20292,1,2,0:0:0:0:
475,192,20292,1,0,0:0:0:0:
109,192,20350,1,0,0:0:0:0:
182,192,20408,1,0,0:0:0:0:
402,192,20408,1,0,0:0:0:0:
329,192,20465,1,0,0:0:0:0:
36,192,20523,1,0,0:0:0:0:
256,192,20523,1,0,0:0:0:0:
109,192,20581,1,0,0:0:0:0:
182,192,20638,1,0,0:0:0:0:
475,192,20638,1,2,0:0:0:0:
402,192,20696,1,0,0:0:0:0:
329,192,20754,1,0,0:0:0:0:
109,192,20754,1,0,0:0:0:0:
182,192,20811,1,0,0:0:0:0:
256,192,20869,1,0,0:0:0:0:
475,192,20869,1,2,0:0:0:0:
402,192,20927,1,0,0:0:0:0:
329,192,20985,1,0,0:0:0:0:
36,192,20985,1,0,0:0:0:0:
109,192,21042,1,0,0:0:0:0:
182,192,21100,1,0,0:0:0:0:
402,192,21100,1,0,0:0:0:0:
329,192,21158,1,0,0:0:0:0:
256,192,21215,1,2,0:0:0:0:
36,192,21215,1,0,0:0:0:0:
475,192,21215,1,0,0:0:0:0:
109,192,21273,1,0,0:0:0:0:
182,192,21331,1,0,0:0:0:0:
329,192,21331,1,2,0:0:0:0:
402,192,21331,1,0,0:0:0:0:
36,192,21388,1,0,0:0:0:0:
109,192,21446,1,0,0:0:0:0:
256,192,21446,1,0,0:0:0:0:
475,192,21446,1,0,0:0:0:0:
329,192,21504,1,0,0:0:0:0:
182,192,21561,1,0,0:0:0:0:
402,192,21561,1,0,0:0:0:0:
256,192,21619,1,0,0:0:0:0:
36,192,21677,1,0,0:0:0:0:
109,192,21677,1,2,0:0:0:0:
475,192,21677,1,0,0:0:0:0:
402,192,21735,1,0,0:0:0:0:
182,192,21792,1,0,0:0:0:0:
329,192,21792,1,0,0:0:0:0:
256,192,21792,1,2,0:0:0:0:
109,192,21850,1,0,0:0:0:0:
475,192,21908,1,0,0:0:0:0:
36,192,21908,1,0,0:0:0:0:
402,192,21908,1,0,0:0:0:0:
329,192,21965,1,0,0:0:0:0:
182,192,22023,1,0,0:0:0:0:
109,192,22023,1,0,0:0:0:0:
256,192,22081,1,0,0:0:0:0:
402,192,22138,1,2,0:0:0:0:
475,192,22138,1,0,0:0:0:0:
329,192,22138,1,0,0:0:0:0:
36,192,22138,1,0,0:0:0:0:
109,192,22177,1,0,0:0:0:0:
182,192,22215,1,0,0:0:0:0:
256,192,22254,1,0,0:0:0:0:
402,192,22369,1,0,0:0:0:0:
256,192,22369,1,0,0:0:0:0:
36,192,22485,1,0,0:0:0:0:
329,192,22485,1,2,0:0:0:0:
475,192,22485,1,0,0:0:0:0:
109,192,22523,1,0,0:0:0:0:
182,192,22561,1,0,0:0:0:0:
329,192,22600,1,0,0:0:0:0:
402,192,22715,1,2,0:0:0:0:
256,192,22715,1,0,0:0:0:0:
329,192,22831,1,0,0:0:0:0:
475,192,22831,1,0,0:0:0:0:
36,192,22831,1,0,0:0:0:0:
109,192,22869,1,0,0:0:0:0:
182,192,22908,1,0,0:0:0:0:
256,192,22946,1,0,0:0:0:0:
402,192,22946,1,0,0:0:0:0:
36,192,23061,1,0,0:0:0:0:
329,192,23061,1,2,0:0:0:0:
475,192,23061,1,0,0:0:0:0:
36,192,23177,1,0,0:0:0:0:
329,192,23177,1,2,0:0:0:0:
475,192,23177,1,0,0:0:0:0:
36,192,23292,1,0,0:0:0:0:
329,192,23292,1,0,0:0:0:0:
475,192,23292,1,0,0:0:0:0:
109,192,23331,1,0,0:0:0:0:
182,192,23369,1,0,0:0:0:0:
256,192,23408,1,0,0:0:0:0:
36,192,23523,1,0,0:0:0:0:
475,192,23523,1,0,0:0:0:0:
182,192,23523,1,2,0:0:0:0:
36,192,23638,1,0,0:0:0:0:
182,192,23638,1,2,0:0:0:0:
475,192,23638,1,0,0:0:0:0:
475,192,23754,1,0,0:0:0:0:
182,192,23754,1,0,0:0:0:0:
36,192,23754,1,0,0:0:0:0:
402,192,23792,1,0,0:0:0:0:
329,192,23831,1,0,0:0:0:0:
256,192,23869,1,0,0:0:0:0:
402,192,23985,1,2,0:0:0:0:
475,192,23985,1,0,0:0:0:0:
36,192,23985,1,0,0:0:0:0:
329,192,23985,1,0,0:0:0:0:
109,192,24023,1,0,0:0:0:0:
182,192,24061,1,0,0:0:0:0:
256,192,24100,1,0,0:0:0:0:
329,192,24215,1,0,0:0:0:0:
475,192,24215,1,0,0:0:0:0:
36,192,24331,1,0,0:0:0:0:
402,192,24331,1,2,0:0:0:0:
256,192,24331,1,0,0:0:0:0:
109,192,24369,1,0,0:0:0:0:
182,192,24408,1,0,0:0:0:0:
329,192,24446,1,0,0:0:0:0:
329,192,24561,1,0,0:0:0:0:
475,192,24561,1,2,0:0:0:0:
36,192,24677,1,0,0:0:0:0:
402,192,24677,1,0,0:0:0:0:
256,192,24677,1,0,0:0:0:0:
109,192,24715,1,0,0:0:0:0:
182,192,24754,1,0,0:0:0:0:
329,192,24792,1,0,0:0:0:0:
475,192,24792,1,0,0:0:0:0:
109,192,24908,1,0,0:0:0:0:
36,192,24908,1,0,0:0:0:0:
256,192,24908,1,2,0:0:0:0:
109,192,25023,1,0,0:0:0:0:
36,192,25023,1,0,0:0:0:0:
256,192,25023,1,2,0:0:0:0:
109,192,25138,1,0,0:0:0:0:
36,192,25138,1,0,0:0:0:0:
475,192,25138,1,0,0:0:0:0:
402,192,25177,1,0,0:0:0:0:
329,192,25215,1,0,0:0:0:0:
256,192,25254,1,0,0:0:0:0:
109,192,25369,1,0,0:0:0:0:
182,192,25369,1,0,0:0:0:0:
329,192,25369,1,2,0:0:0:0:
109,192,25485,1,0,0:0:0:0:
182,192,25485,1,0,0:0:0:0:
329,192,25485,1,2,0:0:0:0:
109,192,25600,1,0,0:0:0:0:
182,192,25600,1,0,0:0:0:0:
329,192,25600,1,0,0:0:0:0:
402,192,25638,1,0,0:0:0:0:
475,192,25677,1,0,0:0:0:0:
256,192,25715,1,0,0:0:0:0:
36,192,25831,1,0,0:0:0:0:
329,192,25831,1,0,0:0:0:0:
182,192,25831,1,2,0:0:0:0:
109,192,25831,1,0,0:0:0:0:
402,192,25869,1,0,0:0:0:0:
475,192,25908,1,0,0:0:0:0:
182,192,25946,1,0,0:0:0:0:
109,192,26061,1,0,0:0:0:0:
256,192,26061,1,0,0:0:0:0:
182,192,26177,1,2,0:0:0:0:
36,192,26177,1,0,0:0:0:0:
329,192,26177,1,0,0:0:0:0:
402,192,26215,1,0,0:0:0:0:
475,192,26254,1,0,0:0:0:0:
182,192,26292,1,0,0:0:0:0:
109,192,26408,1,2,0:0:0:0:
256,192,26408,1,0,0:0:0:0:
182,192,26523,1,0,0:0:0:0:
36,192,26523,1,0,0:0:0:0:
329,192,26523,1,0,0:0:0:0:
402,192,26561,1,0,0:0:0:0:
475,192,26600,1,0,0:0:0:0:
256,192,26638,1,0,0:0:0:0:
109,192,26638,1,0,0:0:0:0:
36,192,26754,1,0,0:0:0:0:
182,192,26754,1,2,0:0:0:0:
402,192,26754,1,0,0:0:0:0:
109,192,26869,1,0,0:0:0:0:
256,192,26869,1,2,0:0:0:0:
475,192,26869,1,0,0:0:0:0:
182,192,26985,1,0,0:0:0:0:
36,192,26985,1,0,0:0:0:0:
329,192,26985,1,0,0:0:0:0:
402,192,27023,1,0,0:0:0:0:
475,192,27061,1,0,0:0:0:0:
256,192,27100,1,0,0:0:0:0:
36,192,27215,1,0,0:0:0:0:
329,192,27215,1,2,0:0:0:0:
475,192,27215,1,0,0:0:0:0:
256,192,27331,1,2,0:0:0:0:
109,192,27331,1,0,0:0:0:0:
402,192,27331,1,0,0:0:0:0:
182,192,27446,1,0,0:0:0:0:
329,192,27446,1,0,0:0:0:0:
475,192,27446,1,0,0:0:0:0:
109,192,27485,1,0,0:0:0:0:
36,192,27523,1,0,0:0:0:0:
256,192,27561,1,0,0:0:0:0:
402,192,27677,1,0,0:0:0:0:
36,192,27677,1,0,0:0:0:0:
329,192,27677,1,2,0:0:0:0:
475,192,27677,1,0,0:0:0:0:
109,192,27715,1,0,0:0:0:0:
182,192,27754,1,0,0:0:0:0:
256,192,27792,1,0,0:0:0:0:
182,192,27908,1,0,0:0:0:0:
329,192,27908,1,0,0:0:0:0:
475,192,28023,1,0,0:0:0:0:
36,192,28023,1,0,0:0:0:0:
109,192,28023,1,2,0:0:0:0:
402,192,28061,1,0,0:0:0:0:
329,192,28100,1,0,0:0:0:0:
256,192,28138,1,0,0:0:0:0:
182,192,28254,1,2,0:0:0:0:
329,192,28254,1,0,0:0:0:0:
402,192,28369,1,0,0:0:0:0:
475,192,28369,1,0,0:0:0:0:
36,192,28369,1,0,0:0:0:0:
109,192,28408,1,0,0:0:0:0:
182,192,28446,1,0,0:0:0:0:
402,192,28485,1,0,0:0:0:0:
256,192,28485,1,0,0:0:0:0:
329,192,28600,1,2,0:0:0:0:
475,192,28600,1,0,0:0:0:0:
109,192,28600,1,0,0:0:0:0:
109,192,28715,1,0,0:0:0:0:
329,192,28715,1,2,0:0:0:0:
475,192,28715,1,0,0:0:0:0:
256,192,28831,1,0,0:0:0:0:
402,192,28831,1,0,0:0:0:0:
36,192,28831,1,0,0:0:0:0:
109,192,28869,1,0,0:0:0:0:
182,192,28908,1,0,0:0:0:0:
329,192,28946,1,0,0:0:0:0:
256,192,29061,1,2,0:0:0:0:
402,192,29061,1,0,0:0:0:0:
475,192,29061,1,0,0:0:0:0:
402,192,29177,1,0,0:0:0:0:
475,192,29177,1,0,0:0:0:0:
256,192,29177,1,2,0:0:0:0:
182,192,29292,1,2,0:0:0:0:
36,192,29292,1,0,0:0:0:0:
329,192,29350,1,2,0:0:0:0:
475,192,29350,1,0,0:0:0:0:
182,192,29408,1,2,0:0:0:0:
36,192,29408,1,0,0:0:0:0:
329,192,29465,1,2,0:0:0:0:
475,192,29465,1,0,0:0:0:0:
36,192,29523,1,0,0:0:0:0:
109,192,29523,1,0,0:0:0:0:
182,192,29523,1,2,0:0:0:0:
256,192,29523,1,0,0:0:0:0:
475,192,29561,1,0,0:0:0:0:
402,192,29600,1,0,0:0:0:0:
329,192,29638,1,0,0:0:0:0:
475,192,29754,1,0,0:0:0:0:
402,192,29754,1,0,0:0:0:0:
36,192,29869,1,0,0:0:0:0:
109,192,29869,1,0,0:0:0:0:
182,192,29869,1,2,0:0:0:0:
256,192,29908,1,0,0:0:0:0:
329,192,29946,1,0,0:0:0:0:
402,192,29985,1,0,0:0:0:0:
109,192,30100,1,0,0:0:0:0:
182,192,30100,1,2,0:0:0:0:
36,192,30215,1,0,0:0:0:0:
182,192,30215,1,0,0:0:0:0:
109,192,30215,1,0,0:0:0:0:
256,192,30254,1,0,0:0:0:0:
329,192,30292,1,0,0:0:0:0:
402,192,30331,1,0,0:0:0:0:
475,192,30331,1,0,0:0:0:0:
109,192,30446,1,0,0:0:0:0:
182,192,30446,1,0,0:0:0:0:
329,192,30446,1,2,0:0:0:0:
109,192,30561,1,0,0:0:0:0:
182,192,30561,1,0,0:0:0:0:
329,192,30561,1,2,0:0:0:0:
182,192,30677,1,0,0:0:0:0:
402,192,30677,1,0,0:0:0:0:
475,192,30677,1,0,0:0:0:0:
256,192,30715,1,0,0:0:0:0:
329,192,30754,1,0,0:0:0:0:
109,192,30792,1,0,0:0:0:0:
182,192,30908,1,0,0:0:0:0:
256,192,30908,1,0,0:0:0:0:
402,192,30908,1,2,0:0:0:0:
182,192,31023,1,0,0:0:0:0:
256,192,31023,1,0,0:0:0:0:
402,192,31023,1,2,0:0:0:0:
182,192,31138,1,0,0:0:0:0:
109,192,31138,1,0,0:0:0:0:
402,192,31138,1,0,0:0:0:0:
329,192,31177,1,0,0:0:0:0:
256,192,31215,1,0,0:0:0:0:
475,192,31254,1,0,0:0:0:0:
36,192,31369,1,0,0:0:0:0:
182,192,31369,1,2,0:0:0:0:
402,192,31369,1,0,0:0:0:0:
109,192,31369,1,0,0:0:0:0:
329,192,31408,1,0,0:0:0:0:
256,192,31446,1,0,0:0:0:0:
475,192,31485,1,0,0:0:0:0:
256,192,31600,1,0,0:0:0:0:
109,192,31600,1,0,0:0:0:0:
36,192,31715,1,0,0:0:0:0:
182,192,31715,1,2,0:0:0:0:
475,192,31715,1,0,0:0:0:0:
402,192,31754,1,0,0:0:0:0:
329,192,31792,1,0,0:0:0:0:
182,192,31831,1,0,0:0:0:0:
109,192,31946,1,0,0:0:0:0:
256,192,31946,1,2,0:0:0:0:
36,192,32061,1,0,0:0:0:0:
182,192,32061,1,0,0:0:0:0:
475,192,32061,1,0,0:0:0:0:
402,192,32100,1,0,0:0:0:0:
329,192,32138,1,0,0:0:0:0:
256,192,32177,1,0,0:0:0:0:
109,192,32177,1,0,0:0:0:0:
182,192,32292,1,0,0:0:0:0:
402,192,32292,1,2,0:0:0:0:
36,192,32292,1,0,0:0:0:0:
329,192,32408,1,2,0:0:0:0:
475,192,32408,1,0,0:0:0:0:
109,192,32408,1,0,0:0:0:0:
36,192,32523,1,0,0:0:0:0:
402,192,32523,1,0,0:0:0:0:
182,192,32523,1,0,0:0:0:0:
256,192,32561,1,0,0:0:0:0:
329,192,32600,1,0,0:0:0:0:
109,192,32638,1,0,0:0:0:0:
256,192,32754,1,2,0:0:0:0:
475,192,32754,1,0,0:0:0:0:
36,192,32754,1,0,0:0:0:0:
402,192,32869,1,0,0:0:0:0:
329,192,32869,1,0,0:0:0:0:
182,192,32869,1,2,0:0:0:0:
109,192,32985,1,0,0:0:0:0:
256,192,32985,1,0,0:0:0:0:
475,192,32985,1,0,0:0:0:0:
402,192,33023,1,0,0:0:0:0:
329,192,33061,1,0,0:0:0:0:
182,192,33100,1,0,0:0:0:0:
36,192,33215,1,0,0:0:0:0:
475,192,33215,1,0,0:0:0:0:
402,192,33215,1,0,0:0:0:0:
109,192,33215,1,2,0:0:0:0:
329,192,33254,1,0,0:0:0:0:
256,192,33292,1,0,0:0:0:0:
182,192,33331,1,0,0:0:0:0:
109,192,33446,1,0,0:0:0:0:
402,192,33446,1,0,0:0:0:0:
36,192,33561,1,0,0:0:0:0:
475,192,33561,1,0,0:0:0:0:
329,192,33561,1,2,0:0:0:0:
256,192,33600,1,0,0:0:0:0:
182,192,33638,1,0,0:0:0:0:
109,192,33677,1,0,0:0:0:0:
402,192,33792,1,0,0:0:0:0:
329,192,33792,1,2,0:0:0:0:
36,192,33908,1,0,0:0:0:0:
182,192,33908,1,0,0:0:0:0:
475,192,33908,1,0,0:0:0:0:
256,192,33946,1,0,0:0:0:0:
329,192,33985,1,0,0:0:0:0:
109,192,34023,1,0,0:0:0:0:
402,192,34023,1,0,0:0:0:0:
256,192,34138,1,2,0:0:0:0:
329,192,34138,1,0,0:0:0:0:
475,192,34138,1,0,0:0:0:0:
256,192,34254,1,2,0:0:0:0:
329,192,34254,1,0,0:0:0:0:
475,192,34254,1,0,0:0:0:0:
36,192,34369,1,0,0:0:0:0:
475,192,34369,1,0,0:0:0:0:
329,192,34369,1,0,0:0:0:0:
109,192,34408,1,0,0:0:0:0:
182,192,34446,1,0,0:0:0:0:
402,192,34485,1,0,0:0:0:0:
256,192,34600,1,2,0:0:0:0:
109,192,34600,1,0,0:0:0:0:
36,192,34600,1,0,0:0:0:0:
36,192,34715,1,0,0:0:0:0:
109,192,34715,1,0,0:0:0:0:
256,192,34715,1,2,0:0:0:0:
36,192,34831,1,0,0:0:0:0:
109,192,34831,1,0,0:0:0:0:
475,192,34831,1,0,0:0:0:0:
402,192,34869,1,0,0:0:0:0:
329,192,34908,1,0,0:0:0:0:
182,192,34946,1,0,0:0:0:0:
109,192,35061,1,0,0:0:0:0:
402,192,35061,1,2,0:0:0:0:
475,192,35061,1,0,0:0:0:0:
36,192,35061,1,0,0:0:0:0:
182,192,35100,1,0,0:0:0:0:
256,192,35138,1,0,0:0:0:0:
329,192,35177,1,0,0:0:0:0:
182,192,35292,1,0,0:0:0:0:
109,192,35292,1,0,0:0:0:0:
109,192,35408,1,0,0:0:0:0:
36,192,35408,1,0,0:0:0:0:
402,192,35408,1,2,0:0:0:0:
329,192,35446,1,0,0:0:0:0:
256,192,35485,1,0,0:0:0:0:
182,192,35523,1,0,0:0:0:0:
329,192,35638,1,2,0:0:0:0:
402,192,35638,1,0,0:0:0:0:
109,192,35754,1,0,0:0:0:0:
402,192,35754,1,0,0:0:0:0:
475,192,35754,1,0,0:0:0:0:
182,192,35792,1,0,0:0:0:0:
256,192,35831,1,0,0:0:0:0:
36,192,35869,1,0,0:0:0:0:
329,192,35869,1,0,0:0:0:0:
256,192,35985,1,2,0:0:0:0:
475,192,35985,1,0,0:0:0:0:
109,192,35985,1,0,0:0:0:0:
109,192,36100,1,0,0:0:0:0:
256,192,36100,1,2,0:0:0:0:
475,192,36100,1,0,0:0:0:0:
256,192,36215,1,0,0:0:0:0:
402,192,36215,1,0,0:0:0:0:
36,192,36215,1,0,0:0:0:0:
109,192,36254,1,0,0:0:0:0:
182,192,36292,1,0,0:0:0:0:
329,192,36331,1,0,0:0:0:0:
475,192,36331,1,0,0:0:0:0:
36,192,36446,1,0,0:0:0:0:
109,192,36446,1,0,0:0:0:0:
256,192,36446,1,2,0:0:0:0:
36,192,36561,1,0,0:0:0:0:
109,192,36561,1,0,0:0:0:0:
182,192,36561,1,2,0:0:0:0:
329,192,36677,1,2,0:0:0:0:
402,192,36677,1,0,0:0:0:0:
182,192,36735,1,2,0:0:0:0:
109,192,36735,1,0,0:0:0:0:
329,192,36792,1,2,0:0:0:0:
402,192,36792,1,0,0:0:0:0:
182,192,36850,1,2,0:0:0:0:
109,192,36850,1,0,0:0:0:0:
475,192,36908,1,0,0:0:0:0:
36,192,36908,1,0,0:0:0:0:
402,192,36908,1,0,0:0:0:0:
329,192,36908,1,2,0:0:0:0:
109,192,36946,1,0,0:0:0:0:
182,192,36985,1,0,0:0:0:0:
256,192,37023,1,0,0:0:0:0:
109,192,37138,1,0,0:0:0:0:
182,192,37138,1,0,0:0:0:0:
475,192,37254,1,0,0:0:0:0:
109,192,37254,1,0,0:0:0:0:
182,192,37254,1,2,0:0:0:0:
402,192,37292,1,0,0:0:0:0:
329,192,37331,1,0,0:0:0:0:
256,192,37369,1,0,0:0:0:0:
109,192,37485,1,0,0:0:0:0:
182,192,37485,1,2,0:0:0:0:
475,192,37600,1,0,0:0:0:0:
109,192,37600,1,0,0:0:0:0:
182,192,37600,1,0,0:0:0:0:
402,192,37638,1,0,0:0:0:0:
329,192,37677,1,0,0:0:0:0:
256,192,37715,1,0,0:0:0:0:
182,192,37715,1,0,0:0:0:0:
329,192,37831,1,2,0:0:0:0:
475,192,37831,1,0,0:0:0:0:
36,192,37831,1,0,0:0:0:0:
109,192,37946,1,0,0:0:0:0:
256,192,37946,1,2,0:0:0:0:
402,192,37946,1,0,0:0:0:0:
182,192,38061,1,0,0:0:0:0:
36,192,38061,1,0,0:0:0:0:
329,192,38100,1,0,0:0:0:0:
475,192,38138,1,0,0:0:0:0:
256,192,38177,1,0,0:0:0:0:
36,192,38292,1,0,0:0:0:0:
475,192,38292,1,0,0:0:0:0:
182,192,38292,1,2,0:0:0:0:
109,192,38408,1,0,0:0:0:0:
402,192,38408,1,0,0:0:0:0:
256,192,38408,1,2,0:0:0:0:
329,192,38523,1,0,0:0:0:0:
475,192,38523,1,0,0:0:0:0:
182,192,38561,1,0,0:0:0:0:
36,192,38600,1,0,0:0:0:0:
256,192,38638,1,0,0:0:0:0:
36,192,38754,1,0,0:0:0:0:
475,192,38754,1,0,0:0:0:0:
402,192,38754,1,0,0:0:0:0:
329,192,38754,1,2,0:0:0:0:
109,192,38792,1,0,0:0:0:0:
182,192,38831,1,0,0:0:0:0:
256,192,38869,1,0,0:0:0:0:
402,192,38985,1,0,0:0:0:0:
329,192,38985,1,0,0:0:0:0:
475,192,39100,1,0,0:0:0:0:
36,192,39100,1,0,0:0:0:0:
109,192,39100,1,2,0:0:0:0:
182,192,39138,1,0,0:0:0:0:
256,192,39177,1,0,0:0:0:0:
329,192,39215,1,0,0:0:0:0:
109,192,39331,1,2,0:0:0:0:
182,192,39331,1,0,0:0:0:0:
475,192,39446,1,0,0:0:0:0:
36,192,39446,1,0,0:0:0:0:
402,192,39446,1,0,0:0:0:0:
329,192,39485,1,0,0:0:0:0:
256,192,39523,1,0,0:0:0:0:
109,192,39561,1,0,0:0:0:0:
182,192,39561,1,0,0:0:0:0:
36,192,39677,1,0,0:0:0:0:
475,192,39677,1,0,0:0:0:0:
329,192,39677,1,2,0:0:0:0:
402,192,39792,1,0,0:0:0:0:
256,192,39792,1,2,0:0:0:0:
109,192,39792,1,0,0:0:0:0:
329,192,39908,1,0,0:0:0:0:
475,192,39908,1,0,0:0:0:0:
182,192,39946,1,0,0:0:0:0:
36,192,39985,1,0,0:0:0:0:
256,192,40023,1,0,0:0:0:0:
475,192,40138,1,0,0:0:0:0:
36,192,40138,1,0,0:0:0:0:
329,192,40138,1,2,0:0:0:0:
402,192,40254,1,0,0:0:0:0:
109,192,40254,1,0,0:0:0:0:
256,192,40254,1,2,0:0:0:0:
182,192,40369,1,0,0:0:0:0:
36,192,40369,1,0,0:0:0:0:
329,192,40408,1,0,0:0:0:0:
475,192,40446,1,0,0:0:0:0:
256,192,40485,1,0,0:0:0:0:
36,192,40600,1,2,0:0:0:0:
475,192,40600,1,0,0:0:0:0:
402,192,40600,1,0,0:0:0:0:
109,192,40600,1,0,0:0:0:0:
329,192,40658,1,0,0:0:0:0:
182,192,40715,1,0,0:0:0:0:
256,192,40715,1,0,0:0:0:0:
109,192,40773,1,0,0:0:0:0:
329,192,40831,1,0,0:0:0:0:
402,192,40831,1,0,0:0:0:0:
36,192,40888,1,0,0:0:0:0:
475,192,40946,1,0,0:0:0:0:
402,192,40946,1,2,0:0:0:0:
256,192,41004,1,0,0:0:0:0:
109,192,41061,1,0,0:0:0:0:
182,192,41061,1,0,0:0:0:0:
36,192,41119,1,0,0:0:0:0:
256,192,41177,1,0,0:0:0:0:
329,192,41177,1,2,0:0:0:0:
109,192,41235,1,0,0:0:0:0:
402,192,41292,1,0,0:0:0:0:
475,192,41292,1,0,0:0:0:0:
329,192,41350,1,0,0:0:0:0:
182,192,41408,1,0,0:0:0:0:
256,192,41408,1,0,0:0:0:0:
402,192,41465,1,0,0:0:0:0:
36,192,41523,1,0,0:0:0:0:
109,192,41523,1,2,0:0:0:0:
475,192,41523,1,0,0:0:0:0:
329,192,41581,1,0,0:0:0:0:
36,192,41638,1,0,0:0:0:0:
109,192,41638,1,2,0:0:0:0:
475,192,41638,1,0,0:0:0:0:
329,192,41696,1,0,0:0:0:0:
182,192,41754,1,0,0:0:0:0:
256,192,41754,1,0,0:0:0:0:
36,192,41754,1,0,0:0:0:0:
402,192,41811,1,0,0:0:0:0:
329,192,41869,1,0,0:0:0:0:
109,192,41869,1,0,0:0:0:0:
256,192,41927,1,0,0:0:0:0:
402,192,41985,1,2,0:0:0:0:
475,192,41985,1,0,0:0:0:0:
36,192,41985,1,0,0:0:0:0:
182,192,42042,1,0,0:0:0:0:
36,192,42100,1,0,0:0:0:0:
402,192,42100,1,2,0:0:0:0:
475,192,42100,1,0,0:0:0:0:
182,192,42158,1,0,0:0:0:0:
256,192,42215,1,0,0:0:0:0:
329,192,42215,1,0,0:0:0:0:
475,192,42215,1,0,0:0:0:0:
109,192,42273,1,0,0:0:0:0:
182,192,42331,1,0,0:0:0:0:
402,192,42331,1,0,0:0:0:0:
329,192,42388,1,0,0:0:0:0:
36,192,42446,1,2,0:0:0:0:
109,192,42446,1,0,0:0:0:0:
256,192,42446,1,0,0:0:0:0:
402,192,42504,1,0,0:0:0:0:
109,192,42561,1,0,0:0:0:0:
182,192,42561,1,0,0:0:0:0:
475,192,42619,1,0,0:0:0:0:
256,192,42677,1,0,0:0:0:0:
329,192,42677,1,0,0:0:0:0:
109,192,42735,1,0,0:0:0:0:
402,192,42792,1,2,0:0:0:0:
475,192,42792,1,0,0:0:0:0:
256,192,42850,1,0,0:0:0:0:
36,192,42908,1,0,0:0:0:0:
109,192,42908,1,0,0:0:0:0:
402,192,42965,1,0,0:0:0:0:
256,192,43023,1,2,0:0:0:0:
329,192,43023,1,0,0:0:0:0:
182,192,43081,1,0,0:0:0:0:
402,192,43138,1,0,0:0:0:0:
475,192,43138,1,0,0:0:0:0:
329,192,43196,1,0,0:0:0:0:
182,192,43254,1,0,0:0:0:0:
256,192,43254,1,0,0:0:0:0:
109,192,43311,1,0,0:0:0:0:
36,192,43369,1,2,0:0:0:0:
475,192,43369,1,0,0:0:0:0:
329,192,43369,1,0,0:0:0:0:
256,192,43427,1,0,0:0:0:0:
402,192,43485,1,0,0:0:0:0:
182,192,43485,1,2,0:0:0:0:
109,192,43485,1,0,0:0:0:0:
329,192,43542,1,0,0:0:0:0:
256,192,43600,1,0,0:0:0:0:
182,192,43600,1,0,0:0:0:0:
109,192,43600,1,0,0:0:0:0:
475,192,43600,1,0,0:0:0:0:
402,192,43658,1,0,0:0:0:0:
329,192,43715,1,0,0:0:0:0:
36,192,43715,1,0,0:0:0:0:
109,192,43773,1,0,0:0:0:0:
182,192,43831,1,0,0:0:0:0:
256,192,43831,1,0,0:0:0:0:
475,192,43831,1,2,0:0:0:0:
36,192,43888,1,0,0:0:0:0:
329,192,43946,1,2,0:0:0:0:
402,192,43946,1,0,0:0:0:0:
109,192,43946,1,0,0:0:0:0:
182,192,44004,1,0,0:0:0:0:
256,192,44061,1,0,0:0:0:0:
402,192,44061,1,0,0:0:0:0:
475,192,44061,1,0,0:0:0:0:
109,192,44119,1,0,0:0:0:0:
182,192,44177,1,0,0:0:0:0:
329,192,44177,1,0,0:0:0:0:
256,192,44235,1,0,0:0:0:0:
36,192,44292,1,2,0:0:0:0:
475,192,44292,1,0,0:0:0:0:
402,192,44292,1,0,0:0:0:0:
109,192,44292,1,0,0:0:0:0:
329,192,44331,1,0,0:0:0:0:
256,192,44369,1,0,0:0:0:0:
182,192,44408,1,0,0:0:0:0:
329,192,44523,1,0,0:0:0:0:
182,192,44523,1,0,0:0:0:0:
109,192,44638,1,0,0:0:0:0:
475,192,44638,1,0,0:0:0:0:
36,192,44638,1,2,0:0:0:0:
182,192,44677,1,0,0:0:0:0:
256,192,44715,1,0,0:0:0:0:
329,192,44754,128,0,44811:0:0:0:0:
402,192,44811,128,0,44869:0:0:0:0:
36,192,44869,128,2,44927:0:0:0:0:
109,192,44927,128,0,44985:0:0:0:0:
182,192,44985,128,0,45042:0:0:0:0:
256,192,45042,128,0,45100:0:0:0:0:
329,192,45100,128,0,45158:0:0:0:0:
402,192,45158,128,0,45215:0:0:0:0:
475,192,45215,128,0,47985:0:0:0:0:
36,192,45215,1,0,0:0:0:0:
182,192,45215,1,2,0:0:0:0:
109,192,45331,1,0,0:0:0:0:
256,192,45331,1,2,0:0:0:0:
182,192,45446,1,0,0:0:0:0:
36,192,45446,1,0,0:0:0:0:
402,192,45446,1,0,0:0:0:0:
329,192,45485,1,0,0:0:0:0:
256,192,45523,1,0,0:0:0:0:
109,192,45561,1,0,0:0:0:0:
402,192,45677,1,0,0:0:0:0:
36,192,45677,1,0,0:0:0:0:
182,192,45677,1,2,0:0:0:0:
109,192,45792,1,0,0:0:0:0:
256,192,45792,1,2,0:0:0:0:
329,192,45908,1,0,0:0:0:0:
402,192,45908,1,0,0:0:0:0:
36,192,45908,1,0,0:0:0:0:
109,192,45946,1,0,0:0:0:0:
182,192,45985,1,0,0:0:0:0:
256,192,46023,1,0,0:0:0:0:
36,192,46138,1,0,0:0:0:0:
402,192,46138,1,0,0:0:0:0:
109,192,46138,1,2,0:0:0:0:
329,192,46177,1,0,0:0:0:0:
256,192,46215,1,0,0:0:0:0:
182,192,46254,1,0,0:0:0:0:
109,192,46369,1,0,0:0:0:0:
256,192,46369,1,0,0:0:0:0:
402,192,46485,1,0,0:0:0:0:
329,192,46485,1,2,0:0:0:0:
182,192,46485,1,0,0:0:0:0:
109,192,46523,1,0,0:0:0:0:
36,192,46561,1,0,0:0:0:0:
256,192,46600,128,0,46658:0:0:0:0:
182,192,46658,128,0,46715:0:0:0:0:
109,192,46715,128,2,46773:0:0:0:0:
36,192,46773,128,0,46831:0:0:0:0:
329,192,46831,128,0,46888:0:0:0:0:
256,192,46888,128,0,46946:0:0:0:0:
182,192,46946,128,0,47004:0:0:0:0:
109,192,47004,128,0,47061:0:0:0:0:
36,192,47061,128,0,47985:0:0:0:0:
256,192,47061,1,2,0:0:0:0:
329,192,47061,1,0,0:0:0:0:
256,192,47177,1,2,0:0:0:0:
329,192,47177,1,0,0:0:0:0:
109,192,47292,1,0,0:0:0:0:
402,192,47292,1,0,0:0:0:0:
182,192,47331,1,0,0:0:0:0:
256,192,47369,1,0,0:0:0:0:
329,192,47408,1,0,0:0:0:0:
182,192,47523,1,0,0:0:0:0:
256,192,47523,1,2,0:0:0:0:
182,192,47638,1,0,0:0:0:0:
256,192,47638,1,2,0:0:0:0:
109,192,47754,1,0,0:0:0:0:
402,192,47754,1,0,0:0:0:0:
329,192,47792,1,0,0:0:0:0:
256,192,47831,1,0,0:0:0:0:
182,192,47869,1,0,0:0:0:0:
329,192,47985,1,0,0:0:0:0:
402,192,47985,1,0,0:0:0:0:
256,192,47985,1,2,0:0:0:0:
109,192,48042,1,0,0:0:0:0:
182,192,48042,1,0,0:0:0:0:
402,192,48100,1,0,0:0:0:0:
329,192,48100,1,0,0:0:0:0:
182,192,48158,1,0,0:0:0:0:
109,192,48158,1,0,0:0:0:0:
329,192,48215,1,0,0:0:0:0:
475,192,48215,1,0,0:0:0:0:
36,192,48273,1,0,0:0:0:0:
182,192,48273,1,0,0:0:0:0:
329,192,48331,1,0,0:0:0:0:
475,192,48331,1,2,0:0:0:0:
36,192,48388,1,0,0:0:0:0:
182,192,48388,1,0,0:0:0:0:
475,192,48446,1,0,0:0:0:0:
402,192,48446,1,0,0:0:0:0:
329,192,48504,1,0,0:0:0:0:
256,192,48504,1,0,0:0:0:0:
182,192,48561,1,2,0:0:0:0:
109,192,48561,1,0,0:0:0:0:
402,192,48619,1,0,0:0:0:0:
329,192,48619,1,0,0:0:0:0:
256,192,48677,1,0,0:0:0:0:
182,192,48677,1,0,0:0:0:0:
109,192,48735,1,0,0:0:0:0:
36,192,48735,1,0,0:0:0:0:
475,192,48792,1,0,0:0:0:0:
402,192,48792,1,0,0:0:0:0:
329,192,48850,1,0,0:0:0:0:
256,192,48850,1,0,0:0:0:0:
182,192,48908,1,2,0:0:0:0:
109,192,48908,1,0,0:0:0:0:
36,192,48908,128,0,51677:0:0:0:0:
402,192,48965,1,0,0:0:0:0:
182,192,49023,1,2,0:0:0:0:
109,192,49023,1,0,0:0:0:0:
329,192,49081,1,0,0:0:0:0:
475,192,49138,1,0,0:0:0:0:
402,192,49138,1,0,0:0:0:0:
182,192,49196,1,0,0:0:0:0:
256,192,49254,1,0,0:0:0:0:
329,192,49311,1,0,0:0:0:0:
475,192,49369,1,0,0:0:0:0:
402,192,49369,1,2,0:0:0:0:
182,192,49427,1,0,0:0:0:0:
402,192,49485,1,2,0:0:0:0:
475,192,49485,1,0,0:0:0:0:
256,192,49542,1,0,0:0:0:0:
109,192,49600,1,0,0:0:0:0:
182,192,49600,1,0,0:0:0:0:
402,192,49658,1,0,0:0:0:0:
329,192,49715,1,0,0:0:0:0:
256,192,49773,1,0,0:0:0:0:
475,192,49831,1,0,0:0:0:0:
402,192,49831,1,2,0:0:0:0:
109,192,49888,1,0,0:0:0:0:
182,192,49888,1,0,0:0:0:0:
329,192,49946,1,0,0:0:0:0:
402,192,49946,1,0,0:0:0:0:
256,192,50004,1,0,0:0:0:0:
182,192,50004,1,0,0:0:0:0:
402,192,50061,1,0,0:0:0:0:
475,192,50061,1,0,0:0:0:0:
109,192,50119,1,0,0:0:0:0:
182,192,50119,1,0,0:0:0:0:
402,192,50177,1,2,0:0:0:0:
329,192,50177,1,0,0:0:0:0:
256,192,50235,1,0,0:0:0:0:
182,192,50235,1,0,0:0:0:0:
475,192,50292,1,0,0:0:0:0:
402,192,50292,1,0,0:0:0:0:
109,192,50350,1,0,0:0:0:0:
182,192,50350,1,0,0:0:0:0:
256,192,50408,1,2,0:0:0:0:
329,192,50408,1,0,0:0:0:0:
402,192,50465,1,0,0:0:0:0:
475,192,50465,1,0,0:0:0:0:
182,192,50523,1,0,0:0:0:0:
109,192,50523,1,0,0:0:0:0:
329,192,50581,1,0,0:0:0:0:
256,192,50581,1,0,0:0:0:0:
475,192,50638,1,0,0:0:0:0:
402,192,50638,1,0,0:0:0:0:
109,192,50696,1,0,0:0:0:0:
182,192,50696,1,0,0:0:0:0:
475,192,50754,128,0,51677:0:0:0:0:
329,192,50754,1,0,0:0:0:0:
402,192,50754,1,2,0:0:0:0:
256,192,50811,1,0,0:0:0:0:
182,192,50869,1,2,0:0:0:0:
109,192,50869,1,0,0:0:0:0:
402,192,50927,1,0,0:0:0:0:
182,192,50985,1,0,0:0:0:0:
329,192,50985,1,0,0:0:0:0:
109,192,51042,1,0,0:0:0:0:
402,192,51100,1,0,0:0:0:0:
329,192,51158,1,0,0:0:0:0:
109,192,51215,1,2,0:0:0:0:
182,192,51215,128,0,51273:0:0:0:0:
256,192,51273,128,0,51331:0:0:0:0:
329,192,51331,128,2,51388:0:0:0:0:
402,192,51388,128,0,51446:0:0:0:0:
109,192,51446,128,0,51504:0:0:0:0:
182,192,51504,128,0,51561:0:0:0:0:
256,192,51561,128,0,51619:0:0:0:0:
329,192,51619,128,0,51677:0:0:0:0:
402,192,51677,128,0,53061:0:0:0:0:
109,192,51677,1,2,0:0:0:0:
182,192,51715,1,0,0:0:0:0:
256,192,51754,1,0,0:0:0:0:
36,192,51908,1,0,0:0:0:0:
109,192,51908,1,0,0:0:0:0:
329,192,52023,1,2,0:0:0:0:
475,192,52023,1,0,0:0:0:0:
256,192,52061,1,0,0:0:0:0:
182,192,52100,1,0,0:0:0:0:
109,192,52138,128,0,52600:0:0:0:0:
256,192,52254,1,0,0:0:0:0:
329,192,52254,1,2,0:0:0:0:
182,192,52369,1,0,0:0:0:0:
36,192,52369,1,0,0:0:0:0:
256,192,52408,1,0,0:0:0:0:
329,192,52446,1,0,0:0:0:0:
475,192,52485,1,0,0:0:0:0:
36,192,52600,128,0,53985:0:0:0:0:
182,192,52600,1,2,0:0:0:0:
329,192,52600,1,0,0:0:0:0:
182,192,52715,1,2,0:0:0:0:
329,192,52715,1,0,0:0:0:0:
109,192,52831,1,0,0:0:0:0:
475,192,52831,1,0,0:0:0:0:
182,192,52869,1,0,0:0:0:0:
256,192,52908,1,0,0:0:0:0:
329,192,53061,128,0,53523:0:0:0:0:
109,192,53061,1,0,0:0:0:0:
256,192,53061,1,2,0:0:0:0:
256,192,53177,1,2,0:0:0:0:
109,192,53177,1,0,0:0:0:0:
475,192,53292,1,0,0:0:0:0:
256,192,53292,1,0,0:0:0:0:
182,192,53331,1,0,0:0:0:0:
109,192,53369,1,0,0:0:0:0:
475,192,53523,128,0,54908:0:0:0:0:
402,192,53523,1,0,0:0:0:0:
109,192,53523,1,2,0:0:0:0:
182,192,53561,1,0,0:0:0:0:
256,192,53600,1,0,0:0:0:0:
182,192,53754,1,0,0:0:0:0:
329,192,53754,1,0,0:0:0:0:
402,192,53869,1,0,0:0:0:0:
109,192,53869,1,2,0:0:0:0:
329,192,53908,1,0,0:0:0:0:
256,192,53946,1,0,0:0:0:0:
182,192,53985,128,0,54446:0:0:0:0:
402,192,54100,1,0,0:0:0:0:
109,192,54100,1,2,0:0:0:0:
402,192,54215,1,0,0:0:0:0:
109,192,54215,1,0,0:0:0:0:
329,192,54254,1,0,0:0:0:0:
256,192,54292,1,0,0:0:0:0:
36,192,54331,1,0,0:0:0:0:
36,192,54446,128,0,55831:0:0:0:0:
402,192,54446,1,2,0:0:0:0:
256,192,54446,1,0,0:0:0:0:
182,192,54561,1,0,0:0:0:0:
329,192,54561,1,2,0:0:0:0:
256,192,54677,1,0,0:0:0:0:
109,192,54677,1,0,0:0:0:0:
329,192,54715,1,0,0:0:0:0:
402,192,54754,1,0,0:0:0:0:
329,192,54908,128,0,55369:0:0:0:0:
109,192,54908,1,0,0:0:0:0:
182,192,54908,1,2,0:0:0:0:
402,192,55023,1,0,0:0:0:0:
475,192,55023,1,2,0:0:0:0:
402,192,55138,1,0,0:0:0:0:
256,192,55138,1,0,0:0:0:0:
182,192,55177,1,0,0:0:0:0:
109,192,55215,1,0,0:0:0:0:
475,192,55369,128,0,56754:0:0:0:0:
402,192,55369,1,2,0:0:0:0:
109,192,55369,1,0,0:0:0:0:
182,192,55408,1,0,0:0:0:0:
256,192,55446,1,0,0:0:0:0:
182,192,55600,1,0,0:0:0:0:
109,192,55600,1,0,0:0:0:0:
402,192,55715,1,2,0:0:0:0:
329,192,55715,1,0,0:0:0:0:
256,192,55754,1,0,0:0:0:0:
182,192,55792,1,0,0:0:0:0:
109,192,55831,128,0,56292:0:0:0:0:
329,192,55946,1,0,0:0:0:0:
402,192,55946,1,2,0:0:0:0:
36,192,56061,1,0,0:0:0:0:
182,192,56061,1,0,0:0:0:0:
256,192,56100,1,0,0:0:0:0:
329,192,56138,1,0,0:0:0:0:
402,192,56177,1,0,0:0:0:0:
36,192,56292,128,0,57677:0:0:0:0:
329,192,56292,1,0,0:0:0:0:
256,192,56292,1,2,0:0:0:0:
182,192,56408,1,2,0:0:0:0:
109,192,56408,1,0,0:0:0:0:
402,192,56523,1,0,0:0:0:0:
329,192,56523,1,0,0:0:0:0:
256,192,56561,1,0,0:0:0:0:
182,192,56600,1,0,0:0:0:0:
402,192,56754,128,0,57215:0:0:0:0:
109,192,56754,1,0,0:0:0:0:
182,192,56754,1,2,0:0:0:0:
256,192,56869,1,2,0:0:0:0:
329,192,56869,1,0,0:0:0:0:
109,192,56985,1,0,0:0:0:0:
182,192,56985,1,0,0:0:0:0:
256,192,57023,1,0,0:0:0:0:
329,192,57061,1,0,0:0:0:0:
475,192,57215,128,0,58138:0:0:0:0:
109,192,57215,1,0,0:0:0:0:
329,192,57215,1,2,0:0:0:0:
182,192,57254,1,0,0:0:0:0:
256,192,57292,1,0,0:0:0:0:
402,192,57446,1,0,0:0:0:0:
109,192,57446,1,0,0:0:0:0:
182,192,57561,1,0,0:0:0:0:
256,192,57561,1,2,0:0:0:0:
329,192,57600,1,0,0:0:0:0:
402,192,57638,1,0,0:0:0:0:
109,192,57677,128,0,58138:0:0:0:0:
182,192,57792,1,0,0:0:0:0:
256,192,57792,1,2,0:0:0:0:
329,192,57908,1,0,0:0:0:0:
402,192,57908,1,0,0:0:0:0:
256,192,57946,1,0,0:0:0:0:
182,192,57985,1,0,0:0:0:0:
36,192,58023,1,0,0:0:0:0:
402,192,58138,128,0,58600:0:0:0:0:
36,192,58138,128,0,59061:0:0:0:0:
256,192,58138,1,2,0:0:0:0:
329,192,58138,1,0,0:0:0:0:
182,192,58254,1,2,0:0:0:0:
109,192,58254,1,0,0:0:0:0:
256,192,58369,1,0,0:0:0:0:
329,192,58369,1,0,0:0:0:0:
182,192,58408,1,0,0:0:0:0:
109,192,58446,1,0,0:0:0:0:
475,192,58600,128,0,59061:0:0:0:0:
109,192,58600,1,0,0:0:0:0:
182,192,58600,1,2,0:0:0:0:
329,192,58658,1,2,0:0:0:0:
402,192,58658,1,0,0:0:0:0:
109,192,58715,1,0,0:0:0:0:
182,192,58715,1,2,0:0:0:0:
329,192,58773,1,2,0:0:0:0:
402,192,58773,1,0,0:0:0:0:
109,192,58831,1,0,0:0:0:0:
182,192,58831,1,2,0:0:0:0:
329,192,58888,1,2,0:0:0:0:
402,192,58888,1,0,0:0:0:0:
109,192,58946,1,0,0:0:0:0:
182,192,58946,1,2,0:0:0:0:
329,192,59004,1,2,0:0:0:0:
402,192,59004,1,0,0:0:0:0:
256,192,59061,128,0,60446:0:0:0:0:
109,192,59061,1,2,0:0:0:0:
182,192,59061,1,0,0:0:0:0:
36,192,59177,1,0,0:0:0:0:
329,192,59177,1,0,0:0:0:0:
109,192,59292,1,0,0:0:0:0:
402,192,59292,1,0,0:0:0:0:
182,192,59408,1,2,0:0:0:0:
475,192,59408,1,0,0:0:0:0:
36,192,59523,128,0,59985:0:0:0:0:
109,192,59523,1,0,0:0:0:0:
329,192,59523,1,0,0:0:0:0:
182,192,59638,1,2,0:0:0:0:
402,192,59638,1,0,0:0:0:0:
329,192,59754,1,0,0:0:0:0:
475,192,59754,1,0,0:0:0:0:
182,192,59869,1,0,0:0:0:0:
109,192,59869,1,0,0:0:0:0:
475,192,59985,128,0,61369:0:0:0:0:
329,192,59985,1,2,0:0:0:0:
402,192,59985,1,0,0:0:0:0:
329,192,60100,1,2,0:0:0:0:
182,192,60100,1,0,0:0:0:0:
182,192,60215,1,0,0:0:0:0:
109,192,60215,1,0,0:0:0:0:
109,192,60331,1,0,0:0:0:0:
36,192,60331,1,0,0:0:0:0:
36,192,60446,128,0,60908:0:0:0:0:
329,192,60446,1,2,0:0:0:0:
402,192,60446,1,0,0:0:0:0:
329,192,60561,1,2,0:0:0:0:
256,192,60561,1,0,0:0:0:0:
256,192,60677,1,0,0:0:0:0:
182,192,60677,1,0,0:0:0:0:
182,192,60792,1,0,0:0:0:0:
109,192,60792,1,0,0:0:0:0:
256,192,60908,128,0,62292:0:0:0:0:
329,192,60908,1,2,0:0:0:0:
402,192,60908,1,0,0:0:0:0:
36,192,61023,1,0,0:0:0:0:
182,192,61023,1,0,0:0:0:0:
109,192,61138,1,0,0:0:0:0:
329,192,61138,1,0,0:0:0:0:
182,192,61254,1,2,0:0:0:0:
402,192,61254,1,0,0:0:0:0:
36,192,61369,128,0,61831:0:0:0:0:
109,192,61369,1,0,0:0:0:0:
329,192,61369,1,0,0:0:0:0:
182,192,61485,1,2,0:0:0:0:
402,192,61485,1,0,0:0:0:0:
329,192,61600,1,0,0:0:0:0:
475,192,61600,1,0,0:0:0:0:
182,192,61715,1,0,0:0:0:0:
109,192,61715,1,0,0:0:0:0:
475,192,61831,128,0,63215:0:0:0:0:
329,192,61831,1,2,0:0:0:0:
402,192,61831,1,0,0:0:0:0:
329,192,61946,1,2,0:0:0:0:
182,192,61946,1,0,0:0:0:0:
182,192,62061,1,0,0:0:0:0:
109,192,62061,1,0,0:0:0:0:
109,192,62177,1,0,0:0:0:0:
36,192,62177,1,0,0:0:0:0:
36,192,62292,128,0,62754:0:0:0:0:
329,192,62292,1,2,0:0:0:0:
402,192,62292,1,0,0:0:0:0:
256,192,62408,1,0,0:0:0:0:
329,192,62408,1,2,0:0:0:0:
256,192,62523,1,0,0:0:0:0:
182,192,62523,1,0,0:0:0:0:
109,192,62638,1,0,0:0:0:0:
182,192,62638,1,0,0:0:0:0:
256,192,62754,128,0,64138:0:0:0:0:
329,192,62754,1,2,0:0:0:0:
402,192,62754,1,0,0:0:0:0:
36,192,62869,1,0,0:0:0:0:
182,192,62869,1,0,0:0:0:0:
329,192,62985,1,0,0:0:0:0:
109,192,62985,1,0,0:0:0:0:
182,192,63100,1,2,0:0:0:0:
402,192,63100,1,0,0:0:0:0:
36,192,63215,128,0,63677:0:0:0:0:
329,192,63215,1,0,0:0:0:0:
109,192,63215,1,0,0:0:0:0:
182,192,63331,1,2,0:0:0:0:
402,192,63331,1,0,0:0:0:0:
329,192,63446,1,0,0:0:0:0:
475,192,63446,1,0,0:0:0:0:
109,192,63561,1,0,0:0:0:0:
182,192,63561,1,0,0:0:0:0:
475,192,63677,128,0,65061:0:0:0:0:
402,192,63677,1,0,0:0:0:0:
329,192,63677,1,2,0:0:0:0:
182,192,63792,1,0,0:0:0:0:
329,192,63792,1,2,0:0:0:0:
182,192,63908,1,0,0:0:0:0:
109,192,63908,1,0,0:0:0:0:
109,192,64023,1,0,0:0:0:0:
36,192,64023,1,0,0:0:0:0:
36,192,64138,128,0,64600:0:0:0:0:
402,192,64138,1,0,0:0:0:0:
329,192,64138,1,2,0:0:0:0:
256,192,64254,1,0,0:0:0:0:
329,192,64254,1,2,0:0:0:0:
256,192,64369,1,0,0:0:0:0:
182,192,64369,1,0,0:0:0:0:
109,192,64485,1,0,0:0:0:0:
182,192,64485,1,0,0:0:0:0:
256,192,64600,128,0,65523:0:0:0:0:
402,192,64600,1,0,0:0:0:0:
329,192,64600,1,2,0:0:0:0:
36,192,64715,1,0,0:0:0:0:
182,192,64715,1,0,0:0:0:0:
109,192,64831,1,0,0:0:0:0:
329,192,64831,1,0,0:0:0:0:
182,192,64946,1,2,0:0:0:0:
402,192,64946,1,0,0:0:0:0:
36,192,65061,128,0,65523:0:0:0:0:
109,192,65061,1,0,0:0:0:0:
329,192,65061,1,0,0:0:0:0:
182,192,65177,1,2,0:0:0:0:
402,192,65177,1,0,0:0:0:0:
329,192,65292,1,0,0:0:0:0:
475,192,65292,1,0,0:0:0:0:
402,192,65408,1,0,0:0:0:0:
109,192,65408,1,0,0:0:0:0:
475,192,65523,128,0,66446:0:0:0:0:
182,192,65523,128,0,65985:0:0:0:0:
329,192,65523,1,2,0:0:0:0:
402,192,65523,1,0,0:0:0:0:
329,192,65638,1,2,0:0:0:0:
256,192,65638,1,0,0:0:0:0:
256,192,65754,1,0,0:0:0:0:
109,192,65754,1,0,0:0:0:0:
109,192,65869,1,0,0:0:0:0:
36,192,65869,1,0,0:0:0:0:
36,192,65985,128,0,66446:0:0:0:0:
402,192,65985,1,0,0:0:0:0:
329,192,65985,1,2,0:0:0:0:
329,192,66100,1,2,0:0:0:0:
256,192,66100,1,0,0:0:0:0:
182,192,66215,1,0,0:0:0:0:
256,192,66215,1,0,0:0:0:0:
182,192,66331,1,0,0:0:0:0:
109,192,66331,1,0,0:0:0:0:
109,192,66446,1,0,0:0:0:0:
402,192,66446,1,2,0:0:0:0:
329,192,66485,1,0,0:0:0:0:
256,192,66523,1,0,0:0:0:0:
182,192,66561,1,0,0:0:0:0:
36,192,66677,1,0,0:0:0:0:
109,192,66677,1,0,0:0:0:0:
475,192,66792,1,0,0:0:0:0:
109,192,66792,1,2,0:0:0:0:
36,192,66792,1,0,0:0:0:0:
402,192,66831,1,0,0:0:0:0:
329,192,66869,1,0,0:0:0:0:
256,192,66908,1,0,0:0:0:0:
36,192,67023,1,0,0:0:0:0:
109,192,67023,1,2,0:0:0:0:
36,192,67138,1,0,0:0:0:0:
109,192,67138,1,0,0:0:0:0:
475,192,67138,1,0,0:0:0:0:
402,192,67177,1,0,0:0:0:0:
329,192,67215,1,0,0:0:0:0:
182,192,67254,1,0,0:0:0:0:
256,192,67254,1,0,0:0:0:0:
402,192,67369,1,0,0:0:0:0:
475,192,67369,1,0,0:0:0:0:
329,192,67369,1,2,0:0:0:0:
402,192,67485,1,0,0:0:0:0:
475,192,67485,1,0,0:0:0:0:
329,192,67485,1,2,0:0:0:0:
36,192,67600,1,0,0:0:0:0:
475,192,67600,1,0,0:0:0:0:
402,192,67600,1,0,0:0:0:0:
109,192,67638,1,0,0:0:0:0:
182,192,67677,1,0,0:0:0:0:
329,192,67715,1,0,0:0:0:0:
36,192,67831,1,0,0:0:0:0:
109,192,67831,1,0,0:0:0:0:
182,192,67831,1,2,0:0:0:0:
109,192,67946,1,0,0:0:0:0:
36,192,67946,1,0,0:0:0:0:
182,192,67946,1,2,0:0:0:0:
36,192,68061,1,0,0:0:0:0:
475,192,68061,1,0,0:0:0:0:
109,192,68061,1,0,0:0:0:0:
402,192,68100,1,0,0:0:0:0:
329,192,68138,1,0,0:0:0:0:
182,192,68177,1,0,0:0:0:0:
36,192,68292,1,0,0:0:0:0:
475,192,68292,1,0,0:0:0:0:
329,192,68292,1,0,0:0:0:0:
402,192,68292,1,2,0:0:0:0:
109,192,68331,1,0,0:0:0:0:
182,192,68369,1,0,0:0:0:0:
256,192,68408,1,0,0:0:0:0:
475,192,68523,1,0,0:0:0:0:
329,192,68523,1,0,0:0:0:0:
475,192,68638,1,0,0:0:0:0:
36,192,68638,1,0,0:0:0:0:
329,192,68638,1,2,0:0:0:0:
109,192,68677,1,0,0:0:0:0:
182,192,68715,1,0,0:0:0:0:
256,192,68754,1,0,0:0:0:0:
475,192,68869,1,0,0:0:0:0:
329,192,68869,1,2,0:0:0:0:
36,192,68985,1,0,0:0:0:0:
475,192,68985,1,0,0:0:0:0:
329,192,68985,1,0,0:0:0:0:
109,192,69023,1,0,0:0:0:0:
182,192,69061,1,0,0:0:0:0:
256,192,69100,1,0,0:0:0:0:
402,192,69100,1,0,0:0:0:0:
36,192,69215,1,0,0:0:0:0:
109,192,69215,1,2,0:0:0:0:
329,192,69215,1,0,0:0:0:0:
36,192,69331,1,0,0:0:0:0:
109,192,69331,1,2,0:0:0:0:
329,192,69331,1,0,0:0:0:0:
36,192,69446,1,0,0:0:0:0:
182,192,69446,1,0,0:0:0:0:
475,192,69446,1,0,0:0:0:0:
402,192,69485,1,0,0:0:0:0:
329,192,69523,1,0,0:0:0:0:
256,192,69561,1,0,0:0:0:0:
402,192,69677,1,2,0:0:0:0:
475,192,69677,1,0,0:0:0:0:
182,192,69677,1,0,0:0:0:0:
475,192,69792,1,0,0:0:0:0:
402,192,69792,1,2,0:0:0:0:
182,192,69792,1,0,0:0:0:0:
36,192,69908,1,0,0:0:0:0:
475,192,69908,1,0,0:0:0:0:
329,192,69908,1,0,0:0:0:0:
109,192,69946,1,0,0:0:0:0:
182,192,69985,1,0,0:0:0:0:
256,192,70023,1,0,0:0:0:0:
402,192,70138,1,0,0:0:0:0:
475,192,70138,1,0,0:0:0:0:
329,192,70138,1,2,0:0:0:0:
109,192,70138,1,0,0:0:0:0:
256,192,70196,1,0,0:0:0:0:
36,192,70254,1,0,0:0:0:0:
182,192,70254,1,0,0:0:0:0:
402,192,70311,1,0,0:0:0:0:
109,192,70369,1,0,0:0:0:0:
256,192,70369,1,0,0:0:0:0:
475,192,70427,1,0,0:0:0:0:
182,192,70485,1,0,0:0:0:0:
329,192,70485,1,2,0:0:0:0:
36,192,70542,1,0,0:0:0:0:
109,192,70600,1,0,0:0:0:0:
256,192,70600,1,0,0:0:0:0:
402,192,70658,1,0,0:0:0:0:
182,192,70715,1,0,0:0:0:0:
329,192,70715,1,2,0:0:0:0:
36,192,70773,1,0,0:0:0:0:
256,192,70831,1,0,0:0:0:0:
402,192,70831,1,0,0:0:0:0:
109,192,70888,1,0,0:0:0:0:
329,192,70946,1,0,0:0:0:0:
182,192,70946,1,0,0:0:0:0:
475,192,71004,1,0,0:0:0:0:
36,192,71061,1,0,0:0:0:0:
109,192,71061,1,0,0:0:0:0:
256,192,71061,1,2,0:0:0:0:
402,192,71119,1,0,0:0:0:0:
36,192,71177,1,0,0:0:0:0:
109,192,71177,1,0,0:0:0:0:
256,192,71177,1,2,0:0:0:0:
329,192,71235,1,0,0:0:0:0:
402,192,71292,1,0,0:0:0:0:
475,192,71292,1,0,0:0:0:0:
182,192,71292,1,0,0:0:0:0:
256,192,71350,1,0,0:0:0:0:
109,192,71408,1,0,0:0:0:0:
329,192,71408,1,0,0:0:0:0:
182,192,71465,1,0,0:0:0:0:
256,192,71523,1,2,0:0:0:0:
402,192,71523,1,0,0:0:0:0:
475,192,71523,1,0,0:0:0:0:
109,192,71581,1,0,0:0:0:0:
256,192,71638,1,2,0:0:0:0:
402,192,71638,1,0,0:0:0:0:
475,192,71638,1,0,0:0:0:0:
182,192,71696,1,0,0:0:0:0:
109,192,71754,1,0,0:0:0:0:
36,192,71754,1,0,0:0:0:0:
329,192,71754,1,0,0:0:0:0:
256,192,71811,1,0,0:0:0:0:
182,192,71869,1,0,0:0:0:0:
402,192,71869,1,0,0:0:0:0:
329,192,71927,1,0,0:0:0:0:
256,192,71985,1,0,0:0:0:0:
109,192,71985,1,2,0:0:0:0:
36,192,71985,1,0,0:0:0:0:
402,192,72042,1,0,0:0:0:0:
329,192,72100,1,0,0:0:0:0:
475,192,72100,1,0,0:0:0:0:
182,192,72158,1,0,0:0:0:0:
256,192,72215,1,0,0:0:0:0:
36,192,72215,1,0,0:0:0:0:
109,192,72273,1,0,0:0:0:0:
182,192,72331,1,2,0:0:0:0:
402,192,72331,1,0,0:0:0:0:
329,192,72388,1,0,0:0:0:0:
256,192,72446,1,0,0:0:0:0:
475,192,72446,1,0,0:0:0:0:
109,192,72504,1,0,0:0:0:0:
182,192,72561,1,2,0:0:0:0:
402,192,72561,1,0,0:0:0:0:
329,192,72619,1,0,0:0:0:0:
36,192,72677,1,0,0:0:0:0:
256,192,72677,1,0,0:0:0:0:
109,192,72735,1,0,0:0:0:0:
402,192,72792,1,0,0:0:0:0:
475,192,72792,1,0,0:0:0:0:
329,192,72850,1,0,0:0:0:0:
36,192,72908,1,0,0:0:0:0:
109,192,72908,1,0,0:0:0:0:
182,192,72908,1,2,0:0:0:0:
402,192,72965,1,0,0:0:0:0:
109,192,73023,1,0,0:0:0:0:
182,192,73023,1,2,0:0:0:0:
36,192,73023,1,0,0:0:0:0:
329,192,73081,1,0,0:0:0:0:
256,192,73138,1,0,0:0:0:0:
109,192,73138,1,0,0:0:0:0:
36,192,73138,1,0,0:0:0:0:
475,192,73196,1,0,0:0:0:0:
182,192,73254,1,0,0:0:0:0:
329,192,73254,1,0,0:0:0:0:
36,192,73311,1,0,0:0:0:0:
402,192,73369,1,0,0:0:0:0:
329,192,73369,1,2,0:0:0:0:
475,192,73369,1,0,0:0:0:0:
109,192,73427,1,0,0:0:0:0:
475,192,73485,1,0,0:0:0:0:
329,192,73485,1,2,0:0:0:0:
402,192,73485,1,0,0:0:0:0:
36,192,73542,1,0,0:0:0:0:
402,192,73600,1,0,0:0:0:0:
256,192,73600,1,0,0:0:0:0:
475,192,73600,1,0,0:0:0:0:
109,192,73658,1,0,0:0:0:0:
182,192,73715,1,0,0:0:0:0:
329,192,73715,1,0,0:0:0:0:
109,192,73773,1,0,0:0:0:0:
36,192,73831,1,0,0:0:0:0:
475,192,73831,1,0,0:0:0:0:
329,192,73831,1,2,0:0:0:0:
402,192,73831,1,0,0:0:0:0:
256,192,73869,1,0,0:0:0:0:
182,192,73908,1,0,0:0:0:0:
109,192,73946,1,0,0:0:0:0:
36,192,74061,1,0,0:0:0:0:
109,192,74061,1,0,0:0:0:0:
109,192,74177,1,2,0:0:0:0:
36,192,74177,1,0,0:0:0:0:
475,192,74177,1,0,0:0:0:0:
402,192,74215,1,0,0:0:0:0:
329,192,74254,1,0,0:0:0:0:
256,192,74292,1,0,0:0:0:0:
402,192,74408,1,2,0:0:0:0:
475,192,74408,1,0,0:0:0:0:
36,192,74523,1,0,0:0:0:0:
402,192,74523,1,0,0:0:0:0:
475,192,74523,1,0,0:0:0:0:
109,192,74561,1,0,0:0:0:0:
182,192,74600,1,0,0:0:0:0:
329,192,74638,1,0,0:0:0:0:
402,192,74638,1,0,0:0:0:0:
36,192,74754,1,0,0:0:0:0:
109,192,74754,1,0,0:0:0:0:
256,192,74754,1,2,0:0:0:0:
36,192,74869,1,0,0:0:0:0:
109,192,74869,1,0,0:0:0:0:
256,192,74869,1,2,0:0:0:0:
36,192,74985,1,0,0:0:0:0:
182,192,74985,1,0,0:0:0:0:
475,192,74985,1,0,0:0:0:0:
402,192,75023,1,0,0:0:0:0:
329,192,75061,1,0,0:0:0:0:
182,192,75100,1,0,0:0:0:0:
256,192,75215,1,2,0:0:0:0:
402,192,75215,1,0,0:0:0:0:
475,192,75215,1,0,0:0:0:0:
475,192,75331,1,0,0:0:0:0:
402,192,75331,1,0,0:0:0:0:
256,192,75331,1,2,0:0:0:0:
36,192,75446,1,0,0:0:0:0:
475,192,75446,1,0,0:0:0:0:
329,192,75446,1,0,0:0:0:0:
109,192,75485,1,0,0:0:0:0:
182,192,75523,1,0,0:0:0:0:
329,192,75561,1,0,0:0:0:0:
109,192,75677,1,0,0:0:0:0:
36,192,75677,1,0,0:0:0:0:
475,192,75677,1,0,0:0:0:0:
182,192,75677,1,2,0:0:0:0:
402,192,75715,1,0,0:0:0:0:
329,192,75754,1,0,0:0:0:0:
256,192,75792,1,0,0:0:0:0:
36,192,75908,1,0,0:0:0:0:
109,192,75908,1,0,0:0:0:0:
475,192,76023,1,0,0:0:0:0:
109,192,76023,1,2,0:0:0:0:
36,192,76023,1,0,0:0:0:0:
402,192,76061,1,0,0:0:0:0:
329,192,76100,1,0,0:0:0:0:
256,192,76138,1,0,0:0:0:0:
36,192,76254,1,0,0:0:0:0:
109,192,76254,1,2,0:0:0:0:
36,192,76369,1,0,0:0:0:0:
109,192,76369,1,0,0:0:0:0:
475,192,76369,1,0,0:0:0:0:
402,192,76408,1,0,0:0:0:0:
329,192,76446,1,0,0:0:0:0:
182,192,76485,1,0,0:0:0:0:
109,192,76485,1,0,0:0:0:0:
256,192,76600,1,2,0:0:0:0:
402,192,76600,1,0,0:0:0:0:
475,192,76600,1,0,0:0:0:0:
256,192,76715,1,2,0:0:0:0:
402,192,76715,1,0,0:0:0:0:
475,192,76715,1,0,0:0:0:0:
36,192,76831,1,0,0:0:0:0:
329,192,76831,1,0,0:0:0:0:
475,192,76831,1,0,0:0:0:0:
109,192,76869,1,0,0:0:0:0:
182,192,76908,1,0,0:0:0:0:
329,192,76946,1,0,0:0:0:0:
36,192,77061,1,0,0:0:0:0:
109,192,77061,1,0,0:0:0:0:
256,192,77061,1,2,0:0:0:0:
256,192,77177,1,2,0:0:0:0:
109,192,77177,1,0,0:0:0:0:
36,192,77177,1,0,0:0:0:0:
182,192,77292,1,0,0:0:0:0:
36,192,77292,1,0,0:0:0:0:
475,192,77292,1,0,0:0:0:0:
402,192,77331,1,0,0:0:0:0:
329,192,77369,1,0,0:0:0:0:
182,192,77408,1,0,0:0:0:0:
36,192,77523,128,0,78908:0:0:0:0:
256,192,77523,1,0,0:0:0:0:
402,192,77523,1,0,0:0:0:0:
109,192,77638,1,0,0:0:0:0:
329,192,77754,1,0,0:0:0:0:
475,192,77754,1,0,0:0:0:0:
182,192,77869,1,0,0:0:0:0:
402,192,77985,1,0,0:0:0:0:
256,192,78100,1,0,0:0:0:0:
475,192,78215,1,0,0:0:0:0:
109,192,78215,1,0,0:0:0:0:
329,192,78331,1,0,0:0:0:0:
182,192,78446,1,0,0:0:0:0:
402,192,78561,1,0,0:0:0:0:
256,192,78677,1,0,0:0:0:0:
109,192,78677,1,0,0:0:0:0:
475,192,78792,1,0,0:0:0:0:
329,192,78908,1,0,0:0:0:0:
109,192,78908,128,0,79369:0:0:0:0:
475,192,79023,1,0,0:0:0:0:
182,192,79138,1,0,0:0:0:0:
329,192,79138,1,0,0:0:0:0:
256,192,79254,1,0,0:0:0:0:
329,192,79369,1,0,0:0:0:0:
402,192,79369,1,0,0:0:0:0:
475,192,79369,128,0,80754:0:0:0:0:
109,192,79485,1,0,0:0:0:0:
36,192,79485,1,0,0:0:0:0:
182,192,79600,1,0,0:0:0:0:
256,192,79600,1,0,0:0:0:0:
329,192,79715,1,0,0:0:0:0:
402,192,79715,1,0,0:0:0:0:
109,192,79831,1,0,0:0:0:0:
36,192,79831,1,0,0:0:0:0:
256,192,79946,1,0,0:0:0:0:
182,192,79946,1,0,0:0:0:0:
402,192,80061,1,0,0:0:0:0:
329,192,80061,1,0,0:0:0:0:
182,192,80177,1,0,0:0:0:0:
109,192,80177,1,0,0:0:0:0:
402,192,80292,1,2,0:0:0:0:
36,192,80292,1,0,0:0:0:0:
256,192,80292,1,0,0:0:0:0:
36,192,80408,1,0,0:0:0:0:
182,192,80408,1,0,0:0:0:0:
329,192,80408,1,2,0:0:0:0:
109,192,80523,1,0,0:0:0:0:
402,192,80523,1,0,0:0:0:0:
256,192,80523,1,2,0:0:0:0:
36,192,80638,1,0,0:0:0:0:
402,192,80638,1,0,0:0:0:0:
182,192,80638,1,2,0:0:0:0:
256,192,80754,1,8,0:0:0:0:
109,192,80754,1,0,0:0:0:0:
329,192,80754,1,2,0:0:0:0:
36,192,80754,128,0,81215:0:0:0:0:
256,192,80869,1,8,0:0:0:0:
329,192,80869,1,2,0:0:0:0:
109,192,80869,1,0,0:0:0:0:
402,192,80985,1,0,0:0:0:0:
256,192,80985,1,8,0:0:0:0:
182,192,80985,1,2,0:0:0:0:
256,192,81100,1,8,0:0:0:0:
182,192,81100,1,2,0:0:0:0:
402,192,81100,1,0,0:0:0:0:
329,192,81215,1,2,0:0:0:0:
475,192,81215,128,0,83061:0:0:0:0:
109,192,81215,1,4,0:0:0:0:
256,192,81273,1,0,0:0:0:0:
182,192,81331,1,0,0:0:0:0:
109,192,81388,1,0,0:0:0:0:
36,192,81446,1,0,0:0:0:0:
329,192,81446,1,0,0:0:0:0:
256,192,81504,1,0,0:0:0:0:
182,192,81561,1,0,0:0:0:0:
109,192,81619,1,0,0:0:0:0:
402,192,81677,1,0,0:0:0:0:
329,192,81735,1,0,0:0:0:0:
36,192,81792,1,0,0:0:0:0:
109,192,81792,1,2,0:0:0:0:
182,192,81850,1,0,0:0:0:0:
329,192,81908,1,0,0:0:0:0:
402,192,81908,1,0,0:0:0:0:
256,192,81965,1,0,0:0:0:0:
182,192,82023,1,0,0:0:0:0:
109,192,82081,1,0,0:0:0:0:
36,192,82138,128,0,83985:0:0:0:0:
329,192,82138,1,2,0:0:0:0:
402,192,82138,1,0,0:0:0:0:
256,192,82196,1,0,0:0:0:0:
182,192,82254,1,0,0:0:0:0:
109,192,82311,1,0,0:0:0:0:
402,192,82369,1,0,0:0:0:0:
329,192,82369,1,0,0:0:0:0:
256,192,82427,1,0,0:0:0:0:
109,192,82485,1,0,0:0:0:0:
182,192,82542,1,0,0:0:0:0:
256,192,82600,1,0,0:0:0:0:
329,192,82658,1,0,0:0:0:0:
109,192,82715,1,2,0:0:0:0:
402,192,82715,1,0,0:0:0:0:
182,192,82773,1,0,0:0:0:0:
329,192,82831,1,0,0:0:0:0:
402,192,82831,1,0,0:0:0:0:
256,192,82888,1,0,0:0:0:0:
182,192,82946,1,0,0:0:0:0:
109,192,83004,1,0,0:0:0:0:
256,192,83061,128,0,84908:0:0:0:0:
402,192,83061,1,0,0:0:0:0:
329,192,83061,1,2,0:0:0:0:
109,192,83119,1,0,0:0:0:0:
182,192,83177,1,0,0:0:0:0:
329,192,83235,1,0,0:0:0:0:
402,192,83292,1,0,0:0:0:0:
475,192,83292,1,0,0:0:0:0:
109,192,83350,1,0,0:0:0:0:
182,192,83408,1,0,0:0:0:0:
329,192,83465,1,0,0:0:0:0:
402,192,83523,1,0,0:0:0:0:
475,192,83581,1,0,0:0:0:0:
109,192,83638,1,2,0:0:0:0:
182,192,83638,1,0,0:0:0:0:
329,192,83696,1,0,0:0:0:0:
182,192,83754,1,0,0:0:0:0:
109,192,83754,1,0,0:0:0:0:
402,192,83811,1,0,0:0:0:0:
329,192,83869,1,0,0:0:0:0:
182,192,83927,1,0,0:0:0:0:
475,192,83985,128,0,85831:0:0:0:0:
109,192,83985,1,0,0:0:0:0:
402,192,83985,1,2,0:0:0:0:
329,192,84042,1,0,0:0:0:0:
36,192,84100,1,0,0:0:0:0:
182,192,84158,1,0,0:0:0:0:
329,192,84215,1,0,0:0:0:0:
402,192,84215,1,0,0:0:0:0:
109,192,84273,1,0,0:0:0:0:
329,192,84331,1,2,0:0:0:0:
402,192,84331,1,0,0:0:0:0:
182,192,84388,1,0,0:0:0:0:
36,192,84446,1,0,0:0:0:0:
109,192,84504,1,0,0:0:0:0:
402,192,84561,1,0,0:0:0:0:
329,192,84561,1,2,0:0:0:0:
182,192,84619,1,0,0:0:0:0:
329,192,84677,1,0,0:0:0:0:
402,192,84677,1,0,0:0:0:0:
36,192,84735,1,0,0:0:0:0:
182,192,84792,1,2,0:0:0:0:
109,192,84792,1,0,0:0:0:0:
402,192,84850,1,0,0:0:0:0:
36,192,84908,128,0,86754:0:0:0:0:
109,192,84908,1,0,0:0:0:0:
182,192,84908,1,2,0:0:0:0:
329,192,84965,1,0,0:0:0:0:
256,192,85023,1,0,0:0:0:0:
182,192,85081,1,0,0:0:0:0:
109,192,85138,1,0,0:0:0:0:
402,192,85138,1,0,0:0:0:0:
329,192,85196,1,0,0:0:0:0:
256,192,85254,1,0,0:0:0:0:
182,192,85311,1,0,0:0:0:0:
402,192,85369,1,0,0:0:0:0:
329,192,85427,1,0,0:0:0:0:
182,192,85485,1,0,0:0:0:0:
109,192,85485,1,2,0:0:0:0:
256,192,85542,1,0,0:0:0:0:
329,192,85600,1,0,0:0:0:0:
402,192,85600,1,0,0:0:0:0:
182,192,85658,1,0,0:0:0:0:
256,192,85715,1,0,0:0:0:0:
329,192,85773,1,0,0:0:0:0:
256,192,85831,128,0,87677:0:0:0:0:
402,192,85831,1,0,0:0:0:0:
109,192,85831,1,2,0:0:0:0:
182,192,85888,1,0,0:0:0:0:
475,192,85946,1,0,0:0:0:0:
402,192,86004,1,0,0:0:0:0:
329,192,86061,1,0,0:0:0:0:
109,192,86061,1,0,0:0:0:0:
182,192,86119,1,0,0:0:0:0:
402,192,86177,1,0,0:0:0:0:
329,192,86235,1,0,0:0:0:0:
182,192,86292,1,0,0:0:0:0:
109,192,86350,1,0,0:0:0:0:
475,192,86408,1,0,0:0:0:0:
329,192,86408,1,2,0:0:0:0:
182,192,86465,1,0,0:0:0:0:
475,192,86523,1,0,0:0:0:0:
329,192,86523,1,0,0:0:0:0:
109,192,86581,1,0,0:0:0:0:
182,192,86638,1,0,0:0:0:0:
329,192,86696,1,0,0:0:0:0:
475,192,86754,128,0,88600:0:0:0:0:
109,192,86754,1,0,0:0:0:0:
402,192,86754,1,2,0:0:0:0:
182,192,86811,1,0,0:0:0:0:
329,192,86869,1,0,0:0:0:0:
402,192,86927,1,0,0:0:0:0:
36,192,86985,1,0,0:0:0:0:
109,192,86985,1,0,0:0:0:0:
329,192,87042,1,0,0:0:0:0:
182,192,87100,1,0,0:0:0:0:
109,192,87158,1,0,0:0:0:0:
402,192,87215,1,0,0:0:0:0:
329,192,87273,1,0,0:0:0:0:
182,192,87331,1,0,0:0:0:0:
36,192,87331,1,2,0:0:0:0:
109,192,87388,1,0,0:0:0:0:
329,192,87446,1,0,0:0:0:0:
402,192,87446,1,0,0:0:0:0:
36,192,87504,1,0,0:0:0:0:
109,192,87561,1,0,0:0:0:0:
182,192,87619,1,0,0:0:0:0:
402,192,87677,1,0,0:0:0:0:
329,192,87677,1,2,0:0:0:0:
36,192,87677,128,0,89523:0:0:0:0:
109,192,87735,1,0,0:0:0:0:
182,192,87792,1,0,0:0:0:0:
256,192,87850,1,0,0:0:0:0:
402,192,87908,1,0,0:0:0:0:
329,192,87908,1,0,0:0:0:0:
256,192,87965,1,0,0:0:0:0:
109,192,88023,1,0,0:0:0:0:
182,192,88023,1,2,0:0:0:0:
402,192,88081,1,0,0:0:0:0:
329,192,88138,1,0,0:0:0:0:
256,192,88196,1,0,0:0:0:0:
182,192,88254,1,0,0:0:0:0:
109,192,88254,1,2,0:0:0:0:
256,192,88311,1,0,0:0:0:0:
329,192,88369,1,0,0:0:0:0:
402,192,88369,1,0,0:0:0:0:
182,192,88427,1,0,0:0:0:0:
329,192,88485,1,2,0:0:0:0:
402,192,88485,1,0,0:0:0:0:
182,192,88542,1,0,0:0:0:0:
329,192,88600,1,2,0:0:0:0:
256,192,88600,128,0,90446:0:0:0:0:
402,192,88600,1,0,0:0:0:0:
109,192,88658,1,0,0:0:0:0:
182,192,88715,1,0,0:0:0:0:
329,192,88773,1,0,0:0:0:0:
475,192,88831,1,0,0:0:0:0:
402,192,88831,1,0,0:0:0:0:
109,192,88888,1,0,0:0:0:0:
182,192,88946,1,0,0:0:0:0:
475,192,89004,1,0,0:0:0:0:
402,192,89061,1,0,0:0:0:0:
329,192,89119,1,0,0:0:0:0:
109,192,89177,1,2,0:0:0:0:
182,192,89177,1,0,0:0:0:0:
329,192,89235,1,0,0:0:0:0:
402,192,89292,1,0,0:0:0:0:
475,192,89292,1,0,0:0:0:0:
109,192,89350,1,0,0:0:0:0:
182,192,89408,1,0,0:0:0:0:
329,192,89465,1,0,0:0:0:0:
475,192,89523,128,0,91369:0:0:0:0:
402,192,89523,1,2,0:0:0:0:
109,192,89523,1,0,0:0:0:0:
182,192,89581,1,0,0:0:0:0:
329,192,89638,1,0,0:0:0:0:
36,192,89696,1,0,0:0:0:0:
109,192,89754,1,0,0:0:0:0:
402,192,89754,1,0,0:0:0:0:
329,192,89811,1,0,0:0:0:0:
182,192,89869,1,0,0:0:0:0:
109,192,89927,1,0,0:0:0:0:
402,192,89985,1,0,0:0:0:0:
329,192,90042,1,0,0:0:0:0:
36,192,90100,1,2,0:0:0:0:
182,192,90100,1,0,0:0:0:0:
402,192,90158,1,0,0:0:0:0:
36,192,90215,1,0,0:0:0:0:
182,192,90215,1,0,0:0:0:0:
402,192,90273,1,0,0:0:0:0:
329,192,90331,1,0,0:0:0:0:
182,192,90388,1,0,0:0:0:0:
109,192,90446,128,0,92292:0:0:0:0:
36,192,90446,1,2,0:0:0:0:
402,192,90446,1,0,0:0:0:0:
329,192,90504,1,0,0:0:0:0:
256,192,90561,1,0,0:0:0:0:
182,192,90619,1,0,0:0:0:0:
402,192,90677,1,0,0:0:0:0:
36,192,90677,1,0,0:0:0:0:
329,192,90735,1,0,0:0:0:0:
256,192,90792,1,0,0:0:0:0:
182,192,90850,1,0,0:0:0:0:
402,192,90908,1,0,0:0:0:0:
329,192,90965,1,0,0:0:0:0:
36,192,91023,1,2,0:0:0:0:
256,192,91023,1,0,0:0:0:0:
402,192,91081,1,0,0:0:0:0:
182,192,91138,1,0,0:0:0:0:
36,192,91138,1,0,0:0:0:0:
402,192,91196,1,0,0:0:0:0:
329,192,91254,1,0,0:0:0:0:
256,192,91311,1,0,0:0:0:0:
402,192,91369,128,0,93215:0:0:0:0:
36,192,91369,1,2,0:0:0:0:
182,192,91369,1,0,0:0:0:0:
329,192,91427,1,0,0:0:0:0:
182,192,91485,1,0,0:0:0:0:
36,192,91542,1,0,0:0:0:0:
329,192,91600,1,0,0:0:0:0:
256,192,91600,1,0,0:0:0:0:
182,192,91658,1,0,0:0:0:0:
256,192,91715,1,2,0:0:0:0:
329,192,91715,1,0,0:0:0:0:
182,192,91773,1,0,0:0:0:0:
36,192,91831,1,0,0:0:0:0:
475,192,91888,1,0,0:0:0:0:
256,192,91946,1,2,0:0:0:0:
329,192,91946,1,0,0:0:0:0:
182,192,92004,1,0,0:0:0:0:
475,192,92061,1,0,0:0:0:0:
36,192,92061,1,0,0:0:0:0:
329,192,92119,1,0,0:0:0:0:
256,192,92177,1,0,0:0:0:0:
182,192,92177,1,2,0:0:0:0:
36,192,92235,1,0,0:0:0:0:
182,192,92292,128,0,94138:0:0:0:0:
475,192,92292,1,0,0:0:0:0:
329,192,92292,1,2,0:0:0:0:
256,192,92350,1,0,0:0:0:0:
109,192,92408,1,0,0:0:0:0:
36,192,92465,1,0,0:0:0:0:
329,192,92523,1,0,0:0:0:0:
475,192,92523,1,0,0:0:0:0:
256,192,92581,1,0,0:0:0:0:
109,192,92638,1,0,0:0:0:0:
36,192,92696,1,0,0:0:0:0:
329,192,92754,1,0,0:0:0:0:
256,192,92811,1,0,0:0:0:0:
109,192,92869,1,2,0:0:0:0:
475,192,92869,1,0,0:0:0:0:
329,192,92927,1,0,0:0:0:0:
36,192,92985,1,0,0:0:0:0:
256,192,92985,1,0,0:0:0:0:
109,192,93042,1,0,0:0:0:0:
329,192,93100,1,0,0:0:0:0:
256,192,93158,1,0,0:0:0:0:
329,192,93215,128,0,95061:0:0:0:0:
475,192,93215,1,2,0:0:0:0:
36,192,93215,1,0,0:0:0:0:
109,192,93273,1,0,0:0:0:0:
256,192,93331,1,0,0:0:0:0:
402,192,93388,1,0,0:0:0:0:
36,192,93446,1,0,0:0:0:0:
109,192,93446,1,0,0:0:0:0:
475,192,93504,1,0,0:0:0:0:
402,192,93561,1,0,0:0:0:0:
256,192,93619,1,0,0:0:0:0:
109,192,93677,1,0,0:0:0:0:
36,192,93735,1,0,0:0:0:0:
475,192,93792,1,2,0:0:0:0:
402,192,93792,1,0,0:0:0:0:
109,192,93850,1,0,0:0:0:0:
402,192,93908,1,0,0:0:0:0:
475,192,93908,1,0,0:0:0:0:
109,192,93965,1,0,0:0:0:0:
256,192,94023,1,0,0:0:0:0:
402,192,94081,1,0,0:0:0:0:
36,192,94138,128,0,95985:0:0:0:0:
109,192,94138,1,0,0:0:0:0:
475,192,94138,1,2,0:0:0:0:
256,192,94196,1,0,0:0:0:0:
182,192,94254,1,0,0:0:0:0:
109,192,94311,1,0,0:0:0:0:
475,192,94369,1,0,0:0:0:0:
402,192,94369,1,0,0:0:0:0:
256,192,94427,1,0,0:0:0:0:
182,192,94485,1,0,0:0:0:0:
109,192,94542,1,0,0:0:0:0:
402,192,94600,1,0,0:0:0:0:
256,192,94658,1,0,0:0:0:0:
182,192,94715,1,2,0:0:0:0:
109,192,94715,1,0,0:0:0:0:
402,192,94773,1,0,0:0:0:0:
182,192,94831,1,0,0:0:0:0:
109,192,94831,1,0,0:0:0:0:
402,192,94888,1,0,0:0:0:0:
256,192,94946,1,0,0:0:0:0:
182,192,95004,1,0,0:0:0:0:
475,192,95061,128,0,95985:0:0:0:0:
402,192,95061,1,2,0:0:0:0:
109,192,95061,1,0,0:0:0:0:
182,192,95119,1,0,0:0:0:0:
329,192,95177,1,2,0:0:0:0:
402,192,95177,1,0,0:0:0:0:
256,192,95235,1,0,0:0:0:0:
182,192,95292,1,0,0:0:0:0:
109,192,95292,1,0,0:0:0:0:
329,192,95350,1,0,0:0:0:0:
256,192,95408,1,2,0:0:0:0:
402,192,95408,1,0,0:0:0:0:
182,192,95465,1,0,0:0:0:0:
329,192,95523,1,0,0:0:0:0:
109,192,95523,1,2,0:0:0:0:
256,192,95581,1,0,0:0:0:0:
182,192,95638,1,2,0:0:0:0:
402,192,95638,1,0,0:0:0:0:
329,192,95696,1,0,0:0:0:0:
109,192,95754,1,0,0:0:0:0:
182,192,95754,1,2,0:0:0:0:
329,192,95811,1,2,0:0:0:0:
402,192,95811,1,0,0:0:0:0:
109,192,95869,1,0,0:0:0:0:
182,192,95869,1,2,0:0:0:0:
329,192,95927,1,2,0:0:0:0:
402,192,95927,1,0,0:0:0:0:
109,192,95985,1,4,0:0:0:0:
182,192,95985,1,2,0:0:0:0:
256,192,96042,1,0,0:0:0:0:
402,192,96100,1,0,0:0:0:0:
475,192,96100,1,0,0:0:0:0:
329,192,96158,1,0,0:0:0:0:
36,192,96215,1,0,0:0:0:0:
256,192,96215,1,2,0:0:0:0:
109,192,96215,1,0,0:0:0:0:
182,192,96273,1,0,0:0:0:0:
475,192,96331,1,0,0:0:0:0:
402,192,96331,1,0,0:0:0:0:
329,192,96388,1,0,0:0:0:0:
182,192,96446,1,2,0:0:0:0:
109,192,96446,1,0,0:0:0:0:
36,192,96446,1,0,0:0:0:0:
256,192,96504,1,0,0:0:0:0:
475,192,96561,1,0,0:0:0:0:
402,192,96561,1,0,0:0:0:0:
329,192,96619,1,0,0:0:0:0:
256,192,96677,1,0,0:0:0:0:
36,192,96677,1,2,0:0:0:0:
109,192,96677,1,0,0:0:0:0:
475,192,96735,1,0,0:0:0:0:
36,192,96792,1,2,0:0:0:0:
402,192,96792,1,0,0:0:0:0:
109,192,96792,1,0,0:0:0:0:
329,192,96850,1,0,0:0:0:0:
256,192,96908,1,0,0:0:0:0:
36,192,96908,1,2,0:0:0:0:
109,192,96908,1,0,0:0:0:0:
402,192,96965,1,0,0:0:0:0:
182,192,97023,1,0,0:0:0:0:
329,192,97023,1,0,0:0:0:0:
109,192,97081,1,0,0:0:0:0:
256,192,97138,1,0,0:0:0:0:
402,192,97138,1,2,0:0:0:0:
475,192,97138,1,0,0:0:0:0:
182,192,97196,1,0,0:0:0:0:
109,192,97254,1,0,0:0:0:0:
329,192,97254,1,0,0:0:0:0:
36,192,97311,1,0,0:0:0:0:
475,192,97369,1,0,0:0:0:0:
402,192,97369,1,2,0:0:0:0:
256,192,97369,1,0,0:0:0:0:
109,192,97427,1,0,0:0:0:0:
329,192,97485,1,0,0:0:0:0:
182,192,97485,1,0,0:0:0:0:
402,192,97542,1,0,0:0:0:0:
256,192,97600,1,0,0:0:0:0:
109,192,97600,1,2,0:0:0:0:
36,192,97600,1,0,0:0:0:0:
329,192,97658,1,0,0:0:0:0:
182,192,97715,1,0,0:0:0:0:
402,192,97715,1,0,0:0:0:0:
256,192,97773,1,0,0:0:0:0:
475,192,97773,1,0,0:0:0:0:
329,192,97831,1,2,0:0:0:0:
109,192,97831,1,0,0:0:0:0:
36,192,97831,1,0,0:0:0:0:
182,192,97888,1,0,0:0:0:0:
256,192,97946,1,0,0:0:0:0:
402,192,97946,1,0,0:0:0:0:
475,192,98004,1,0,0:0:0:0:
36,192,98061,1,0,0:0:0:0:
109,192,98061,1,0,0:0:0:0:
329,192,98061,1,2,0:0:0:0:
256,192,98119,1,0,0:0:0:0:
182,192,98177,1,0,0:0:0:0:
402,192,98177,1,0,0:0:0:0:
329,192,98235,1,0,0:0:0:0:
36,192,98292,1,2,0:0:0:0:
256,192,98292,1,0,0:0:0:0:
475,192,98292,1,0,0:0:0:0:
402,192,98350,1,0,0:0:0:0:
182,192,98408,1,0,0:0:0:0:
329,192,98408,1,0,0:0:0:0:
109,192,98465,1,0,0:0:0:0:
402,192,98523,1,2,0:0:0:0:
36,192,98523,1,0,0:0:0:0:
475,192,98523,1,0,0:0:0:0:
182,192,98581,1,0,0:0:0:0:
256,192,98638,1,0,0:0:0:0:
402,192,98638,1,2,0:0:0:0:
475,192,98638,1,0,0:0:0:0:
109,192,98696,1,0,0:0:0:0:
182,192,98754,1,0,0:0:0:0:
402,192,98754,1,2,0:0:0:0:
475,192,98754,1,0,0:0:0:0:
329,192,98811,1,0,0:0:0:0:
36,192,98869,1,0,0:0:0:0:
109,192,98869,1,0,0:0:0:0:
182,192,98927,1,0,0:0:0:0:
475,192,98985,1,0,0:0:0:0:
256,192,98985,1,0,0:0:0:0:
402,192,98985,1,2,0:0:0:0:
109,192,99042,1,0,0:0:0:0:
329,192,99100,1,0,0:0:0:0:
182,192,99100,1,0,0:0:0:0:
256,192,99158,1,0,0:0:0:0:
36,192,99215,1,0,0:0:0:0:
402,192,99215,1,2,0:0:0:0:
475,192,99215,1,0,0:0:0:0:
109,192,99273,1,0,0:0:0:0:
182,192,99331,1,0,0:0:0:0:
475,192,99331,1,0,0:0:0:0:
402,192,99331,1,2,0:0:0:0:
256,192,99388,1,0,0:0:0:0:
329,192,99446,1,2,0:0:0:0:
36,192,99446,1,0,0:0:0:0:
109,192,99446,1,0,0:0:0:0:
182,192,99504,1,0,0:0:0:0:
256,192,99561,1,0,0:0:0:0:
402,192,99561,1,2,0:0:0:0:
475,192,99561,1,0,0:0:0:0:
329,192,99619,1,0,0:0:0:0:
109,192,99677,1,0,0:0:0:0:
256,192,99677,1,2,0:0:0:0:
36,192,99677,1,0,0:0:0:0:
402,192,99735,1,0,0:0:0:0:
182,192,99792,1,0,0:0:0:0:
329,192,99792,1,0,0:0:0:0:
36,192,99850,1,0,0:0:0:0:
256,192,99908,1,2,0:0:0:0:
402,192,99908,1,0,0:0:0:0:
475,192,99908,1,0,0:0:0:0:
109,192,99965,1,0,0:0:0:0:
182,192,100023,1,0,0:0:0:0:
329,192,100023,1,0,0:0:0:0:
475,192,100081,1,0,0:0:0:0:
36,192,100138,1,0,0:0:0:0:
256,192,100138,1,2,0:0:0:0:
109,192,100138,1,0,0:0:0:0:
402,192,100196,1,0,0:0:0:0:
329,192,100254,1,0,0:0:0:0:
182,192,100254,1,0,0:0:0:0:
109,192,100311,1,0,0:0:0:0:
256,192,100369,1,0,0:0:0:0:
402,192,100369,1,2,0:0:0:0:
475,192,100369,1,0,0:0:0:0:
36,192,100427,1,0,0:0:0:0:
475,192,100485,1,0,0:0:0:0:
402,192,100485,1,2,0:0:0:0:
109,192,100485,1,0,0:0:0:0:
182,192,100542,1,0,0:0:0:0:
475,192,100600,1,0,0:0:0:0:
256,192,100600,1,0,0:0:0:0:
329,192,100600,1,2,0:0:0:0:
109,192,100658,1,0,0:0:0:0:
182,192,100715,1,0,0:0:0:0:
402,192,100715,1,0,0:0:0:0:
256,192,100773,1,0,0:0:0:0:
36,192,100831,1,0,0:0:0:0:
329,192,100831,1,2,0:0:0:0:
475,192,100831,1,0,0:0:0:0:
109,192,100888,1,0,0:0:0:0:
182,192,100946,1,0,0:0:0:0:
402,192,100946,1,0,0:0:0:0:
256,192,101004,1,0,0:0:0:0:
109,192,101061,1,0,0:0:0:0:
36,192,101061,1,0,0:0:0:0:
329,192,101061,1,2,0:0:0:0:
182,192,101119,1,0,0:0:0:0:
475,192,101177,1,0,0:0:0:0:
256,192,101177,1,0,0:0:0:0:
329,192,101235,1,0,0:0:0:0:
182,192,101292,1,0,0:0:0:0:
36,192,101292,1,0,0:0:0:0:
402,192,101292,1,2,0:0:0:0:
256,192,101350,1,0,0:0:0:0:
329,192,101408,1,0,0:0:0:0:
109,192,101408,1,0,0:0:0:0:
182,192,101465,1,0,0:0:0:0:
402,192,101465,1,0,0:0:0:0:
36,192,101523,1,0,0:0:0:0:
256,192,101523,1,2,0:0:0:0:
475,192,101523,1,0,0:0:0:0:
109,192,101581,1,0,0:0:0:0:
182,192,101638,1,0,0:0:0:0:
402,192,101638,1,0,0:0:0:0:
329,192,101696,1,0,0:0:0:0:
475,192,101754,1,0,0:0:0:0:
256,192,101754,1,2,0:0:0:0:
36,192,101754,1,0,0:0:0:0:
109,192,101811,1,0,0:0:0:0:
182,192,101869,1,0,0:0:0:0:
402,192,101869,1,0,0:0:0:0:
329,192,101927,1,0,0:0:0:0:
475,192,101985,1,0,0:0:0:0:
256,192,101985,1,2,0:0:0:0:
36,192,101985,1,0,0:0:0:0:
109,192,102042,1,0,0:0:0:0:
182,192,102100,1,0,0:0:0:0:
402,192,102100,1,0,0:0:0:0:
329,192,102158,1,0,0:0:0:0:
256,192,102215,1,2,0:0:0:0:
475,192,102215,1,0,0:0:0:0:
36,192,102215,1,0,0:0:0:0:
109,192,102273,1,0,0:0:0:0:
402,192,102331,1,0,0:0:0:0:
182,192,102331,1,2,0:0:0:0:
329,192,102331,1,0,0:0:0:0:
109,192,102388,1,0,0:0:0:0:
475,192,102446,1,0,0:0:0:0:
256,192,102446,1,2,0:0:0:0:
36,192,102446,1,0,0:0:0:0:
402,192,102504,1,0,0:0:0:0:
329,192,102561,1,0,0:0:0:0:
109,192,102561,1,0,0:0:0:0:
182,192,102619,1,0,0:0:0:0:
36,192,102677,1,0,0:0:0:0:
475,192,102677,1,0,0:0:0:0:
256,192,102677,1,2,0:0:0:0:
402,192,102735,1,0,0:0:0:0:
109,192,102792,1,0,0:0:0:0:
329,192,102792,1,0,0:0:0:0:
182,192,102850,1,0,0:0:0:0:
36,192,102908,1,0,0:0:0:0:
256,192,102908,1,2,0:0:0:0:
475,192,102908,1,0,0:0:0:0:
402,192,102965,1,0,0:0:0:0:
109,192,103023,1,0,0:0:0:0:
182,192,103023,1,2,0:0:0:0:
329,192,103023,1,0,0:0:0:0:
402,192,103081,1,0,0:0:0:0:
36,192,103138,1,0,0:0:0:0:
256,192,103138,1,2,0:0:0:0:
475,192,103138,1,0,0:0:0:0:
109,192,103196,1,0,0:0:0:0:
182,192,103254,1,2,0:0:0:0:
329,192,103254,1,0,0:0:0:0:
402,192,103254,1,0,0:0:0:0:
109,192,103311,1,0,0:0:0:0:
475,192,103369,1,0,0:0:0:0:
36,192,103369,1,0,0:0:0:0:
256,192,103369,1,2,0:0:0:0:
402,192,103427,1,0,0:0:0:0:
109,192,103485,1,0,0:0:0:0:
329,192,103485,1,0,0:0:0:0:
182,192,103542,1,0,0:0:0:0:
36,192,103600,1,0,0:0:0:0:
475,192,103600,1,0,0:0:0:0:
256,192,103600,1,2,0:0:0:0:
329,192,103658,1,0,0:0:0:0:
402,192,103715,1,0,0:0:0:0:
182,192,103715,1,0,0:0:0:0:
109,192,103773,1,0,0:0:0:0:
36,192,103831,1,0,0:0:0:0:
475,192,103831,1,0,0:0:0:0:
256,192,103831,1,2,0:0:0:0:
402,192,103888,1,0,0:0:0:0:
109,192,103946,1,0,0:0:0:0:
329,192,103946,1,0,0:0:0:0:
182,192,104004,1,0,0:0:0:0:
36,192,104061,1,0,0:0:0:0:
475,192,104061,1,0,0:0:0:0:
256,192,104061,1,2,0:0:0:0:
329,192,104119,1,0,0:0:0:0:
402,192,104177,1,0,0:0:0:0:
109,192,104177,1,0,0:0:0:0:
182,192,104177,1,2,0:0:0:0:
256,192,104235,1,0,0:0:0:0:
475,192,104292,1,0,0:0:0:0:
36,192,104292,1,0,0:0:0:0:
329,192,104292,1,2,0:0:0:0:
109,192,104350,1,0,0:0:0:0:
182,192,104408,1,0,0:0:0:0:
402,192,104408,1,0,0:0:0:0:
329,192,104465,1,0,0:0:0:0:
475,192,104523,1,0,0:0:0:0:
36,192,104523,1,0,0:0:0:0:
256,192,104523,1,2,0:0:0:0:
182,192,104581,1,0,0:0:0:0:
109,192,104638,1,0,0:0:0:0:
329,192,104638,1,0,0:0:0:0:
402,192,104696,1,0,0:0:0:0:
36,192,104754,1,0,0:0:0:0:
256,192,104754,1,2,0:0:0:0:
475,192,104754,1,0,0:0:0:0:
109,192,104811,1,0,0:0:0:0:
182,192,104869,1,0,0:0:0:0:
402,192,104869,1,0,0:0:0:0:
329,192,104927,1,0,0:0:0:0:
36,192,104985,1,0,0:0:0:0:
475,192,104985,1,0,0:0:0:0:
256,192,104985,1,2,0:0:0:0:
182,192,105042,1,0,0:0:0:0:
109,192,105100,1,0,0:0:0:0:
329,192,105100,1,0,0:0:0:0:
402,192,105158,1,0,0:0:0:0:
182,192,105158,1,0,0:0:0:0:
36,192,105215,1,0,0:0:0:0:
256,192,105215,1,2,0:0:0:0:
475,192,105215,1,0,0:0:0:0:
109,192,105273,1,0,0:0:0:0:
329,192,105331,1,0,0:0:0:0:
182,192,105331,1,0,0:0:0:0:
402,192,105388,1,0,0:0:0:0:
256,192,105446,1,2,0:0:0:0:
475,192,105446,1,0,0:0:0:0:
36,192,105446,1,0,0:0:0:0:
109,192,105504,1,0,0:0:0:0:
329,192,105561,1,0,0:0:0:0:
182,192,105561,1,0,0:0:0:0:
402,192,105619,1,0,0:0:0:0:
36,192,105677,1,0,0:0:0:0:
109,192,105677,1,2,0:0:0:0:
256,192,105677,1,0,0:0:0:0:
402,192,105735,1,0,0:0:0:0:
329,192,105792,1,0,0:0:0:0:
182,192,105792,1,0,0:0:0:0:
109,192,105850,1,0,0:0:0:0:
256,192,105908,1,2,0:0:0:0:
475,192,105908,1,0,0:0:0:0:
36,192,105908,1,0,0:0:0:0:
402,192,105965,1,0,0:0:0:0:
329,192,106023,1,0,0:0:0:0:
109,192,106023,1,0,0:0:0:0:
182,192,106023,1,2,0:0:0:0:
402,192,106081,1,0,0:0:0:0:
256,192,106138,1,2,0:0:0:0:
36,192,106138,1,0,0:0:0:0:
475,192,106138,1,0,0:0:0:0:
109,192,106196,1,0,0:0:0:0:
182,192,106254,1,0,0:0:0:0:
329,192,106254,1,0,0:0:0:0:
402,192,106311,1,0,0:0:0:0:
256,192,106369,1,2,0:0:0:0:
475,192,106369,1,0,0:0:0:0:
36,192,106369,1,0,0:0:0:0:
109,192,106427,1,0,0:0:0:0:
329,192,106485,1,0,0:0:0:0:
182,192,106485,1,0,0:0:0:0:
402,192,106542,1,0,0:0:0:0:
36,192,106600,1,0,0:0:0:0:
475,192,106600,1,0,0:0:0:0:
256,192,106600,1,2,0:0:0:0:
182,192,106658,1,0,0:0:0:0:
329,192,106715,1,2,0:0:0:0:
109,192,106715,1,0,0:0:0:0:
402,192,106715,1,0,0:0:0:0:
256,192,106773,1,0,0:0:0:0:
182,192,106831,1,2,0:0:0:0:
109,192,106831,1,0,0:0:0:0:
402,192,106831,1,0,0:0:0:0:
329,192,106888,1,0,0:0:0:0:
256,192,106946,1,2,0:0:0:0:
36,192,106946,1,0,0:0:0:0:
475,192,106946,1,0,0:0:0:0:
109,192,107004,1,0,0:0:0:0:
402,192,107061,1,0,0:0:0:0:
329,192,107061,1,2,0:0:0:0:
182,192,107061,1,0,0:0:0:0:
36,192,107119,1,0,0:0:0:0:
329,192,107177,1,2,0:0:0:0:
402,192,107177,1,0,0:0:0:0:
109,192,107177,1,0,0:0:0:0:
182,192,107235,1,0,0:0:0:0:
475,192,107292,1,0,0:0:0:0:
402,192,107292,1,2,0:0:0:0:
36,192,107292,1,0,0:0:0:0:
109,192,107350,1,0,0:0:0:0:
475,192,107408,1,0,0:0:0:0:
402,192,107408,1,2,0:0:0:0:
182,192,107408,1,0,0:0:0:0:
256,192,107465,1,0,0:0:0:0:
36,192,107523,1,0,0:0:0:0:
109,192,107523,1,2,0:0:0:0:
329,192,107523,1,0,0:0:0:0:
475,192,107581,1,0,0:0:0:0:
109,192,107638,1,2,0:0:0:0:
36,192,107638,1,0,0:0:0:0:
402,192,107638,1,0,0:0:0:0:
329,192,107696,1,0,0:0:0:0:
109,192,107754,1,0,0:0:0:0:
182,192,107754,1,2,0:0:0:0:
475,192,107754,1,0,0:0:0:0:
402,192,107811,1,0,0:0:0:0:
182,192,107869,1,2,0:0:0:0:
109,192,107869,1,0,0:0:0:0:
329,192,107869,1,0,0:0:0:0:
256,192,107927,1,0,0:0:0:0:
402,192,107985,1,0,0:0:0:0:
475,192,107985,1,2,0:0:0:0:
36,192,107985,1,0,0:0:0:0:
109,192,108042,1,0,0:0:0:0:
475,192,108100,1,2,0:0:0:0:
402,192,108100,1,0,0:0:0:0:
182,192,108100,1,0,0:0:0:0:
256,192,108158,1,0,0:0:0:0:
36,192,108215,1,2,0:0:0:0:
109,192,108215,1,0,0:0:0:0:
475,192,108215,1,0,0:0:0:0:
402,192,108273,1,0,0:0:0:0:
109,192,108331,1,0,0:0:0:0:
36,192,108331,1,2,0:0:0:0:
329,192,108331,1,0,0:0:0:0:
256,192,108388,1,0,0:0:0:0:
402,192,108446,1,0,0:0:0:0:
475,192,108446,1,2,0:0:0:0:
36,192,108446,1,0,0:0:0:0:
109,192,108504,1,0,0:0:0:0:
402,192,108561,1,2,0:0:0:0:
329,192,108561,1,0,0:0:0:0:
182,192,108561,1,0,0:0:0:0:
256,192,108619,1,0,0:0:0:0:
36,192,108677,1,0,0:0:0:0:
109,192,108677,1,2,0:0:0:0:
475,192,108677,1,0,0:0:0:0:
402,192,108735,1,0,0:0:0:0:
182,192,108792,1,0,0:0:0:0:
256,192,108792,1,2,0:0:0:0:
329,192,108792,1,0,0:0:0:0:
109,192,108850,1,0,0:0:0:0:
36,192,108908,1,4,0:0:0:0:
256,192,108908,1,2,0:0:0:0:
475,192,108908,1,0,0:0:0:0:
402,192,108965,1,0,0:0:0:0:
182,192,108965,1,2,0:0:0:0:
109,192,109023,1,2,0:0:0:0:
329,192,109023,1,0,0:0:0:0:
36,192,109081,1,2,0:0:0:0:
256,192,109081,1,0,0:0:0:0:
402,192,109138,1,2,0:0:0:0:
182,192,109138,1,0,0:0:0:0:
475,192,109138,1,0,0:0:0:0:
329,192,109196,1,2,0:0:0:0:
109,192,109196,1,0,0:0:0:0:
182,192,109254,1,0,0:0:0:0:
402,192,109254,1,2,0:0:0:0:
256,192,109311,1,0,0:0:0:0:
475,192,109311,1,2,0:0:0:0:
329,192,109369,1,2,0:0:0:0:
109,192,109369,1,0,0:0:0:0:
36,192,109369,1,0,0:0:0:0:
182,192,109427,1,0,0:0:0:0:
402,192,109427,1,2,0:0:0:0:
109,192,109485,1,0,0:0:0:0:
329,192,109485,1,2,0:0:0:0:
36,192,109542,1,0,0:0:0:0:
256,192,109542,1,2,0:0:0:0:
182,192,109600,1,2,0:0:0:0:
402,192,109600,1,0,0:0:0:0:
475,192,109600,1,0,0:0:0:0:
109,192,109658,1,2,0:0:0:0:
329,192,109658,1,0,0:0:0:0:
256,192,109715,1,2,0:0:0:0:
36,192,109715,1,0,0:0:0:0:
109,192,109773,1,0,0:0:0:0:
329,192,109773,1,2,0:0:0:0:
256,192,109831,128,0,110696:0:0:0:0:
402,192,109831,1,2,0:0:0:0:
182,192,109831,1,0,0:0:0:0:
475,192,109831,1,0,0:0:0:0:
109,192,109888,1,2,0:0:0:0:
36,192,109888,1,0,0:0:0:0:
402,192,109946,1,0,0:0:0:0:
329,192,109946,1,2,0:0:0:0:
182,192,110004,1,2,0:0:0:0:
109,192,110004,1,0,0:0:0:0:
402,192,110061,1,2,0:0:0:0:
475,192,110061,1,0,0:0:0:0:
36,192,110119,1,0,0:0:0:0:
109,192,110119,1,2,0:0:0:0:
402,192,110177,1,0,0:0:0:0:
329,192,110177,1,2,0:0:0:0:
109,192,110235,1,0,0:0:0:0:
182,192,110235,1,2,0:0:0:0:
329,192,110292,1,2,0:0:0:0:
475,192,110292,1,0,0:0:0:0:
402,192,110292,1,0,0:0:0:0:
182,192,110350,1,2,0:0:0:0:
36,192,110350,1,0,0:0:0:0:
109,192,110350,1,0,0:0:0:0:
329,192,110408,1,2,0:0:0:0:
402,192,110408,1,0,0:0:0:0:
475,192,110408,1,0,0:0:0:0:
182,192,110465,1,2,0:0:0:0:
109,192,110465,1,0,0:0:0:0:
36,192,110465,1,0,0:0:0:0:
329,192,110523,1,2,0:0:0:0:
475,192,110523,1,0,0:0:0:0:
402,192,110523,1,0,0:0:0:0:
36,192,110581,1,0,0:0:0:0:
182,192,110581,1,2,0:0:0:0:
109,192,110581,1,0,0:0:0:0:
329,192,110638,1,2,0:0:0:0:
402,192,110638,1,0,0:0:0:0:
475,192,110638,1,0,0:0:0:0:
182,192,110696,1,2,0:0:0:0:
109,192,110696,1,0,0:0:0:0:
36,192,110696,1,0,0:0:0:0:
475,192,110754,128,0,111100:0:0:0:0:
256,192,110754,128,2,111100:0:0:0:0:
329,192,110754,128,4,111100:0:0:0:0:
402,192,110754,128,0,111100:0:0:0:0:
109,192,112138,1,0,0:0:0:0:
182,192,112196,1,0,0:0:0:0:
256,192,112254,1,0,0:0:0:0:
329,192,112311,1,0,0:0:0:0:
182,192,112369,1,0,0:0:0:0:
256,192,112427,1,0,0:0:0:0:
329,192,112485,1,0,0:0:0:0:
402,192,112542,1,0,0:0:0:0:
475,192,112600,1,0,0:0:0:0:
36,192,112600,1,0,0:0:0:0:
109,192,112600,1,4,0:0:0:0:
182,192,112600,1,2,0:0:0:0:
402,192,112658,1,0,0:0:0:0:
329,192,112715,1,0,0:0:0:0:
256,192,112773,1,0,0:0:0:0:
36,192,112831,1,0,0:0:0:0:
402,192,112831,1,0,0:0:0:0:
475,192,112831,1,0,0:0:0:0:
109,192,112831,1,2,0:0:0:0:
329,192,112888,1,0,0:0:0:0:
36,192,112946,1,0,0:0:0:0:
109,192,112946,1,2,0:0:0:0:
475,192,112946,1,0,0:0:0:0:
402,192,112946,1,4,0:0:0:0:
182,192,113004,1,0,0:0:0:0:
256,192,113061,1,0,0:0:0:0:
329,192,113119,1,0,0:0:0:0:
36,192,113177,1,0,0:0:0:0:
109,192,113177,1,0,0:0:0:0:
402,192,113177,1,2,0:0:0:0:
475,192,113177,1,0,0:0:0:0:
182,192,113235,1,0,0:0:0:0:
109,192,113292,1,4,0:0:0:0:
36,192,113292,1,0,0:0:0:0:
402,192,113292,1,2,0:0:0:0:
475,192,113292,1,0,0:0:0:0:
329,192,113350,1,0,0:0:0:0:
256,192,113408,1,0,0:0:0:0:
182,192,113465,1,0,0:0:0:0:
109,192,113523,1,4,0:0:0:0:
36,192,113523,1,0,0:0:0:0:
402,192,113523,1,0,0:0:0:0:
475,192,113523,1,0,0:0:0:0:
329,192,113523,1,2,0:0:0:0:
