osu file format v14

[General]
AudioFilename: The Limit Does Not Exist.mp3
AudioLeadIn: 0
PreviewTime: 7369
Countdown: 0
SampleSet: Normal
StackLeniency: 0.7
Mode: 3
LetterboxInBreaks: 0
SpecialStyle: 0
WidescreenStoryboard: 0

[Editor]
DistanceSpacing: 1.8
BeatDivisor: 2
GridSize: 16
TimelineZoom: 2.4

[Metadata]
Title:The Limit Does Not Exist
TitleUnicode:The Limit Does Not Exist
Artist:Cardboard Box
ArtistUnicode:Cardboard Box
Creator:iJinjin
Version:Hard
Source:
Tags:tristan97 jinjin chiptune 8bit tachyon epsilon stepmania itg in the groove tldne
BeatmapID:831952
BeatmapSetID:379758

[Difficulty]
HPDrainRate:7.6
CircleSize:7
OverallDifficulty:7.4
ApproachRate:5
SliderMultiplier:1.4
SliderTickRate:1

[Events]
//Background and Video events
0,0,"the limit does not exist bg.jpg",0,0
//Break Periods
//Storyboard Layer 0 (Background)
//Storyboard Layer 1 (Fail)
//Storyboard Layer 2 (Pass)
//Storyboard Layer 3 (Foreground)
//Storyboard Sound Samples

[TimingPoints]
-15,230.769230769231,4,1,1,30,1,0
95985,-100,4,1,1,30,0,1
110754,-100,4,1,1,30,0,0

[HitObjects]
109,192,1831,5,2,0:0:0:0:
402,192,1831,1,0,0:0:0:0:
402,192,2061,1,0,0:0:0:0:
109,192,2177,1,2,0:0:0:0:
109,192,2408,1,2,0:0:0:0:
402,192,2523,1,0,0:0:0:0:
182,192,2754,1,2,0:0:0:0:
329,192,2869,1,2,0:0:0:0:
182,192,2985,1,0,0:0:0:0:
256,192,3215,1,2,0:0:0:0:
109,192,3331,1,2,0:0:0:0:
256,192,3446,1,0,0:0:0:0:
182,192,3677,1,2,0:0:0:0:
329,192,3677,1,0,0:0:0:0:
329,192,3908,1,0,0:0:0:0:
182,192,4023,1,2,0:0:0:0:
182,192,4254,1,2,0:0:0:0:
329,192,4369,1,0,0:0:0:0:
256,192,4600,1,2,0:0:0:0:
402,192,4715,1,2,0:0:0:0:
256,192,4831,1,0,0:0:0:0:
329,192,5061,1,2,0:0:0:0:
182,192,5177,1,2,0:0:0:0:
329,192,5292,1,0,0:0:0:0:
36,192,5523,1,2,0:0:0:0:
475,192,5523,1,0,0:0:0:0:
475,192,5754,1,0,0:0:0:0:
36,192,5869,1,2,0:0:0:0:
36,192,6100,1,2,0:0:0:0:
475,192,6215,1,0,0:0:0:0:
329,192,6446,1,2,0:0:0:0:
182,192,6561,1,2,0:0:0:0:
329,192,6677,1,0,0:0:0:0:
182,192,6908,1,2,0:0:0:0:
329,192,7023,1,2,0:0:0:0:
182,192,7138,1,0,0:0:0:0:
475,192,7369,1,2,0:0:0:0:
182,192,7369,1,0,0:0:0:0:
329,192,7600,1,0,0:0:0:0:
475,192,7715,1,2,0:0:0:0:
182,192,7715,1,0,0:0:0:0:
329,192,7946,1,2,0:0:0:0:
475,192,8061,1,0,0:0:0:0:
182,192,8061,1,0,0:0:0:0:
36,192,8292,1,0,0:0:0:0:
329,192,8292,1,2,0:0:0:0:
256,192,8408,1,2,0:0:0:0:
182,192,8523,1,0,0:0:0:0:
402,192,8754,1,2,0:0:0:0:
109,192,8754,1,0,0:0:0:0:
329,192,8869,1,2,0:0:0:0:
256,192,8985,1,0,0:0:0:0:
182,192,9215,1,2,0:0:0:0:
329,192,9215,1,0,0:0:0:0:
475,192,9446,1,0,0:0:0:0:
329,192,9561,1,0,0:0:0:0:
182,192,9561,1,2,0:0:0:0:
182,192,9792,1,2,0:0:0:0:
329,192,9792,1,0,0:0:0:0:
475,192,9908,1,0,0:0:0:0:
256,192,10138,1,2,0:0:0:0:
109,192,10138,1,0,0:0:0:0:
329,192,10254,1,2,0:0:0:0:
402,192,10369,1,0,0:0:0:0:
182,192,10600,1,2,0:0:0:0:
475,192,10600,1,0,0:0:0:0:
256,192,10715,1,2,0:0:0:0:
329,192,10831,1,0,0:0:0:0:
36,192,11061,1,2,0:0:0:0:
475,192,11061,1,0,0:0:0:0:
109,192,11177,1,0,0:0:0:0:
182,192,11292,1,0,0:0:0:0:
329,192,11408,1,2,0:0:0:0:
109,192,11523,1,0,0:0:0:0:
182,192,11638,1,2,0:0:0:0:
402,192,11754,1,0,0:0:0:0:
329,192,11869,1,0,0:0:0:0:
475,192,11985,1,2,0:0:0:0:
329,192,12100,1,2,0:0:0:0:
182,192,12215,1,0,0:0:0:0:
36,192,12331,1,0,0:0:0:0:
402,192,12446,1,2,0:0:0:0:
329,192,12561,1,2,0:0:0:0:
182,192,12677,1,0,0:0:0:0:
109,192,12792,1,0,0:0:0:0:
256,192,12908,1,2,0:0:0:0:
402,192,12908,1,0,0:0:0:0:
36,192,13023,1,0,0:0:0:0:
109,192,13138,1,0,0:0:0:0:
329,192,13254,1,2,0:0:0:0:
182,192,13369,1,0,0:0:0:0:
329,192,13485,1,2,0:0:0:0:
475,192,13600,1,0,0:0:0:0:
182,192,13715,1,0,0:0:0:0:
475,192,13831,1,2,0:0:0:0:
329,192,13946,1,2,0:0:0:0:
182,192,14061,1,0,0:0:0:0:
36,192,14177,1,0,0:0:0:0:
402,192,14292,1,2,0:0:0:0:
329,192,14408,1,2,0:0:0:0:
182,192,14523,1,0,0:0:0:0:
109,192,14638,1,0,0:0:0:0:
36,192,14754,1,2,0:0:0:0:
329,192,14754,1,0,0:0:0:0:
182,192,14985,1,0,0:0:0:0:
329,192,15100,1,0,0:0:0:0:
36,192,15100,1,2,0:0:0:0:
182,192,15331,1,2,0:0:0:0:
36,192,15446,1,0,0:0:0:0:
329,192,15446,1,0,0:0:0:0:
182,192,15677,1,0,0:0:0:0:
402,192,15677,1,2,0:0:0:0:
329,192,15792,1,2,0:0:0:0:
256,192,15908,1,0,0:0:0:0:
109,192,16138,1,2,0:0:0:0:
329,192,16138,1,0,0:0:0:0:
182,192,16254,1,2,0:0:0:0:
256,192,16369,1,0,0:0:0:0:
109,192,16600,1,2,0:0:0:0:
329,192,16600,1,0,0:0:0:0:
36,192,16831,1,0,0:0:0:0:
109,192,16946,1,2,0:0:0:0:
329,192,16946,1,0,0:0:0:0:
36,192,17177,1,2,0:0:0:0:
109,192,17292,1,0,0:0:0:0:
329,192,17292,1,0,0:0:0:0:
36,192,17523,1,0,0:0:0:0:
182,192,17523,1,2,0:0:0:0:
256,192,17638,1,2,0:0:0:0:
329,192,17754,1,0,0:0:0:0:
329,192,17985,1,2,0:0:0:0:
475,192,17985,1,0,0:0:0:0:
256,192,18100,1,2,0:0:0:0:
182,192,18215,1,0,0:0:0:0:
256,192,18446,1,2,0:0:0:0:
402,192,18446,1,0,0:0:0:0:
109,192,18561,1,0,0:0:0:0:
182,192,18677,1,0,0:0:0:0:
402,192,18792,1,2,0:0:0:0:
182,192,18908,1,0,0:0:0:0:
329,192,19023,1,2,0:0:0:0:
402,192,19138,1,0,0:0:0:0:
256,192,19254,1,0,0:0:0:0:
475,192,19369,1,2,0:0:0:0:
402,192,19485,1,2,0:0:0:0:
329,192,19600,1,0,0:0:0:0:
182,192,19715,1,0,0:0:0:0:
329,192,19831,1,2,0:0:0:0:
182,192,19946,1,2,0:0:0:0:
109,192,20061,1,0,0:0:0:0:
36,192,20177,1,0,0:0:0:0:
329,192,20292,1,2,0:0:0:0:
402,192,20292,1,0,0:0:0:0:
109,192,20408,1,0,0:0:0:0:
256,192,20523,1,0,0:0:0:0:
402,192,20638,1,2,0:0:0:0:
182,192,20754,1,0,0:0:0:0:
329,192,20869,1,2,0:0:0:0:
475,192,20985,1,0,0:0:0:0:
182,192,21100,1,0,0:0:0:0:
475,192,21215,1,2,0:0:0:0:
402,192,21331,1,2,0:0:0:0:
329,192,21446,1,0,0:0:0:0:
182,192,21561,1,0,0:0:0:0:
329,192,21677,1,2,0:0:0:0:
182,192,21792,1,2,0:0:0:0:
109,192,21908,1,0,0:0:0:0:
36,192,22023,1,0,0:0:0:0:
329,192,22138,1,2,0:0:0:0:
475,192,22138,1,0,0:0:0:0:
182,192,22369,1,0,0:0:0:0:
329,192,22485,1,2,0:0:0:0:
475,192,22485,1,0,0:0:0:0:
182,192,22715,1,2,0:0:0:0:
329,192,22831,1,0,0:0:0:0:
475,192,22831,1,0,0:0:0:0:
182,192,23061,1,0,0:0:0:0:
402,192,23061,1,2,0:0:0:0:
329,192,23177,1,2,0:0:0:0:
402,192,23292,1,0,0:0:0:0:
109,192,23523,1,2,0:0:0:0:
329,192,23523,1,0,0:0:0:0:
182,192,23638,1,2,0:0:0:0:
109,192,23754,1,0,0:0:0:0:
36,192,23985,1,0,0:0:0:0:
182,192,23985,1,2,0:0:0:0:
329,192,24215,1,0,0:0:0:0:
182,192,24331,1,2,0:0:0:0:
36,192,24331,1,0,0:0:0:0:
329,192,24561,1,2,0:0:0:0:
182,192,24677,1,0,0:0:0:0:
36,192,24677,1,0,0:0:0:0:
329,192,24908,1,0,0:0:0:0:
109,192,24908,1,2,0:0:0:0:
182,192,25023,1,2,0:0:0:0:
109,192,25138,1,0,0:0:0:0:
402,192,25369,1,2,0:0:0:0:
182,192,25369,1,0,0:0:0:0:
329,192,25485,1,2,0:0:0:0:
402,192,25600,1,0,0:0:0:0:
109,192,25831,1,0,0:0:0:0:
182,192,25831,1,2,0:0:0:0:
329,192,26061,1,0,0:0:0:0:
182,192,26177,1,2,0:0:0:0:
109,192,26177,1,0,0:0:0:0:
329,192,26408,1,2,0:0:0:0:
182,192,26523,1,0,0:0:0:0:
109,192,26523,1,0,0:0:0:0:
329,192,26754,1,2,0:0:0:0:
475,192,26754,1,0,0:0:0:0:
182,192,26869,1,2,0:0:0:0:
329,192,26985,1,0,0:0:0:0:
182,192,27215,1,2,0:0:0:0:
36,192,27215,1,0,0:0:0:0:
329,192,27331,1,2,0:0:0:0:
182,192,27446,1,0,0:0:0:0:
329,192,27677,1,2,0:0:0:0:
402,192,27677,1,0,0:0:0:0:
182,192,27908,1,0,0:0:0:0:
329,192,28023,1,2,0:0:0:0:
402,192,28023,1,0,0:0:0:0:
182,192,28254,1,2,0:0:0:0:
329,192,28369,1,0,0:0:0:0:
402,192,28369,1,0,0:0:0:0:
36,192,28600,1,0,0:0:0:0:
182,192,28600,1,2,0:0:0:0:
329,192,28715,1,2,0:0:0:0:
182,192,28831,1,0,0:0:0:0:
402,192,29061,1,2,0:0:0:0:
256,192,29061,1,0,0:0:0:0:
109,192,29177,1,2,0:0:0:0:
402,192,29292,128,2,29523:0:0:0:0:
36,192,29523,1,2,0:0:0:0:
182,192,29523,1,0,0:0:0:0:
402,192,29754,1,0,0:0:0:0:
109,192,29869,1,2,0:0:0:0:
256,192,29869,1,0,0:0:0:0:
475,192,30100,1,2,0:0:0:0:
329,192,30215,1,0,0:0:0:0:
182,192,30215,1,0,0:0:0:0:
182,192,30446,1,0,0:0:0:0:
329,192,30446,1,2,0:0:0:0:
402,192,30561,1,2,0:0:0:0:
475,192,30677,1,0,0:0:0:0:
182,192,30908,1,2,0:0:0:0:
329,192,30908,1,0,0:0:0:0:
109,192,31023,1,2,0:0:0:0:
36,192,31138,1,0,0:0:0:0:
329,192,31369,1,2,0:0:0:0:
475,192,31369,1,0,0:0:0:0:
182,192,31600,1,0,0:0:0:0:
256,192,31715,1,2,0:0:0:0:
402,192,31715,1,0,0:0:0:0:
109,192,31946,1,2,0:0:0:0:
182,192,32061,1,0,0:0:0:0:
329,192,32061,1,0,0:0:0:0:
109,192,32292,1,0,0:0:0:0:
256,192,32292,1,2,0:0:0:0:
329,192,32408,1,2,0:0:0:0:
402,192,32523,1,0,0:0:0:0:
329,192,32754,1,0,0:0:0:0:
182,192,32754,1,2,0:0:0:0:
402,192,32869,1,2,0:0:0:0:
475,192,32985,1,0,0:0:0:0:
36,192,33215,1,0,0:0:0:0:
329,192,33215,1,2,0:0:0:0:
256,192,33446,1,0,0:0:0:0:
109,192,33561,1,2,0:0:0:0:
402,192,33561,1,0,0:0:0:0:
329,192,33792,1,2,0:0:0:0:
182,192,33908,1,0,0:0:0:0:
475,192,33908,1,0,0:0:0:0:
36,192,34138,1,0,0:0:0:0:
109,192,34138,1,2,0:0:0:0:
256,192,34254,1,2,0:0:0:0:
402,192,34369,1,0,0:0:0:0:
329,192,34600,1,2,0:0:0:0:
475,192,34600,1,0,0:0:0:0:
182,192,34715,1,2,0:0:0:0:
36,192,34831,1,0,0:0:0:0:
256,192,35061,1,2,0:0:0:0:
402,192,35061,1,0,0:0:0:0:
109,192,35292,1,0,0:0:0:0:
256,192,35408,1,2,0:0:0:0:
402,192,35408,1,0,0:0:0:0:
109,192,35638,1,2,0:0:0:0:
256,192,35754,1,0,0:0:0:0:
402,192,35754,1,0,0:0:0:0:
475,192,35985,1,2,0:0:0:0:
329,192,35985,1,0,0:0:0:0:
182,192,36100,1,2,0:0:0:0:
256,192,36215,1,0,0:0:0:0:
329,192,36331,1,0,0:0:0:0:
36,192,36446,1,0,0:0:0:0:
182,192,36446,1,2,0:0:0:0:
329,192,36561,1,2,0:0:0:0:
256,192,36677,128,2,36908:0:0:0:0:
109,192,36908,1,2,0:0:0:0:
402,192,36908,1,0,0:0:0:0:
182,192,37138,1,0,0:0:0:0:
109,192,37254,1,2,0:0:0:0:
402,192,37254,1,0,0:0:0:0:
329,192,37485,1,2,0:0:0:0:
402,192,37600,1,0,0:0:0:0:
109,192,37600,1,0,0:0:0:0:
402,192,37831,1,0,0:0:0:0:
329,192,37831,1,2,0:0:0:0:
256,192,37946,1,2,0:0:0:0:
182,192,38061,1,0,0:0:0:0:
109,192,38292,1,0,0:0:0:0:
182,192,38292,1,2,0:0:0:0:
256,192,38408,1,2,0:0:0:0:
329,192,38523,1,0,0:0:0:0:
182,192,38754,1,2,0:0:0:0:
329,192,38754,1,0,0:0:0:0:
109,192,38985,1,0,0:0:0:0:
182,192,39100,1,2,0:0:0:0:
329,192,39100,1,0,0:0:0:0:
402,192,39331,1,2,0:0:0:0:
329,192,39446,1,0,0:0:0:0:
182,192,39446,1,0,0:0:0:0:
402,192,39677,1,2,0:0:0:0:
475,192,39677,1,0,0:0:0:0:
256,192,39792,1,2,0:0:0:0:
109,192,39908,1,0,0:0:0:0:
36,192,40138,1,0,0:0:0:0:
109,192,40138,1,2,0:0:0:0:
256,192,40254,1,2,0:0:0:0:
402,192,40369,1,0,0:0:0:0:
36,192,40600,1,2,0:0:0:0:
402,192,40600,1,0,0:0:0:0:
109,192,40715,1,0,0:0:0:0:
182,192,40831,1,0,0:0:0:0:
256,192,40946,1,2,0:0:0:0:
109,192,41061,1,0,0:0:0:0:
182,192,41177,1,2,0:0:0:0:
402,192,41292,1,0,0:0:0:0:
329,192,41408,1,0,0:0:0:0:
475,192,41523,1,2,0:0:0:0:
402,192,41638,1,2,0:0:0:0:
329,192,41754,1,0,0:0:0:0:
256,192,41869,1,0,0:0:0:0:
402,192,41985,1,2,0:0:0:0:
329,192,42100,1,2,0:0:0:0:
256,192,42215,1,0,0:0:0:0:
182,192,42331,1,0,0:0:0:0:
109,192,42446,1,2,0:0:0:0:
402,192,42446,1,0,0:0:0:0:
182,192,42561,1,0,0:0:0:0:
329,192,42677,1,0,0:0:0:0:
402,192,42792,1,2,0:0:0:0:
36,192,42908,1,0,0:0:0:0:
182,192,43023,1,2,0:0:0:0:
329,192,43138,1,0,0:0:0:0:
182,192,43254,1,0,0:0:0:0:
402,192,43369,1,2,0:0:0:0:
256,192,43485,1,2,0:0:0:0:
109,192,43600,1,0,0:0:0:0:
256,192,43715,1,0,0:0:0:0:
402,192,43831,1,2,0:0:0:0:
329,192,43946,1,2,0:0:0:0:
182,192,44061,1,0,0:0:0:0:
109,192,44177,1,0,0:0:0:0:
36,192,44292,1,2,0:0:0:0:
475,192,44292,1,0,0:0:0:0:
329,192,44523,1,0,0:0:0:0:
182,192,44638,1,2,0:0:0:0:
256,192,44754,1,0,0:0:0:0:
109,192,44869,1,2,0:0:0:0:
402,192,44985,1,0,0:0:0:0:
36,192,45100,1,0,0:0:0:0:
475,192,45215,128,0,47985:0:0:0:0:
329,192,45215,1,2,0:0:0:0:
182,192,45331,1,2,0:0:0:0:
329,192,45446,1,0,0:0:0:0:
109,192,45677,1,2,0:0:0:0:
256,192,45792,1,2,0:0:0:0:
109,192,45908,1,0,0:0:0:0:
182,192,46138,1,2,0:0:0:0:
329,192,46138,1,0,0:0:0:0:
36,192,46369,1,0,0:0:0:0:
182,192,46485,1,2,0:0:0:0:
256,192,46600,1,0,0:0:0:0:
109,192,46715,1,2,0:0:0:0:
329,192,46831,1,0,0:0:0:0:
109,192,46946,1,0,0:0:0:0:
36,192,47061,128,0,47985:0:0:0:0:
402,192,47061,1,2,0:0:0:0:
182,192,47177,1,2,0:0:0:0:
402,192,47292,1,0,0:0:0:0:
182,192,47523,1,2,0:0:0:0:
329,192,47638,1,2,0:0:0:0:
182,192,47754,1,0,0:0:0:0:
402,192,47985,1,2,0:0:0:0:
109,192,47985,1,0,0:0:0:0:
182,192,48100,1,0,0:0:0:0:
256,192,48215,1,0,0:0:0:0:
329,192,48331,1,2,0:0:0:0:
109,192,48446,1,0,0:0:0:0:
182,192,48561,1,2,0:0:0:0:
329,192,48677,1,0,0:0:0:0:
182,192,48792,1,0,0:0:0:0:
402,192,48908,1,2,0:0:0:0:
329,192,49023,1,2,0:0:0:0:
256,192,49138,1,0,0:0:0:0:
182,192,49254,1,0,0:0:0:0:
329,192,49369,1,2,0:0:0:0:
256,192,49485,1,2,0:0:0:0:
182,192,49600,1,0,0:0:0:0:
109,192,49715,1,0,0:0:0:0:
256,192,49831,1,2,0:0:0:0:
402,192,49831,1,0,0:0:0:0:
109,192,49946,1,0,0:0:0:0:
182,192,50061,1,0,0:0:0:0:
402,192,50177,1,2,0:0:0:0:
182,192,50292,1,0,0:0:0:0:
329,192,50408,1,2,0:0:0:0:
402,192,50523,1,0,0:0:0:0:
182,192,50638,1,0,0:0:0:0:
475,192,50754,1,2,0:0:0:0:
329,192,50869,1,2,0:0:0:0:
256,192,50985,1,0,0:0:0:0:
182,192,51100,1,0,0:0:0:0:
402,192,51215,1,2,0:0:0:0:
256,192,51331,1,2,0:0:0:0:
182,192,51446,1,0,0:0:0:0:
109,192,51561,1,0,0:0:0:0:
475,192,51677,128,0,53061:0:0:0:0:
36,192,51677,128,0,52138:0:0:0:0:
256,192,51677,1,2,0:0:0:0:
182,192,52138,128,0,52600:0:0:0:0:
36,192,52600,128,2,53985:0:0:0:0:
329,192,53061,128,2,53523:0:0:0:0:
475,192,53523,128,2,54908:0:0:0:0:
182,192,53985,128,0,54446:0:0:0:0:
36,192,54446,128,2,55831:0:0:0:0:
329,192,54908,128,2,55369:0:0:0:0:
475,192,55369,128,2,56754:0:0:0:0:
182,192,55831,128,0,56292:0:0:0:0:
36,192,56292,128,2,57677:0:0:0:0:
329,192,56754,128,2,57215:0:0:0:0:
475,192,57215,128,2,58138:0:0:0:0:
182,192,57677,128,0,58138:0:0:0:0:
402,192,58138,128,2,58600:0:0:0:0:
36,192,58138,128,0,59061:0:0:0:0:
329,192,58600,128,2,59061:0:0:0:0:
475,192,59061,128,0,59523:0:0:0:0:
182,192,59061,1,2,0:0:0:0:
256,192,59292,1,0,0:0:0:0:
36,192,59523,128,0,59985:0:0:0:0:
329,192,59523,1,0,0:0:0:0:
402,192,59754,1,0,0:0:0:0:
329,192,59985,128,0,60446:0:0:0:0:
182,192,59985,1,2,0:0:0:0:
402,192,60215,1,0,0:0:0:0:
182,192,60446,128,0,60908:0:0:0:0:
109,192,60446,1,2,0:0:0:0:
329,192,60677,1,0,0:0:0:0:
475,192,60908,128,0,61369:0:0:0:0:
36,192,60908,1,2,0:0:0:0:
182,192,61138,1,0,0:0:0:0:
36,192,61369,128,0,61831:0:0:0:0:
329,192,61369,1,0,0:0:0:0:
475,192,61600,1,0,0:0:0:0:
329,192,61831,128,0,62292:0:0:0:0:
182,192,61831,1,2,0:0:0:0:
402,192,62061,1,0,0:0:0:0:
182,192,62292,128,0,62754:0:0:0:0:
109,192,62292,1,2,0:0:0:0:
329,192,62523,1,0,0:0:0:0:
475,192,62754,128,0,63215:0:0:0:0:
36,192,62754,1,2,0:0:0:0:
182,192,62985,1,0,0:0:0:0:
36,192,63215,128,0,63677:0:0:0:0:
329,192,63215,1,0,0:0:0:0:
475,192,63446,1,0,0:0:0:0:
329,192,63677,128,0,64138:0:0:0:0:
182,192,63677,1,2,0:0:0:0:
36,192,63908,1,0,0:0:0:0:
182,192,64138,128,0,64600:0:0:0:0:
475,192,64138,1,2,0:0:0:0:
329,192,64369,1,0,0:0:0:0:
475,192,64600,128,0,65061:0:0:0:0:
402,192,64600,1,2,0:0:0:0:
109,192,64831,1,0,0:0:0:0:
36,192,65061,128,0,65523:0:0:0:0:
329,192,65061,1,0,0:0:0:0:
182,192,65292,1,0,0:0:0:0:
402,192,65523,128,0,65985:0:0:0:0:
329,192,65523,1,2,0:0:0:0:
182,192,65754,1,0,0:0:0:0:
109,192,65985,128,0,66446:0:0:0:0:
329,192,65985,1,2,0:0:0:0:
182,192,66215,1,0,0:0:0:0:
329,192,66446,1,2,0:0:0:0:
475,192,66446,1,0,0:0:0:0:
182,192,66677,1,0,0:0:0:0:
256,192,66792,1,2,0:0:0:0:
402,192,66792,1,0,0:0:0:0:
109,192,67023,1,2,0:0:0:0:
182,192,67138,1,0,0:0:0:0:
329,192,67138,1,0,0:0:0:0:
36,192,67369,1,0,0:0:0:0:
182,192,67369,1,2,0:0:0:0:
329,192,67485,1,2,0:0:0:0:
182,192,67600,1,0,0:0:0:0:
329,192,67831,1,2,0:0:0:0:
475,192,67831,1,0,0:0:0:0:
182,192,67946,1,2,0:0:0:0:
329,192,68061,1,0,0:0:0:0:
36,192,68292,1,2,0:0:0:0:
182,192,68292,1,0,0:0:0:0:
329,192,68523,1,0,0:0:0:0:
256,192,68638,1,0,0:0:0:0:
109,192,68638,1,2,0:0:0:0:
402,192,68869,1,2,0:0:0:0:
329,192,68985,1,0,0:0:0:0:
182,192,68985,1,0,0:0:0:0:
329,192,69215,1,2,0:0:0:0:
475,192,69215,1,0,0:0:0:0:
182,192,69331,1,2,0:0:0:0:
329,192,69446,1,0,0:0:0:0:
36,192,69677,1,0,0:0:0:0:
182,192,69677,1,2,0:0:0:0:
329,192,69792,1,2,0:0:0:0:
182,192,69908,1,0,0:0:0:0:
256,192,70138,1,2,0:0:0:0:
109,192,70254,1,0,0:0:0:0:
182,192,70369,1,0,0:0:0:0:
329,192,70485,1,2,0:0:0:0:
182,192,70600,1,0,0:0:0:0:
256,192,70715,1,2,0:0:0:0:
329,192,70831,1,0,0:0:0:0:
36,192,70946,1,0,0:0:0:0:
402,192,71061,1,2,0:0:0:0:
329,192,71177,1,2,0:0:0:0:
256,192,71292,1,0,0:0:0:0:
109,192,71408,1,0,0:0:0:0:
329,192,71523,1,2,0:0:0:0:
256,192,71638,1,2,0:0:0:0:
182,192,71754,1,0,0:0:0:0:
36,192,71869,1,0,0:0:0:0:
256,192,71985,1,2,0:0:0:0:
109,192,72100,1,0,0:0:0:0:
182,192,72215,1,0,0:0:0:0:
329,192,72331,1,2,0:0:0:0:
182,192,72446,1,0,0:0:0:0:
256,192,72561,1,2,0:0:0:0:
402,192,72677,1,0,0:0:0:0:
329,192,72792,1,0,0:0:0:0:
475,192,72908,1,2,0:0:0:0:
402,192,73023,1,2,0:0:0:0:
329,192,73138,1,0,0:0:0:0:
182,192,73254,1,0,0:0:0:0:
402,192,73369,1,2,0:0:0:0:
329,192,73485,1,2,0:0:0:0:
182,192,73600,1,0,0:0:0:0:
109,192,73715,1,0,0:0:0:0:
475,192,73831,1,2,0:0:0:0:
36,192,73831,1,0,0:0:0:0:
256,192,74061,1,0,0:0:0:0:
109,192,74177,1,2,0:0:0:0:
402,192,74177,1,0,0:0:0:0:
256,192,74408,1,2,0:0:0:0:
182,192,74523,1,0,0:0:0:0:
329,192,74523,1,0,0:0:0:0:
109,192,74754,1,2,0:0:0:0:
402,192,74754,1,0,0:0:0:0:
182,192,74869,1,2,0:0:0:0:
256,192,74985,1,0,0:0:0:0:
109,192,75215,1,0,0:0:0:0:
402,192,75215,1,2,0:0:0:0:
329,192,75331,1,2,0:0:0:0:
256,192,75446,1,0,0:0:0:0:
182,192,75677,1,2,0:0:0:0:
329,192,75677,1,0,0:0:0:0:
256,192,75908,1,0,0:0:0:0:
109,192,76023,1,2,0:0:0:0:
402,192,76023,1,0,0:0:0:0:
256,192,76254,1,2,0:0:0:0:
36,192,76369,1,0,0:0:0:0:
475,192,76369,1,0,0:0:0:0:
182,192,76600,1,2,0:0:0:0:
109,192,76600,1,0,0:0:0:0:
329,192,76715,1,2,0:0:0:0:
402,192,76831,1,0,0:0:0:0:
329,192,77061,1,2,0:0:0:0:
402,192,77061,1,0,0:0:0:0:
182,192,77177,1,2,0:0:0:0:
109,192,77292,1,0,0:0:0:0:
256,192,77523,1,0,0:0:0:0:
109,192,77638,1,0,0:0:0:0:
182,192,77754,1,0,0:0:0:0:
402,192,77869,1,0,0:0:0:0:
182,192,77985,1,0,0:0:0:0:
329,192,78100,1,0,0:0:0:0:
402,192,78215,1,0,0:0:0:0:
256,192,78331,1,0,0:0:0:0:
475,192,78446,1,0,0:0:0:0:
402,192,78561,1,0,0:0:0:0:
329,192,78677,1,0,0:0:0:0:
182,192,78792,1,0,0:0:0:0:
402,192,78908,1,0,0:0:0:0:
329,192,79023,1,0,0:0:0:0:
182,192,79138,1,0,0:0:0:0:
109,192,79254,1,0,0:0:0:0:
256,192,79369,1,0,0:0:0:0:
36,192,79485,1,0,0:0:0:0:
109,192,79600,1,0,0:0:0:0:
329,192,79715,1,0,0:0:0:0:
182,192,79831,1,0,0:0:0:0:
329,192,79946,1,0,0:0:0:0:
402,192,80061,1,0,0:0:0:0:
182,192,80177,1,0,0:0:0:0:
475,192,80292,1,2,0:0:0:0:
402,192,80408,1,2,0:0:0:0:
329,192,80523,1,2,0:0:0:0:
182,192,80638,1,2,0:0:0:0:
329,192,80754,1,8,0:0:0:0:
475,192,80754,1,2,0:0:0:0:
182,192,80869,1,8,0:0:0:0:
36,192,80869,1,2,0:0:0:0:
329,192,80985,1,8,0:0:0:0:
475,192,80985,1,2,0:0:0:0:
36,192,81100,1,2,0:0:0:0:
182,192,81100,1,8,0:0:0:0:
475,192,81215,128,2,83061:0:0:0:0:
329,192,81215,1,4,0:0:0:0:
109,192,81446,1,0,0:0:0:0:
256,192,81792,1,2,0:0:0:0:
109,192,81908,1,0,0:0:0:0:
329,192,82138,128,0,83061:0:0:0:0:
256,192,82138,1,2,0:0:0:0:
109,192,82369,1,0,0:0:0:0:
256,192,82715,1,2,0:0:0:0:
109,192,82831,1,0,0:0:0:0:
36,192,83061,128,0,84908:0:0:0:0:
256,192,83061,1,2,0:0:0:0:
402,192,83292,1,0,0:0:0:0:
256,192,83638,1,2,0:0:0:0:
402,192,83754,1,0,0:0:0:0:
182,192,83985,128,0,84908:0:0:0:0:
256,192,83985,1,2,0:0:0:0:
402,192,84215,1,0,0:0:0:0:
329,192,84331,1,2,0:0:0:0:
256,192,84561,1,2,0:0:0:0:
402,192,84677,1,0,0:0:0:0:
329,192,84792,1,2,0:0:0:0:
475,192,84908,128,0,86754:0:0:0:0:
256,192,84908,1,2,0:0:0:0:
109,192,85138,1,0,0:0:0:0:
256,192,85485,1,2,0:0:0:0:
109,192,85600,1,0,0:0:0:0:
402,192,85831,128,0,86754:0:0:0:0:
256,192,85831,1,2,0:0:0:0:
109,192,86061,1,0,0:0:0:0:
256,192,86408,1,2,0:0:0:0:
109,192,86523,1,0,0:0:0:0:
36,192,86754,128,0,88600:0:0:0:0:
256,192,86754,1,2,0:0:0:0:
475,192,86985,1,0,0:0:0:0:
256,192,87331,1,2,0:0:0:0:
475,192,87446,1,0,0:0:0:0:
109,192,87677,128,0,88600:0:0:0:0:
256,192,87677,1,2,0:0:0:0:
475,192,87908,1,0,0:0:0:0:
329,192,88023,1,2,0:0:0:0:
256,192,88254,1,2,0:0:0:0:
475,192,88369,1,0,0:0:0:0:
329,192,88485,1,2,0:0:0:0:
402,192,88600,128,0,90446:0:0:0:0:
256,192,88600,1,2,0:0:0:0:
36,192,88831,1,0,0:0:0:0:
256,192,89177,1,2,0:0:0:0:
36,192,89292,1,0,0:0:0:0:
329,192,89523,128,0,90446:0:0:0:0:
256,192,89523,1,2,0:0:0:0:
36,192,89754,1,0,0:0:0:0:
256,192,90100,1,2,0:0:0:0:
36,192,90215,1,0,0:0:0:0:
109,192,90446,128,0,92292:0:0:0:0:
256,192,90446,1,2,0:0:0:0:
329,192,90677,1,0,0:0:0:0:
256,192,91023,1,2,0:0:0:0:
329,192,91138,1,0,0:0:0:0:
182,192,91369,128,0,92292:0:0:0:0:
256,192,91369,1,2,0:0:0:0:
402,192,91600,1,0,0:0:0:0:
329,192,91715,1,2,0:0:0:0:
256,192,91946,1,2,0:0:0:0:
402,192,92061,1,0,0:0:0:0:
329,192,92177,1,2,0:0:0:0:
256,192,92292,1,2,0:0:0:0:
475,192,92292,128,0,94138:0:0:0:0:
182,192,92523,1,0,0:0:0:0:
256,192,92869,1,2,0:0:0:0:
182,192,92985,1,0,0:0:0:0:
36,192,93215,128,0,94138:0:0:0:0:
256,192,93215,1,2,0:0:0:0:
182,192,93446,1,0,0:0:0:0:
256,192,93792,1,2,0:0:0:0:
182,192,93908,1,0,0:0:0:0:
402,192,94138,128,0,95985:0:0:0:0:
256,192,94138,1,2,0:0:0:0:
182,192,94369,1,0,0:0:0:0:
256,192,94715,1,2,0:0:0:0:
182,192,94831,1,0,0:0:0:0:
109,192,95061,128,0,95985:0:0:0:0:
256,192,95061,1,2,0:0:0:0:
182,192,95292,1,0,0:0:0:0:
329,192,95408,1,2,0:0:0:0:
182,192,95638,1,2,0:0:0:0:
256,192,95754,128,2,95985:0:0:0:0:
329,192,95985,1,2,0:0:0:0:
475,192,95985,1,4,0:0:0:0:
256,192,96215,1,2,0:0:0:0:
402,192,96215,1,0,0:0:0:0:
182,192,96446,1,2,0:0:0:0:
329,192,96446,1,0,0:0:0:0:
182,192,96677,1,2,0:0:0:0:
36,192,96677,1,0,0:0:0:0:
475,192,96792,1,0,0:0:0:0:
329,192,96792,1,2,0:0:0:0:
182,192,96908,1,2,0:0:0:0:
36,192,96908,1,0,0:0:0:0:
329,192,97138,1,2,0:0:0:0:
475,192,97138,1,0,0:0:0:0:
329,192,97369,1,2,0:0:0:0:
475,192,97369,1,0,0:0:0:0:
36,192,97600,1,2,0:0:0:0:
182,192,97600,1,0,0:0:0:0:
402,192,97831,1,2,0:0:0:0:
256,192,97831,1,0,0:0:0:0:
182,192,98061,1,0,0:0:0:0:
329,192,98061,1,2,0:0:0:0:
109,192,98292,1,0,0:0:0:0:
256,192,98292,1,2,0:0:0:0:
475,192,98523,1,0,0:0:0:0:
329,192,98523,1,2,0:0:0:0:
182,192,98638,1,2,0:0:0:0:
36,192,98638,1,0,0:0:0:0:
329,192,98754,1,2,0:0:0:0:
475,192,98754,1,0,0:0:0:0:
109,192,98985,1,0,0:0:0:0:
182,192,98985,1,2,0:0:0:0:
182,192,99215,1,2,0:0:0:0:
109,192,99215,1,0,0:0:0:0:
329,192,99331,1,2,0:0:0:0:
402,192,99331,1,0,0:0:0:0:
182,192,99446,1,2,0:0:0:0:
109,192,99446,1,0,0:0:0:0:
329,192,99561,1,2,0:0:0:0:
402,192,99561,1,0,0:0:0:0:
36,192,99677,1,0,0:0:0:0:
109,192,99677,1,2,0:0:0:0:
329,192,99908,1,2,0:0:0:0:
256,192,99908,1,0,0:0:0:0:
109,192,100138,1,2,0:0:0:0:
182,192,100138,1,0,0:0:0:0:
329,192,100369,1,2,0:0:0:0:
402,192,100369,1,0,0:0:0:0:
182,192,100485,1,2,0:0:0:0:
109,192,100485,1,0,0:0:0:0:
402,192,100600,1,2,0:0:0:0:
475,192,100600,1,0,0:0:0:0:
182,192,100831,1,2,0:0:0:0:
256,192,100831,1,0,0:0:0:0:
402,192,101061,1,2,0:0:0:0:
329,192,101061,1,0,0:0:0:0:
109,192,101292,1,2,0:0:0:0:
182,192,101292,1,0,0:0:0:0:
182,192,101523,1,2,0:0:0:0:
329,192,101523,1,0,0:0:0:0:
109,192,101754,1,2,0:0:0:0:
402,192,101754,1,0,0:0:0:0:
182,192,101985,1,2,0:0:0:0:
329,192,101985,1,0,0:0:0:0:
109,192,102215,1,2,0:0:0:0:
402,192,102215,1,0,0:0:0:0:
182,192,102331,1,2,0:0:0:0:
329,192,102331,1,0,0:0:0:0:
36,192,102446,1,2,0:0:0:0:
475,192,102446,1,0,0:0:0:0:
182,192,102677,1,2,0:0:0:0:
329,192,102677,1,0,0:0:0:0:
182,192,102908,1,2,0:0:0:0:
329,192,102908,1,0,0:0:0:0:
36,192,103023,1,2,0:0:0:0:
475,192,103023,1,0,0:0:0:0:
329,192,103138,1,0,0:0:0:0:
182,192,103138,1,2,0:0:0:0:
36,192,103254,1,2,0:0:0:0:
475,192,103254,1,0,0:0:0:0:
182,192,103369,1,2,0:0:0:0:
329,192,103369,1,0,0:0:0:0:
109,192,103600,1,2,0:0:0:0:
256,192,103600,1,0,0:0:0:0:
182,192,103831,1,2,0:0:0:0:
36,192,103831,1,0,0:0:0:0:
329,192,104061,1,2,0:0:0:0:
402,192,104061,1,0,0:0:0:0:
182,192,104177,1,2,0:0:0:0:
109,192,104177,1,0,0:0:0:0:
329,192,104292,1,2,0:0:0:0:
402,192,104292,1,0,0:0:0:0:
36,192,104523,1,2,0:0:0:0:
182,192,104523,1,0,0:0:0:0:
109,192,104754,1,2,0:0:0:0:
256,192,104754,1,0,0:0:0:0:
182,192,104985,1,2,0:0:0:0:
329,192,104985,1,0,0:0:0:0:
182,192,105215,1,2,0:0:0:0:
329,192,105215,1,0,0:0:0:0:
256,192,105446,1,2,0:0:0:0:
402,192,105446,1,0,0:0:0:0:
329,192,105677,1,2,0:0:0:0:
475,192,105677,1,0,0:0:0:0:
109,192,105908,1,0,0:0:0:0:
182,192,105908,1,2,0:0:0:0:
329,192,106023,1,2,0:0:0:0:
402,192,106023,1,0,0:0:0:0:
182,192,106138,1,2,0:0:0:0:
109,192,106138,1,0,0:0:0:0:
329,192,106369,1,2,0:0:0:0:
475,192,106369,1,0,0:0:0:0:
109,192,106600,1,0,0:0:0:0:
182,192,106600,1,2,0:0:0:0:
329,192,106715,1,2,0:0:0:0:
402,192,106715,1,0,0:0:0:0:
109,192,106831,1,0,0:0:0:0:
182,192,106831,1,2,0:0:0:0:
329,192,106946,1,2,0:0:0:0:
402,192,106946,1,0,0:0:0:0:
36,192,107061,1,0,0:0:0:0:
109,192,107061,1,2,0:0:0:0:
475,192,107177,1,2,0:0:0:0:
36,192,107292,1,0,0:0:0:0:
109,192,107292,1,2,0:0:0:0:
402,192,107408,1,2,0:0:0:0:
109,192,107523,1,2,0:0:0:0:
36,192,107523,1,0,0:0:0:0:
329,192,107638,1,2,0:0:0:0:
109,192,107754,1,2,0:0:0:0:
36,192,107754,1,0,0:0:0:0:
256,192,107869,1,2,0:0:0:0:
402,192,107985,1,2,0:0:0:0:
475,192,107985,1,0,0:0:0:0:
36,192,108100,1,2,0:0:0:0:
402,192,108215,1,2,0:0:0:0:
475,192,108215,1,0,0:0:0:0:
109,192,108331,1,2,0:0:0:0:
402,192,108446,1,2,0:0:0:0:
475,192,108446,1,0,0:0:0:0:
182,192,108561,1,2,0:0:0:0:
402,192,108677,1,2,0:0:0:0:
475,192,108677,1,0,0:0:0:0:
256,192,108792,1,2,0:0:0:0:
109,192,108908,1,2,0:0:0:0:
182,192,109023,1,2,0:0:0:0:
329,192,109138,1,2,0:0:0:0:
402,192,109254,1,2,0:0:0:0:
182,192,109369,1,2,0:0:0:0:
109,192,109485,1,2,0:0:0:0:
402,192,109600,1,2,0:0:0:0:
329,192,109715,1,2,0:0:0:0:
109,192,109831,1,2,0:0:0:0:
182,192,109946,1,2,0:0:0:0:
402,192,110061,1,2,0:0:0:0:
329,192,110177,1,2,0:0:0:0:
109,192,110292,1,2,0:0:0:0:
182,192,110350,1,2,0:0:0:0:
402,192,110408,1,2,0:0:0:0:
329,192,110465,1,2,0:0:0:0:
109,192,110523,1,2,0:0:0:0:
182,192,110581,1,2,0:0:0:0:
402,192,110638,1,2,0:0:0:0:
329,192,110696,1,2,0:0:0:0:
256,192,110754,128,2,111100:0:0:0:0:
36,192,110754,1,4,0:0:0:0:
256,192,112138,128,0,112600:0:0:0:0:
36,192,112600,1,4,0:0:0:0:
402,192,112600,1,2,0:0:0:0:
475,192,112600,1,0,0:0:0:0:
182,192,112831,1,2,0:0:0:0:
109,192,112831,1,0,0:0:0:0:
402,192,112946,1,2,0:0:0:0:
329,192,112946,1,4,0:0:0:0:
256,192,112946,1,0,0:0:0:0:
329,192,113177,1,2,0:0:0:0:
402,192,113177,1,0,0:0:0:0:
256,192,113292,1,0,0:0:0:0:
109,192,113292,1,4,0:0:0:0:
182,192,113292,1,2,0:0:0:0:
329,192,113523,1,4,0:0:0:0:
109,192,113523,1,2,0:0:0:0:
182,192,113523,1,0,0:0:0:0:
402,192,113523,1,0,0:0:0:0:
