osu file format v14

[General]
AudioFilename: The Limit Does Not Exist.mp3
AudioLeadIn: 0
PreviewTime: 7369
Countdown: 0
SampleSet: Normal
StackLeniency: 0.7
Mode: 3
LetterboxInBreaks: 0
SpecialStyle: 0
WidescreenStoryboard: 0

[Editor]
DistanceSpacing: 1.8
BeatDivisor: 4
GridSize: 16
TimelineZoom: 2.4

[Metadata]
Title:The Limit Does Not Exist
TitleUnicode:The Limit Does Not Exist
Artist:Cardboard Box
ArtistUnicode:Cardboard Box
Creator:iJinjin
Version:Easy
Source:
Tags:tristan97 jinjin chiptune 8bit tachyon epsilon stepmania itg in the groove tldne
BeatmapID:856252
BeatmapSetID:379758

[Difficulty]
HPDrainRate:7.2
CircleSize:7
OverallDifficulty:7
ApproachRate:5
SliderMultiplier:1.4
SliderTickRate:1

[Events]
//Background and Video events
0,0,"the limit does not exist bg.jpg",0,0
//Break Periods
//Storyboard Layer 0 (Background)
//Storyboard Layer 1 (Fail)
//Storyboard Layer 2 (Pass)
//Storyboard Layer 3 (Foreground)
//Storyboard Sound Samples

[TimingPoints]
-15,230.769230769231,4,1,1,30,1,0
95985,-100,4,1,1,30,0,1
110754,-100,4,1,1,30,0,0

[HitObjects]
329,192,1831,5,2,0:0:0:0:
329,192,2754,1,2,0:0:0:0:
182,192,3215,1,2,0:0:0:0:
329,192,3677,1,2,0:0:0:0:
329,192,4600,1,2,0:0:0:0:
182,192,5061,1,2,0:0:0:0:
329,192,5523,1,2,0:0:0:0:
329,192,6446,1,2,0:0:0:0:
182,192,6908,1,2,0:0:0:0:
329,192,7369,1,2,0:0:0:0:
475,192,7369,1,0,0:0:0:0:
329,192,8292,1,2,0:0:0:0:
182,192,8754,1,2,0:0:0:0:
329,192,9215,1,2,0:0:0:0:
475,192,9215,1,0,0:0:0:0:
402,192,10138,1,2,0:0:0:0:
109,192,10600,1,2,0:0:0:0:
475,192,11061,128,2,12908:0:0:0:0:
36,192,12908,128,2,14754:0:0:0:0:
256,192,14754,1,2,0:0:0:0:
475,192,14754,1,0,0:0:0:0:
329,192,15677,1,2,0:0:0:0:
36,192,16138,1,2,0:0:0:0:
329,192,16600,1,2,0:0:0:0:
475,192,16600,1,0,0:0:0:0:
402,192,17523,1,2,0:0:0:0:
109,192,17985,1,2,0:0:0:0:
36,192,18446,128,2,20292:0:0:0:0:
475,192,20292,128,2,22138:0:0:0:0:
182,192,22138,1,2,0:0:0:0:
329,192,22138,1,0,0:0:0:0:
109,192,23061,1,2,0:0:0:0:
109,192,23523,1,2,0:0:0:0:
256,192,23985,1,2,0:0:0:0:
402,192,23985,1,0,0:0:0:0:
182,192,24908,1,2,0:0:0:0:
329,192,25369,1,2,0:0:0:0:
109,192,25831,1,2,0:0:0:0:
256,192,25831,1,0,0:0:0:0:
182,192,26754,1,2,0:0:0:0:
329,192,27215,1,2,0:0:0:0:
402,192,27677,1,2,0:0:0:0:
109,192,27677,1,0,0:0:0:0:
182,192,28600,1,2,0:0:0:0:
329,192,29061,1,2,0:0:0:0:
475,192,29523,1,2,0:0:0:0:
36,192,29523,1,0,0:0:0:0:
182,192,30446,1,2,0:0:0:0:
182,192,30908,1,2,0:0:0:0:
36,192,31369,1,2,0:0:0:0:
475,192,31369,1,0,0:0:0:0:
329,192,32292,1,2,0:0:0:0:
475,192,32754,1,2,0:0:0:0:
182,192,33215,1,2,0:0:0:0:
36,192,33215,1,0,0:0:0:0:
329,192,34138,1,2,0:0:0:0:
329,192,34600,1,2,0:0:0:0:
109,192,35061,1,2,0:0:0:0:
402,192,35061,1,0,0:0:0:0:
329,192,35985,1,2,0:0:0:0:
475,192,36446,1,2,0:0:0:0:
475,192,36908,1,2,0:0:0:0:
36,192,36908,1,0,0:0:0:0:
475,192,37831,1,2,0:0:0:0:
182,192,38292,1,2,0:0:0:0:
329,192,38754,1,2,0:0:0:0:
475,192,38754,1,0,0:0:0:0:
475,192,39677,1,2,0:0:0:0:
182,192,40138,1,2,0:0:0:0:
475,192,40600,128,2,42446:0:0:0:0:
36,192,42446,128,2,44292:0:0:0:0:
329,192,44292,1,2,0:0:0:0:
182,192,44292,1,0,0:0:0:0:
256,192,44754,128,0,47985:0:0:0:0:
475,192,46138,1,2,0:0:0:0:
36,192,47985,1,2,0:0:0:0:
475,192,47985,1,0,0:0:0:0:
256,192,48446,128,0,51677:0:0:0:0:
36,192,49831,1,2,0:0:0:0:
329,192,51677,128,2,53061:0:0:0:0:
36,192,53061,128,2,53523:0:0:0:0:
402,192,53523,128,2,54908:0:0:0:0:
109,192,54908,128,2,55369:0:0:0:0:
475,192,55369,128,2,56754:0:0:0:0:
182,192,56754,128,2,57215:0:0:0:0:
329,192,57215,128,2,58138:0:0:0:0:
256,192,58138,128,2,58600:0:0:0:0:
182,192,58600,128,2,59061:0:0:0:0:
36,192,59061,1,2,0:0:0:0:
329,192,59061,128,0,60446:0:0:0:0:
182,192,60446,128,2,60908:0:0:0:0:
402,192,60908,128,2,62292:0:0:0:0:
109,192,62292,128,2,62754:0:0:0:0:
475,192,62754,128,2,64138:0:0:0:0:
36,192,64138,128,2,64600:0:0:0:0:
329,192,64600,128,2,65523:0:0:0:0:
256,192,65523,128,2,65985:0:0:0:0:
182,192,65985,128,2,66446:0:0:0:0:
36,192,66446,1,2,0:0:0:0:
475,192,66446,1,0,0:0:0:0:
402,192,67369,1,2,0:0:0:0:
109,192,67831,1,2,0:0:0:0:
36,192,68292,1,2,0:0:0:0:
475,192,68292,1,0,0:0:0:0:
329,192,69215,1,2,0:0:0:0:
182,192,69677,1,2,0:0:0:0:
36,192,70138,128,2,71985:0:0:0:0:
475,192,71985,128,2,73831:0:0:0:0:
36,192,73831,1,2,0:0:0:0:
182,192,73831,1,0,0:0:0:0:
329,192,74754,1,2,0:0:0:0:
182,192,75215,1,2,0:0:0:0:
329,192,75677,1,2,0:0:0:0:
475,192,75677,1,0,0:0:0:0:
329,192,76600,1,2,0:0:0:0:
182,192,77061,1,2,0:0:0:0:
36,192,77523,1,0,0:0:0:0:
256,192,77754,1,0,0:0:0:0:
256,192,78215,1,0,0:0:0:0:
256,192,78677,1,0,0:0:0:0:
256,192,79138,1,0,0:0:0:0:
256,192,79600,1,0,0:0:0:0:
256,192,80061,1,0,0:0:0:0:
256,192,80523,1,2,0:0:0:0:
256,192,80754,1,8,0:0:0:0:
475,192,81215,1,2,0:0:0:0:
182,192,81215,128,4,82138:0:0:0:0:
36,192,82138,128,2,83061:0:0:0:0:
256,192,83061,128,2,83985:0:0:0:0:
109,192,83985,128,2,84908:0:0:0:0:
329,192,84908,128,2,85831:0:0:0:0:
182,192,85831,128,2,86754:0:0:0:0:
402,192,86754,128,2,87677:0:0:0:0:
256,192,87677,128,2,88600:0:0:0:0:
475,192,88600,128,2,89523:0:0:0:0:
329,192,89523,128,2,90446:0:0:0:0:
182,192,90446,128,2,91369:0:0:0:0:
36,192,91369,128,2,92292:0:0:0:0:
329,192,92292,128,2,93215:0:0:0:0:
182,192,93215,128,2,94138:0:0:0:0:
475,192,94138,128,2,95061:0:0:0:0:
329,192,95061,128,2,95985:0:0:0:0:
36,192,95985,1,4,0:0:0:0:
182,192,95985,1,2,0:0:0:0:
402,192,96446,1,2,0:0:0:0:
182,192,96908,1,2,0:0:0:0:
36,192,96908,1,0,0:0:0:0:
402,192,97369,1,2,0:0:0:0:
109,192,97831,1,2,0:0:0:0:
182,192,97831,1,0,0:0:0:0:
402,192,98292,1,2,0:0:0:0:
109,192,98754,1,2,0:0:0:0:
182,192,98754,1,0,0:0:0:0:
402,192,99215,1,2,0:0:0:0:
256,192,99446,1,2,0:0:0:0:
402,192,99677,1,2,0:0:0:0:
109,192,99677,1,0,0:0:0:0:
256,192,100138,1,2,0:0:0:0:
402,192,100600,1,2,0:0:0:0:
109,192,100600,1,0,0:0:0:0:
256,192,101061,1,2,0:0:0:0:
475,192,101523,1,2,0:0:0:0:
329,192,101523,1,0,0:0:0:0:
182,192,101985,1,2,0:0:0:0:
475,192,102446,1,2,0:0:0:0:
329,192,102446,1,0,0:0:0:0:
182,192,102908,1,2,0:0:0:0:
329,192,103138,1,2,0:0:0:0:
182,192,103369,1,2,0:0:0:0:
36,192,103369,1,0,0:0:0:0:
402,192,103831,1,2,0:0:0:0:
109,192,104292,1,2,0:0:0:0:
182,192,104292,1,0,0:0:0:0:
256,192,104754,1,2,0:0:0:0:
329,192,105215,1,2,0:0:0:0:
402,192,105215,1,0,0:0:0:0:
182,192,105677,1,2,0:0:0:0:
475,192,106138,1,2,0:0:0:0:
329,192,106138,1,0,0:0:0:0:
109,192,106600,1,2,0:0:0:0:
256,192,106831,1,2,0:0:0:0:
402,192,107061,1,2,0:0:0:0:
109,192,107061,1,0,0:0:0:0:
256,192,107292,1,2,0:0:0:0:
182,192,107523,1,2,0:0:0:0:
329,192,107754,1,2,0:0:0:0:
109,192,107985,1,2,0:0:0:0:
402,192,108215,1,2,0:0:0:0:
36,192,108446,1,2,0:0:0:0:
475,192,108677,1,2,0:0:0:0:
36,192,108908,128,2,110754:0:0:0:0:
475,192,109831,128,2,110754:0:0:0:0:
256,192,110754,1,2,0:0:0:0:
109,192,112600,1,4,0:0:0:0:
402,192,112600,1,2,0:0:0:0:
329,192,112946,1,2,0:0:0:0:
182,192,112946,1,4,0:0:0:0:
182,192,113292,1,4,0:0:0:0:
329,192,113292,1,2,0:0:0:0:
109,192,113523,1,4,0:0:0:0:
402,192,113523,1,2,0:0:0:0:
