osu file format v14

[General]
AudioFilename: The Limit Does Not Exist.mp3
AudioLeadIn: 0
PreviewTime: 7359
Countdown: 0
SampleSet: Normal
StackLeniency: 0.7
Mode: 1
LetterboxInBreaks: 0
WidescreenStoryboard: 1

[Editor]
DistanceSpacing: 1.8
BeatDivisor: 4
GridSize: 32
TimelineZoom: 2.799999

[Metadata]
Title:The Limit Does Not Exist
TitleUnicode:The Limit Does Not Exist
Artist:Cardboard Box
ArtistUnicode:Cardboard Box
Creator:Grimbow
Version:Oni
Source:
Tags:Nwolf chiptune 8bit tldne Dainesl
BeatmapID:1028149
BeatmapSetID:420395

[Difficulty]
HPDrainRate:5
CircleSize:5
OverallDifficulty:6
ApproachRate:5
SliderMultiplier:1.4
SliderTickRate:1

[Events]
//Background and Video events
0,0,"the limit does not exist bg.jpg",0,0
//Break Periods
//Storyboard Layer 0 (Background)
//Storyboard Layer 1 (Fail)
//Storyboard Layer 2 (Pass)
//Storyboard Layer 3 (Foreground)
//Storyboard Sound Samples

[TimingPoints]
-25,230.769230769231,4,1,0,75,1,0
95975,-100,4,1,0,75,0,1
110744,-100,4,1,0,75,0,0

[HitObjects]
256,192,1821,5,0,0:0:0:0:
256,192,2051,1,8,0:0:0:0:
256,192,2167,1,0,0:0:0:0:
256,192,2398,1,0,0:0:0:0:
256,192,2513,1,8,0:0:0:0:
256,192,2744,1,0,0:0:0:0:
256,192,2859,1,0,0:0:0:0:
256,192,2975,1,8,0:0:0:0:
256,192,3205,1,0,0:0:0:0:
256,192,3321,1,0,0:0:0:0:
256,192,3436,1,8,0:0:0:0:
256,192,3667,1,0,0:0:0:0:
256,192,3898,1,8,0:0:0:0:
256,192,4013,1,0,0:0:0:0:
256,192,4244,1,0,0:0:0:0:
256,192,4359,1,8,0:0:0:0:
256,192,4590,1,0,0:0:0:0:
256,192,4705,1,0,0:0:0:0:
256,192,4821,1,8,0:0:0:0:
256,192,5051,1,0,0:0:0:0:
256,192,5167,1,0,0:0:0:0:
256,192,5282,1,8,0:0:0:0:
256,192,5513,1,0,0:0:0:0:
256,192,5744,1,8,0:0:0:0:
256,192,5859,1,0,0:0:0:0:
256,192,6090,1,0,0:0:0:0:
256,192,6205,1,8,0:0:0:0:
256,192,6436,1,0,0:0:0:0:
256,192,6551,1,0,0:0:0:0:
256,192,6667,1,8,0:0:0:0:
256,192,6898,1,0,0:0:0:0:
256,192,7013,1,0,0:0:0:0:
256,192,7128,1,8,0:0:0:0:
256,192,7359,1,0,0:0:0:0:
256,192,7417,1,0,0:0:0:0:
256,192,7475,1,0,0:0:0:0:
256,192,7590,1,8,0:0:0:0:
256,192,7705,1,0,0:0:0:0:
256,192,7763,1,0,0:0:0:0:
256,192,7821,1,0,0:0:0:0:
256,192,7936,1,0,0:0:0:0:
256,192,8051,1,8,0:0:0:0:
256,192,8282,1,0,0:0:0:0:
256,192,8398,1,0,0:0:0:0:
256,192,8513,1,8,0:0:0:0:
256,192,8744,1,0,0:0:0:0:
256,192,8859,1,0,0:0:0:0:
256,192,8975,1,8,0:0:0:0:
256,192,9205,1,0,0:0:0:0:
256,192,9263,1,0,0:0:0:0:
256,192,9321,1,0,0:0:0:0:
256,192,9436,1,8,0:0:0:0:
256,192,9551,1,0,0:0:0:0:
256,192,9609,1,0,0:0:0:0:
256,192,9667,1,0,0:0:0:0:
256,192,9782,1,0,0:0:0:0:
256,192,9898,1,8,0:0:0:0:
256,192,10128,1,0,0:0:0:0:
256,192,10244,1,0,0:0:0:0:
256,192,10359,1,8,0:0:0:0:
256,192,10590,1,0,0:0:0:0:
256,192,10705,1,0,0:0:0:0:
256,192,10821,1,8,0:0:0:0:
256,192,11051,1,8,0:0:0:0:
256,192,11109,1,8,0:0:0:0:
256,192,11167,1,0,0:0:0:0:
256,192,11282,1,8,0:0:0:0:
256,192,11398,1,0,0:0:0:0:
256,192,11455,1,0,0:0:0:0:
256,192,11513,1,0,0:0:0:0:
256,192,11628,1,0,0:0:0:0:
256,192,11744,1,8,0:0:0:0:
256,192,11859,1,0,0:0:0:0:
256,192,11975,1,8,0:0:0:0:
256,192,12090,1,8,0:0:0:0:
256,192,12205,1,0,0:0:0:0:
256,192,12436,1,8,0:0:0:0:
256,192,12551,1,8,0:0:0:0:
256,192,12667,1,0,0:0:0:0:
256,192,12898,1,8,0:0:0:0:
256,192,12955,1,8,0:0:0:0:
256,192,13013,1,0,0:0:0:0:
256,192,13128,1,8,0:0:0:0:
256,192,13244,1,0,0:0:0:0:
256,192,13301,1,0,0:0:0:0:
256,192,13359,1,0,0:0:0:0:
256,192,13475,1,0,0:0:0:0:
256,192,13590,1,8,0:0:0:0:
256,192,13705,1,0,0:0:0:0:
256,192,13821,1,8,0:0:0:0:
256,192,13936,1,8,0:0:0:0:
256,192,14051,1,0,0:0:0:0:
256,192,14282,1,8,0:0:0:0:
256,192,14398,1,8,0:0:0:0:
256,192,14513,1,0,0:0:0:0:
256,192,14744,1,0,0:0:0:0:
256,192,14801,1,0,0:0:0:0:
256,192,14859,1,0,0:0:0:0:
256,192,14975,1,8,0:0:0:0:
256,192,15090,1,0,0:0:0:0:
256,192,15148,1,0,0:0:0:0:
256,192,15205,1,0,0:0:0:0:
256,192,15321,1,0,0:0:0:0:
256,192,15436,1,8,0:0:0:0:
256,192,15667,1,0,0:0:0:0:
256,192,15782,1,8,0:0:0:0:
256,192,15898,1,8,0:0:0:0:
256,192,16128,1,0,0:0:0:0:
256,192,16244,1,8,0:0:0:0:
256,192,16359,1,8,0:0:0:0:
256,192,16590,1,0,0:0:0:0:
256,192,16648,1,0,0:0:0:0:
256,192,16705,1,0,0:0:0:0:
256,192,16821,1,8,0:0:0:0:
256,192,16936,1,0,0:0:0:0:
256,192,16994,1,0,0:0:0:0:
256,192,17051,1,0,0:0:0:0:
256,192,17167,1,0,0:0:0:0:
256,192,17282,1,8,0:0:0:0:
256,192,17513,1,0,0:0:0:0:
256,192,17628,1,8,0:0:0:0:
256,192,17744,1,8,0:0:0:0:
256,192,17975,1,0,0:0:0:0:
256,192,18090,1,8,0:0:0:0:
256,192,18205,1,8,0:0:0:0:
256,192,18436,1,8,0:0:0:0:
256,192,18494,1,0,0:0:0:0:
256,192,18551,1,0,0:0:0:0:
256,192,18667,1,8,0:0:0:0:
256,192,18782,1,0,0:0:0:0:
256,192,18840,1,0,0:0:0:0:
256,192,18898,1,0,0:0:0:0:
256,192,19013,1,0,0:0:0:0:
256,192,19128,1,8,0:0:0:0:
256,192,19244,1,0,0:0:0:0:
256,192,19359,1,8,0:0:0:0:
256,192,19475,1,8,0:0:0:0:
256,192,19590,1,0,0:0:0:0:
256,192,19821,1,8,0:0:0:0:
256,192,19936,1,8,0:0:0:0:
256,192,20051,1,0,0:0:0:0:
256,192,20282,1,8,0:0:0:0:
256,192,20340,1,0,0:0:0:0:
256,192,20398,1,0,0:0:0:0:
256,192,20513,1,8,0:0:0:0:
256,192,20628,1,0,0:0:0:0:
256,192,20686,1,0,0:0:0:0:
256,192,20744,1,0,0:0:0:0:
256,192,20859,1,0,0:0:0:0:
256,192,20975,1,8,0:0:0:0:
256,192,21090,1,0,0:0:0:0:
256,192,21205,1,8,0:0:0:0:
256,192,21321,1,8,0:0:0:0:
256,192,21436,1,0,0:0:0:0:
256,192,21667,1,8,0:0:0:0:
256,192,21782,1,8,0:0:0:0:
256,192,21898,1,0,0:0:0:0:
256,192,22128,1,0,0:0:0:0:
256,192,22186,1,0,0:0:0:0:
256,192,22244,1,0,0:0:0:0:
256,192,22359,1,8,0:0:0:0:
256,192,22475,1,0,0:0:0:0:
256,192,22532,1,0,0:0:0:0:
256,192,22590,1,0,0:0:0:0:
256,192,22705,1,0,0:0:0:0:
256,192,22821,1,8,0:0:0:0:
256,192,23051,1,8,0:0:0:0:
256,192,23167,1,0,0:0:0:0:
256,192,23282,1,0,0:0:0:0:
256,192,23513,1,8,0:0:0:0:
256,192,23628,1,8,0:0:0:0:
256,192,23744,1,0,0:0:0:0:
256,192,23975,1,8,0:0:0:0:
256,192,24032,1,8,0:0:0:0:
256,192,24090,1,0,0:0:0:0:
256,192,24205,1,8,0:0:0:0:
256,192,24321,1,8,0:0:0:0:
256,192,24378,1,8,0:0:0:0:
256,192,24436,1,0,0:0:0:0:
256,192,24551,1,8,0:0:0:0:
256,192,24667,1,0,0:0:0:0:
256,192,24898,1,8,0:0:0:0:
256,192,25013,1,8,0:0:0:0:
256,192,25128,1,0,0:0:0:0:
256,192,25359,1,8,0:0:0:0:
256,192,25475,1,8,0:0:0:0:
256,192,25590,1,8,0:0:0:0:
256,192,25821,1,8,0:0:0:0:
256,192,25878,1,0,0:0:0:0:
256,192,25936,1,0,0:0:0:0:
256,192,26051,1,8,0:0:0:0:
256,192,26167,1,8,0:0:0:0:
256,192,26225,1,0,0:0:0:0:
256,192,26282,1,0,0:0:0:0:
256,192,26398,1,0,0:0:0:0:
256,192,26513,1,8,0:0:0:0:
256,192,26744,1,0,0:0:0:0:
256,192,26859,1,8,0:0:0:0:
256,192,26975,1,8,0:0:0:0:
256,192,27205,1,8,0:0:0:0:
256,192,27321,1,8,0:0:0:0:
256,192,27436,1,0,0:0:0:0:
256,192,27667,1,8,0:0:0:0:
256,192,27725,1,8,0:0:0:0:
256,192,27782,1,0,0:0:0:0:
256,192,27898,1,8,0:0:0:0:
256,192,28013,1,8,0:0:0:0:
256,192,28071,1,8,0:0:0:0:
256,192,28128,1,0,0:0:0:0:
256,192,28244,1,8,0:0:0:0:
256,192,28359,1,0,0:0:0:0:
256,192,28590,1,8,0:0:0:0:
256,192,28705,1,8,0:0:0:0:
256,192,28821,1,0,0:0:0:0:
256,192,29051,1,8,0:0:0:0:
256,192,29167,1,0,0:0:0:0:
256,192,29282,1,8,0:0:0:0:
256,192,29340,1,0,0:0:0:0:
256,192,29398,1,0,0:0:0:0:
256,192,29455,1,0,0:0:0:0:
256,192,29513,1,8,0:0:0:0:
256,192,29628,1,0,0:0:0:0:
256,192,29744,1,8,0:0:0:0:
256,192,29859,1,0,0:0:0:0:
256,192,29917,1,0,0:0:0:0:
256,192,29975,1,0,0:0:0:0:
256,192,30090,1,0,0:0:0:0:
256,192,30205,1,8,0:0:0:0:
256,192,30436,1,8,0:0:0:0:
256,192,30551,1,0,0:0:0:0:
256,192,30667,1,8,0:0:0:0:
256,192,30898,1,8,0:0:0:0:
256,192,31013,1,8,0:0:0:0:
256,192,31128,1,8,0:0:0:0:
256,192,31359,1,8,0:0:0:0:
256,192,31417,1,8,0:0:0:0:
256,192,31475,1,8,0:0:0:0:
256,192,31590,1,0,0:0:0:0:
256,192,31705,1,8,0:0:0:0:
256,192,31763,1,8,0:0:0:0:
256,192,31821,1,8,0:0:0:0:
256,192,31936,1,0,0:0:0:0:
256,192,32051,1,8,0:0:0:0:
256,192,32282,1,0,0:0:0:0:
256,192,32398,1,8,0:0:0:0:
256,192,32513,1,8,0:0:0:0:
256,192,32744,1,8,0:0:0:0:
256,192,32859,1,8,0:0:0:0:
256,192,32975,1,0,0:0:0:0:
256,192,33205,1,0,0:0:0:0:
256,192,33263,1,0,0:0:0:0:
256,192,33321,1,0,0:0:0:0:
256,192,33436,1,8,0:0:0:0:
256,192,33551,1,0,0:0:0:0:
256,192,33609,1,0,0:0:0:0:
256,192,33667,1,0,0:0:0:0:
256,192,33782,1,0,0:0:0:0:
256,192,33898,1,8,0:0:0:0:
256,192,34128,1,0,0:0:0:0:
256,192,34244,1,0,0:0:0:0:
256,192,34359,1,8,0:0:0:0:
256,192,34590,1,8,0:0:0:0:
256,192,34705,1,0,0:0:0:0:
256,192,34821,1,8,0:0:0:0:
256,192,35051,1,8,0:0:0:0:
256,192,35109,1,8,0:0:0:0:
256,192,35167,1,8,0:0:0:0:
256,192,35282,1,8,0:0:0:0:
256,192,35398,1,8,0:0:0:0:
256,192,35455,1,8,0:0:0:0:
256,192,35513,1,8,0:0:0:0:
256,192,35628,1,8,0:0:0:0:
256,192,35744,1,0,0:0:0:0:
256,192,35975,1,8,0:0:0:0:
256,192,36090,1,8,0:0:0:0:
256,192,36205,1,0,0:0:0:0:
256,192,36436,1,8,0:0:0:0:
256,192,36551,1,0,0:0:0:0:
256,192,36667,1,8,0:0:0:0:
256,192,36725,1,0,0:0:0:0:
256,192,36782,1,0,0:0:0:0:
256,192,36840,1,0,0:0:0:0:
256,192,36898,1,8,0:0:0:0:
256,192,37013,1,0,0:0:0:0:
256,192,37128,1,8,0:0:0:0:
256,192,37244,1,0,0:0:0:0:
256,192,37301,1,0,0:0:0:0:
256,192,37359,1,0,0:0:0:0:
256,192,37475,1,0,0:0:0:0:
256,192,37590,1,8,0:0:0:0:
256,192,37821,1,0,0:0:0:0:
256,192,37936,1,0,0:0:0:0:
256,192,38051,1,8,0:0:0:0:
256,192,38282,1,0,0:0:0:0:
256,192,38398,1,0,0:0:0:0:
256,192,38513,1,8,0:0:0:0:
256,192,38744,1,0,0:0:0:0:
256,192,38801,1,0,0:0:0:0:
256,192,38859,1,0,0:0:0:0:
256,192,38975,1,8,0:0:0:0:
256,192,39090,1,0,0:0:0:0:
256,192,39148,1,0,0:0:0:0:
256,192,39205,1,0,0:0:0:0:
256,192,39321,1,0,0:0:0:0:
256,192,39436,1,8,0:0:0:0:
256,192,39667,1,0,0:0:0:0:
256,192,39782,1,0,0:0:0:0:
256,192,39898,1,8,0:0:0:0:
256,192,40128,1,0,0:0:0:0:
256,192,40244,1,0,0:0:0:0:
256,192,40359,1,8,0:0:0:0:
256,192,40590,1,0,0:0:0:0:
256,192,40648,1,8,0:0:0:0:
256,192,40705,1,0,0:0:0:0:
256,192,40821,1,8,0:0:0:0:
256,192,40936,1,8,0:0:0:0:
256,192,40994,1,0,0:0:0:0:
256,192,41051,1,0,0:0:0:0:
256,192,41167,1,0,0:0:0:0:
256,192,41282,1,8,0:0:0:0:
256,192,41398,1,0,0:0:0:0:
256,192,41513,1,8,0:0:0:0:
256,192,41628,1,8,0:0:0:0:
256,192,41744,1,0,0:0:0:0:
256,192,41975,1,8,0:0:0:0:
256,192,42090,1,8,0:0:0:0:
256,192,42205,1,0,0:0:0:0:
256,192,42436,1,0,0:0:0:0:
256,192,42494,1,8,0:0:0:0:
256,192,42551,1,0,0:0:0:0:
256,192,42667,1,8,0:0:0:0:
256,192,42782,1,8,0:0:0:0:
256,192,42840,1,0,0:0:0:0:
256,192,42898,1,0,0:0:0:0:
256,192,43013,1,0,0:0:0:0:
256,192,43128,1,8,0:0:0:0:
256,192,43244,1,0,0:0:0:0:
256,192,43359,1,8,0:0:0:0:
256,192,43475,1,8,0:0:0:0:
256,192,43590,1,0,0:0:0:0:
256,192,43821,1,8,0:0:0:0:
256,192,43936,1,8,0:0:0:0:
256,192,44051,1,0,0:0:0:0:
256,192,44282,1,8,0:0:0:0:
256,192,44340,1,0,0:0:0:0:
256,192,44398,1,0,0:0:0:0:
256,192,44513,1,8,0:0:0:0:
256,192,44628,1,0,0:0:0:0:
256,192,44686,1,0,0:0:0:0:
256,192,44744,1,0,0:0:0:0:
256,192,44859,1,0,0:0:0:0:
256,192,44975,1,8,0:0:0:0:
256,192,45205,1,8,0:0:0:0:
256,192,45321,1,8,0:0:0:0:
256,192,45436,1,0,0:0:0:0:
256,192,45667,1,8,0:0:0:0:
256,192,45782,1,0,0:0:0:0:
256,192,45898,1,0,0:0:0:0:
256,192,46128,1,0,0:0:0:0:
256,192,46186,1,0,0:0:0:0:
256,192,46244,1,0,0:0:0:0:
256,192,46359,1,8,0:0:0:0:
256,192,46475,1,0,0:0:0:0:
256,192,46532,1,0,0:0:0:0:
256,192,46590,1,0,0:0:0:0:
256,192,46705,1,0,0:0:0:0:
256,192,46821,1,8,0:0:0:0:
256,192,47051,1,8,0:0:0:0:
256,192,47167,1,8,0:0:0:0:
256,192,47282,1,0,0:0:0:0:
256,192,47513,1,8,0:0:0:0:
256,192,47628,1,0,0:0:0:0:
256,192,47744,1,8,0:0:0:0:
256,192,47975,1,0,0:0:0:0:
256,192,48032,1,8,0:0:0:0:
256,192,48090,1,8,0:0:0:0:
256,192,48205,1,8,0:0:0:0:
256,192,48321,1,8,0:0:0:0:
256,192,48378,1,8,0:0:0:0:
256,192,48436,1,0,0:0:0:0:
256,192,48551,1,0,0:0:0:0:
256,192,48667,1,8,0:0:0:0:
256,192,48782,1,0,0:0:0:0:
256,192,48898,1,8,0:0:0:0:
256,192,49013,1,8,0:0:0:0:
256,192,49128,1,0,0:0:0:0:
256,192,49359,1,8,0:0:0:0:
256,192,49475,1,8,0:0:0:0:
256,192,49590,1,0,0:0:0:0:
256,192,49821,1,0,0:0:0:0:
256,192,49878,1,8,0:0:0:0:
256,192,49936,1,8,0:0:0:0:
256,192,50051,1,8,0:0:0:0:
256,192,50167,1,8,0:0:0:0:
256,192,50225,1,8,0:0:0:0:
256,192,50282,1,0,0:0:0:0:
256,192,50398,1,0,0:0:0:0:
256,192,50513,1,8,0:0:0:0:
256,192,50628,1,0,0:0:0:0:
256,192,50744,1,8,0:0:0:0:
256,192,50859,1,8,0:0:0:0:
256,192,50975,1,0,0:0:0:0:
256,192,51205,1,8,0:0:0:0:
256,192,51321,1,8,0:0:0:0:
256,192,51436,1,0,0:0:0:0:
256,192,51667,1,0,0:0:0:0:
256,192,51725,1,0,0:0:0:0:
256,192,51782,1,0,0:0:0:0:
256,192,51898,1,8,0:0:0:0:
256,192,52013,1,0,0:0:0:0:
256,192,52071,1,0,0:0:0:0:
256,192,52128,1,0,0:0:0:0:
256,192,52244,1,0,0:0:0:0:
256,192,52359,1,8,0:0:0:0:
256,192,52590,1,8,0:0:0:0:
256,192,52705,1,8,0:0:0:0:
256,192,52821,1,0,0:0:0:0:
256,192,53051,1,8,0:0:0:0:
256,192,53167,1,8,0:0:0:0:
256,192,53282,1,0,0:0:0:0:
256,192,53513,1,8,0:0:0:0:
256,192,53571,1,8,0:0:0:0:
256,192,53628,1,8,0:0:0:0:
256,192,53744,1,8,0:0:0:0:
256,192,53859,1,8,0:0:0:0:
256,192,53917,1,8,0:0:0:0:
256,192,53975,1,8,0:0:0:0:
256,192,54090,1,8,0:0:0:0:
256,192,54205,1,0,0:0:0:0:
256,192,54436,1,8,0:0:0:0:
256,192,54551,1,8,0:0:0:0:
256,192,54667,1,0,0:0:0:0:
256,192,54898,1,8,0:0:0:0:
256,192,55013,1,8,0:0:0:0:
256,192,55128,1,0,0:0:0:0:
256,192,55359,1,8,0:0:0:0:
256,192,55417,1,0,0:0:0:0:
256,192,55475,1,0,0:0:0:0:
256,192,55590,1,8,0:0:0:0:
256,192,55705,1,8,0:0:0:0:
256,192,55763,1,0,0:0:0:0:
256,192,55821,1,0,0:0:0:0:
256,192,55936,1,0,0:0:0:0:
256,192,56051,1,8,0:0:0:0:
256,192,56282,1,8,0:0:0:0:
256,192,56398,1,8,0:0:0:0:
256,192,56513,1,0,0:0:0:0:
256,192,56744,1,8,0:0:0:0:
256,192,56859,1,8,0:0:0:0:
256,192,56975,1,0,0:0:0:0:
256,192,57205,1,8,0:0:0:0:
256,192,57263,1,8,0:0:0:0:
256,192,57321,1,0,0:0:0:0:
256,192,57436,1,8,0:0:0:0:
256,192,57551,1,8,0:0:0:0:
256,192,57609,1,8,0:0:0:0:
256,192,57667,1,0,0:0:0:0:
256,192,57782,1,0,0:0:0:0:
256,192,57898,1,8,0:0:0:0:
256,192,58128,1,8,0:0:0:0:
256,192,58244,1,0,0:0:0:0:
256,192,58359,1,0,0:0:0:0:
256,192,58590,1,8,0:0:0:0:
256,192,58648,1,0,0:0:0:0:
256,192,58705,1,0,0:0:0:0:
256,192,58821,1,0,0:0:0:0:
256,192,58936,1,0,0:0:0:0:
256,192,59051,1,0,0:0:0:0:
256,192,59109,1,0,0:0:0:0:
256,192,59167,1,0,0:0:0:0:
256,192,59225,1,0,0:0:0:0:
256,192,59282,1,8,0:0:0:0:
256,192,59398,1,8,0:0:0:0:
256,192,59455,1,0,0:0:0:0:
256,192,59513,1,0,0:0:0:0:
256,192,59628,1,0,0:0:0:0:
256,192,59744,1,8,0:0:0:0:
256,192,59859,1,0,0:0:0:0:
256,192,59975,1,8,0:0:0:0:
256,192,60090,1,8,0:0:0:0:
256,192,60205,1,0,0:0:0:0:
256,192,60321,1,0,0:0:0:0:
256,192,60436,1,8,0:0:0:0:
256,192,60551,1,8,0:0:0:0:
256,192,60667,1,0,0:0:0:0:
256,192,60898,1,0,0:0:0:0:
256,192,60955,1,0,0:0:0:0:
256,192,61013,1,0,0:0:0:0:
256,192,61071,1,0,0:0:0:0:
256,192,61128,1,8,0:0:0:0:
256,192,61244,1,8,0:0:0:0:
256,192,61301,1,0,0:0:0:0:
256,192,61359,1,0,0:0:0:0:
256,192,61475,1,0,0:0:0:0:
256,192,61590,1,8,0:0:0:0:
256,192,61705,1,0,0:0:0:0:
256,192,61821,1,8,0:0:0:0:
256,192,61936,1,8,0:0:0:0:
256,192,62051,1,0,0:0:0:0:
256,192,62167,1,0,0:0:0:0:
256,192,62282,1,8,0:0:0:0:
256,192,62398,1,8,0:0:0:0:
256,192,62513,1,0,0:0:0:0:
256,192,62744,1,8,0:0:0:0:
256,192,62801,1,0,0:0:0:0:
256,192,62859,1,0,0:0:0:0:
256,192,62917,1,0,0:0:0:0:
256,192,62975,1,8,0:0:0:0:
256,192,63090,1,8,0:0:0:0:
256,192,63148,1,0,0:0:0:0:
256,192,63205,1,0,0:0:0:0:
256,192,63321,1,0,0:0:0:0:
256,192,63436,1,8,0:0:0:0:
256,192,63551,1,0,0:0:0:0:
256,192,63667,1,8,0:0:0:0:
256,192,63782,1,8,0:0:0:0:
256,192,63898,1,0,0:0:0:0:
256,192,64013,1,0,0:0:0:0:
256,192,64128,1,8,0:0:0:0:
256,192,64244,1,8,0:0:0:0:
256,192,64359,1,0,0:0:0:0:
256,192,64590,1,8,0:0:0:0:
256,192,64648,1,0,0:0:0:0:
256,192,64705,1,0,0:0:0:0:
256,192,64763,1,0,0:0:0:0:
256,192,64821,1,8,0:0:0:0:
256,192,64936,1,8,0:0:0:0:
256,192,64994,1,0,0:0:0:0:
256,192,65051,1,0,0:0:0:0:
256,192,65167,1,0,0:0:0:0:
256,192,65282,1,8,0:0:0:0:
256,192,65398,1,0,0:0:0:0:
256,192,65513,1,8,0:0:0:0:
256,192,65628,1,8,0:0:0:0:
256,192,65744,1,0,0:0:0:0:
256,192,65859,1,0,0:0:0:0:
256,192,65975,1,8,0:0:0:0:
256,192,66090,1,8,0:0:0:0:
256,192,66205,1,0,0:0:0:0:
256,192,66436,1,0,0:0:0:0:
256,192,66494,1,0,0:0:0:0:
256,192,66551,1,0,0:0:0:0:
256,192,66667,1,8,0:0:0:0:
256,192,66782,1,0,0:0:0:0:
256,192,66840,1,0,0:0:0:0:
256,192,66898,1,0,0:0:0:0:
256,192,67013,1,0,0:0:0:0:
256,192,67128,1,8,0:0:0:0:
256,192,67359,1,0,0:0:0:0:
256,192,67475,1,0,0:0:0:0:
256,192,67590,1,8,0:0:0:0:
256,192,67821,1,0,0:0:0:0:
256,192,67936,1,0,0:0:0:0:
256,192,68051,1,8,0:0:0:0:
256,192,68282,1,0,0:0:0:0:
256,192,68340,1,0,0:0:0:0:
256,192,68398,1,0,0:0:0:0:
256,192,68513,1,8,0:0:0:0:
256,192,68628,1,0,0:0:0:0:
256,192,68686,1,0,0:0:0:0:
256,192,68744,1,0,0:0:0:0:
256,192,68859,1,0,0:0:0:0:
256,192,68975,1,8,0:0:0:0:
256,192,69205,1,0,0:0:0:0:
256,192,69321,1,0,0:0:0:0:
256,192,69436,1,8,0:0:0:0:
256,192,69667,1,0,0:0:0:0:
256,192,69782,1,0,0:0:0:0:
256,192,69898,1,8,0:0:0:0:
256,192,70128,1,8,0:0:0:0:
256,192,70186,1,8,0:0:0:0:
256,192,70244,1,0,0:0:0:0:
256,192,70359,1,8,0:0:0:0:
256,192,70475,1,8,0:0:0:0:
256,192,70532,1,8,0:0:0:0:
256,192,70590,1,0,0:0:0:0:
256,192,70705,1,0,0:0:0:0:
256,192,70821,1,8,0:0:0:0:
256,192,70936,1,0,0:0:0:0:
256,192,71051,1,8,0:0:0:0:
256,192,71167,1,8,0:0:0:0:
256,192,71282,1,0,0:0:0:0:
256,192,71513,1,8,0:0:0:0:
256,192,71628,1,8,0:0:0:0:
256,192,71744,1,0,0:0:0:0:
256,192,71975,1,8,0:0:0:0:
256,192,72032,1,8,0:0:0:0:
256,192,72090,1,0,0:0:0:0:
256,192,72205,1,8,0:0:0:0:
256,192,72321,1,8,0:0:0:0:
256,192,72378,1,8,0:0:0:0:
256,192,72436,1,0,0:0:0:0:
256,192,72551,1,0,0:0:0:0:
256,192,72667,1,8,0:0:0:0:
256,192,72782,1,0,0:0:0:0:
256,192,72898,1,8,0:0:0:0:
256,192,73013,1,8,0:0:0:0:
256,192,73128,1,0,0:0:0:0:
256,192,73359,1,8,0:0:0:0:
256,192,73475,1,8,0:0:0:0:
256,192,73590,1,0,0:0:0:0:
256,192,73821,1,0,0:0:0:0:
256,192,73878,1,0,0:0:0:0:
256,192,73936,1,0,0:0:0:0:
256,192,74051,1,8,0:0:0:0:
256,192,74167,1,0,0:0:0:0:
256,192,74225,1,0,0:0:0:0:
256,192,74282,1,0,0:0:0:0:
256,192,74398,1,0,0:0:0:0:
256,192,74513,1,8,0:0:0:0:
256,192,74744,1,0,0:0:0:0:
256,192,74859,1,0,0:0:0:0:
256,192,74975,1,8,0:0:0:0:
256,192,75205,1,0,0:0:0:0:
256,192,75321,1,0,0:0:0:0:
256,192,75436,1,8,0:0:0:0:
256,192,75667,1,0,0:0:0:0:
256,192,75725,1,0,0:0:0:0:
256,192,75782,1,0,0:0:0:0:
256,192,75898,1,8,0:0:0:0:
256,192,76013,1,0,0:0:0:0:
256,192,76071,1,0,0:0:0:0:
256,192,76128,1,0,0:0:0:0:
256,192,76244,1,0,0:0:0:0:
256,192,76359,1,8,0:0:0:0:
256,192,76590,1,0,0:0:0:0:
256,192,76705,1,0,0:0:0:0:
256,192,76821,1,8,0:0:0:0:
256,192,77051,1,0,0:0:0:0:
256,192,77167,1,0,0:0:0:0:
256,192,77282,1,8,0:0:0:0:
256,192,77513,1,8,0:0:0:0:
256,192,77628,1,0,0:0:0:0:
256,192,77744,1,8,0:0:0:0:
256,192,77859,1,8,0:0:0:0:
256,192,77975,1,0,0:0:0:0:
256,192,78090,1,0,0:0:0:0:
256,192,78205,1,8,0:0:0:0:
256,192,78321,1,0,0:0:0:0:
256,192,78436,1,8,0:0:0:0:
256,192,78551,1,8,0:0:0:0:
256,192,78667,1,0,0:0:0:0:
256,192,78782,1,0,0:0:0:0:
256,192,78898,1,8,0:0:0:0:
256,192,79013,1,0,0:0:0:0:
256,192,79128,1,0,0:0:0:0:
256,192,79244,1,0,0:0:0:0:
256,192,79359,1,8,0:0:0:0:
256,192,79475,1,0,0:0:0:0:
256,192,79590,1,8,0:0:0:0:
256,192,79705,1,8,0:0:0:0:
256,192,79821,1,0,0:0:0:0:
256,192,79936,1,8,0:0:0:0:
256,192,80051,1,0,0:0:0:0:
256,192,80167,1,0,0:0:0:0:
256,192,80282,1,8,0:0:0:0:
256,192,80398,1,8,0:0:0:0:
256,192,80513,1,0,0:0:0:0:
256,192,80628,1,0,0:0:0:0:
256,192,80744,1,8,0:0:0:0:
256,192,80859,1,8,0:0:0:0:
256,192,80975,1,8,0:0:0:0:
256,192,81090,1,8,0:0:0:0:
256,192,81205,1,4,0:0:0:0:
256,192,81321,1,0,0:0:0:0:
256,192,81436,1,8,0:0:0:0:
256,192,81782,1,0,0:0:0:0:
256,192,81898,1,8,0:0:0:0:
256,192,82128,1,0,0:0:0:0:
256,192,82244,1,0,0:0:0:0:
256,192,82359,1,8,0:0:0:0:
256,192,82590,1,0,0:0:0:0:
256,192,82705,1,0,0:0:0:0:
256,192,82821,1,8,0:0:0:0:
256,192,82936,1,0,0:0:0:0:
256,192,83051,1,0,0:0:0:0:
256,192,83167,1,0,0:0:0:0:
256,192,83282,1,8,0:0:0:0:
256,192,83628,1,0,0:0:0:0:
256,192,83744,1,8,0:0:0:0:
256,192,83975,1,0,0:0:0:0:
256,192,84090,1,0,0:0:0:0:
256,192,84205,1,8,0:0:0:0:
256,192,84321,1,0,0:0:0:0:
256,192,84551,1,0,0:0:0:0:
256,192,84667,1,8,0:0:0:0:
256,192,84782,1,0,0:0:0:0:
256,192,84898,1,0,0:0:0:0:
256,192,85128,1,8,0:0:0:0:
256,192,85475,1,0,0:0:0:0:
256,192,85590,1,8,0:0:0:0:
256,192,85821,1,0,0:0:0:0:
256,192,85936,1,0,0:0:0:0:
256,192,86051,1,8,0:0:0:0:
256,192,86282,1,0,0:0:0:0:
256,192,86398,1,0,0:0:0:0:
256,192,86513,1,8,0:0:0:0:
256,192,86628,1,0,0:0:0:0:
256,192,86744,1,0,0:0:0:0:
256,192,86975,1,8,0:0:0:0:
256,192,87321,1,0,0:0:0:0:
256,192,87436,1,8,0:0:0:0:
256,192,87667,1,0,0:0:0:0:
256,192,87782,1,0,0:0:0:0:
256,192,87898,1,8,0:0:0:0:
256,192,88013,1,0,0:0:0:0:
256,192,88244,1,0,0:0:0:0:
256,192,88359,1,8,0:0:0:0:
256,192,88475,1,0,0:0:0:0:
256,192,88590,1,0,0:0:0:0:
256,192,88705,1,0,0:0:0:0:
256,192,88821,1,8,0:0:0:0:
256,192,89167,1,0,0:0:0:0:
256,192,89282,1,8,0:0:0:0:
256,192,89513,1,0,0:0:0:0:
256,192,89628,1,0,0:0:0:0:
256,192,89744,1,8,0:0:0:0:
256,192,89859,1,0,0:0:0:0:
256,192,89975,1,0,0:0:0:0:
256,192,90090,1,0,0:0:0:0:
256,192,90205,1,8,0:0:0:0:
256,192,90436,1,0,0:0:0:0:
256,192,90551,1,0,0:0:0:0:
256,192,90667,1,8,0:0:0:0:
256,192,91013,1,0,0:0:0:0:
256,192,91128,1,8,0:0:0:0:
256,192,91359,1,0,0:0:0:0:
256,192,91475,1,0,0:0:0:0:
256,192,91590,1,8,0:0:0:0:
256,192,91705,1,0,0:0:0:0:
256,192,91936,1,0,0:0:0:0:
256,192,92051,1,8,0:0:0:0:
256,192,92167,1,0,0:0:0:0:
256,192,92282,1,0,0:0:0:0:
256,192,92398,1,0,0:0:0:0:
256,192,92513,1,8,0:0:0:0:
256,192,92859,1,0,0:0:0:0:
256,192,92975,1,8,0:0:0:0:
256,192,93205,1,0,0:0:0:0:
256,192,93321,1,0,0:0:0:0:
256,192,93436,1,8,0:0:0:0:
256,192,93667,1,0,0:0:0:0:
256,192,93782,1,0,0:0:0:0:
256,192,93898,1,8,0:0:0:0:
256,192,94128,1,0,0:0:0:0:
256,192,94359,1,8,0:0:0:0:
256,192,94705,1,0,0:0:0:0:
256,192,94821,1,8,0:0:0:0:
256,192,95051,1,0,0:0:0:0:
256,192,95167,1,0,0:0:0:0:
256,192,95282,1,8,0:0:0:0:
256,192,95398,1,0,0:0:0:0:
256,192,95513,1,8,0:0:0:0:
256,192,95628,1,0,0:0:0:0:
256,192,95744,1,0,0:0:0:0:
256,192,95801,1,0,0:0:0:0:
256,192,95859,1,0,0:0:0:0:
256,192,95917,1,0,0:0:0:0:
256,192,95975,1,0,0:0:0:0:
256,192,96205,1,8,0:0:0:0:
256,192,96321,1,0,0:0:0:0:
256,192,96378,1,0,0:0:0:0:
256,192,96436,1,8,0:0:0:0:
256,192,96551,1,0,0:0:0:0:
256,192,96667,1,8,0:0:0:0:
256,192,96782,1,0,0:0:0:0:
256,192,96898,1,0,0:0:0:0:
256,192,96955,1,0,0:0:0:0:
256,192,97013,1,0,0:0:0:0:
256,192,97128,1,8,0:0:0:0:
256,192,97244,1,8,0:0:0:0:
256,192,97359,1,0,0:0:0:0:
256,192,97475,1,0,0:0:0:0:
256,192,97590,1,8,0:0:0:0:
256,192,97705,1,0,0:0:0:0:
256,192,97763,1,0,0:0:0:0:
256,192,97821,1,0,0:0:0:0:
256,192,98051,1,8,0:0:0:0:
256,192,98282,1,0,0:0:0:0:
256,192,98398,1,0,0:0:0:0:
256,192,98513,1,8,0:0:0:0:
256,192,98628,1,0,0:0:0:0:
256,192,98686,1,0,0:0:0:0:
256,192,98744,1,0,0:0:0:0:
256,192,98859,1,0,0:0:0:0:
256,192,98975,1,8,0:0:0:0:
256,192,99090,1,8,0:0:0:0:
256,192,99205,1,0,0:0:0:0:
256,192,99321,1,0,0:0:0:0:
256,192,99378,1,0,0:0:0:0:
256,192,99436,1,8,0:0:0:0:
256,192,99551,1,8,0:0:0:0:
256,192,99667,1,0,0:0:0:0:
256,192,99898,1,8,0:0:0:0:
256,192,100128,1,0,0:0:0:0:
256,192,100244,1,0,0:0:0:0:
256,192,100359,1,8,0:0:0:0:
256,192,100475,1,0,0:0:0:0:
256,192,100532,1,0,0:0:0:0:
256,192,100590,1,0,0:0:0:0:
256,192,100705,1,0,0:0:0:0:
256,192,100821,1,8,0:0:0:0:
256,192,100936,1,0,0:0:0:0:
256,192,101051,1,0,0:0:0:0:
256,192,101167,1,0,0:0:0:0:
256,192,101225,1,0,0:0:0:0:
256,192,101282,1,8,0:0:0:0:
256,192,101398,1,0,0:0:0:0:
256,192,101455,1,0,0:0:0:0:
256,192,101513,1,0,0:0:0:0:
256,192,101744,1,8,0:0:0:0:
256,192,101975,1,0,0:0:0:0:
256,192,102090,1,0,0:0:0:0:
256,192,102205,1,8,0:0:0:0:
256,192,102321,1,0,0:0:0:0:
256,192,102378,1,0,0:0:0:0:
256,192,102436,1,0,0:0:0:0:
256,192,102551,1,0,0:0:0:0:
256,192,102667,1,8,0:0:0:0:
256,192,102782,1,8,0:0:0:0:
256,192,102898,1,0,0:0:0:0:
256,192,103013,1,0,0:0:0:0:
256,192,103071,1,0,0:0:0:0:
256,192,103128,1,8,0:0:0:0:
256,192,103244,1,8,0:0:0:0:
256,192,103359,1,0,0:0:0:0:
256,192,103590,1,8,0:0:0:0:
256,192,103821,1,0,0:0:0:0:
256,192,103936,1,0,0:0:0:0:
256,192,103994,1,0,0:0:0:0:
256,192,104051,1,8,0:0:0:0:
256,192,104167,1,0,0:0:0:0:
256,192,104282,1,0,0:0:0:0:
256,192,104398,1,0,0:0:0:0:
256,192,104455,1,0,0:0:0:0:
256,192,104513,1,8,0:0:0:0:
256,192,104628,1,8,0:0:0:0:
256,192,104744,1,0,0:0:0:0:
256,192,104859,1,0,0:0:0:0:
256,192,104975,1,8,0:0:0:0:
256,192,105090,1,0,0:0:0:0:
256,192,105148,1,0,0:0:0:0:
256,192,105205,1,0,0:0:0:0:
256,192,105436,1,8,0:0:0:0:
256,192,105667,1,0,0:0:0:0:
256,192,105782,1,0,0:0:0:0:
256,192,105898,1,8,0:0:0:0:
256,192,106013,1,0,0:0:0:0:
256,192,106071,1,0,0:0:0:0:
256,192,106128,1,0,0:0:0:0:
256,192,106244,1,0,0:0:0:0:
256,192,106359,1,8,0:0:0:0:
256,192,106475,1,8,0:0:0:0:
256,192,106532,1,0,0:0:0:0:
256,192,106590,1,0,0:0:0:0:
256,192,106705,1,0,0:0:0:0:
256,192,106821,1,8,0:0:0:0:
256,192,107051,1,0,0:0:0:0:
256,192,107167,1,0,0:0:0:0:
256,192,107282,1,8,0:0:0:0:
256,192,107398,1,0,0:0:0:0:
256,192,107513,1,0,0:0:0:0:
256,192,107628,1,0,0:0:0:0:
256,192,107744,1,8,0:0:0:0:
256,192,107859,1,0,0:0:0:0:
256,192,107975,1,0,0:0:0:0:
256,192,108090,1,0,0:0:0:0:
256,192,108205,1,8,0:0:0:0:
256,192,108321,1,0,0:0:0:0:
256,192,108436,1,0,0:0:0:0:
256,192,108551,1,0,0:0:0:0:
256,192,108667,1,8,0:0:0:0:
256,192,108782,1,0,0:0:0:0:
256,192,108898,1,0,0:0:0:0:
256,192,108955,1,0,0:0:0:0:
256,192,109013,1,0,0:0:0:0:
256,192,109071,1,0,0:0:0:0:
256,192,109128,1,8,0:0:0:0:
256,192,109244,1,0,0:0:0:0:
256,192,109359,1,0,0:0:0:0:
256,192,109417,1,0,0:0:0:0:
256,192,109475,1,0,0:0:0:0:
256,192,109590,1,8,0:0:0:0:
256,192,109705,1,0,0:0:0:0:
256,192,109821,1,0,0:0:0:0:
256,192,109878,1,0,0:0:0:0:
256,192,109936,1,8,0:0:0:0:
256,192,110051,1,8,0:0:0:0:
256,192,110167,1,0,0:0:0:0:
256,192,110282,1,0,0:0:0:0:
256,192,110340,1,0,0:0:0:0:
256,192,110398,1,0,0:0:0:0:
256,192,110513,1,8,0:0:0:0:
256,192,110628,1,8,0:0:0:0:
256,192,110744,1,12,0:0:0:0:
256,192,112590,1,12,0:0:0:0:
256,192,112821,1,0,0:0:0:0:
256,192,112936,1,12,0:0:0:0:
256,192,113167,1,8,0:0:0:0:
256,192,113282,1,4,0:0:0:0:
256,192,113513,1,12,0:0:0:0:
