osu file format v14

[General]
AudioFilename: audio.mp3
AudioLeadIn: 0
PreviewTime: 36901
Countdown: 1
SampleSet: Soft
StackLeniency: 0.7
Mode: 0
LetterboxInBreaks: 0
WidescreenStoryboard: 0

[Editor]
Bookmarks: 1824,7362,22131,36901,51670,66439,81208,95978,110747,113516
DistanceSpacing: 0.7
BeatDivisor: 4
GridSize: 4
TimelineZoom: 1

[Metadata]
Title:The Limit Does Not Exist
TitleUnicode:The Limit Does Not Exist
Artist:Cardboard Box
ArtistUnicode:Cardboard Box
Creator:Blue Dragon
Version:Bit-shifting Corruption
Source:
Tags:hi ninfia
BeatmapID:926644
BeatmapSetID:429469

[Difficulty]
HPDrainRate:4
CircleSize:4.2
OverallDifficulty:9.3
ApproachRate:9.7
SliderMultiplier:1.6
SliderTickRate:1

[Events]
//Background and Video events
0,0,"wallhaven-43842.jpg",0,0
//Break Periods
//Storyboard Layer 0 (Background)
//Storyboard Layer 1 (Fail)
//Storyboard Layer 2 (Pass)
//Storyboard Layer 3 (Foreground)
//Storyboard Sound Samples

[TimingPoints]
-22,230.769230769231,4,2,0,100,1,0

[Colours]
Combo1 : 173,251,96
Combo2 : 139,141,218
Combo3 : 227,130,213
Combo4 : 255,125,148
Combo5 : 255,164,108

[HitObjects]
160,0,1824,6,0,P|176:56|120:148,1,160
20,148,2170,2,0,L|144:260,1,160
228,324,2516,1,0,0:0:0:0:
320,260,2631,1,0,0:0:0:0:
138,255,2747,2,0,P|130:287|138:335,1,80
320,260,2978,2,0,P|336:204|280:112,1,160
188,72,3324,1,0,0:0:0:0:
224,216,3439,1,0,0:0:0:0:
224,216,3670,6,0,P|144:224|76:172,1,160
284,28,4016,2,0,P|364:20|432:72,1,160
480,164,4362,1,0,0:0:0:0:
396,236,4478,1,0,0:0:0:0:
296,188,4593,2,0,L|276:108,1,80
396,236,4824,2,0,P|352:288|264:296,1,160
184,216,5170,1,0,0:0:0:0:
396,236,5285,2,0,L|416:316,1,80
172,304,5516,6,0,B|60:308|60:308|100:272,1,160
320,208,5862,2,0,B|432:204|432:204|396:236,1,160
308,304,6208,1,0,0:0:0:0:
232,220,6324,1,0,0:0:0:0:
280,120,6439,2,0,L|376:116,1,80
232,220,6670,2,0,P|172:236|100:176,1,160
72,68,7016,1,0,0:0:0:0:
20,252,7131,2,0,L|40:340,1,80
248,344,7362,6,0,B|325:376|325:311|402:344,1,160
496,140,7708,2,0,B|418:107|418:172|341:140,1,160
236,32,8054,1,0,0:0:0:0:
380,60,8170,1,0,0:0:0:0:
272,176,8285,6,0,L|292:264,1,80
236,32,8516,2,0,P|164:24|84:76,1,160
36,164,8862,1,0,0:0:0:0:
48,276,8978,1,0,0:0:0:0:
136,348,9093,1,0,0:0:0:0:
248,348,9208,6,0,P|272:296|248:200,1,160
376,16,9554,2,0,P|352:68|376:164,1,160
464,236,9901,1,0,0:0:0:0:
468,89,10016,1,0,0:0:0:0:
248,200,10131,6,0,L|144:176,1,80
24,108,10362,1,0,0:0:0:0:
132,80,10478,1,0,0:0:0:0:
244,344,10593,6,0,L|348:320,1,80
468,252,10824,1,0,0:0:0:0:
360,224,10940,1,0,0:0:0:0:
128,308,11054,6,0,L|76:316,3,40
196,216,11285,2,0,L|248:224,3,40
96,176,11516,2,0,L|44:184,3,40
164,84,11747,2,0,L|216:92,3,40
368,48,11978,6,0,P|380:36|392:4,1,40
379,59,12093,2,0,P|392:48|407:17,1,40
388,72,12208,2,0,P|402:62|420:33,1,40
397,86,12323,2,0,P|412:78|433:51,1,40
332,148,12439,6,0,P|320:136|308:104,1,40
320,159,12554,2,0,P|306:148|291:117,1,40
311,172,12669,2,0,P|296:162|278:133,1,40
302,186,12784,2,0,P|286:178|265:151,1,40
380,344,12901,6,0,L|416:320,3,40
312,248,13131,2,0,L|320:205,3,40
200,248,13362,2,0,L|191:205,3,40
132,344,13593,2,0,L|96:320,3,40
44,188,13824,6,0,P|29:174|19:156,1,40
61,177,13939,2,0,P|45:165|33:148,1,40
76,165,14054,2,0,P|58:154|45:139,1,40
90,151,14169,2,0,P|71:142|57:128,1,40
192,208,14285,6,0,P|206:221|216:239,1,40
175,219,14400,2,0,P|190:230|202:247,1,40
160,231,14515,2,0,P|177:241|190:256,1,40
146,245,14630,2,0,P|164:253|178:267,1,40
320,356,14747,6,0,L|416:340,1,80
320,188,14978,1,0,0:0:0:0:
88,304,15093,2,0,L|-8:288,1,80
88,136,15324,1,0,0:0:0:0:
320,188,15439,2,0,L|416:172,1,80
436,68,15670,5,0,0:0:0:0:
336,20,15785,1,0,0:0:0:0:
228,56,15901,1,0,0:0:0:0:
176,156,16016,1,0,0:0:0:0:
320,360,16131,2,0,P|324:320|320:280,1,80
104,36,16362,2,0,P|100:76|104:116,1,80
408,240,16593,6,0,L|496:224,2,80
182,129,16939,2,0,L|94:113,2,80
448,88,17285,2,0,P|456:44|448:4,1,80
182,129,17516,5,0,0:0:0:0:
156,240,17631,1,0,0:0:0:0:
232,324,17747,2,0,L|332:312,1,80
422,199,17978,5,0,0:0:0:0:
448,88,18093,1,0,0:0:0:0:
372,4,18209,2,0,L|272:16,1,80
24,56,18439,6,0,L|16:108,1,40
40,72,18554,2,0,L|32:124,1,40
56,88,18670,2,0,L|48:140,1,40
72,104,18785,2,0,L|64:156,1,40
164,104,18901,6,0,L|156:52,1,40
180,88,19016,2,0,L|172:36,1,40
196,72,19132,2,0,L|188:20,1,40
212,56,19247,2,0,L|204:4,1,40
344,40,19362,6,0,L|404:48,1,40
472,104,19478,2,0,L|412:112,1,40
352,172,19593,2,0,L|412:180,1,40
480,236,19709,2,0,L|420:244,1,40
312,360,19824,6,0,L|252:352,1,40
184,296,19940,2,0,L|244:288,1,40
304,228,20055,2,0,L|244:220,1,40
176,164,20171,2,0,L|236:156,1,40
296,76,20285,6,0,L|312:32,1,40
283,72,20401,2,0,L|294:27,1,40
271,70,20516,2,0,L|277:23,1,40
258,69,20632,2,0,L|259:22,1,40
164,44,20747,6,0,L|180:88,1,40
152,47,20863,2,0,L|163:92,1,40
139,50,20978,2,0,L|145:96,1,40
126,51,21094,2,0,L|127:97,1,40
20,160,21208,6,0,L|32:216,1,40
112,232,21324,2,0,L|124:176,1,40
36,280,21439,2,0,L|48:336,1,40
128,352,21555,2,0,L|140:296,1,40
204,140,21670,6,0,L|216:196,1,40
296,212,21786,2,0,L|308:156,1,40
220,260,21901,2,0,L|232:316,1,40
312,332,22017,2,0,L|324:276,1,40
400,236,22131,6,0,P|448:236|496:256,1,80
312,332,22362,1,0,0:0:0:0:
212,179,22478,2,0,P|164:179|116:159,1,80
288,88,22708,1,0,0:0:0:0:
400,236,22824,2,0,L|380:324,1,80
288,88,23054,5,0,0:0:0:0:
372,12,23170,1,0,0:0:0:0:
452,92,23285,1,0,0:0:0:0:
368,168,23401,1,0,0:0:0:0:
237,70,23516,5,0,0:0:0:0:
503,77,23631,1,0,0:0:0:0:
367,200,23747,2,0,P|368:240|388:296,1,80
237,70,23978,6,0,L|152:84,1,80
8,24,24208,1,0,0:0:0:0:
272,156,24324,2,0,L|357:169,1,80
501,109,24554,1,0,0:0:0:0:
237,70,24670,2,0,L|152:84,1,80
16,192,24901,5,0,0:0:0:0:
212,236,25016,1,0,0:0:0:0:
352,88,25131,2,0,P|360:44|348:4,1,80
128,32,25362,5,0,0:0:0:0:
84,228,25477,1,0,0:0:0:0:
232,368,25592,2,0,P|276:376|316:364,1,80
420,148,25824,6,0,L|448:72,1,80
368,288,26054,1,0,0:0:0:0:
256,80,26170,2,0,L|256:0,1,80
256,248,26401,1,0,0:0:0:0:
92,148,26516,2,0,L|64:72,1,80
144,288,26747,5,0,0:0:0:0:
368,288,26862,1,0,0:0:0:0:
256,92,26978,2,0,L|256:188,1,80
102,323,27208,5,0,0:0:0:0:
409,323,27323,1,0,0:0:0:0:
256,55,27439,2,0,L|256:135,1,80
340,296,27670,6,0,P|420:296|480:224,1,160
172,88,28016,2,0,P|92:88|32:160,1,160
340,296,28362,2,0,P|352:248|344:208,1,80
172,88,28593,5,0,0:0:0:0:
216,300,28708,1,0,0:0:0:0:
377,155,28824,2,0,L|360:68,1,80
144,53,29054,5,0,0:0:0:0:
202,335,29169,1,0,0:0:0:0:
416,142,29285,1,0,0:0:0:0:
413,123,29342,1,0,0:0:0:0:
409,103,29400,1,0,0:0:0:0:
405,83,29458,1,0,0:0:0:0:
401,64,29516,6,0,P|364:48|320:52,1,80
252,192,29747,1,0,0:0:0:0:
392,280,29862,2,0,P|431:281|467:265,1,80
496,108,30093,1,0,0:0:0:0:
252,192,30208,2,0,L|232:280,1,80
124,324,30439,5,0,0:0:0:0:
72,216,30554,1,0,0:0:0:0:
112,100,30670,1,0,0:0:0:0:
220,52,30785,1,0,0:0:0:0:
85,342,30901,5,0,0:0:0:0:
39,212,31016,1,0,0:0:0:0:
99,84,31132,1,0,0:0:0:0:
228,42,31247,1,0,0:0:0:0:
356,88,31362,6,0,P|408:96|436:88,1,80
392,304,31593,1,0,0:0:0:0:
432,4,31708,2,0,P|380:-4|352:4,1,80
392,304,31939,1,0,0:0:0:0:
500,52,32054,1,0,0:0:0:0:
264,192,32170,1,0,0:0:0:0:
472,364,32285,6,0,P|488:324|480:280,1,80
264,192,32516,2,0,B|204:167|204:217|144:192,1,120
128,208,32747,2,0,P|124:247|139:283,1,80
356,124,32978,2,0,B|415:148|415:98|475:124,1,120
492,136,33208,6,0,L|512:48,1,80
328,8,33439,1,0,0:0:0:0:
412,204,33554,2,0,L|432:292,1,80
248,332,33785,1,0,0:0:0:0:
256,140,33901,2,0,L|236:52,1,80
412,204,34131,5,0,0:0:0:0:
176,252,34247,1,0,0:0:0:0:
480,146,34362,2,0,P|500:186|496:226,1,80
184,116,34593,5,0,0:0:0:0:
420,68,34709,1,0,0:0:0:0:
116,174,34824,2,0,P|96:134|100:94,1,80
348,288,35054,6,0,L|360:332,2,40
256,88,35285,1,0,0:0:0:0:
164,288,35401,2,0,L|152:332,2,40
256,48,35631,1,0,0:0:0:0:
256,328,35747,2,0,L|256:376,2,40
131,107,35978,5,0,0:0:0:0:
385,108,36093,1,0,0:0:0:0:
256,328,36208,1,0,0:0:0:0:
256,304,36266,1,0,0:0:0:0:
256,280,36324,1,0,0:0:0:0:
256,33,36439,5,0,0:0:0:0:
406,289,36554,1,0,0:0:0:0:
110,290,36669,1,0,0:0:0:0:
88,284,36728,1,0,0:0:0:0:
64,276,36785,1,0,0:0:0:0:
40,268,36843,1,0,0:0:0:0:
16,260,36901,6,0,L|4:172,1,80
96,28,37131,1,0,0:0:0:0:
236,140,37247,2,0,L|248:228,1,80
388,328,37478,1,0,0:0:0:0:
460,168,37593,2,0,L|448:80,1,80
256,32,37824,5,0,0:0:0:0:
100,176,37939,1,0,0:0:0:0:
352,112,38054,1,0,0:0:0:0:
352,112,38112,1,0,0:0:0:0:
352,112,38170,1,0,0:0:0:0:
108,72,38285,5,0,0:0:0:0:
264,216,38400,1,0,0:0:0:0:
12,152,38515,1,0,0:0:0:0:
12,152,38573,1,0,0:0:0:0:
12,152,38631,1,0,0:0:0:0:
256,32,38747,6,0,L|352:20,1,80
480,124,38978,1,0,0:0:0:0:
264,216,39093,2,0,L|168:204,1,80
40,308,39324,1,0,0:0:0:0:
200,376,39439,1,0,0:0:0:0:
12,152,39554,1,0,0:0:0:0:
308,112,39670,6,0,L|404:96,1,80
324,328,39901,1,0,0:0:0:0:
324,328,39958,1,0,0:0:0:0:
324,328,40016,1,0,0:0:0:0:
204,112,40131,6,0,L|108:96,1,80
188,328,40362,1,0,0:0:0:0:
188,328,40419,1,0,0:0:0:0:
188,328,40477,1,0,0:0:0:0:
376,192,40593,5,0,0:0:0:0:
400,188,40651,1,0,0:0:0:0:
424,192,40708,1,0,0:0:0:0:
444,204,40766,1,0,0:0:0:0:
460,224,40824,2,0,P|468:248|472:276,3,40
404,332,41055,5,0,0:0:0:0:
380,336,41113,1,0,0:0:0:0:
356,332,41170,1,0,0:0:0:0:
336,320,41228,1,0,0:0:0:0:
320,300,41286,2,0,P|312:276|308:248,3,40
248,184,41516,5,0,0:0:0:0:
226,177,41573,1,0,0:0:0:0:
203,175,41631,1,0,0:0:0:0:
181,180,41689,1,0,0:0:0:0:
160,188,41746,1,0,0:0:0:0:
137,194,41804,1,0,0:0:0:0:
115,192,41862,1,0,0:0:0:0:
93,185,41919,1,0,0:0:0:0:
72,172,41978,2,0,L|56:132,3,40
128,88,42208,2,0,L|128:44,3,40
224,40,42439,5,0,0:0:0:0:
245,47,42496,1,0,0:0:0:0:
268,49,42554,1,0,0:0:0:0:
290,44,42612,1,0,0:0:0:0:
311,36,42669,1,0,0:0:0:0:
334,30,42727,1,0,0:0:0:0:
356,32,42785,1,0,0:0:0:0:
378,39,42842,1,0,0:0:0:0:
400,52,42901,2,0,L|416:92,3,40
344,136,43131,2,0,L|343:179,3,40
260,156,43362,5,0,0:0:0:0:
248,176,43420,1,0,0:0:0:0:
244,200,43478,1,0,0:0:0:0:
244,224,43535,1,0,0:0:0:0:
248,248,43593,2,0,L|276:296,3,40
352,324,43824,5,0,0:0:0:0:
372,312,43882,1,0,0:0:0:0:
396,308,43940,1,0,0:0:0:0:
420,308,43997,1,0,0:0:0:0:
444,312,44055,2,0,L|492:340,3,40
504,256,44285,6,0,L|496:172,1,80
480,20,44516,1,0,0:0:0:0:
384,244,44631,2,0,L|343:169,1,80
269,36,44862,1,0,0:0:0:0:
268,279,44978,2,0,L|202:226,1,80
81,133,45209,5,0,0:0:0:0:
269,36,45324,1,0,0:0:0:0:
480,20,45439,1,0,0:0:0:0:
480,20,45497,1,0,0:0:0:0:
480,20,45554,1,0,0:0:0:0:
512,228,45670,5,0,0:0:0:0:
324,325,45785,1,0,0:0:0:0:
113,341,45900,1,0,0:0:0:0:
113,341,45958,1,0,0:0:0:0:
113,341,46015,1,0,0:0:0:0:
248,200,46131,6,0,P|256:156|248:112,1,80
100,64,46362,1,0,0:0:0:0:
396,160,46478,6,0,P|370:123|333:97,1,80
100,64,46709,1,0,0:0:0:0:
472,27,46824,6,0,P|428:18|384:27,1,80
100,64,47054,6,0,L|84:144,1,80
152,300,47285,1,0,0:0:0:0:
176,292,47343,1,0,0:0:0:0:
200,284,47401,1,0,0:0:0:0:
428,148,47516,6,0,L|444:228,1,80
376,384,47747,1,0,0:0:0:0:
352,376,47805,1,0,0:0:0:0:
328,368,47863,1,0,0:0:0:0:
168,200,47978,5,0,0:0:0:0:
164,176,48035,1,0,0:0:0:0:
168,152,48093,1,0,0:0:0:0:
176,128,48151,1,0,0:0:0:0:
192,108,48208,2,0,P|196:80|192:56,3,40
270,87,48439,2,0,P|292:70|306:50,3,40
340,127,48670,2,0,P|368:132|392:127,3,40
360,206,48901,5,0,0:0:0:0:
351,228,48958,1,0,0:0:0:0:
347,251,49016,1,0,0:0:0:0:
349,275,49074,1,0,0:0:0:0:
357,298,49131,1,0,0:0:0:0:
370,318,49189,1,0,0:0:0:0:
387,334,49247,1,0,0:0:0:0:
408,344,49304,1,0,0:0:0:0:
432,348,49362,6,0,L|472:344,3,40
500,232,49593,2,0,L|460:228,3,40
416,152,49824,5,0,0:0:0:0:
392,144,49881,1,0,0:0:0:0:
368,144,49939,1,0,0:0:0:0:
344,152,49997,1,0,0:0:0:0:
324,168,50054,6,0,L|312:212,1,40
304,160,50170,2,0,L|275:195,1,40
288,144,50285,2,0,L|248:165,1,40
280,124,50401,2,0,L|234:128,1,40
280,102,50516,2,0,L|236:88,1,40
288,81,50631,2,0,L|253:51,1,40
344,24,50747,5,0,0:0:0:0:
357,4,50804,1,0,0:0:0:0:
379,0,50862,1,0,0:0:0:0:
402,0,50920,1,0,0:0:0:0:
420,15,50977,1,0,0:0:0:0:
426,38,51035,1,0,0:0:0:0:
418,60,51093,1,0,0:0:0:0:
400,75,51150,1,0,0:0:0:0:
376,78,51208,6,0,L|364:128,3,40
408,176,51439,2,0,L|395:225,3,40
448,264,51670,6,0,L|427:342,1,80
260,368,51901,1,0,0:0:0:0:
312,200,52016,2,0,L|291:121,1,80
124,96,52247,1,0,0:0:0:0:
220,228,52362,1,0,0:0:0:0:
268,32,52478,1,0,0:0:0:0:
48,120,52593,6,0,P|40:164|48:200,1,80
220,228,52824,1,0,0:0:0:0:
224,204,52881,1,0,0:0:0:0:
220,180,52939,1,0,0:0:0:0:
152,0,53054,6,0,P|144:44|152:80,1,80
324,108,53285,1,0,0:0:0:0:
328,84,53342,1,0,0:0:0:0:
324,60,53400,1,0,0:0:0:0:
144,236,53516,6,0,L|124:328,1,80
400,236,53747,1,0,0:0:0:0:
88,156,53862,2,0,L|68:248,1,80
344,156,54093,1,0,0:0:0:0:
32,76,54208,2,0,L|12:168,1,80
232,340,54439,5,0,0:0:0:0:
268,120,54554,1,0,0:0:0:0:
71,234,54670,1,0,0:0:0:0:
71,234,54728,1,0,0:0:0:0:
71,234,54785,1,0,0:0:0:0:
254,366,54901,5,0,0:0:0:0:
299,92,55016,1,0,0:0:0:0:
53,234,55132,1,0,0:0:0:0:
53,234,55190,1,0,0:0:0:0:
53,234,55247,1,0,0:0:0:0:
372,256,55362,6,0,L|472:244,1,80
299,92,55593,1,0,0:0:0:0:
388,265,55708,2,0,L|468:255,1,80
305,77,55939,1,0,0:0:0:0:
264,296,56054,1,0,0:0:0:0:
264,296,56112,1,0,0:0:0:0:
264,296,56170,1,0,0:0:0:0:
311,63,56285,6,0,L|231:72,1,80
56,48,56516,1,0,0:0:0:0:
36,36,56574,1,0,0:0:0:0:
16,24,56631,1,0,0:0:0:0:
84,212,56747,6,0,L|163:221,1,80
339,197,56978,1,0,0:0:0:0:
359,185,57036,1,0,0:0:0:0:
379,173,57093,1,0,0:0:0:0:
223,24,57208,6,0,P|215:62|223:101,1,80
366,280,57439,1,0,0:0:0:0:
506,102,57554,2,0,P|513:62|505:24,1,80
224,24,57785,1,0,0:0:0:0:
366,280,57901,1,0,0:0:0:0:
366,280,57958,1,0,0:0:0:0:
366,280,58016,1,0,0:0:0:0:
408,0,58131,5,0,0:0:0:0:
284,200,58247,1,0,0:0:0:0:
496,300,58362,1,0,0:0:0:0:
500,276,58420,1,0,0:0:0:0:
504,252,58478,1,0,0:0:0:0:
260,88,58593,5,0,0:0:0:0:
236,84,58651,1,0,0:0:0:0:
212,80,58708,1,0,0:0:0:0:
188,76,58766,1,0,0:0:0:0:
164,72,58824,1,0,0:0:0:0:
140,68,58881,1,0,0:0:0:0:
116,64,58939,1,0,0:0:0:0:
92,60,58997,1,0,0:0:0:0:
68,56,59054,6,0,L|24:80,3,40
88,160,59285,2,0,L|73:208,3,40
175,219,59516,2,0,L|199:263,3,40
278,199,59747,2,0,L|326:213,3,40
328,128,59978,5,0,0:0:0:0:
336,105,60035,1,0,0:0:0:0:
337,81,60093,1,0,0:0:0:0:
333,58,60151,1,0,0:0:0:0:
322,36,60208,1,0,0:0:0:0:
305,19,60266,1,0,0:0:0:0:
285,7,60324,1,0,0:0:0:0:
263,0,60381,1,0,0:0:0:0:
260,24,60439,5,0,0:0:0:0:
252,46,60496,1,0,0:0:0:0:
240,66,60554,1,0,0:0:0:0:
223,83,60612,1,0,0:0:0:0:
201,94,60669,1,0,0:0:0:0:
178,98,60727,1,0,0:0:0:0:
154,97,60785,1,0,0:0:0:0:
132,89,60842,1,0,0:0:0:0:
112,76,60901,6,0,L|96:40,3,40
80,160,61131,2,0,L|64:124,3,40
48,244,61362,2,0,L|32:208,3,40
16,328,61593,2,0,L|0:292,3,40
48,244,61824,5,0,0:0:0:0:
70,234,61881,1,0,0:0:0:0:
93,231,61939,1,0,0:0:0:0:
117,233,61997,1,0,0:0:0:0:
140,240,62054,1,0,0:0:0:0:
160,253,62112,1,0,0:0:0:0:
177,270,62170,1,0,0:0:0:0:
188,292,62228,1,0,0:0:0:0:
196,316,62285,6,0,L|236:344,1,40
212,292,62401,2,0,L|259:302,1,40
218,264,62516,2,0,L|265:254,1,40
212,236,62631,2,0,L|252:208,1,40
196,220,62747,5,0,0:0:0:0:
184,198,62804,1,0,0:0:0:0:
180,175,62862,1,0,0:0:0:0:
182,151,62920,1,0,0:0:0:0:
208,112,62978,5,0,0:0:0:0:
219,90,63035,1,0,0:0:0:0:
223,67,63093,1,0,0:0:0:0:
221,43,63151,1,0,0:0:0:0:
200,4,63208,6,0,L|156:-4,3,40
300,72,63439,2,0,L|344:64,3,40
111,115,63670,6,0,P|95:104|85:87,1,40
108,136,63785,2,0,P|88:131|72:119,1,40
112,155,63901,2,0,P|92:158|73:153,1,40
123,170,64016,2,0,P|106:181|86:184,1,40
192,232,64131,6,0,P|208:220|228:217,1,40
203,246,64247,2,0,P|222:242|241:247,1,40
207,265,64362,2,0,P|226:269|242:281,1,40
203,286,64478,2,0,P|219:297|229:314,1,40
88,324,64593,6,0,L|40:296,3,40
123,170,64824,2,0,L|108:116,3,40
257,86,65054,2,0,L|285:37,3,40
411,121,65285,2,0,L|464:106,3,40
508,240,65516,5,0,0:0:0:0:
481,256,65573,1,0,0:0:0:0:
450,264,65631,1,0,0:0:0:0:
418,261,65689,1,0,0:0:0:0:
389,248,65747,2,0,L|352:208,3,40
304,168,65978,5,0,0:0:0:0:
272,162,66035,1,0,0:0:0:0:
240,167,66093,1,0,0:0:0:0:
212,182,66151,1,0,0:0:0:0:
190,206,66209,2,0,L|171:257,3,40
120,296,66439,6,0,P|84:304|40:296,1,80
88,60,66670,1,0,0:0:0:0:
292,352,66785,2,0,P|256:360|212:352,1,80
260,116,67016,1,0,0:0:0:0:
470,296,67131,2,0,P|430:304|392:296,1,80
424,60,67362,5,0,0:0:0:0:
476,320,67478,1,0,0:0:0:0:
216,372,67593,1,0,0:0:0:0:
216,372,67651,1,0,0:0:0:0:
216,372,67708,1,0,0:0:0:0:
164,112,67824,5,0,0:0:0:0:
424,60,67940,1,0,0:0:0:0:
476,320,68055,1,0,0:0:0:0:
476,320,68113,1,0,0:0:0:0:
476,320,68170,1,0,0:0:0:0:
216,372,68285,6,0,L|136:360,1,80
12,156,68516,1,0,0:0:0:0:
236,72,68631,2,0,P|248:108|236:152,1,80
12,64,68862,1,0,0:0:0:0:
296,12,68978,2,0,L|376:24,1,80
456,248,69208,5,0,0:0:0:0:
256,380,69324,1,0,0:0:0:0:
56,248,69439,1,0,0:0:0:0:
64,224,69497,1,0,0:0:0:0:
72,200,69554,1,0,0:0:0:0:
256,44,69670,5,0,0:0:0:0:
164,300,69785,1,0,0:0:0:0:
392,148,69901,1,0,0:0:0:0:
368,140,69958,1,0,0:0:0:0:
344,132,70016,1,0,0:0:0:0:
60,48,70131,5,0,0:0:0:0:
72,68,70189,1,0,0:0:0:0:
84,88,70247,1,0,0:0:0:0:
96,108,70304,1,0,0:0:0:0:
112,128,70362,6,0,P|140:136|176:132,3,40
216,92,70593,2,0,P|235:93|254:100,3,40
296,168,70824,2,0,P|324:176|360:172,3,40
416,132,71054,5,0,0:0:0:0:
408,154,71111,1,0,0:0:0:0:
404,178,71169,1,0,0:0:0:0:
404,202,71227,1,0,0:0:0:0:
409,225,71284,1,0,0:0:0:0:
417,248,71342,1,0,0:0:0:0:
430,268,71400,1,0,0:0:0:0:
446,286,71458,1,0,0:0:0:0:
464,300,71516,6,0,L|448:352,1,40
384,364,71631,2,0,L|368:312,1,40
304,300,71747,2,0,L|288:352,1,40
224,364,71862,2,0,L|208:312,1,40
192,248,71978,5,0,0:0:0:0:
170,238,72035,1,0,0:0:0:0:
146,233,72093,1,0,0:0:0:0:
122,234,72151,1,0,0:0:0:0:
99,241,72208,1,0,0:0:0:0:
79,253,72266,1,0,0:0:0:0:
61,270,72324,1,0,0:0:0:0:
49,290,72381,1,0,0:0:0:0:
41,312,72439,6,0,L|56:360,3,40
120,380,72670,2,0,L|134:332,3,40
200,304,72901,5,0,0:0:0:0:
224,300,72958,1,0,0:0:0:0:
248,304,73016,1,0,0:0:0:0:
268,316,73074,1,0,0:0:0:0:
284,332,73131,6,0,L|336:320,1,40
372,376,73247,2,0,L|424:364,1,40
496,376,73362,5,0,0:0:0:0:
483,355,73419,1,0,0:0:0:0:
473,333,73477,1,0,0:0:0:0:
468,310,73535,1,0,0:0:0:0:
467,286,73592,1,0,0:0:0:0:
469,262,73650,1,0,0:0:0:0:
476,239,73708,1,0,0:0:0:0:
487,218,73765,1,0,0:0:0:0:
504,200,73824,6,0,L|472:104,1,80
256,40,74054,1,0,0:0:0:0:
33,124,74170,2,0,L|8:200,1,80
172,376,74401,1,0,0:0:0:0:
256,152,74516,1,0,0:0:0:0:
256,152,74574,1,0,0:0:0:0:
256,152,74631,1,0,0:0:0:0:
68,304,74747,5,0,0:0:0:0:
300,356,74862,1,0,0:0:0:0:
416,144,74978,1,0,0:0:0:0:
416,144,75035,1,0,0:0:0:0:
416,144,75093,1,0,0:0:0:0:
36,323,75208,5,0,0:0:0:0:
307,383,75323,1,0,0:0:0:0:
443,135,75439,1,0,0:0:0:0:
443,135,75496,1,0,0:0:0:0:
443,135,75554,1,0,0:0:0:0:
184,24,75670,6,0,P|176:68|184:104,1,80
256,372,75901,1,0,0:0:0:0:
328,102,76016,2,0,P|336:62|328:24,1,80
112,204,76247,1,0,0:0:0:0:
400,204,76362,1,0,0:0:0:0:
408,180,76420,1,0,0:0:0:0:
416,156,76478,1,0,0:0:0:0:
492,376,76593,5,0,0:0:0:0:
256,264,76708,1,0,0:0:0:0:
468,104,76824,1,0,0:0:0:0:
460,80,76882,1,0,0:0:0:0:
452,56,76940,1,0,0:0:0:0:
104,12,77054,5,0,0:0:0:0:
340,124,77169,1,0,0:0:0:0:
128,284,77285,1,0,0:0:0:0:
136,308,77343,1,0,0:0:0:0:
144,332,77401,1,0,0:0:0:0:
436,328,77516,5,0,0:0:0:0:
476,224,77631,1,0,0:0:0:0:
372,184,77747,1,0,0:0:0:0:
332,288,77862,1,0,0:0:0:0:
439,310,77978,5,0,0:0:0:0:
458,189,78093,1,0,0:0:0:0:
337,170,78209,1,0,0:0:0:0:
318,291,78324,1,0,0:0:0:0:
442,286,78439,5,0,0:0:0:0:
435,151,78554,1,0,0:0:0:0:
300,158,78670,1,0,0:0:0:0:
307,292,78785,1,0,0:0:0:0:
449,257,78901,5,0,0:0:0:0:
409,114,79016,1,0,0:0:0:0:
265,152,79132,1,0,0:0:0:0:
303,295,79247,1,0,0:0:0:0:
453,225,79362,5,0,0:0:0:0:
265,152,79478,1,0,0:0:0:0:
188,344,79593,1,0,0:0:0:0:
0,271,79709,1,0,0:0:0:0:
96,24,79824,6,0,L|143:109,1,80
300,376,80054,2,0,L|347:291,1,80
289,27,80285,5,0,0:0:0:0:
91,160,80401,1,0,0:0:0:0:
224,357,80516,1,0,0:0:0:0:
422,224,80632,1,0,0:0:0:0:
221,26,80747,5,0,0:0:0:0:
90,226,80863,1,0,0:0:0:0:
291,357,80978,1,0,0:0:0:0:
422,157,81094,1,0,0:0:0:0:
232,16,81208,5,0,0:0:0:0:
208,8,81265,1,0,0:0:0:0:
185,2,81323,1,0,0:0:0:0:
161,0,81381,1,0,0:0:0:0:
137,0,81438,1,0,0:0:0:0:
115,8,81496,1,0,0:0:0:0:
95,21,81554,1,0,0:0:0:0:
77,37,81611,1,0,0:0:0:0:
62,55,81669,1,0,0:0:0:0:
50,76,81727,1,0,0:0:0:0:
42,99,81784,1,0,0:0:0:0:
38,123,81842,1,0,0:0:0:0:
38,147,81900,1,0,0:0:0:0:
42,170,81958,1,0,0:0:0:0:
48,192,82016,1,0,0:0:0:0:
60,212,82074,1,0,0:0:0:0:
76,232,82131,6,0,P|112:248|136:244,3,40
188,236,82362,2,0,P|207:240|223:251,3,40
240,324,82593,2,0,P|276:340|300:336,3,40
352,328,82824,2,0,P|371:332|387:343,3,40
472,376,83054,5,0,0:0:0:0:
452,361,83111,1,0,0:0:0:0:
435,344,83169,1,0,0:0:0:0:
421,325,83227,1,0,0:0:0:0:
410,304,83284,1,0,0:0:0:0:
401,281,83342,1,0,0:0:0:0:
396,258,83400,1,0,0:0:0:0:
394,234,83457,1,0,0:0:0:0:
395,210,83515,1,0,0:0:0:0:
399,187,83573,1,0,0:0:0:0:
407,164,83630,1,0,0:0:0:0:
418,143,83688,1,0,0:0:0:0:
432,123,83746,1,0,0:0:0:0:
448,105,83804,1,0,0:0:0:0:
467,90,83861,1,0,0:0:0:0:
487,78,83919,1,0,0:0:0:0:
512,72,83978,6,0,L|504:32,3,40
416,4,84208,2,0,L|408:44,3,40
332,100,84439,2,0,L|324:60,3,40
236,32,84669,2,0,L|228:72,3,40
208,144,84901,5,0,0:0:0:0:
193,163,84958,1,0,0:0:0:0:
174,177,85016,1,0,0:0:0:0:
152,187,85074,1,0,0:0:0:0:
129,191,85131,1,0,0:0:0:0:
105,189,85189,1,0,0:0:0:0:
82,182,85247,1,0,0:0:0:0:
62,168,85304,1,0,0:0:0:0:
46,151,85362,1,0,0:0:0:0:
35,130,85420,1,0,0:0:0:0:
29,106,85477,1,0,0:0:0:0:
29,83,85535,1,0,0:0:0:0:
36,59,85593,1,0,0:0:0:0:
47,38,85651,1,0,0:0:0:0:
64,21,85708,1,0,0:0:0:0:
84,8,85766,1,0,0:0:0:0:
108,4,85824,6,0,L|156:16,3,40
208,56,86054,2,0,L|256:44,3,40
308,4,86285,2,0,L|356:16,3,40
408,56,86515,2,0,L|456:44,3,40
492,116,86747,5,0,0:0:0:0:
486,139,86804,1,0,0:0:0:0:
472,158,86862,1,0,0:0:0:0:
453,173,86920,1,0,0:0:0:0:
432,183,86977,1,0,0:0:0:0:
408,187,87035,1,0,0:0:0:0:
384,185,87093,1,0,0:0:0:0:
361,178,87150,1,0,0:0:0:0:
339,169,87208,1,0,0:0:0:0:
316,161,87266,1,0,0:0:0:0:
293,159,87323,1,0,0:0:0:0:
269,162,87381,1,0,0:0:0:0:
247,172,87439,1,0,0:0:0:0:
228,186,87497,1,0,0:0:0:0:
214,205,87554,1,0,0:0:0:0:
207,228,87612,1,0,0:0:0:0:
208,252,87670,6,0,L|220:292,3,40
128,220,87901,2,0,L|108:256,3,40
94,140,88131,2,0,L|54:152,3,40
126,59,88362,2,0,L|89:39,3,40
24,12,88593,5,0,0:0:0:0:
17,34,88650,1,0,0:0:0:0:
12,58,88708,1,0,0:0:0:0:
8,82,88766,1,0,0:0:0:0:
7,106,88823,1,0,0:0:0:0:
8,130,88881,1,0,0:0:0:0:
11,153,88939,1,0,0:0:0:0:
16,177,88996,1,0,0:0:0:0:
23,200,89054,1,0,0:0:0:0:
32,222,89112,1,0,0:0:0:0:
43,244,89169,1,0,0:0:0:0:
55,264,89227,1,0,0:0:0:0:
70,284,89285,1,0,0:0:0:0:
85,302,89343,1,0,0:0:0:0:
102,318,89400,1,0,0:0:0:0:
121,334,89458,1,0,0:0:0:0:
144,344,89516,6,0,L|192:352,3,40
252,376,89747,2,0,L|300:368,3,40
336,308,89978,2,0,L|384:316,3,40
444,340,90209,2,0,L|492:332,3,40
508,256,90439,5,0,0:0:0:0:
512,232,90496,1,0,0:0:0:0:
512,208,90554,1,0,0:0:0:0:
508,185,90612,1,0,0:0:0:0:
499,162,90669,1,0,0:0:0:0:
485,143,90727,1,0,0:0:0:0:
468,126,90785,1,0,0:0:0:0:
448,113,90842,1,0,0:0:0:0:
425,104,90900,1,0,0:0:0:0:
402,100,90958,1,0,0:0:0:0:
378,101,91015,1,0,0:0:0:0:
355,107,91073,1,0,0:0:0:0:
333,117,91131,1,0,0:0:0:0:
313,131,91189,1,0,0:0:0:0:
297,148,91246,1,0,0:0:0:0:
285,169,91304,1,0,0:0:0:0:
276,192,91362,6,0,L|284:240,3,40
200,228,91593,2,0,L|188:275,3,40
115,231,91824,2,0,L|86:270,3,40
35,200,92054,2,0,L|-6:224,3,40
4,120,92285,5,0,0:0:0:0:
22,105,92342,1,0,0:0:0:0:
44,94,92400,1,0,0:0:0:0:
67,89,92458,1,0,0:0:0:0:
91,90,92515,1,0,0:0:0:0:
114,97,92573,1,0,0:0:0:0:
136,107,92631,1,0,0:0:0:0:
158,116,92688,1,0,0:0:0:0:
182,118,92746,1,0,0:0:0:0:
205,111,92804,1,0,0:0:0:0:
227,101,92861,1,0,0:0:0:0:
249,93,92919,1,0,0:0:0:0:
273,89,92977,1,0,0:0:0:0:
297,91,93035,1,0,0:0:0:0:
319,100,93092,1,0,0:0:0:0:
339,113,93150,1,0,0:0:0:0:
356,132,93208,6,0,L|368:184,3,40
444,212,93439,2,0,L|432:264,3,40
324,252,93670,2,0,L|336:304,3,40
412,332,93901,2,0,L|400:384,3,40
320,380,94131,5,0,0:0:0:0:
296,384,94188,1,0,0:0:0:0:
272,385,94246,1,0,0:0:0:0:
249,380,94304,1,0,0:0:0:0:
226,371,94361,1,0,0:0:0:0:
206,358,94419,1,0,0:0:0:0:
189,341,94477,1,0,0:0:0:0:
175,322,94534,1,0,0:0:0:0:
166,300,94592,1,0,0:0:0:0:
161,276,94650,1,0,0:0:0:0:
160,252,94707,1,0,0:0:0:0:
164,229,94765,1,0,0:0:0:0:
173,206,94823,1,0,0:0:0:0:
185,186,94881,1,0,0:0:0:0:
202,169,94938,1,0,0:0:0:0:
221,155,94996,1,0,0:0:0:0:
244,148,95054,6,0,L|288:160,3,40
352,184,95285,2,0,L|390:173,3,40
460,152,95516,1,0,0:0:0:0:
464,140,95574,1,0,0:0:0:0:
468,128,95631,1,0,0:0:0:0:
472,116,95689,1,0,0:0:0:0:
476,104,95747,1,0,0:0:0:0:
480,92,95804,1,0,0:0:0:0:
484,80,95862,1,0,0:0:0:0:
488,68,95920,1,0,0:0:0:0:
492,56,95978,5,0,0:0:0:0:
467,42,96035,1,0,0:0:0:0:
441,31,96093,1,0,0:0:0:0:
415,22,96151,1,0,0:0:0:0:
387,17,96208,1,0,0:0:0:0:
359,15,96266,1,0,0:0:0:0:
331,15,96324,1,0,0:0:0:0:
304,19,96381,1,0,0:0:0:0:
276,25,96439,1,0,0:0:0:0:
250,35,96497,1,0,0:0:0:0:
225,47,96554,1,0,0:0:0:0:
201,62,96612,1,0,0:0:0:0:
179,79,96670,1,0,0:0:0:0:
159,99,96728,1,0,0:0:0:0:
142,121,96785,1,0,0:0:0:0:
126,144,96843,1,0,0:0:0:0:
120,172,96901,5,0,0:0:0:0:
144,158,96958,1,0,0:0:0:0:
170,147,97016,1,0,0:0:0:0:
196,138,97074,1,0,0:0:0:0:
224,133,97131,1,0,0:0:0:0:
252,131,97189,1,0,0:0:0:0:
280,131,97247,1,0,0:0:0:0:
307,135,97304,1,0,0:0:0:0:
328,152,97362,5,0,0:0:0:0:
314,176,97419,1,0,0:0:0:0:
303,202,97477,1,0,0:0:0:0:
294,228,97535,1,0,0:0:0:0:
289,256,97593,2,0,P|288:292|292:312,3,40
304,320,97824,5,0,0:0:0:0:
329,330,97881,1,0,0:0:0:0:
357,336,97939,1,0,0:0:0:0:
385,336,97997,1,0,0:0:0:0:
412,331,98054,1,0,0:0:0:0:
438,321,98112,1,0,0:0:0:0:
462,306,98170,1,0,0:0:0:0:
482,287,98227,1,0,0:0:0:0:
498,264,98285,1,0,0:0:0:0:
509,238,98343,1,0,0:0:0:0:
512,211,98400,1,0,0:0:0:0:
512,183,98458,1,0,0:0:0:0:
512,156,98516,1,0,0:0:0:0:
503,129,98574,1,0,0:0:0:0:
488,105,98631,1,0,0:0:0:0:
470,85,98689,1,0,0:0:0:0:
444,72,98747,5,0,0:0:0:0:
433,97,98804,1,0,0:0:0:0:
418,121,98862,1,0,0:0:0:0:
398,141,98920,1,0,0:0:0:0:
375,157,98977,1,0,0:0:0:0:
349,168,99035,1,0,0:0:0:0:
322,174,99093,1,0,0:0:0:0:
294,174,99150,1,0,0:0:0:0:
268,164,99208,5,0,0:0:0:0:
258,190,99265,1,0,0:0:0:0:
251,218,99323,1,0,0:0:0:0:
251,246,99381,1,0,0:0:0:0:
252,276,99439,2,0,L|244:324,3,40
236,340,99670,5,0,0:0:0:0:
214,357,99727,1,0,0:0:0:0:
188,369,99785,1,0,0:0:0:0:
161,375,99843,1,0,0:0:0:0:
133,374,99900,1,0,0:0:0:0:
106,368,99958,1,0,0:0:0:0:
81,355,100016,1,0,0:0:0:0:
59,337,100073,1,0,0:0:0:0:
43,315,100131,1,0,0:0:0:0:
31,290,100189,1,0,0:0:0:0:
25,262,100246,1,0,0:0:0:0:
26,234,100304,1,0,0:0:0:0:
33,207,100362,1,0,0:0:0:0:
46,183,100420,1,0,0:0:0:0:
65,161,100477,1,0,0:0:0:0:
87,145,100535,1,0,0:0:0:0:
116,136,100593,6,0,L|160:152,1,40
148,112,100708,2,0,L|194:109,1,40
168,77,100824,2,0,L|210:56,1,40
172,36,100939,2,0,L|202:0,1,40
288,44,101054,6,0,L|272:88,1,40
312,76,101169,2,0,L|314:122,1,40
347,96,101285,2,0,L|367:138,1,40
388,100,101400,2,0,L|423:130,1,40
472,180,101516,5,0,0:0:0:0:
470,207,101573,1,0,0:0:0:0:
464,235,101631,1,0,0:0:0:0:
454,261,101689,1,0,0:0:0:0:
440,285,101746,1,0,0:0:0:0:
423,307,101804,1,0,0:0:0:0:
402,327,101862,1,0,0:0:0:0:
380,343,101919,1,0,0:0:0:0:
355,355,101977,1,0,0:0:0:0:
328,364,102035,1,0,0:0:0:0:
301,369,102092,1,0,0:0:0:0:
273,370,102150,1,0,0:0:0:0:
245,366,102208,1,0,0:0:0:0:
218,359,102266,1,0,0:0:0:0:
192,348,102323,1,0,0:0:0:0:
169,333,102381,1,0,0:0:0:0:
147,314,102439,6,0,L|136:268,3,40
176,132,102670,2,0,L|166:93,3,40
345,93,102901,2,0,L|336:132,3,40
373,276,103131,2,0,L|364:314,3,40
256,360,103362,5,0,0:0:0:0:
228,364,103419,1,0,0:0:0:0:
200,365,103477,1,0,0:0:0:0:
172,361,103535,1,0,0:0:0:0:
145,354,103592,1,0,0:0:0:0:
120,342,103650,1,0,0:0:0:0:
96,327,103708,1,0,0:0:0:0:
75,309,103765,1,0,0:0:0:0:
57,287,103823,1,0,0:0:0:0:
43,263,103881,1,0,0:0:0:0:
32,238,103938,1,0,0:0:0:0:
24,211,103996,1,0,0:0:0:0:
22,183,104054,1,0,0:0:0:0:
23,155,104112,1,0,0:0:0:0:
28,127,104169,1,0,0:0:0:0:
37,101,104227,1,0,0:0:0:0:
50,76,104285,6,0,L|76:28,3,40
160,132,104516,2,0,L|163:77,3,40
282,140,104747,2,0,L|264:88,3,40
397,99,104978,2,0,L|360:58,3,40
464,40,105208,5,0,0:0:0:0:
478,64,105265,1,0,0:0:0:0:
490,89,105323,1,0,0:0:0:0:
497,116,105381,1,0,0:0:0:0:
501,144,105438,1,0,0:0:0:0:
500,172,105496,1,0,0:0:0:0:
496,200,105554,1,0,0:0:0:0:
487,226,105611,1,0,0:0:0:0:
474,251,105669,1,0,0:0:0:0:
457,273,105727,1,0,0:0:0:0:
439,293,105784,1,0,0:0:0:0:
417,311,105842,1,0,0:0:0:0:
392,324,105900,1,0,0:0:0:0:
366,334,105958,1,0,0:0:0:0:
338,340,106015,1,0,0:0:0:0:
311,342,106073,1,0,0:0:0:0:
284,344,106131,6,0,L|231:328,3,40
315,224,106362,2,0,L|260:232,3,40
298,103,106593,2,0,L|250:131,3,40
234,0,106824,2,0,L|201:44,3,40
144,84,107054,5,0,0:0:0:0:
119,96,107111,1,0,0:0:0:0:
92,103,107169,1,0,0:0:0:0:
64,104,107227,1,0,0:0:0:0:
36,99,107284,1,0,0:0:0:0:
16,81,107342,1,0,0:0:0:0:
15,54,107400,1,0,0:0:0:0:
35,36,107457,1,0,0:0:0:0:
59,48,107515,1,0,0:0:0:0:
71,73,107573,1,0,0:0:0:0:
70,101,107630,1,0,0:0:0:0:
60,127,107688,1,0,0:0:0:0:
48,153,107746,1,0,0:0:0:0:
41,179,107804,1,0,0:0:0:0:
39,207,107861,1,0,0:0:0:0:
44,235,107919,1,0,0:0:0:0:
56,260,107978,6,0,L|104:280,3,40
184,304,108208,2,0,L|232:284,3,40
316,264,108439,2,0,L|364:284,3,40
444,308,108669,2,0,L|492:288,3,40
496,216,108901,5,0,0:0:0:0:
503,189,108958,1,0,0:0:0:0:
506,161,109016,1,0,0:0:0:0:
503,133,109074,1,0,0:0:0:0:
495,106,109131,1,0,0:0:0:0:
482,81,109189,1,0,0:0:0:0:
465,59,109247,1,0,0:0:0:0:
444,41,109304,1,0,0:0:0:0:
420,27,109362,1,0,0:0:0:0:
393,17,109420,1,0,0:0:0:0:
366,13,109477,1,0,0:0:0:0:
338,14,109535,1,0,0:0:0:0:
310,20,109593,1,0,0:0:0:0:
285,32,109651,1,0,0:0:0:0:
262,47,109708,1,0,0:0:0:0:
242,67,109766,1,0,0:0:0:0:
236,96,109824,5,0,0:0:0:0:
266,114,109881,1,0,0:0:0:0:
289,139,109939,1,0,0:0:0:0:
304,171,109997,1,0,0:0:0:0:
309,205,110054,1,0,0:0:0:0:
305,239,110112,1,0,0:0:0:0:
290,270,110170,1,0,0:0:0:0:
267,296,110227,1,0,0:0:0:0:
238,315,110285,1,0,0:0:0:0:
205,324,110343,1,0,0:0:0:0:
170,323,110400,1,0,0:0:0:0:
137,312,110458,1,0,0:0:0:0:
109,292,110516,1,0,0:0:0:0:
88,265,110574,1,0,0:0:0:0:
75,233,110631,1,0,0:0:0:0:
72,198,110689,1,0,0:0:0:0:
80,164,110747,5,0,0:0:0:0:
36,16,112131,5,0,0:0:0:0:
67,18,112188,1,0,0:0:0:0:
99,21,112246,1,0,0:0:0:0:
131,24,112304,1,0,0:0:0:0:
163,27,112361,1,0,0:0:0:0:
195,30,112419,1,0,0:0:0:0:
227,33,112477,1,0,0:0:0:0:
259,36,112534,1,0,0:0:0:0:
292,40,112593,6,0,P|305:112|244:188,1,160
348,372,112939,2,0,P|334:299|396:224,1,160
508,120,113285,1,0,0:0:0:0:
440,323,113401,1,0,0:0:0:0:
292,40,113516,5,0,0:0:0:0:
