osu file format v14

[General]
AudioFilename: audio.mp3
AudioLeadIn: 0
PreviewTime: 51277
Countdown: 0
SampleSet: Normal
StackLeniency: 0.8
Mode: 3
LetterboxInBreaks: 0
SpecialStyle: 1
WidescreenStoryboard: 0

[Editor]
DistanceSpacing: 0.8
BeatDivisor: 6
GridSize: 32
TimelineZoom: 2.699999

[Metadata]
Title:He He He
TitleUnicode:He He He
Artist:Cardboard Box
ArtistUnicode:Cardboard Box
Creator:Herkkupala
Version:Unamused
Source:
Tags:furbycore
BeatmapID:1361292
BeatmapSetID:642060

[Difficulty]
HPDrainRate:8.5
CircleSize:4
OverallDifficulty:8.5
ApproachRate:5
SliderMultiplier:1.4
SliderTickRate:1

[Events]
//Background and Video events
0,0,"bg.png",0,0
//Break Periods
//Storyboard Layer 0 (Background)
//Storyboard Layer 1 (Fail)
//Storyboard Layer 2 (Pass)
//Storyboard Layer 3 (Foreground)
//Storyboard Sound Samples

[TimingPoints]
10,474.3083,4,1,0,30,1,0
10,-50,4,1,0,30,0,0
37008,237.15415,4,1,0,30,1,0
37048,-100,4,1,0,30,0,0
68352,-100,4,1,0,30,0,1
82581,-100,4,1,0,30,0,0

[HitObjects]
320,192,3804,5,0,0:0:0:0:
448,192,3804,1,0,0:0:0:0:
64,192,4041,1,0,0:0:0:0:
320,192,4278,1,0,0:0:0:0:
448,192,4278,1,0,0:0:0:0:
64,192,4515,1,0,0:0:0:0:
192,192,4753,1,0,0:0:0:0:
320,192,4753,1,0,0:0:0:0:
64,192,4990,1,0,0:0:0:0:
192,192,5108,1,0,0:0:0:0:
448,192,5108,1,0,0:0:0:0:
192,192,5345,1,0,0:0:0:0:
448,192,5345,1,0,0:0:0:0:
64,192,5464,1,0,0:0:0:0:
64,192,5701,1,0,0:0:0:0:
192,192,5701,1,0,0:0:0:0:
320,192,5938,1,0,0:0:0:0:
64,192,6176,1,0,0:0:0:0:
192,192,6176,1,0,0:0:0:0:
320,192,6413,1,0,0:0:0:0:
192,192,6650,1,0,0:0:0:0:
448,192,6650,1,0,0:0:0:0:
320,192,6887,1,0,0:0:0:0:
64,192,7006,1,0,0:0:0:0:
448,192,7006,1,0,0:0:0:0:
64,192,7243,1,0,0:0:0:0:
448,192,7243,1,0,0:0:0:0:
320,192,7361,1,0,0:0:0:0:
320,192,7598,1,0,0:0:0:0:
448,192,7598,1,0,0:0:0:0:
192,192,7717,1,0,0:0:0:0:
320,192,7836,1,0,0:0:0:0:
192,192,7954,1,0,0:0:0:0:
320,192,8073,1,0,0:0:0:0:
448,192,8073,1,0,0:0:0:0:
192,192,8191,1,0,0:0:0:0:
320,192,8310,1,0,0:0:0:0:
192,192,8428,1,0,0:0:0:0:
64,192,8547,1,0,0:0:0:0:
448,192,8547,1,0,0:0:0:0:
320,192,8666,1,0,0:0:0:0:
192,192,8784,1,0,0:0:0:0:
320,192,8903,1,0,0:0:0:0:
448,192,8903,1,0,0:0:0:0:
192,192,9021,1,0,0:0:0:0:
320,192,9140,1,0,0:0:0:0:
448,192,9140,1,0,0:0:0:0:
64,192,9259,1,0,0:0:0:0:
192,192,9377,1,0,0:0:0:0:
64,192,9496,1,0,0:0:0:0:
448,192,9496,1,0,0:0:0:0:
192,192,9614,1,0,0:0:0:0:
448,192,9733,1,0,0:0:0:0:
192,192,9851,1,0,0:0:0:0:
320,192,9970,1,0,0:0:0:0:
448,192,9970,1,0,0:0:0:0:
192,192,10089,1,0,0:0:0:0:
448,192,10207,1,0,0:0:0:0:
192,192,10326,1,0,0:0:0:0:
64,192,10444,1,0,0:0:0:0:
320,192,10444,1,0,0:0:0:0:
448,192,10563,1,0,0:0:0:0:
64,192,10681,1,0,0:0:0:0:
192,192,10800,1,0,0:0:0:0:
320,192,10800,1,0,0:0:0:0:
448,192,10919,1,0,0:0:0:0:
192,192,11037,1,0,0:0:0:0:
320,192,11037,1,0,0:0:0:0:
64,192,11156,1,0,0:0:0:0:
448,192,11274,1,0,0:0:0:0:
64,192,11393,1,0,0:0:0:0:
192,192,11393,1,0,0:0:0:0:
320,192,11511,1,0,0:0:0:0:
192,192,11630,1,0,0:0:0:0:
320,192,11749,1,0,0:0:0:0:
64,192,11867,1,0,0:0:0:0:
192,192,11867,1,0,0:0:0:0:
320,192,11986,1,0,0:0:0:0:
192,192,12104,1,0,0:0:0:0:
320,192,12223,1,0,0:0:0:0:
64,192,12342,1,0,0:0:0:0:
448,192,12342,1,0,0:0:0:0:
192,192,12460,1,0,0:0:0:0:
320,192,12579,1,0,0:0:0:0:
64,192,12697,1,0,0:0:0:0:
192,192,12697,1,0,0:0:0:0:
320,192,12816,1,0,0:0:0:0:
64,192,12934,1,0,0:0:0:0:
192,192,12934,1,0,0:0:0:0:
448,192,13053,1,0,0:0:0:0:
320,192,13172,1,0,0:0:0:0:
64,192,13290,1,0,0:0:0:0:
448,192,13290,1,0,0:0:0:0:
192,192,13409,1,0,0:0:0:0:
64,192,13527,1,0,0:0:0:0:
448,192,13646,1,0,0:0:0:0:
64,192,13764,1,0,0:0:0:0:
320,192,13764,1,0,0:0:0:0:
448,192,13883,1,0,0:0:0:0:
320,192,14002,1,0,0:0:0:0:
192,192,14120,1,0,0:0:0:0:
64,192,14239,1,0,0:0:0:0:
448,192,14239,1,0,0:0:0:0:
192,192,14357,1,0,0:0:0:0:
320,192,14476,1,0,0:0:0:0:
192,192,14594,1,0,0:0:0:0:
448,192,14594,1,0,0:0:0:0:
64,192,14713,1,0,0:0:0:0:
192,192,14832,1,0,0:0:0:0:
448,192,14832,1,0,0:0:0:0:
320,192,14950,1,0,0:0:0:0:
448,192,15069,1,0,0:0:0:0:
64,192,15187,1,0,0:0:0:0:
192,192,15187,1,0,0:0:0:0:
448,192,15306,1,0,0:0:0:0:
64,192,15425,128,0,15662:0:0:0:0:
192,192,15425,1,0,0:0:0:0:
448,192,15543,1,0,0:0:0:0:
192,192,15662,128,0,15899:0:0:0:0:
320,192,15662,1,0,0:0:0:0:
448,192,15780,1,0,0:0:0:0:
64,192,15899,1,0,0:0:0:0:
320,192,15899,128,0,16136:0:0:0:0:
192,192,16017,1,0,0:0:0:0:
64,192,16136,1,0,0:0:0:0:
448,192,16136,128,0,16492:0:0:0:0:
320,192,16255,1,0,0:0:0:0:
64,192,16373,1,0,0:0:0:0:
192,192,16492,128,0,16847:0:0:0:0:
320,192,16492,1,0,0:0:0:0:
64,192,16610,1,0,0:0:0:0:
448,192,16729,1,0,0:0:0:0:
64,192,16847,128,0,17085:0:0:0:0:
320,192,16847,1,0,0:0:0:0:
448,192,16966,1,0,0:0:0:0:
192,192,17085,1,0,0:0:0:0:
320,192,17085,1,0,0:0:0:0:
448,192,17203,1,0,0:0:0:0:
64,192,17322,1,0,0:0:0:0:
320,192,17322,128,0,17559:0:0:0:0:
448,192,17440,1,0,0:0:0:0:
64,192,17559,1,0,0:0:0:0:
192,192,17559,128,0,17796:0:0:0:0:
448,192,17677,1,0,0:0:0:0:
64,192,17796,128,0,18033:0:0:0:0:
320,192,17796,1,0,0:0:0:0:
192,192,17915,1,0,0:0:0:0:
320,192,18033,1,0,0:0:0:0:
448,192,18033,128,0,18389:0:0:0:0:
192,192,18152,1,0,0:0:0:0:
64,192,18270,1,0,0:0:0:0:
192,192,18389,1,0,0:0:0:0:
320,192,18389,128,0,18745:0:0:0:0:
64,192,18508,1,0,0:0:0:0:
448,192,18626,1,0,0:0:0:0:
64,192,18745,128,0,18982:0:0:0:0:
192,192,18745,1,0,0:0:0:0:
448,192,18863,1,0,0:0:0:0:
192,192,18982,1,0,0:0:0:0:
320,192,18982,1,0,0:0:0:0:
448,192,19100,1,0,0:0:0:0:
192,192,19219,128,0,19456:0:0:0:0:
320,192,19219,1,0,0:0:0:0:
448,192,19338,1,0,0:0:0:0:
64,192,19456,1,0,0:0:0:0:
320,192,19456,128,0,19693:0:0:0:0:
192,192,19575,1,0,0:0:0:0:
64,192,19693,1,0,0:0:0:0:
448,192,19693,128,0,19930:0:0:0:0:
320,192,19812,1,0,0:0:0:0:
64,192,19930,1,0,0:0:0:0:
192,192,19930,128,0,20286:0:0:0:0:
320,192,20049,1,0,0:0:0:0:
448,192,20168,1,0,0:0:0:0:
64,192,20286,1,0,0:0:0:0:
320,192,20286,128,0,20642:0:0:0:0:
448,192,20405,1,0,0:0:0:0:
192,192,20523,1,0,0:0:0:0:
64,192,20642,128,0,20879:0:0:0:0:
448,192,20642,1,0,0:0:0:0:
320,192,20760,1,0,0:0:0:0:
192,192,20879,1,0,0:0:0:0:
448,192,20879,1,0,0:0:0:0:
320,192,20998,1,0,0:0:0:0:
64,192,21116,128,0,21353:0:0:0:0:
448,192,21116,1,0,0:0:0:0:
320,192,21235,1,0,0:0:0:0:
192,192,21353,128,0,21591:0:0:0:0:
448,192,21353,1,0,0:0:0:0:
64,192,21472,1,0,0:0:0:0:
320,192,21591,128,0,21828:0:0:0:0:
448,192,21591,1,0,0:0:0:0:
64,192,21709,1,0,0:0:0:0:
192,192,21828,1,0,0:0:0:0:
448,192,21828,128,0,21986:0:0:0:0:
448,192,22065,1,0,0:0:0:0:
192,192,22183,128,0,22342:0:0:0:0:
192,192,22421,1,0,0:0:0:0:
320,192,22539,128,0,22776:0:0:0:0:
64,192,22776,1,0,0:0:0:0:
448,192,22776,1,0,0:0:0:0:
192,192,22895,1,0,0:0:0:0:
64,192,23013,1,0,0:0:0:0:
448,192,23013,1,0,0:0:0:0:
448,192,23132,1,0,0:0:0:0:
320,192,23251,1,0,0:0:0:0:
320,192,23369,1,0,0:0:0:0:
192,192,23488,1,0,0:0:0:0:
192,192,23606,1,0,0:0:0:0:
64,192,23725,128,0,23843:0:0:0:0:
448,192,23843,128,0,23962:0:0:0:0:
192,192,23962,128,0,24081:0:0:0:0:
320,192,24081,128,0,24199:0:0:0:0:
64,192,24199,128,0,24318:0:0:0:0:
192,192,24318,128,0,24436:0:0:0:0:
448,192,24436,1,0,0:0:0:0:
320,192,24496,1,0,0:0:0:0:
64,192,24555,1,0,0:0:0:0:
192,192,24614,1,0,0:0:0:0:
320,192,24674,1,0,0:0:0:0:
448,192,24674,128,0,24792:0:0:0:0:
64,192,24792,128,0,24911:0:0:0:0:
192,192,25029,128,0,25148:0:0:0:0:
320,192,25266,128,0,25385:0:0:0:0:
448,192,25504,128,0,26096:0:0:0:0:
64,192,26096,1,0,0:0:0:0:
320,192,26156,1,0,0:0:0:0:
192,192,26215,1,0,0:0:0:0:
448,192,26274,1,0,0:0:0:0:
64,192,26334,1,0,0:0:0:0:
192,192,26393,1,0,0:0:0:0:
448,192,26452,1,0,0:0:0:0:
320,192,26511,1,0,0:0:0:0:
192,192,26571,128,0,26808:0:0:0:0:
448,192,26808,128,0,27045:0:0:0:0:
320,192,27045,128,0,27282:0:0:0:0:
192,192,27282,128,0,27519:0:0:0:0:
64,192,27519,1,0,0:0:0:0:
64,192,27638,1,0,0:0:0:0:
64,192,27757,1,0,0:0:0:0:
320,192,27875,1,0,0:0:0:0:
320,192,27994,1,0,0:0:0:0:
320,192,28112,1,0,0:0:0:0:
448,192,28231,1,0,0:0:0:0:
192,192,28290,1,0,0:0:0:0:
320,192,28349,1,0,0:0:0:0:
64,192,28409,1,0,0:0:0:0:
448,192,28468,128,0,28527:0:0:0:0:
192,192,28527,128,0,28587:0:0:0:0:
320,192,28587,128,0,28646:0:0:0:0:
64,192,28646,128,0,28705:0:0:0:0:
192,192,28705,128,0,28824:0:0:0:0:
448,192,28824,128,0,28942:0:0:0:0:
192,192,29061,1,0,0:0:0:0:
320,192,29061,128,0,29179:0:0:0:0:
64,192,29298,1,0,0:0:0:0:
192,192,29338,1,0,0:0:0:0:
448,192,29377,1,0,0:0:0:0:
64,192,29417,1,0,0:0:0:0:
320,192,29417,1,0,0:0:0:0:
192,192,29476,1,0,0:0:0:0:
448,192,29535,1,0,0:0:0:0:
64,192,29594,1,0,0:0:0:0:
320,192,29654,1,0,0:0:0:0:
192,192,29713,1,0,0:0:0:0:
64,192,29772,1,0,0:0:0:0:
448,192,29772,1,0,0:0:0:0:
320,192,29832,1,0,0:0:0:0:
192,192,29891,1,0,0:0:0:0:
448,192,29950,1,0,0:0:0:0:
64,192,30009,1,0,0:0:0:0:
192,192,30069,1,0,0:0:0:0:
448,192,30128,1,0,0:0:0:0:
320,192,30187,1,0,0:0:0:0:
64,192,30247,1,0,0:0:0:0:
448,192,30306,1,0,0:0:0:0:
192,192,30365,1,0,0:0:0:0:
64,192,30425,1,0,0:0:0:0:
320,192,30484,1,0,0:0:0:0:
448,192,30543,1,0,0:0:0:0:
192,192,30602,1,0,0:0:0:0:
64,192,30681,1,0,0:0:0:0:
448,192,30760,1,0,0:0:0:0:
192,192,30840,1,0,0:0:0:0:
320,192,30919,1,0,0:0:0:0:
64,192,30998,1,0,0:0:0:0:
448,192,31077,1,0,0:0:0:0:
320,192,31156,1,0,0:0:0:0:
192,192,31235,1,0,0:0:0:0:
320,192,31314,1,0,0:0:0:0:
64,192,31373,1,0,0:0:0:0:
448,192,31432,1,0,0:0:0:0:
192,192,31492,1,0,0:0:0:0:
320,192,31551,1,0,0:0:0:0:
64,192,31610,1,0,0:0:0:0:
192,192,31670,1,0,0:0:0:0:
448,192,31729,1,0,0:0:0:0:
320,192,31788,1,0,0:0:0:0:
64,192,31847,1,0,0:0:0:0:
448,192,31907,1,0,0:0:0:0:
192,192,31966,1,0,0:0:0:0:
320,192,32025,1,0,0:0:0:0:
64,192,32085,1,0,0:0:0:0:
448,192,32144,1,0,0:0:0:0:
320,192,32203,1,0,0:0:0:0:
64,192,32262,1,0,0:0:0:0:
192,192,32322,1,0,0:0:0:0:
320,192,32381,1,0,0:0:0:0:
448,192,32440,1,0,0:0:0:0:
64,192,32500,1,0,0:0:0:0:
192,192,32559,1,0,0:0:0:0:
448,192,32618,1,0,0:0:0:0:
320,192,32677,1,0,0:0:0:0:
192,192,32737,1,0,0:0:0:0:
64,192,32796,1,0,0:0:0:0:
448,192,32855,1,0,0:0:0:0:
320,192,32915,1,0,0:0:0:0:
64,192,32974,1,0,0:0:0:0:
192,192,33033,1,0,0:0:0:0:
320,192,33093,1,0,0:0:0:0:
448,192,33152,1,0,0:0:0:0:
192,192,33211,1,0,0:0:0:0:
192,192,33330,1,0,0:0:0:0:
192,192,33448,1,0,0:0:0:0:
448,192,33567,1,0,0:0:0:0:
320,192,33606,1,0,0:0:0:0:
64,192,33646,1,0,0:0:0:0:
192,192,33685,1,0,0:0:0:0:
320,192,33725,1,0,0:0:0:0:
448,192,33764,1,0,0:0:0:0:
192,192,33804,1,0,0:0:0:0:
64,192,33843,1,0,0:0:0:0:
320,192,33883,1,0,0:0:0:0:
448,192,33923,1,0,0:0:0:0:
64,192,33962,1,0,0:0:0:0:
192,192,34002,1,0,0:0:0:0:
448,192,34041,1,0,0:0:0:0:
320,192,34081,1,0,0:0:0:0:
64,192,34120,1,0,0:0:0:0:
192,192,34160,1,0,0:0:0:0:
448,192,34219,1,0,0:0:0:0:
320,192,34278,1,0,0:0:0:0:
64,192,34338,1,0,0:0:0:0:
448,192,34397,1,0,0:0:0:0:
192,192,34436,1,0,0:0:0:0:
320,192,34476,1,0,0:0:0:0:
64,192,34515,1,0,0:0:0:0:
448,192,34575,1,0,0:0:0:0:
320,192,34634,1,0,0:0:0:0:
64,192,34674,1,0,0:0:0:0:
448,192,34713,1,0,0:0:0:0:
192,192,34753,1,0,0:0:0:0:
320,192,34812,1,0,0:0:0:0:
64,192,34871,1,0,0:0:0:0:
448,192,34911,1,0,0:0:0:0:
192,192,34950,1,0,0:0:0:0:
320,192,34990,1,0,0:0:0:0:
64,192,35049,1,0,0:0:0:0:
448,192,35108,1,0,0:0:0:0:
192,192,35168,1,0,0:0:0:0:
448,192,35227,1,0,0:0:0:0:
192,192,35286,1,0,0:0:0:0:
448,192,35345,1,0,0:0:0:0:
192,192,35405,1,0,0:0:0:0:
320,192,35464,1,0,0:0:0:0:
64,192,35523,1,0,0:0:0:0:
320,192,35583,1,0,0:0:0:0:
64,192,35642,1,0,0:0:0:0:
320,192,35701,1,0,0:0:0:0:
64,192,35760,1,0,0:0:0:0:
192,192,35820,1,0,0:0:0:0:
320,192,35879,1,0,0:0:0:0:
192,192,35938,1,0,0:0:0:0:
320,192,35998,1,0,0:0:0:0:
192,192,36057,1,0,0:0:0:0:
320,192,36116,1,0,0:0:0:0:
64,192,36176,1,0,0:0:0:0:
192,192,36235,1,0,0:0:0:0:
64,192,36294,1,0,0:0:0:0:
192,192,36353,1,0,0:0:0:0:
64,192,36413,1,0,0:0:0:0:
192,192,36472,1,0,0:0:0:0:
448,192,36531,1,0,0:0:0:0:
320,192,36591,1,0,0:0:0:0:
448,192,36650,1,0,0:0:0:0:
320,192,36709,1,0,0:0:0:0:
448,192,36768,1,0,0:0:0:0:
320,192,36828,1,0,0:0:0:0:
64,192,36887,1,0,0:0:0:0:
192,192,36946,1,0,0:0:0:0:
320,192,37006,1,0,0:0:0:0:
448,192,37067,1,0,0:0:0:0:
192,192,37127,1,0,0:0:0:0:
64,192,37186,1,0,0:0:0:0:
448,192,37245,1,0,0:0:0:0:
320,192,37304,1,0,0:0:0:0:
64,192,37364,1,0,0:0:0:0:
192,192,37423,1,0,0:0:0:0:
448,192,37482,1,0,0:0:0:0:
64,192,37537,1,0,0:0:0:0:
320,192,37581,1,0,0:0:0:0:
192,192,37626,1,0,0:0:0:0:
64,192,37670,1,0,0:0:0:0:
448,192,37719,1,0,0:0:0:0:
320,192,37774,1,0,0:0:0:0:
64,192,37818,1,0,0:0:0:0:
192,192,37863,1,0,0:0:0:0:
320,192,37907,1,0,0:0:0:0:
64,192,37957,1,0,0:0:0:0:
448,192,37957,1,0,0:0:0:0:
192,192,37996,1,0,0:0:0:0:
320,192,38036,1,0,0:0:0:0:
64,192,38075,1,0,0:0:0:0:
192,192,38115,1,0,0:0:0:0:
448,192,38154,1,0,0:0:0:0:
320,192,38194,1,0,0:0:0:0:
64,192,38233,1,0,0:0:0:0:
192,192,38273,1,0,0:0:0:0:
320,192,38312,1,0,0:0:0:0:
64,192,38352,1,0,0:0:0:0:
192,192,38391,1,0,0:0:0:0:
448,192,38431,1,0,0:0:0:0:
320,192,38470,1,0,0:0:0:0:
64,192,38510,1,0,0:0:0:0:
192,192,38549,1,0,0:0:0:0:
320,192,38589,1,0,0:0:0:0:
448,192,38629,1,0,0:0:0:0:
192,192,38668,1,0,0:0:0:0:
64,192,38708,1,0,0:0:0:0:
320,192,38747,1,0,0:0:0:0:
448,192,38787,1,0,0:0:0:0:
192,192,38826,1,0,0:0:0:0:
320,192,38866,1,0,0:0:0:0:
64,192,38905,1,0,0:0:0:0:
448,192,38905,1,0,0:0:0:0:
192,192,38964,1,0,0:0:0:0:
320,192,39024,1,0,0:0:0:0:
448,192,39083,1,0,0:0:0:0:
64,192,39142,1,0,0:0:0:0:
192,192,39142,1,0,0:0:0:0:
320,192,39202,1,0,0:0:0:0:
64,192,39261,1,0,0:0:0:0:
192,192,39261,1,0,0:0:0:0:
448,192,39320,1,0,0:0:0:0:
320,192,39380,1,0,0:0:0:0:
192,192,39439,1,0,0:0:0:0:
320,192,39498,1,0,0:0:0:0:
448,192,39498,1,0,0:0:0:0:
192,192,39557,1,0,0:0:0:0:
320,192,39617,1,0,0:0:0:0:
448,192,39617,1,0,0:0:0:0:
64,192,39676,1,0,0:0:0:0:
448,192,39735,1,0,0:0:0:0:
64,192,39795,1,0,0:0:0:0:
192,192,39854,1,0,0:0:0:0:
320,192,39854,1,0,0:0:0:0:
448,192,39893,1,0,0:0:0:0:
64,192,39933,1,0,0:0:0:0:
192,192,39972,1,0,0:0:0:0:
448,192,40012,1,0,0:0:0:0:
320,192,40051,1,0,0:0:0:0:
192,192,40091,1,0,0:0:0:0:
64,192,40131,1,0,0:0:0:0:
320,192,40170,1,0,0:0:0:0:
448,192,40210,1,0,0:0:0:0:
192,192,40249,1,0,0:0:0:0:
64,192,40289,1,0,0:0:0:0:
448,192,40328,1,0,0:0:0:0:
320,192,40368,1,0,0:0:0:0:
64,192,40407,1,0,0:0:0:0:
192,192,40447,1,0,0:0:0:0:
320,192,40486,1,0,0:0:0:0:
448,192,40526,1,0,0:0:0:0:
64,192,40565,1,0,0:0:0:0:
192,192,40605,1,0,0:0:0:0:
448,192,40644,1,0,0:0:0:0:
320,192,40684,1,0,0:0:0:0:
192,192,40723,1,0,0:0:0:0:
64,192,40763,1,0,0:0:0:0:
320,192,40802,1,0,0:0:0:0:
448,192,40802,1,0,0:0:0:0:
192,192,40862,1,0,0:0:0:0:
64,192,40921,1,0,0:0:0:0:
448,192,40980,1,0,0:0:0:0:
64,192,41040,1,0,0:0:0:0:
192,192,41040,1,0,0:0:0:0:
320,192,41099,1,0,0:0:0:0:
64,192,41158,1,0,0:0:0:0:
192,192,41158,1,0,0:0:0:0:
320,192,41217,1,0,0:0:0:0:
448,192,41277,1,0,0:0:0:0:
64,192,41336,1,0,0:0:0:0:
320,192,41395,1,0,0:0:0:0:
448,192,41395,1,0,0:0:0:0:
64,192,41455,1,0,0:0:0:0:
320,192,41514,1,0,0:0:0:0:
448,192,41514,1,0,0:0:0:0:
192,192,41573,1,0,0:0:0:0:
320,192,41632,1,0,0:0:0:0:
192,192,41692,1,0,0:0:0:0:
64,192,41751,1,0,0:0:0:0:
320,192,41751,1,0,0:0:0:0:
448,192,41791,1,0,0:0:0:0:
192,192,41830,1,0,0:0:0:0:
320,192,41870,1,0,0:0:0:0:
64,192,41909,1,0,0:0:0:0:
192,192,41949,1,0,0:0:0:0:
448,192,41988,1,0,0:0:0:0:
320,192,42028,1,0,0:0:0:0:
192,192,42067,1,0,0:0:0:0:
64,192,42107,1,0,0:0:0:0:
320,192,42146,1,0,0:0:0:0:
448,192,42186,1,0,0:0:0:0:
192,192,42225,1,0,0:0:0:0:
320,192,42265,1,0,0:0:0:0:
64,192,42304,1,0,0:0:0:0:
192,192,42344,1,0,0:0:0:0:
448,192,42383,1,0,0:0:0:0:
320,192,42423,1,0,0:0:0:0:
64,192,42463,1,0,0:0:0:0:
192,192,42502,1,0,0:0:0:0:
320,192,42542,1,0,0:0:0:0:
448,192,42581,1,0,0:0:0:0:
64,192,42621,1,0,0:0:0:0:
192,192,42660,1,0,0:0:0:0:
320,192,42700,1,0,0:0:0:0:
448,192,42700,1,0,0:0:0:0:
192,192,42759,1,0,0:0:0:0:
64,192,42818,1,0,0:0:0:0:
448,192,42878,1,0,0:0:0:0:
64,192,42937,1,0,0:0:0:0:
192,192,42937,1,0,0:0:0:0:
320,192,42996,1,0,0:0:0:0:
64,192,43055,1,0,0:0:0:0:
192,192,43055,1,0,0:0:0:0:
448,192,43115,1,0,0:0:0:0:
320,192,43174,1,0,0:0:0:0:
192,192,43233,1,0,0:0:0:0:
320,192,43293,1,0,0:0:0:0:
448,192,43293,1,0,0:0:0:0:
192,192,43352,1,0,0:0:0:0:
320,192,43411,1,0,0:0:0:0:
448,192,43411,1,0,0:0:0:0:
64,192,43470,1,0,0:0:0:0:
448,192,43530,1,0,0:0:0:0:
64,192,43589,1,0,0:0:0:0:
192,192,43648,1,0,0:0:0:0:
448,192,43648,1,0,0:0:0:0:
320,192,43688,1,0,0:0:0:0:
64,192,43727,1,0,0:0:0:0:
192,192,43767,1,0,0:0:0:0:
320,192,43806,1,0,0:0:0:0:
448,192,43846,1,0,0:0:0:0:
192,192,43885,1,0,0:0:0:0:
64,192,43925,1,0,0:0:0:0:
320,192,43964,1,0,0:0:0:0:
448,192,44004,1,0,0:0:0:0:
192,192,44044,1,0,0:0:0:0:
64,192,44083,1,0,0:0:0:0:
448,192,44123,1,0,0:0:0:0:
320,192,44162,1,0,0:0:0:0:
192,192,44202,1,0,0:0:0:0:
64,192,44241,1,0,0:0:0:0:
448,192,44281,1,0,0:0:0:0:
320,192,44320,1,0,0:0:0:0:
64,192,44360,1,0,0:0:0:0:
192,192,44399,1,0,0:0:0:0:
320,192,44439,1,0,0:0:0:0:
448,192,44478,1,0,0:0:0:0:
192,192,44518,1,0,0:0:0:0:
64,192,44557,1,0,0:0:0:0:
320,192,44597,1,0,0:0:0:0:
448,192,44597,1,0,0:0:0:0:
192,192,44656,1,0,0:0:0:0:
64,192,44715,1,0,0:0:0:0:
448,192,44775,1,0,0:0:0:0:
64,192,44834,1,0,0:0:0:0:
192,192,44834,1,0,0:0:0:0:
320,192,44893,1,0,0:0:0:0:
64,192,44953,1,0,0:0:0:0:
192,192,44953,1,0,0:0:0:0:
320,192,45012,1,0,0:0:0:0:
448,192,45071,1,0,0:0:0:0:
64,192,45131,1,0,0:0:0:0:
320,192,45190,1,0,0:0:0:0:
448,192,45190,1,0,0:0:0:0:
64,192,45249,1,0,0:0:0:0:
320,192,45308,1,0,0:0:0:0:
448,192,45308,1,0,0:0:0:0:
192,192,45368,1,0,0:0:0:0:
320,192,45427,1,0,0:0:0:0:
192,192,45486,1,0,0:0:0:0:
64,192,45546,1,0,0:0:0:0:
320,192,45546,1,0,0:0:0:0:
448,192,45585,1,0,0:0:0:0:
192,192,45625,1,0,0:0:0:0:
320,192,45664,1,0,0:0:0:0:
64,192,45704,1,0,0:0:0:0:
192,192,45743,1,0,0:0:0:0:
320,192,45783,1,0,0:0:0:0:
448,192,45822,1,0,0:0:0:0:
192,192,45862,1,0,0:0:0:0:
64,192,45901,1,0,0:0:0:0:
320,192,45941,1,0,0:0:0:0:
448,192,45980,1,0,0:0:0:0:
192,192,46020,1,0,0:0:0:0:
320,192,46059,1,0,0:0:0:0:
64,192,46099,1,0,0:0:0:0:
192,192,46138,1,0,0:0:0:0:
448,192,46178,1,0,0:0:0:0:
320,192,46217,1,0,0:0:0:0:
64,192,46257,1,0,0:0:0:0:
192,192,46297,1,0,0:0:0:0:
320,192,46336,1,0,0:0:0:0:
448,192,46376,1,0,0:0:0:0:
192,192,46415,1,0,0:0:0:0:
64,192,46455,1,0,0:0:0:0:
320,192,46494,1,0,0:0:0:0:
448,192,46494,1,0,0:0:0:0:
192,192,46553,1,0,0:0:0:0:
320,192,46613,1,0,0:0:0:0:
448,192,46672,1,0,0:0:0:0:
64,192,46731,1,0,0:0:0:0:
192,192,46731,1,0,0:0:0:0:
320,192,46791,1,0,0:0:0:0:
64,192,46850,1,0,0:0:0:0:
192,192,46850,1,0,0:0:0:0:
448,192,46909,1,0,0:0:0:0:
320,192,46968,1,0,0:0:0:0:
192,192,47028,1,0,0:0:0:0:
320,192,47087,1,0,0:0:0:0:
448,192,47087,1,0,0:0:0:0:
192,192,47146,1,0,0:0:0:0:
320,192,47206,1,0,0:0:0:0:
448,192,47206,1,0,0:0:0:0:
64,192,47265,1,0,0:0:0:0:
448,192,47324,1,0,0:0:0:0:
64,192,47383,1,0,0:0:0:0:
192,192,47443,1,0,0:0:0:0:
320,192,47443,1,0,0:0:0:0:
448,192,47482,1,0,0:0:0:0:
64,192,47522,1,0,0:0:0:0:
192,192,47561,1,0,0:0:0:0:
448,192,47601,1,0,0:0:0:0:
320,192,47640,1,0,0:0:0:0:
192,192,47680,1,0,0:0:0:0:
64,192,47719,1,0,0:0:0:0:
320,192,47759,1,0,0:0:0:0:
448,192,47798,1,0,0:0:0:0:
192,192,47838,1,0,0:0:0:0:
64,192,47878,1,0,0:0:0:0:
320,192,47917,1,0,0:0:0:0:
448,192,47957,1,0,0:0:0:0:
64,192,47996,1,0,0:0:0:0:
192,192,48036,1,0,0:0:0:0:
320,192,48075,1,0,0:0:0:0:
448,192,48115,1,0,0:0:0:0:
64,192,48154,1,0,0:0:0:0:
192,192,48194,1,0,0:0:0:0:
448,192,48233,1,0,0:0:0:0:
320,192,48273,1,0,0:0:0:0:
64,192,48312,1,0,0:0:0:0:
192,192,48352,1,0,0:0:0:0:
320,192,48391,1,0,0:0:0:0:
448,192,48391,1,0,0:0:0:0:
64,192,48451,1,0,0:0:0:0:
192,192,48510,1,0,0:0:0:0:
320,192,48569,1,0,0:0:0:0:
64,192,48629,1,0,0:0:0:0:
192,192,48629,1,0,0:0:0:0:
448,192,48688,1,0,0:0:0:0:
64,192,48747,1,0,0:0:0:0:
192,192,48747,1,0,0:0:0:0:
320,192,48806,1,0,0:0:0:0:
192,192,48866,1,0,0:0:0:0:
64,192,48925,1,0,0:0:0:0:
320,192,48984,1,0,0:0:0:0:
448,192,48984,1,0,0:0:0:0:
64,192,49044,1,0,0:0:0:0:
320,192,49103,1,0,0:0:0:0:
448,192,49103,1,0,0:0:0:0:
192,192,49162,1,0,0:0:0:0:
320,192,49221,1,0,0:0:0:0:
192,192,49281,1,0,0:0:0:0:
64,192,49340,1,0,0:0:0:0:
320,192,49340,1,0,0:0:0:0:
448,192,49380,1,0,0:0:0:0:
192,192,49419,1,0,0:0:0:0:
64,192,49459,1,0,0:0:0:0:
320,192,49498,1,0,0:0:0:0:
448,192,49538,1,0,0:0:0:0:
192,192,49577,1,0,0:0:0:0:
320,192,49617,1,0,0:0:0:0:
64,192,49656,1,0,0:0:0:0:
192,192,49696,1,0,0:0:0:0:
448,192,49735,1,0,0:0:0:0:
320,192,49775,1,0,0:0:0:0:
192,192,49814,1,0,0:0:0:0:
64,192,49854,1,0,0:0:0:0:
320,192,49893,1,0,0:0:0:0:
448,192,49933,1,0,0:0:0:0:
192,192,49972,1,0,0:0:0:0:
64,192,50012,1,0,0:0:0:0:
448,192,50051,1,0,0:0:0:0:
320,192,50091,1,0,0:0:0:0:
64,192,50131,1,0,0:0:0:0:
192,192,50170,1,0,0:0:0:0:
320,192,50210,1,0,0:0:0:0:
448,192,50249,1,0,0:0:0:0:
64,192,50289,1,0,0:0:0:0:
192,192,50289,1,0,0:0:0:0:
320,192,50348,1,0,0:0:0:0:
192,192,50407,1,0,0:0:0:0:
64,192,50466,1,0,0:0:0:0:
320,192,50526,1,0,0:0:0:0:
448,192,50526,1,0,0:0:0:0:
192,192,50585,1,0,0:0:0:0:
320,192,50644,1,0,0:0:0:0:
448,192,50644,1,0,0:0:0:0:
192,192,50704,1,0,0:0:0:0:
320,192,50763,1,0,0:0:0:0:
448,192,50822,1,0,0:0:0:0:
64,192,50881,1,0,0:0:0:0:
192,192,50881,1,0,0:0:0:0:
320,192,50941,1,0,0:0:0:0:
64,192,51000,1,0,0:0:0:0:
192,192,51000,1,0,0:0:0:0:
448,192,51059,1,0,0:0:0:0:
64,192,51119,1,0,0:0:0:0:
448,192,51178,1,0,0:0:0:0:
192,192,51237,1,0,0:0:0:0:
320,192,51237,1,0,0:0:0:0:
64,192,51277,1,0,0:0:0:0:
448,192,51316,1,0,0:0:0:0:
320,192,51356,1,0,0:0:0:0:
192,192,51395,1,0,0:0:0:0:
64,192,51435,1,0,0:0:0:0:
320,192,51474,1,0,0:0:0:0:
448,192,51514,1,0,0:0:0:0:
192,192,51553,1,0,0:0:0:0:
64,192,51593,1,0,0:0:0:0:
320,192,51632,1,0,0:0:0:0:
448,192,51672,1,0,0:0:0:0:
64,192,51712,1,0,0:0:0:0:
192,192,51751,1,0,0:0:0:0:
320,192,51791,1,0,0:0:0:0:
448,192,51830,1,0,0:0:0:0:
64,192,51870,1,0,0:0:0:0:
192,192,51909,1,0,0:0:0:0:
448,192,51949,1,0,0:0:0:0:
320,192,51988,1,0,0:0:0:0:
192,192,52028,1,0,0:0:0:0:
64,192,52067,1,0,0:0:0:0:
448,192,52107,1,0,0:0:0:0:
320,192,52146,1,0,0:0:0:0:
64,192,52186,1,0,0:0:0:0:
192,192,52186,1,0,0:0:0:0:
320,192,52245,1,0,0:0:0:0:
448,192,52245,1,0,0:0:0:0:
64,192,52304,1,0,0:0:0:0:
192,192,52304,1,0,0:0:0:0:
320,192,52364,1,0,0:0:0:0:
448,192,52364,1,0,0:0:0:0:
64,192,52423,1,0,0:0:0:0:
192,192,52423,1,0,0:0:0:0:
320,192,52482,1,0,0:0:0:0:
448,192,52482,1,0,0:0:0:0:
64,192,52542,1,0,0:0:0:0:
192,192,52542,1,0,0:0:0:0:
320,192,52601,1,0,0:0:0:0:
448,192,52601,1,0,0:0:0:0:
64,192,52660,1,0,0:0:0:0:
192,192,52660,1,0,0:0:0:0:
320,192,52719,1,0,0:0:0:0:
448,192,52719,1,0,0:0:0:0:
64,192,52779,1,0,0:0:0:0:
192,192,52779,1,0,0:0:0:0:
320,192,52838,1,0,0:0:0:0:
448,192,52838,1,0,0:0:0:0:
64,192,52897,1,0,0:0:0:0:
192,192,52897,1,0,0:0:0:0:
320,192,52957,1,0,0:0:0:0:
448,192,52957,1,0,0:0:0:0:
64,192,53016,1,0,0:0:0:0:
192,192,53016,1,0,0:0:0:0:
320,192,53075,1,0,0:0:0:0:
448,192,53075,1,0,0:0:0:0:
64,192,53134,128,0,53372:0:0:0:0:
192,192,53134,1,0,0:0:0:0:
320,192,53372,1,0,0:0:0:0:
448,192,53372,1,0,0:0:0:0:
64,192,53490,1,0,0:0:0:0:
192,192,53609,1,0,0:0:0:0:
448,192,53609,1,0,0:0:0:0:
192,192,53727,1,0,0:0:0:0:
64,192,53846,1,0,0:0:0:0:
320,192,53846,1,0,0:0:0:0:
320,192,53964,1,0,0:0:0:0:
192,192,54083,1,0,0:0:0:0:
448,192,54083,1,0,0:0:0:0:
448,192,54202,1,0,0:0:0:0:
320,192,54320,1,0,0:0:0:0:
448,192,54320,1,0,0:0:0:0:
64,192,54439,1,0,0:0:0:0:
64,192,54557,1,0,0:0:0:0:
192,192,54557,1,0,0:0:0:0:
64,192,54676,1,0,0:0:0:0:
320,192,54795,1,0,0:0:0:0:
448,192,54795,1,0,0:0:0:0:
192,192,54854,1,0,0:0:0:0:
320,192,54913,1,0,0:0:0:0:
192,192,54972,1,0,0:0:0:0:
64,192,55032,1,0,0:0:0:0:
320,192,55032,1,0,0:0:0:0:
192,192,55150,1,0,0:0:0:0:
64,192,55269,1,0,0:0:0:0:
320,192,55269,1,0,0:0:0:0:
448,192,55328,1,0,0:0:0:0:
320,192,55387,1,0,0:0:0:0:
448,192,55447,1,0,0:0:0:0:
320,192,55506,1,0,0:0:0:0:
64,192,55625,1,0,0:0:0:0:
192,192,55743,1,0,0:0:0:0:
448,192,55743,1,0,0:0:0:0:
64,192,55802,1,0,0:0:0:0:
192,192,55862,1,0,0:0:0:0:
64,192,55921,1,0,0:0:0:0:
192,192,55980,1,0,0:0:0:0:
320,192,56099,1,0,0:0:0:0:
64,192,56217,1,0,0:0:0:0:
192,192,56217,1,0,0:0:0:0:
320,192,56277,1,0,0:0:0:0:
192,192,56336,1,0,0:0:0:0:
320,192,56395,1,0,0:0:0:0:
192,192,56455,1,0,0:0:0:0:
448,192,56514,1,0,0:0:0:0:
64,192,56573,1,0,0:0:0:0:
448,192,56632,1,0,0:0:0:0:
192,192,56692,1,0,0:0:0:0:
320,192,56751,1,0,0:0:0:0:
64,192,56810,1,0,0:0:0:0:
192,192,56870,1,0,0:0:0:0:
320,192,56929,1,0,0:0:0:0:
448,192,56929,1,0,0:0:0:0:
64,192,56988,1,0,0:0:0:0:
320,192,57047,1,0,0:0:0:0:
192,192,57107,1,0,0:0:0:0:
64,192,57166,1,0,0:0:0:0:
448,192,57166,1,0,0:0:0:0:
320,192,57225,1,0,0:0:0:0:
192,192,57285,1,0,0:0:0:0:
448,192,57344,1,0,0:0:0:0:
64,192,57403,1,0,0:0:0:0:
192,192,57403,1,0,0:0:0:0:
320,192,57463,1,0,0:0:0:0:
448,192,57522,1,0,0:0:0:0:
64,192,57581,1,0,0:0:0:0:
192,192,57640,1,0,0:0:0:0:
320,192,57640,1,0,0:0:0:0:
448,192,57700,1,0,0:0:0:0:
64,192,57759,1,0,0:0:0:0:
320,192,57818,1,0,0:0:0:0:
192,192,57878,1,0,0:0:0:0:
448,192,57878,1,0,0:0:0:0:
64,192,57937,1,0,0:0:0:0:
448,192,57996,1,0,0:0:0:0:
64,192,58055,1,0,0:0:0:0:
192,192,58115,1,0,0:0:0:0:
448,192,58115,1,0,0:0:0:0:
320,192,58174,1,0,0:0:0:0:
192,192,58233,1,0,0:0:0:0:
320,192,58293,1,0,0:0:0:0:
64,192,58352,128,0,58826:0:0:0:0:
192,192,58352,1,0,0:0:0:0:
448,192,58470,128,0,58826:0:0:0:0:
320,192,58826,1,0,0:0:0:0:
192,192,58885,1,0,0:0:0:0:
448,192,58945,1,0,0:0:0:0:
320,192,59004,1,0,0:0:0:0:
64,192,59063,1,0,0:0:0:0:
192,192,59063,1,0,0:0:0:0:
448,192,59123,1,0,0:0:0:0:
320,192,59182,1,0,0:0:0:0:
64,192,59241,1,0,0:0:0:0:
192,192,59300,1,0,0:0:0:0:
448,192,59300,1,0,0:0:0:0:
320,192,59360,1,0,0:0:0:0:
64,192,59419,1,0,0:0:0:0:
448,192,59478,1,0,0:0:0:0:
192,192,59538,1,0,0:0:0:0:
320,192,59538,1,0,0:0:0:0:
64,192,59597,1,0,0:0:0:0:
448,192,59656,1,0,0:0:0:0:
192,192,59715,1,0,0:0:0:0:
64,192,59775,1,0,0:0:0:0:
320,192,59775,1,0,0:0:0:0:
448,192,59834,1,0,0:0:0:0:
192,192,59893,1,0,0:0:0:0:
448,192,59953,1,0,0:0:0:0:
192,192,60012,1,0,0:0:0:0:
320,192,60012,1,0,0:0:0:0:
64,192,60071,1,0,0:0:0:0:
320,192,60131,1,0,0:0:0:0:
64,192,60190,1,0,0:0:0:0:
192,192,60249,1,0,0:0:0:0:
448,192,60249,1,0,0:0:0:0:
320,192,60308,1,0,0:0:0:0:
192,192,60368,1,0,0:0:0:0:
320,192,60427,1,0,0:0:0:0:
64,192,60486,1,0,0:0:0:0:
448,192,60486,1,0,0:0:0:0:
320,192,60546,1,0,0:0:0:0:
64,192,60605,1,0,0:0:0:0:
192,192,60664,1,0,0:0:0:0:
320,192,60723,1,0,0:0:0:0:
448,192,60723,1,0,0:0:0:0:
64,192,60842,1,0,0:0:0:0:
192,192,60881,1,0,0:0:0:0:
320,192,60921,1,0,0:0:0:0:
64,192,60961,1,0,0:0:0:0:
448,192,60961,128,0,61198:0:0:0:0:
192,192,61198,1,0,0:0:0:0:
320,192,61198,128,0,61435:0:0:0:0:
192,192,61435,128,0,61672:0:0:0:0:
448,192,61435,1,0,0:0:0:0:
64,192,61672,1,0,0:0:0:0:
320,192,61672,1,0,0:0:0:0:
320,192,61791,1,0,0:0:0:0:
320,192,61909,1,0,0:0:0:0:
448,192,61909,1,0,0:0:0:0:
64,192,62028,128,0,62146:0:0:0:0:
192,192,62146,1,0,0:0:0:0:
320,192,62206,1,0,0:0:0:0:
448,192,62265,1,0,0:0:0:0:
192,192,62324,1,0,0:0:0:0:
64,192,62383,1,0,0:0:0:0:
320,192,62383,128,0,62739:0:0:0:0:
64,192,62739,128,0,62798:0:0:0:0:
64,192,62858,1,0,0:0:0:0:
448,192,62858,1,0,0:0:0:0:
64,192,62976,1,0,0:0:0:0:
192,192,63095,1,0,0:0:0:0:
320,192,63095,128,0,63154:0:0:0:0:
320,192,63214,1,0,0:0:0:0:
64,192,63332,1,0,0:0:0:0:
320,192,63332,1,0,0:0:0:0:
192,192,63451,128,0,63510:0:0:0:0:
192,192,63569,1,0,0:0:0:0:
448,192,63569,1,0,0:0:0:0:
192,192,63688,1,0,0:0:0:0:
64,192,63806,1,0,0:0:0:0:
448,192,63806,1,0,0:0:0:0:
448,192,63925,1,0,0:0:0:0:
320,192,63984,1,0,0:0:0:0:
64,192,64044,1,0,0:0:0:0:
192,192,64044,1,0,0:0:0:0:
448,192,64103,1,0,0:0:0:0:
320,192,64162,1,0,0:0:0:0:
192,192,64221,1,0,0:0:0:0:
448,192,64281,1,0,0:0:0:0:
320,192,64340,1,0,0:0:0:0:
192,192,64399,1,0,0:0:0:0:
448,192,64459,1,0,0:0:0:0:
64,192,64518,1,0,0:0:0:0:
320,192,64518,1,0,0:0:0:0:
192,192,64577,1,0,0:0:0:0:
320,192,64636,1,0,0:0:0:0:
64,192,64696,1,0,0:0:0:0:
192,192,64755,1,0,0:0:0:0:
320,192,64814,1,0,0:0:0:0:
64,192,64874,1,0,0:0:0:0:
192,192,64933,1,0,0:0:0:0:
320,192,64992,1,0,0:0:0:0:
448,192,64992,1,0,0:0:0:0:
64,192,65051,1,0,0:0:0:0:
192,192,65111,1,0,0:0:0:0:
448,192,65170,1,0,0:0:0:0:
320,192,65229,1,0,0:0:0:0:
64,192,65289,1,0,0:0:0:0:
192,192,65348,1,0,0:0:0:0:
448,192,65407,1,0,0:0:0:0:
64,192,65466,1,0,0:0:0:0:
320,192,65466,1,0,0:0:0:0:
192,192,65526,1,0,0:0:0:0:
64,192,65585,1,0,0:0:0:0:
448,192,65585,1,0,0:0:0:0:
192,192,65644,1,0,0:0:0:0:
320,192,65704,1,0,0:0:0:0:
448,192,65704,1,0,0:0:0:0:
64,192,65763,1,0,0:0:0:0:
192,192,65822,1,0,0:0:0:0:
320,192,65822,1,0,0:0:0:0:
448,192,65881,1,0,0:0:0:0:
64,192,65941,1,0,0:0:0:0:
192,192,65941,1,0,0:0:0:0:
320,192,66000,1,0,0:0:0:0:
64,192,66059,1,0,0:0:0:0:
448,192,66059,1,0,0:0:0:0:
192,192,66119,1,0,0:0:0:0:
64,192,66178,1,0,0:0:0:0:
448,192,66178,1,0,0:0:0:0:
320,192,66237,1,0,0:0:0:0:
64,192,66297,1,0,0:0:0:0:
448,192,66297,1,0,0:0:0:0:
192,192,66356,1,0,0:0:0:0:
64,192,66415,1,0,0:0:0:0:
320,192,66415,1,0,0:0:0:0:
192,192,66474,1,0,0:0:0:0:
448,192,66534,1,0,0:0:0:0:
64,192,66593,1,0,0:0:0:0:
192,192,66652,1,0,0:0:0:0:
448,192,66712,1,0,0:0:0:0:
320,192,66771,1,0,0:0:0:0:
64,192,66830,1,0,0:0:0:0:
192,192,66889,1,0,0:0:0:0:
320,192,66949,1,0,0:0:0:0:
448,192,67008,1,0,0:0:0:0:
64,192,67067,1,0,0:0:0:0:
192,192,67127,1,0,0:0:0:0:
320,192,67186,1,0,0:0:0:0:
448,192,67245,1,0,0:0:0:0:
192,192,67304,1,0,0:0:0:0:
64,192,67364,1,0,0:0:0:0:
320,192,67423,1,0,0:0:0:0:
192,192,67482,1,0,0:0:0:0:
448,192,67542,1,0,0:0:0:0:
320,192,67601,1,0,0:0:0:0:
64,192,67655,1,0,0:0:0:0:
192,192,67700,1,0,0:0:0:0:
448,192,67744,1,0,0:0:0:0:
320,192,67789,1,0,0:0:0:0:
64,192,67838,1,0,0:0:0:0:
192,192,67892,1,0,0:0:0:0:
320,192,67937,1,0,0:0:0:0:
448,192,67981,1,0,0:0:0:0:
192,192,68026,1,0,0:0:0:0:
64,192,68075,1,0,0:0:0:0:
320,192,68130,1,0,0:0:0:0:
448,192,68174,1,0,0:0:0:0:
192,192,68218,1,0,0:0:0:0:
64,192,68263,1,0,0:0:0:0:
320,192,68312,1,0,0:0:0:0:
448,192,68312,1,0,0:0:0:0:
192,192,68352,1,0,0:0:0:0:
64,192,68391,1,0,0:0:0:0:
320,192,68431,1,0,0:0:0:0:
192,192,68470,1,0,0:0:0:0:
448,192,68510,1,0,0:0:0:0:
64,192,68549,1,0,0:0:0:0:
320,192,68549,1,0,0:0:0:0:
192,192,68589,1,0,0:0:0:0:
448,192,68629,1,0,0:0:0:0:
64,192,68668,1,0,0:0:0:0:
320,192,68708,1,0,0:0:0:0:
448,192,68747,1,0,0:0:0:0:
192,192,68787,1,0,0:0:0:0:
64,192,68826,1,0,0:0:0:0:
448,192,68866,1,0,0:0:0:0:
192,192,68905,1,0,0:0:0:0:
320,192,68945,1,0,0:0:0:0:
64,192,68984,1,0,0:0:0:0:
192,192,69024,1,0,0:0:0:0:
448,192,69024,1,0,0:0:0:0:
320,192,69063,1,0,0:0:0:0:
64,192,69103,1,0,0:0:0:0:
448,192,69142,1,0,0:0:0:0:
192,192,69182,1,0,0:0:0:0:
320,192,69221,1,0,0:0:0:0:
64,192,69261,1,0,0:0:0:0:
192,192,69300,1,0,0:0:0:0:
448,192,69340,1,0,0:0:0:0:
320,192,69380,1,0,0:0:0:0:
192,192,69419,1,0,0:0:0:0:
64,192,69459,1,0,0:0:0:0:
320,192,69498,1,0,0:0:0:0:
448,192,69538,1,0,0:0:0:0:
192,192,69577,1,0,0:0:0:0:
64,192,69617,1,0,0:0:0:0:
320,192,69617,1,0,0:0:0:0:
448,192,69656,1,0,0:0:0:0:
192,192,69696,1,0,0:0:0:0:
64,192,69735,1,0,0:0:0:0:
320,192,69775,1,0,0:0:0:0:
448,192,69814,1,0,0:0:0:0:
192,192,69854,1,0,0:0:0:0:
320,192,69893,1,0,0:0:0:0:
64,192,69933,1,0,0:0:0:0:
192,192,69972,1,0,0:0:0:0:
448,192,70012,1,0,0:0:0:0:
64,192,70051,1,0,0:0:0:0:
320,192,70091,1,0,0:0:0:0:
192,192,70131,1,0,0:0:0:0:
448,192,70170,1,0,0:0:0:0:
64,192,70210,1,0,0:0:0:0:
320,192,70249,1,0,0:0:0:0:
192,192,70289,1,0,0:0:0:0:
448,192,70328,1,0,0:0:0:0:
64,192,70368,1,0,0:0:0:0:
320,192,70407,1,0,0:0:0:0:
192,192,70447,1,0,0:0:0:0:
448,192,70447,1,0,0:0:0:0:
64,192,70486,1,0,0:0:0:0:
320,192,70526,1,0,0:0:0:0:
448,192,70565,1,0,0:0:0:0:
64,192,70605,1,0,0:0:0:0:
192,192,70644,1,0,0:0:0:0:
448,192,70684,1,0,0:0:0:0:
320,192,70723,1,0,0:0:0:0:
192,192,70763,1,0,0:0:0:0:
448,192,70802,1,0,0:0:0:0:
64,192,70842,1,0,0:0:0:0:
320,192,70881,1,0,0:0:0:0:
192,192,70921,1,0,0:0:0:0:
448,192,70921,1,0,0:0:0:0:
64,192,70961,1,0,0:0:0:0:
320,192,71000,1,0,0:0:0:0:
192,192,71040,1,0,0:0:0:0:
448,192,71079,1,0,0:0:0:0:
320,192,71119,1,0,0:0:0:0:
64,192,71158,1,0,0:0:0:0:
192,192,71198,1,0,0:0:0:0:
320,192,71237,1,0,0:0:0:0:
448,192,71277,1,0,0:0:0:0:
64,192,71316,1,0,0:0:0:0:
192,192,71356,1,0,0:0:0:0:
320,192,71395,1,0,0:0:0:0:
448,192,71435,1,0,0:0:0:0:
64,192,71474,1,0,0:0:0:0:
192,192,71514,1,0,0:0:0:0:
448,192,71514,1,0,0:0:0:0:
320,192,71553,1,0,0:0:0:0:
64,192,71593,1,0,0:0:0:0:
448,192,71632,1,0,0:0:0:0:
192,192,71672,1,0,0:0:0:0:
320,192,71712,1,0,0:0:0:0:
64,192,71751,1,0,0:0:0:0:
448,192,71791,1,0,0:0:0:0:
192,192,71830,1,0,0:0:0:0:
64,192,71870,1,0,0:0:0:0:
320,192,71870,1,0,0:0:0:0:
448,192,71909,1,0,0:0:0:0:
192,192,71949,1,0,0:0:0:0:
320,192,71988,1,0,0:0:0:0:
64,192,72028,1,0,0:0:0:0:
192,192,72067,1,0,0:0:0:0:
448,192,72107,1,0,0:0:0:0:
320,192,72146,1,0,0:0:0:0:
192,192,72186,1,0,0:0:0:0:
64,192,72225,1,0,0:0:0:0:
448,192,72265,1,0,0:0:0:0:
320,192,72304,1,0,0:0:0:0:
64,192,72344,1,0,0:0:0:0:
192,192,72344,1,0,0:0:0:0:
448,192,72383,1,0,0:0:0:0:
320,192,72423,1,0,0:0:0:0:
192,192,72463,1,0,0:0:0:0:
64,192,72502,1,0,0:0:0:0:
320,192,72542,1,0,0:0:0:0:
192,192,72581,1,0,0:0:0:0:
448,192,72581,1,0,0:0:0:0:
64,192,72621,1,0,0:0:0:0:
320,192,72660,1,0,0:0:0:0:
448,192,72700,1,0,0:0:0:0:
192,192,72739,1,0,0:0:0:0:
320,192,72779,1,0,0:0:0:0:
64,192,72818,1,0,0:0:0:0:
192,192,72858,1,0,0:0:0:0:
448,192,72897,1,0,0:0:0:0:
320,192,72937,1,0,0:0:0:0:
64,192,72976,1,0,0:0:0:0:
192,192,73016,1,0,0:0:0:0:
320,192,73055,1,0,0:0:0:0:
448,192,73055,1,0,0:0:0:0:
64,192,73095,1,0,0:0:0:0:
192,192,73134,1,0,0:0:0:0:
448,192,73174,1,0,0:0:0:0:
320,192,73214,1,0,0:0:0:0:
192,192,73253,1,0,0:0:0:0:
448,192,73293,1,0,0:0:0:0:
320,192,73332,1,0,0:0:0:0:
64,192,73372,1,0,0:0:0:0:
192,192,73411,1,0,0:0:0:0:
448,192,73451,1,0,0:0:0:0:
64,192,73490,1,0,0:0:0:0:
320,192,73530,1,0,0:0:0:0:
192,192,73569,1,0,0:0:0:0:
448,192,73609,1,0,0:0:0:0:
64,192,73648,1,0,0:0:0:0:
320,192,73688,1,0,0:0:0:0:
192,192,73727,1,0,0:0:0:0:
64,192,73767,1,0,0:0:0:0:
448,192,73767,1,0,0:0:0:0:
320,192,73806,1,0,0:0:0:0:
192,192,73846,1,0,0:0:0:0:
448,192,73885,1,0,0:0:0:0:
64,192,73925,1,0,0:0:0:0:
192,192,73964,1,0,0:0:0:0:
320,192,74004,1,0,0:0:0:0:
64,192,74044,1,0,0:0:0:0:
448,192,74083,1,0,0:0:0:0:
320,192,74123,1,0,0:0:0:0:
192,192,74162,1,0,0:0:0:0:
448,192,74202,1,0,0:0:0:0:
64,192,74241,1,0,0:0:0:0:
192,192,74281,1,0,0:0:0:0:
320,192,74320,1,0,0:0:0:0:
64,192,74360,1,0,0:0:0:0:
448,192,74399,1,0,0:0:0:0:
320,192,74439,1,0,0:0:0:0:
64,192,74478,1,0,0:0:0:0:
192,192,74478,1,0,0:0:0:0:
448,192,74518,1,0,0:0:0:0:
320,192,74557,1,0,0:0:0:0:
192,192,74597,1,0,0:0:0:0:
64,192,74636,1,0,0:0:0:0:
320,192,74676,1,0,0:0:0:0:
448,192,74715,1,0,0:0:0:0:
192,192,74755,1,0,0:0:0:0:
64,192,74795,1,0,0:0:0:0:
320,192,74834,1,0,0:0:0:0:
192,192,74874,1,0,0:0:0:0:
448,192,74913,1,0,0:0:0:0:
64,192,74953,1,0,0:0:0:0:
320,192,74953,1,0,0:0:0:0:
192,192,74992,1,0,0:0:0:0:
448,192,75032,1,0,0:0:0:0:
320,192,75071,1,0,0:0:0:0:
64,192,75111,1,0,0:0:0:0:
192,192,75150,1,0,0:0:0:0:
320,192,75190,1,0,0:0:0:0:
448,192,75229,1,0,0:0:0:0:
192,192,75269,1,0,0:0:0:0:
64,192,75308,1,0,0:0:0:0:
320,192,75308,1,0,0:0:0:0:
448,192,75348,1,0,0:0:0:0:
192,192,75387,1,0,0:0:0:0:
320,192,75427,1,0,0:0:0:0:
64,192,75466,1,0,0:0:0:0:
448,192,75506,1,0,0:0:0:0:
192,192,75546,1,0,0:0:0:0:
320,192,75585,1,0,0:0:0:0:
64,192,75625,1,0,0:0:0:0:
192,192,75664,1,0,0:0:0:0:
448,192,75664,1,0,0:0:0:0:
320,192,75704,1,0,0:0:0:0:
448,192,75743,1,0,0:0:0:0:
64,192,75783,1,0,0:0:0:0:
192,192,75822,1,0,0:0:0:0:
320,192,75862,1,0,0:0:0:0:
64,192,75901,1,0,0:0:0:0:
192,192,75941,1,0,0:0:0:0:
320,192,75980,1,0,0:0:0:0:
448,192,76020,1,0,0:0:0:0:
192,192,76059,1,0,0:0:0:0:
64,192,76099,1,0,0:0:0:0:
320,192,76138,1,0,0:0:0:0:
448,192,76138,1,0,0:0:0:0:
192,192,76178,1,0,0:0:0:0:
64,192,76217,1,0,0:0:0:0:
320,192,76257,1,0,0:0:0:0:
448,192,76297,1,0,0:0:0:0:
192,192,76336,1,0,0:0:0:0:
320,192,76376,1,0,0:0:0:0:
448,192,76415,1,0,0:0:0:0:
192,192,76455,1,0,0:0:0:0:
64,192,76494,1,0,0:0:0:0:
448,192,76534,1,0,0:0:0:0:
320,192,76573,1,0,0:0:0:0:
64,192,76613,1,0,0:0:0:0:
192,192,76613,1,0,0:0:0:0:
448,192,76652,1,0,0:0:0:0:
320,192,76692,1,0,0:0:0:0:
192,192,76731,1,0,0:0:0:0:
448,192,76771,1,0,0:0:0:0:
64,192,76810,1,0,0:0:0:0:
192,192,76850,1,0,0:0:0:0:
320,192,76889,1,0,0:0:0:0:
448,192,76929,1,0,0:0:0:0:
64,192,76968,1,0,0:0:0:0:
320,192,77008,1,0,0:0:0:0:
192,192,77047,1,0,0:0:0:0:
448,192,77087,1,0,0:0:0:0:
64,192,77127,1,0,0:0:0:0:
192,192,77166,1,0,0:0:0:0:
320,192,77206,1,0,0:0:0:0:
448,192,77206,1,0,0:0:0:0:
64,192,77245,1,0,0:0:0:0:
192,192,77285,1,0,0:0:0:0:
448,192,77324,1,0,0:0:0:0:
320,192,77364,1,0,0:0:0:0:
64,192,77403,1,0,0:0:0:0:
320,192,77443,1,0,0:0:0:0:
448,192,77482,1,0,0:0:0:0:
64,192,77522,1,0,0:0:0:0:
192,192,77561,1,0,0:0:0:0:
448,192,77601,1,0,0:0:0:0:
64,192,77640,1,0,0:0:0:0:
192,192,77680,1,0,0:0:0:0:
320,192,77680,1,0,0:0:0:0:
448,192,77719,1,0,0:0:0:0:
64,192,77759,1,0,0:0:0:0:
320,192,77798,1,0,0:0:0:0:
192,192,77838,1,0,0:0:0:0:
448,192,77878,1,0,0:0:0:0:
64,192,77917,1,0,0:0:0:0:
320,192,77957,1,0,0:0:0:0:
192,192,77996,1,0,0:0:0:0:
64,192,78036,1,0,0:0:0:0:
448,192,78036,1,0,0:0:0:0:
320,192,78075,1,0,0:0:0:0:
192,192,78115,1,0,0:0:0:0:
448,192,78154,1,0,0:0:0:0:
64,192,78194,1,0,0:0:0:0:
192,192,78233,1,0,0:0:0:0:
320,192,78273,1,0,0:0:0:0:
64,192,78312,1,0,0:0:0:0:
448,192,78352,1,0,0:0:0:0:
320,192,78391,1,0,0:0:0:0:
64,192,78431,1,0,0:0:0:0:
192,192,78470,1,0,0:0:0:0:
320,192,78510,1,0,0:0:0:0:
448,192,78510,1,0,0:0:0:0:
64,192,78549,1,0,0:0:0:0:
192,192,78589,1,0,0:0:0:0:
448,192,78629,1,0,0:0:0:0:
320,192,78668,1,0,0:0:0:0:
64,192,78708,1,0,0:0:0:0:
192,192,78747,1,0,0:0:0:0:
320,192,78787,1,0,0:0:0:0:
448,192,78826,1,0,0:0:0:0:
192,192,78866,1,0,0:0:0:0:
320,192,78905,1,0,0:0:0:0:
64,192,78945,1,0,0:0:0:0:
192,192,78984,1,0,0:0:0:0:
448,192,79024,1,0,0:0:0:0:
320,192,79063,1,0,0:0:0:0:
64,192,79103,1,0,0:0:0:0:
192,192,79103,1,0,0:0:0:0:
448,192,79142,1,0,0:0:0:0:
320,192,79182,1,0,0:0:0:0:
64,192,79221,1,0,0:0:0:0:
448,192,79261,1,0,0:0:0:0:
192,192,79300,1,0,0:0:0:0:
64,192,79340,1,0,0:0:0:0:
320,192,79380,1,0,0:0:0:0:
448,192,79419,1,0,0:0:0:0:
64,192,79459,1,0,0:0:0:0:
192,192,79459,1,0,0:0:0:0:
320,192,79498,1,0,0:0:0:0:
448,192,79538,1,0,0:0:0:0:
192,192,79577,1,0,0:0:0:0:
320,192,79617,1,0,0:0:0:0:
64,192,79656,1,0,0:0:0:0:
448,192,79696,1,0,0:0:0:0:
192,192,79735,1,0,0:0:0:0:
320,192,79775,1,0,0:0:0:0:
64,192,79814,1,0,0:0:0:0:
192,192,79854,1,0,0:0:0:0:
448,192,79893,1,0,0:0:0:0:
64,192,79933,1,0,0:0:0:0:
320,192,79933,1,0,0:0:0:0:
192,192,79972,1,0,0:0:0:0:
448,192,80012,1,0,0:0:0:0:
320,192,80051,1,0,0:0:0:0:
192,192,80091,1,0,0:0:0:0:
64,192,80131,1,0,0:0:0:0:
320,192,80170,1,0,0:0:0:0:
448,192,80170,1,0,0:0:0:0:
192,192,80210,1,0,0:0:0:0:
64,192,80249,1,0,0:0:0:0:
320,192,80289,1,0,0:0:0:0:
192,192,80328,1,0,0:0:0:0:
448,192,80368,1,0,0:0:0:0:
320,192,80407,1,0,0:0:0:0:
64,192,80447,1,0,0:0:0:0:
192,192,80486,1,0,0:0:0:0:
320,192,80526,1,0,0:0:0:0:
448,192,80565,1,0,0:0:0:0:
64,192,80605,1,0,0:0:0:0:
192,192,80644,1,0,0:0:0:0:
320,192,80644,1,0,0:0:0:0:
448,192,80684,1,0,0:0:0:0:
64,192,80723,1,0,0:0:0:0:
448,192,80763,1,0,0:0:0:0:
320,192,80802,1,0,0:0:0:0:
192,192,80842,1,0,0:0:0:0:
448,192,80881,1,0,0:0:0:0:
64,192,80921,1,0,0:0:0:0:
192,192,80961,1,0,0:0:0:0:
320,192,81000,1,0,0:0:0:0:
448,192,81000,1,0,0:0:0:0:
64,192,81040,1,0,0:0:0:0:
192,192,81079,1,0,0:0:0:0:
448,192,81119,1,0,0:0:0:0:
320,192,81158,1,0,0:0:0:0:
64,192,81198,1,0,0:0:0:0:
192,192,81237,1,0,0:0:0:0:
320,192,81277,1,0,0:0:0:0:
64,192,81316,1,0,0:0:0:0:
192,192,81356,1,0,0:0:0:0:
448,192,81356,1,0,0:0:0:0:
320,192,81395,1,0,0:0:0:0:
64,192,81435,1,0,0:0:0:0:
448,192,81474,1,0,0:0:0:0:
192,192,81514,1,0,0:0:0:0:
320,192,81553,1,0,0:0:0:0:
64,192,81593,1,0,0:0:0:0:
448,192,81632,1,0,0:0:0:0:
192,192,81672,1,0,0:0:0:0:
320,192,81712,1,0,0:0:0:0:
64,192,81751,1,0,0:0:0:0:
448,192,81791,1,0,0:0:0:0:
192,192,81830,1,0,0:0:0:0:
320,192,81870,1,0,0:0:0:0:
64,192,81909,1,0,0:0:0:0:
448,192,81949,1,0,0:0:0:0:
192,192,81988,1,0,0:0:0:0:
320,192,82028,1,0,0:0:0:0:
64,192,82067,1,0,0:0:0:0:
448,192,82067,1,0,0:0:0:0:
320,192,82107,1,0,0:0:0:0:
192,192,82146,1,0,0:0:0:0:
64,192,82186,1,0,0:0:0:0:
320,192,82225,1,0,0:0:0:0:
192,192,82265,1,0,0:0:0:0:
448,192,82304,1,0,0:0:0:0:
320,192,82344,1,0,0:0:0:0:
64,192,82383,1,0,0:0:0:0:
192,192,82423,1,0,0:0:0:0:
320,192,82463,1,0,0:0:0:0:
64,192,82502,1,0,0:0:0:0:
192,192,82542,1,0,0:0:0:0:
448,192,82542,1,0,0:0:0:0:
320,192,82596,1,0,0:0:0:0:
64,192,82640,1,0,0:0:0:0:
192,192,82685,1,0,0:0:0:0:
320,192,82729,1,0,0:0:0:0:
64,192,82779,1,0,0:0:0:0:
448,192,82833,1,0,0:0:0:0:
320,192,82878,1,0,0:0:0:0:
192,192,82922,1,0,0:0:0:0:
448,192,82966,1,0,0:0:0:0:
320,192,83016,1,0,0:0:0:0:
64,192,83055,1,0,0:0:0:0:
192,192,83095,1,0,0:0:0:0:
320,192,83134,1,0,0:0:0:0:
448,192,83174,1,0,0:0:0:0:
64,192,83214,1,0,0:0:0:0:
192,192,83253,1,0,0:0:0:0:
320,192,83293,1,0,0:0:0:0:
448,192,83332,1,0,0:0:0:0:
64,192,83372,1,0,0:0:0:0:
192,192,83411,1,0,0:0:0:0:
320,192,83451,1,0,0:0:0:0:
64,192,83490,1,0,0:0:0:0:
448,192,83490,1,0,0:0:0:0:
192,192,83530,1,0,0:0:0:0:
320,192,83569,1,0,0:0:0:0:
64,192,83609,1,0,0:0:0:0:
192,192,83648,1,0,0:0:0:0:
448,192,83688,1,0,0:0:0:0:
320,192,83727,1,0,0:0:0:0:
64,192,83767,1,0,0:0:0:0:
192,192,83806,1,0,0:0:0:0:
320,192,83846,1,0,0:0:0:0:
448,192,83885,1,0,0:0:0:0:
192,192,83925,1,0,0:0:0:0:
64,192,83964,1,0,0:0:0:0:
320,192,84004,1,0,0:0:0:0:
448,192,84044,1,0,0:0:0:0:
192,192,84083,1,0,0:0:0:0:
320,192,84123,1,0,0:0:0:0:
448,192,84162,1,0,0:0:0:0:
192,192,84202,1,0,0:0:0:0:
64,192,84241,1,0,0:0:0:0:
320,192,84281,1,0,0:0:0:0:
448,192,84320,1,0,0:0:0:0:
192,192,84360,1,0,0:0:0:0:
320,192,84399,1,0,0:0:0:0:
64,192,84439,1,0,0:0:0:0:
448,192,84439,1,0,0:0:0:0:
192,192,84498,1,0,0:0:0:0:
320,192,84557,1,0,0:0:0:0:
448,192,84617,1,0,0:0:0:0:
64,192,84676,1,0,0:0:0:0:
192,192,84676,1,0,0:0:0:0:
320,192,84735,1,0,0:0:0:0:
64,192,84795,1,0,0:0:0:0:
192,192,84795,1,0,0:0:0:0:
320,192,84854,1,0,0:0:0:0:
192,192,84913,1,0,0:0:0:0:
64,192,84972,1,0,0:0:0:0:
320,192,85032,1,0,0:0:0:0:
448,192,85032,1,0,0:0:0:0:
64,192,85091,1,0,0:0:0:0:
320,192,85150,1,0,0:0:0:0:
448,192,85150,1,0,0:0:0:0:
192,192,85210,1,0,0:0:0:0:
320,192,85269,1,0,0:0:0:0:
192,192,85328,1,0,0:0:0:0:
64,192,85387,1,0,0:0:0:0:
320,192,85387,1,0,0:0:0:0:
448,192,85427,1,0,0:0:0:0:
192,192,85466,1,0,0:0:0:0:
64,192,85506,1,0,0:0:0:0:
448,192,85546,1,0,0:0:0:0:
320,192,85585,1,0,0:0:0:0:
192,192,85625,1,0,0:0:0:0:
64,192,85664,1,0,0:0:0:0:
320,192,85704,1,0,0:0:0:0:
448,192,85743,1,0,0:0:0:0:
192,192,85783,1,0,0:0:0:0:
64,192,85822,1,0,0:0:0:0:
320,192,85862,1,0,0:0:0:0:
192,192,85901,1,0,0:0:0:0:
448,192,85941,1,0,0:0:0:0:
320,192,85980,1,0,0:0:0:0:
64,192,86020,1,0,0:0:0:0:
192,192,86059,1,0,0:0:0:0:
320,192,86099,1,0,0:0:0:0:
448,192,86138,1,0,0:0:0:0:
192,192,86178,1,0,0:0:0:0:
64,192,86217,1,0,0:0:0:0:
448,192,86257,1,0,0:0:0:0:
320,192,86297,1,0,0:0:0:0:
64,192,86336,1,0,0:0:0:0:
192,192,86336,1,0,0:0:0:0:
448,192,86395,1,0,0:0:0:0:
320,192,86455,1,0,0:0:0:0:
192,192,86514,1,0,0:0:0:0:
320,192,86573,1,0,0:0:0:0:
448,192,86573,1,0,0:0:0:0:
64,192,86632,1,0,0:0:0:0:
320,192,86692,1,0,0:0:0:0:
448,192,86692,1,0,0:0:0:0:
192,192,86751,1,0,0:0:0:0:
320,192,86810,1,0,0:0:0:0:
448,192,86870,1,0,0:0:0:0:
64,192,86929,1,0,0:0:0:0:
192,192,86929,1,0,0:0:0:0:
320,192,86988,1,0,0:0:0:0:
64,192,87047,1,0,0:0:0:0:
192,192,87047,1,0,0:0:0:0:
448,192,87107,1,0,0:0:0:0:
64,192,87166,1,0,0:0:0:0:
448,192,87225,1,0,0:0:0:0:
192,192,87285,1,0,0:0:0:0:
320,192,87285,1,0,0:0:0:0:
64,192,87324,1,0,0:0:0:0:
448,192,87364,1,0,0:0:0:0:
320,192,87403,1,0,0:0:0:0:
64,192,87443,1,0,0:0:0:0:
192,192,87482,1,0,0:0:0:0:
320,192,87522,1,0,0:0:0:0:
448,192,87561,1,0,0:0:0:0:
192,192,87601,1,0,0:0:0:0:
320,192,87640,1,0,0:0:0:0:
64,192,87680,1,0,0:0:0:0:
192,192,87719,1,0,0:0:0:0:
448,192,87759,1,0,0:0:0:0:
320,192,87798,1,0,0:0:0:0:
192,192,87838,1,0,0:0:0:0:
64,192,87878,1,0,0:0:0:0:
320,192,87917,1,0,0:0:0:0:
448,192,87957,1,0,0:0:0:0:
192,192,87996,1,0,0:0:0:0:
64,192,88036,1,0,0:0:0:0:
320,192,88075,1,0,0:0:0:0:
192,192,88115,1,0,0:0:0:0:
448,192,88154,1,0,0:0:0:0:
320,192,88194,1,0,0:0:0:0:
64,192,88233,1,0,0:0:0:0:
192,192,88233,1,0,0:0:0:0:
320,192,88293,1,0,0:0:0:0:
448,192,88352,1,0,0:0:0:0:
64,192,88411,1,0,0:0:0:0:
320,192,88470,1,0,0:0:0:0:
448,192,88470,1,0,0:0:0:0:
192,192,88530,1,0,0:0:0:0:
320,192,88589,1,0,0:0:0:0:
448,192,88589,1,0,0:0:0:0:
64,192,88648,1,0,0:0:0:0:
192,192,88708,1,0,0:0:0:0:
320,192,88767,1,0,0:0:0:0:
64,192,88826,1,0,0:0:0:0:
192,192,88826,1,0,0:0:0:0:
320,192,88885,1,0,0:0:0:0:
64,192,88945,1,0,0:0:0:0:
192,192,88945,1,0,0:0:0:0:
448,192,89004,1,0,0:0:0:0:
64,192,89063,1,0,0:0:0:0:
448,192,89123,1,0,0:0:0:0:
64,192,89182,1,0,0:0:0:0:
320,192,89182,1,0,0:0:0:0:
192,192,89221,1,0,0:0:0:0:
448,192,89261,1,0,0:0:0:0:
320,192,89300,1,0,0:0:0:0:
192,192,89340,1,0,0:0:0:0:
64,192,89380,1,0,0:0:0:0:
320,192,89419,1,0,0:0:0:0:
448,192,89459,1,0,0:0:0:0:
192,192,89498,1,0,0:0:0:0:
64,192,89538,1,0,0:0:0:0:
320,192,89577,1,0,0:0:0:0:
448,192,89617,1,0,0:0:0:0:
64,192,89656,1,0,0:0:0:0:
192,192,89696,1,0,0:0:0:0:
320,192,89735,1,0,0:0:0:0:
448,192,89775,1,0,0:0:0:0:
64,192,89814,1,0,0:0:0:0:
192,192,89854,1,0,0:0:0:0:
448,192,89893,1,0,0:0:0:0:
320,192,89933,1,0,0:0:0:0:
192,192,89972,1,0,0:0:0:0:
64,192,90012,1,0,0:0:0:0:
320,192,90051,1,0,0:0:0:0:
448,192,90091,1,0,0:0:0:0:
64,192,90131,1,0,0:0:0:0:
192,192,90131,1,0,0:0:0:0:
320,192,90190,1,0,0:0:0:0:
448,192,90249,1,0,0:0:0:0:
64,192,90308,1,0,0:0:0:0:
320,192,90368,1,0,0:0:0:0:
448,192,90368,1,0,0:0:0:0:
192,192,90427,1,0,0:0:0:0:
320,192,90486,1,0,0:0:0:0:
448,192,90486,1,0,0:0:0:0:
192,192,90546,1,0,0:0:0:0:
64,192,90605,1,0,0:0:0:0:
448,192,90664,1,0,0:0:0:0:
64,192,90723,1,0,0:0:0:0:
192,192,90723,1,0,0:0:0:0:
448,192,90783,1,0,0:0:0:0:
64,192,90842,1,0,0:0:0:0:
192,192,90842,1,0,0:0:0:0:
320,192,90901,1,0,0:0:0:0:
192,192,90961,1,0,0:0:0:0:
320,192,91020,1,0,0:0:0:0:
192,192,91079,1,0,0:0:0:0:
448,192,91079,1,0,0:0:0:0:
64,192,91119,1,0,0:0:0:0:
320,192,91158,1,0,0:0:0:0:
192,192,91198,1,0,0:0:0:0:
448,192,91237,1,0,0:0:0:0:
320,192,91277,1,0,0:0:0:0:
192,192,91316,1,0,0:0:0:0:
64,192,91356,1,0,0:0:0:0:
320,192,91395,1,0,0:0:0:0:
448,192,91435,1,0,0:0:0:0:
192,192,91474,1,0,0:0:0:0:
64,192,91514,1,0,0:0:0:0:
320,192,91553,1,0,0:0:0:0:
192,192,91593,1,0,0:0:0:0:
448,192,91632,1,0,0:0:0:0:
320,192,91672,1,0,0:0:0:0:
64,192,91712,1,0,0:0:0:0:
192,192,91751,1,0,0:0:0:0:
320,192,91791,1,0,0:0:0:0:
448,192,91830,1,0,0:0:0:0:
192,192,91870,1,0,0:0:0:0:
64,192,91909,1,0,0:0:0:0:
320,192,91949,1,0,0:0:0:0:
448,192,91988,1,0,0:0:0:0:
64,192,92028,1,0,0:0:0:0:
192,192,92028,1,0,0:0:0:0:
320,192,92087,1,0,0:0:0:0:
192,192,92146,1,0,0:0:0:0:
64,192,92206,1,0,0:0:0:0:
320,192,92265,1,0,0:0:0:0:
448,192,92265,1,0,0:0:0:0:
192,192,92324,1,0,0:0:0:0:
320,192,92383,1,0,0:0:0:0:
448,192,92383,1,0,0:0:0:0:
64,192,92443,1,0,0:0:0:0:
192,192,92502,1,0,0:0:0:0:
320,192,92561,1,0,0:0:0:0:
64,192,92621,1,0,0:0:0:0:
192,192,92621,1,0,0:0:0:0:
320,192,92680,1,0,0:0:0:0:
64,192,92739,1,0,0:0:0:0:
192,192,92739,1,0,0:0:0:0:
448,192,92798,1,0,0:0:0:0:
64,192,92858,1,0,0:0:0:0:
448,192,92917,1,0,0:0:0:0:
192,192,92976,1,0,0:0:0:0:
320,192,92976,1,0,0:0:0:0:
64,192,93016,1,0,0:0:0:0:
448,192,93055,1,0,0:0:0:0:
320,192,93095,1,0,0:0:0:0:
64,192,93134,1,0,0:0:0:0:
192,192,93174,1,0,0:0:0:0:
320,192,93214,1,0,0:0:0:0:
448,192,93253,1,0,0:0:0:0:
192,192,93293,1,0,0:0:0:0:
64,192,93332,1,0,0:0:0:0:
320,192,93372,1,0,0:0:0:0:
448,192,93411,1,0,0:0:0:0:
192,192,93451,1,0,0:0:0:0:
64,192,93490,1,0,0:0:0:0:
448,192,93530,1,0,0:0:0:0:
320,192,93569,1,0,0:0:0:0:
192,192,93609,1,0,0:0:0:0:
64,192,93648,1,0,0:0:0:0:
448,192,93688,1,0,0:0:0:0:
320,192,93727,1,0,0:0:0:0:
64,192,93767,1,0,0:0:0:0:
192,192,93806,1,0,0:0:0:0:
448,192,93846,1,0,0:0:0:0:
320,192,93885,1,0,0:0:0:0:
64,192,93925,1,0,0:0:0:0:
192,192,93925,1,0,0:0:0:0:
448,192,93984,1,0,0:0:0:0:
320,192,94044,1,0,0:0:0:0:
192,192,94103,1,0,0:0:0:0:
320,192,94162,1,0,0:0:0:0:
448,192,94162,1,0,0:0:0:0:
64,192,94221,1,0,0:0:0:0:
320,192,94281,1,0,0:0:0:0:
448,192,94281,1,0,0:0:0:0:
192,192,94340,1,0,0:0:0:0:
320,192,94399,1,0,0:0:0:0:
448,192,94459,1,0,0:0:0:0:
64,192,94518,1,0,0:0:0:0:
192,192,94518,1,0,0:0:0:0:
448,192,94577,1,0,0:0:0:0:
64,192,94636,1,0,0:0:0:0:
192,192,94636,1,0,0:0:0:0:
320,192,94696,1,0,0:0:0:0:
192,192,94755,1,0,0:0:0:0:
320,192,94814,1,0,0:0:0:0:
192,192,94874,1,0,0:0:0:0:
448,192,94874,1,0,0:0:0:0:
64,192,94913,1,0,0:0:0:0:
320,192,94953,1,0,0:0:0:0:
448,192,94992,1,0,0:0:0:0:
192,192,95032,1,0,0:0:0:0:
64,192,95071,1,0,0:0:0:0:
320,192,95111,1,0,0:0:0:0:
192,192,95150,1,0,0:0:0:0:
448,192,95190,1,0,0:0:0:0:
320,192,95229,1,0,0:0:0:0:
64,192,95269,1,0,0:0:0:0:
192,192,95308,1,0,0:0:0:0:
320,192,95348,1,0,0:0:0:0:
448,192,95387,1,0,0:0:0:0:
192,192,95427,1,0,0:0:0:0:
64,192,95466,1,0,0:0:0:0:
320,192,95506,1,0,0:0:0:0:
448,192,95546,1,0,0:0:0:0:
64,192,95585,1,0,0:0:0:0:
192,192,95625,1,0,0:0:0:0:
448,192,95664,1,0,0:0:0:0:
320,192,95704,1,0,0:0:0:0:
192,192,95743,1,0,0:0:0:0:
64,192,95783,1,0,0:0:0:0:
320,192,95822,1,0,0:0:0:0:
448,192,95822,1,0,0:0:0:0:
192,192,95881,1,0,0:0:0:0:
320,192,95941,1,0,0:0:0:0:
448,192,96000,1,0,0:0:0:0:
64,192,96059,1,0,0:0:0:0:
192,192,96059,1,0,0:0:0:0:
320,192,96119,1,0,0:0:0:0:
64,192,96178,1,0,0:0:0:0:
192,192,96178,1,0,0:0:0:0:
320,192,96237,1,0,0:0:0:0:
192,192,96297,1,0,0:0:0:0:
64,192,96356,1,0,0:0:0:0:
320,192,96415,1,0,0:0:0:0:
448,192,96415,1,0,0:0:0:0:
192,192,96474,1,0,0:0:0:0:
320,192,96534,1,0,0:0:0:0:
448,192,96534,1,0,0:0:0:0:
64,192,96593,1,0,0:0:0:0:
448,192,96652,1,0,0:0:0:0:
64,192,96712,1,0,0:0:0:0:
192,192,96771,1,0,0:0:0:0:
320,192,96771,1,0,0:0:0:0:
448,192,96810,1,0,0:0:0:0:
64,192,96850,1,0,0:0:0:0:
192,192,96889,1,0,0:0:0:0:
320,192,96929,1,0,0:0:0:0:
448,192,96968,1,0,0:0:0:0:
192,192,97008,1,0,0:0:0:0:
64,192,97047,1,0,0:0:0:0:
320,192,97087,1,0,0:0:0:0:
448,192,97127,1,0,0:0:0:0:
192,192,97166,1,0,0:0:0:0:
64,192,97206,1,0,0:0:0:0:
448,192,97245,1,0,0:0:0:0:
320,192,97285,1,0,0:0:0:0:
192,192,97324,1,0,0:0:0:0:
64,192,97364,1,0,0:0:0:0:
448,192,97403,1,0,0:0:0:0:
320,192,97443,1,0,0:0:0:0:
64,192,97482,1,0,0:0:0:0:
192,192,97522,1,0,0:0:0:0:
320,192,97561,1,0,0:0:0:0:
448,192,97601,1,0,0:0:0:0:
64,192,97640,1,0,0:0:0:0:
192,192,97680,1,0,0:0:0:0:
320,192,97719,1,0,0:0:0:0:
448,192,97719,128,0,97957:0:0:0:0:
64,192,97957,1,0,0:0:0:0:
320,192,98011,1,0,0:0:0:0:
192,192,98055,1,0,0:0:0:0:
448,192,98100,1,0,0:0:0:0:
64,192,98144,1,0,0:0:0:0:
192,192,98194,1,0,0:0:0:0:
448,192,98248,1,0,0:0:0:0:
320,192,98293,1,0,0:0:0:0:
192,192,98337,1,0,0:0:0:0:
448,192,98381,1,0,0:0:0:0:
64,192,98431,1,0,0:0:0:0:
192,192,98470,1,0,0:0:0:0:
320,192,98510,1,0,0:0:0:0:
448,192,98549,1,0,0:0:0:0:
192,192,98589,1,0,0:0:0:0:
320,192,98629,1,0,0:0:0:0:
64,192,98668,1,0,0:0:0:0:
448,192,98668,1,0,0:0:0:0:
192,192,98708,1,0,0:0:0:0:
320,192,98747,1,0,0:0:0:0:
64,192,98787,1,0,0:0:0:0:
192,192,98826,1,0,0:0:0:0:
448,192,98866,1,0,0:0:0:0:
320,192,98905,1,0,0:0:0:0:
64,192,98945,1,0,0:0:0:0:
192,192,98984,1,0,0:0:0:0:
320,192,99024,1,0,0:0:0:0:
64,192,99063,1,0,0:0:0:0:
192,192,99103,1,0,0:0:0:0:
448,192,99142,1,0,0:0:0:0:
320,192,99182,1,0,0:0:0:0:
64,192,99221,1,0,0:0:0:0:
192,192,99261,1,0,0:0:0:0:
320,192,99300,1,0,0:0:0:0:
448,192,99340,1,0,0:0:0:0:
192,192,99380,1,0,0:0:0:0:
64,192,99419,1,0,0:0:0:0:
320,192,99459,1,0,0:0:0:0:
448,192,99498,1,0,0:0:0:0:
192,192,99538,1,0,0:0:0:0:
320,192,99577,1,0,0:0:0:0:
64,192,99617,1,0,0:0:0:0:
448,192,99617,1,0,0:0:0:0:
192,192,99676,1,0,0:0:0:0:
320,192,99735,1,0,0:0:0:0:
448,192,99795,1,0,0:0:0:0:
64,192,99854,1,0,0:0:0:0:
192,192,99854,1,0,0:0:0:0:
320,192,99913,1,0,0:0:0:0:
64,192,99972,1,0,0:0:0:0:
192,192,99972,1,0,0:0:0:0:
448,192,100032,1,0,0:0:0:0:
320,192,100091,1,0,0:0:0:0:
192,192,100150,1,0,0:0:0:0:
320,192,100210,1,0,0:0:0:0:
448,192,100210,1,0,0:0:0:0:
192,192,100269,1,0,0:0:0:0:
320,192,100328,1,0,0:0:0:0:
448,192,100328,1,0,0:0:0:0:
64,192,100387,1,0,0:0:0:0:
448,192,100447,1,0,0:0:0:0:
64,192,100506,1,0,0:0:0:0:
192,192,100565,1,0,0:0:0:0:
320,192,100565,1,0,0:0:0:0:
448,192,100605,1,0,0:0:0:0:
64,192,100644,1,0,0:0:0:0:
192,192,100684,1,0,0:0:0:0:
448,192,100723,1,0,0:0:0:0:
320,192,100763,1,0,0:0:0:0:
192,192,100802,1,0,0:0:0:0:
64,192,100842,1,0,0:0:0:0:
320,192,100881,1,0,0:0:0:0:
448,192,100921,1,0,0:0:0:0:
192,192,100961,1,0,0:0:0:0:
64,192,101000,1,0,0:0:0:0:
448,192,101040,1,0,0:0:0:0:
320,192,101079,1,0,0:0:0:0:
64,192,101119,1,0,0:0:0:0:
192,192,101158,1,0,0:0:0:0:
320,192,101198,1,0,0:0:0:0:
448,192,101237,1,0,0:0:0:0:
64,192,101277,1,0,0:0:0:0:
192,192,101316,1,0,0:0:0:0:
448,192,101356,1,0,0:0:0:0:
320,192,101395,1,0,0:0:0:0:
192,192,101435,1,0,0:0:0:0:
64,192,101474,1,0,0:0:0:0:
320,192,101514,1,0,0:0:0:0:
448,192,101514,1,0,0:0:0:0:
192,192,101573,1,0,0:0:0:0:
64,192,101632,1,0,0:0:0:0:
448,192,101692,1,0,0:0:0:0:
64,192,101751,1,0,0:0:0:0:
192,192,101751,1,0,0:0:0:0:
320,192,101810,1,0,0:0:0:0:
64,192,101870,1,0,0:0:0:0:
192,192,101870,1,0,0:0:0:0:
320,192,101929,1,0,0:0:0:0:
448,192,101988,1,0,0:0:0:0:
64,192,102047,1,0,0:0:0:0:
320,192,102107,1,0,0:0:0:0:
448,192,102107,1,0,0:0:0:0:
64,192,102166,1,0,0:0:0:0:
320,192,102225,1,0,0:0:0:0:
448,192,102225,1,0,0:0:0:0:
192,192,102285,1,0,0:0:0:0:
320,192,102344,1,0,0:0:0:0:
192,192,102403,1,0,0:0:0:0:
64,192,102463,1,0,0:0:0:0:
320,192,102463,1,0,0:0:0:0:
448,192,102502,1,0,0:0:0:0:
192,192,102542,1,0,0:0:0:0:
320,192,102581,1,0,0:0:0:0:
64,192,102621,1,0,0:0:0:0:
192,192,102660,1,0,0:0:0:0:
448,192,102700,1,0,0:0:0:0:
320,192,102739,1,0,0:0:0:0:
192,192,102779,1,0,0:0:0:0:
64,192,102818,1,0,0:0:0:0:
320,192,102858,1,0,0:0:0:0:
448,192,102897,1,0,0:0:0:0:
192,192,102937,1,0,0:0:0:0:
320,192,102976,1,0,0:0:0:0:
64,192,103016,1,0,0:0:0:0:
192,192,103055,1,0,0:0:0:0:
448,192,103095,1,0,0:0:0:0:
320,192,103134,1,0,0:0:0:0:
64,192,103174,1,0,0:0:0:0:
192,192,103214,1,0,0:0:0:0:
320,192,103253,1,0,0:0:0:0:
448,192,103293,1,0,0:0:0:0:
64,192,103332,1,0,0:0:0:0:
192,192,103372,1,0,0:0:0:0:
320,192,103411,1,0,0:0:0:0:
448,192,103411,1,0,0:0:0:0:
192,192,103470,1,0,0:0:0:0:
64,192,103530,1,0,0:0:0:0:
448,192,103589,1,0,0:0:0:0:
64,192,103648,1,0,0:0:0:0:
192,192,103648,1,0,0:0:0:0:
320,192,103708,1,0,0:0:0:0:
64,192,103767,1,0,0:0:0:0:
192,192,103767,1,0,0:0:0:0:
448,192,103826,1,0,0:0:0:0:
320,192,103885,1,0,0:0:0:0:
192,192,103945,1,0,0:0:0:0:
320,192,104004,1,0,0:0:0:0:
448,192,104004,1,0,0:0:0:0:
192,192,104063,1,0,0:0:0:0:
320,192,104123,1,0,0:0:0:0:
448,192,104123,1,0,0:0:0:0:
64,192,104182,1,0,0:0:0:0:
448,192,104241,1,0,0:0:0:0:
64,192,104300,1,0,0:0:0:0:
192,192,104360,1,0,0:0:0:0:
448,192,104360,1,0,0:0:0:0:
320,192,104399,1,0,0:0:0:0:
64,192,104439,1,0,0:0:0:0:
192,192,104478,1,0,0:0:0:0:
320,192,104518,1,0,0:0:0:0:
448,192,104557,1,0,0:0:0:0:
192,192,104597,1,0,0:0:0:0:
64,192,104636,1,0,0:0:0:0:
320,192,104676,1,0,0:0:0:0:
448,192,104715,1,0,0:0:0:0:
192,192,104755,1,0,0:0:0:0:
64,192,104795,1,0,0:0:0:0:
448,192,104834,1,0,0:0:0:0:
320,192,104874,1,0,0:0:0:0:
192,192,104913,1,0,0:0:0:0:
64,192,104953,1,0,0:0:0:0:
448,192,104992,1,0,0:0:0:0:
320,192,105032,1,0,0:0:0:0:
64,192,105071,1,0,0:0:0:0:
192,192,105111,1,0,0:0:0:0:
320,192,105150,1,0,0:0:0:0:
448,192,105190,1,0,0:0:0:0:
192,192,105229,1,0,0:0:0:0:
64,192,105269,1,0,0:0:0:0:
320,192,105308,1,0,0:0:0:0:
448,192,105308,1,0,0:0:0:0:
192,192,105368,1,0,0:0:0:0:
64,192,105427,1,0,0:0:0:0:
448,192,105486,1,0,0:0:0:0:
64,192,105546,1,0,0:0:0:0:
192,192,105546,1,0,0:0:0:0:
320,192,105605,1,0,0:0:0:0:
64,192,105664,1,0,0:0:0:0:
192,192,105664,1,0,0:0:0:0:
320,192,105723,1,0,0:0:0:0:
448,192,105783,1,0,0:0:0:0:
64,192,105842,1,0,0:0:0:0:
320,192,105901,1,0,0:0:0:0:
448,192,105901,1,0,0:0:0:0:
64,192,105961,1,0,0:0:0:0:
320,192,106020,1,0,0:0:0:0:
448,192,106020,1,0,0:0:0:0:
192,192,106079,1,0,0:0:0:0:
320,192,106138,1,0,0:0:0:0:
192,192,106198,1,0,0:0:0:0:
64,192,106257,1,0,0:0:0:0:
320,192,106257,1,0,0:0:0:0:
448,192,106297,1,0,0:0:0:0:
192,192,106336,1,0,0:0:0:0:
320,192,106376,1,0,0:0:0:0:
64,192,106415,1,0,0:0:0:0:
192,192,106455,1,0,0:0:0:0:
320,192,106494,1,0,0:0:0:0:
448,192,106534,1,0,0:0:0:0:
192,192,106573,1,0,0:0:0:0:
64,192,106613,1,0,0:0:0:0:
320,192,106652,1,0,0:0:0:0:
448,192,106692,1,0,0:0:0:0:
192,192,106731,1,0,0:0:0:0:
320,192,106771,1,0,0:0:0:0:
64,192,106810,1,0,0:0:0:0:
192,192,106850,1,0,0:0:0:0:
448,192,106889,1,0,0:0:0:0:
320,192,106929,1,0,0:0:0:0:
192,192,106968,1,0,0:0:0:0:
64,192,107008,1,0,0:0:0:0:
320,192,107047,1,0,0:0:0:0:
448,192,107087,1,0,0:0:0:0:
192,192,107127,1,0,0:0:0:0:
64,192,107166,1,0,0:0:0:0:
320,192,107206,1,0,0:0:0:0:
448,192,107206,1,0,0:0:0:0:
192,192,107265,1,0,0:0:0:0:
320,192,107324,1,0,0:0:0:0:
448,192,107383,1,0,0:0:0:0:
64,192,107443,1,0,0:0:0:0:
192,192,107443,1,0,0:0:0:0:
320,192,107502,1,0,0:0:0:0:
64,192,107561,1,0,0:0:0:0:
192,192,107561,1,0,0:0:0:0:
448,192,107621,1,0,0:0:0:0:
320,192,107680,1,0,0:0:0:0:
192,192,107739,1,0,0:0:0:0:
320,192,107798,1,0,0:0:0:0:
448,192,107798,1,0,0:0:0:0:
192,192,107858,1,0,0:0:0:0:
320,192,107917,1,0,0:0:0:0:
448,192,107917,1,0,0:0:0:0:
64,192,107976,1,0,0:0:0:0:
448,192,108036,1,0,0:0:0:0:
64,192,108095,1,0,0:0:0:0:
192,192,108154,1,0,0:0:0:0:
320,192,108154,1,0,0:0:0:0:
448,192,108194,1,0,0:0:0:0:
64,192,108233,1,0,0:0:0:0:
192,192,108273,1,0,0:0:0:0:
448,192,108312,1,0,0:0:0:0:
320,192,108352,1,0,0:0:0:0:
192,192,108391,1,0,0:0:0:0:
64,192,108431,1,0,0:0:0:0:
320,192,108470,1,0,0:0:0:0:
448,192,108510,1,0,0:0:0:0:
192,192,108549,1,0,0:0:0:0:
64,192,108589,1,0,0:0:0:0:
320,192,108629,1,0,0:0:0:0:
448,192,108668,1,0,0:0:0:0:
64,192,108708,1,0,0:0:0:0:
192,192,108747,1,0,0:0:0:0:
320,192,108787,1,0,0:0:0:0:
448,192,108826,1,0,0:0:0:0:
64,192,108866,1,0,0:0:0:0:
192,192,108905,1,0,0:0:0:0:
448,192,108945,1,0,0:0:0:0:
320,192,108984,1,0,0:0:0:0:
64,192,109024,1,0,0:0:0:0:
192,192,109063,1,0,0:0:0:0:
320,192,109103,1,0,0:0:0:0:
448,192,109103,1,0,0:0:0:0:
64,192,109162,1,0,0:0:0:0:
192,192,109221,1,0,0:0:0:0:
320,192,109281,1,0,0:0:0:0:
64,192,109340,1,0,0:0:0:0:
192,192,109340,1,0,0:0:0:0:
448,192,109399,1,0,0:0:0:0:
64,192,109459,1,0,0:0:0:0:
192,192,109459,1,0,0:0:0:0:
320,192,109518,1,0,0:0:0:0:
192,192,109577,1,0,0:0:0:0:
64,192,109636,1,0,0:0:0:0:
320,192,109696,1,0,0:0:0:0:
448,192,109696,1,0,0:0:0:0:
64,192,109755,1,0,0:0:0:0:
320,192,109814,1,0,0:0:0:0:
448,192,109814,1,0,0:0:0:0:
192,192,109874,1,0,0:0:0:0:
320,192,109933,1,0,0:0:0:0:
192,192,109992,1,0,0:0:0:0:
64,192,110051,1,0,0:0:0:0:
320,192,110051,1,0,0:0:0:0:
448,192,110091,1,0,0:0:0:0:
192,192,110131,1,0,0:0:0:0:
64,192,110170,1,0,0:0:0:0:
320,192,110210,1,0,0:0:0:0:
448,192,110249,1,0,0:0:0:0:
192,192,110289,1,0,0:0:0:0:
320,192,110328,1,0,0:0:0:0:
64,192,110368,1,0,0:0:0:0:
192,192,110407,1,0,0:0:0:0:
448,192,110447,1,0,0:0:0:0:
320,192,110486,1,0,0:0:0:0:
192,192,110526,1,0,0:0:0:0:
64,192,110565,1,0,0:0:0:0:
320,192,110605,1,0,0:0:0:0:
448,192,110644,1,0,0:0:0:0:
192,192,110684,1,0,0:0:0:0:
64,192,110723,1,0,0:0:0:0:
448,192,110763,1,0,0:0:0:0:
320,192,110802,1,0,0:0:0:0:
64,192,110842,1,0,0:0:0:0:
192,192,110881,1,0,0:0:0:0:
320,192,110921,1,0,0:0:0:0:
448,192,110961,1,0,0:0:0:0:
64,192,111000,1,0,0:0:0:0:
192,192,111000,1,0,0:0:0:0:
320,192,111059,1,0,0:0:0:0:
192,192,111119,1,0,0:0:0:0:
64,192,111178,1,0,0:0:0:0:
320,192,111237,1,0,0:0:0:0:
448,192,111237,1,0,0:0:0:0:
192,192,111297,1,0,0:0:0:0:
320,192,111356,1,0,0:0:0:0:
448,192,111356,1,0,0:0:0:0:
192,192,111415,1,0,0:0:0:0:
320,192,111474,1,0,0:0:0:0:
448,192,111534,1,0,0:0:0:0:
64,192,111593,1,0,0:0:0:0:
192,192,111593,1,0,0:0:0:0:
320,192,111652,1,0,0:0:0:0:
64,192,111712,1,0,0:0:0:0:
192,192,111712,1,0,0:0:0:0:
448,192,111771,1,0,0:0:0:0:
64,192,111830,1,0,0:0:0:0:
448,192,111889,1,0,0:0:0:0:
192,192,111949,1,0,0:0:0:0:
320,192,111949,1,0,0:0:0:0:
64,192,111988,1,0,0:0:0:0:
448,192,112028,1,0,0:0:0:0:
320,192,112067,1,0,0:0:0:0:
192,192,112107,1,0,0:0:0:0:
64,192,112146,1,0,0:0:0:0:
320,192,112186,1,0,0:0:0:0:
448,192,112225,1,0,0:0:0:0:
192,192,112265,1,0,0:0:0:0:
64,192,112304,1,0,0:0:0:0:
320,192,112344,1,0,0:0:0:0:
448,192,112383,1,0,0:0:0:0:
64,192,112423,1,0,0:0:0:0:
192,192,112463,1,0,0:0:0:0:
320,192,112502,1,0,0:0:0:0:
448,192,112542,1,0,0:0:0:0:
64,192,112581,1,0,0:0:0:0:
192,192,112621,1,0,0:0:0:0:
448,192,112660,1,0,0:0:0:0:
320,192,112700,1,0,0:0:0:0:
192,192,112739,1,0,0:0:0:0:
64,192,112779,1,0,0:0:0:0:
448,192,112818,1,0,0:0:0:0:
320,192,112858,1,0,0:0:0:0:
64,192,112897,1,0,0:0:0:0:
192,192,112897,1,0,0:0:0:0:
320,192,112957,1,0,0:0:0:0:
448,192,112957,1,0,0:0:0:0:
64,192,113016,1,0,0:0:0:0:
192,192,113016,1,0,0:0:0:0:
320,192,113075,1,0,0:0:0:0:
448,192,113075,1,0,0:0:0:0:
64,192,113134,1,0,0:0:0:0:
192,192,113134,1,0,0:0:0:0:
320,192,113194,1,0,0:0:0:0:
448,192,113194,1,0,0:0:0:0:
64,192,113253,1,0,0:0:0:0:
192,192,113253,1,0,0:0:0:0:
320,192,113312,1,0,0:0:0:0:
448,192,113312,1,0,0:0:0:0:
64,192,113372,1,0,0:0:0:0:
192,192,113372,1,0,0:0:0:0:
320,192,113431,1,0,0:0:0:0:
448,192,113431,1,0,0:0:0:0:
64,192,113490,1,0,0:0:0:0:
192,192,113490,1,0,0:0:0:0:
320,192,113549,1,0,0:0:0:0:
448,192,113549,1,0,0:0:0:0:
192,192,113609,1,0,0:0:0:0:
320,192,113668,1,0,0:0:0:0:
448,192,113668,1,0,0:0:0:0:
64,192,113727,1,0,0:0:0:0:
192,192,113727,1,0,0:0:0:0:
320,192,113787,1,0,0:0:0:0:
448,192,113787,1,0,0:0:0:0:
64,192,113846,1,0,0:0:0:0:
192,192,113846,1,0,0:0:0:0:
