osu file format v14

[General]
AudioFilename: ++.mp3
AudioLeadIn: 2
PreviewTime: 0
Countdown: 0
SampleSet: None
StackLeniency: 0.7
Mode: 3
LetterboxInBreaks: 0
SpecialStyle: 0
WidescreenStoryboard: 0

[Editor]
DistanceSpacing: 0.8
BeatDivisor: 12
GridSize: 8
TimelineZoom: 1

[Metadata]
Title:++
TitleUnicode:++
Artist:Cardboard Box
ArtistUnicode:Cardboard Box
Creator:Xonica
Version:Accelerated
Source:
Tags:Jumpstream Cardboard Box
BeatmapID:1745905
BeatmapSetID:833489

[Difficulty]
HPDrainRate:8
CircleSize:4
OverallDifficulty:8
ApproachRate:10
SliderMultiplier:1.4
SliderTickRate:1

[Events]
//Background and Video events
0,0,"bg.png",0,0
//Break Periods
//Storyboard Layer 0 (Background)
//Storyboard Layer 1 (Fail)
//Storyboard Layer 2 (Pass)
//Storyboard Layer 3 (Foreground)
//Storyboard Sound Samples

[TimingPoints]
75,250,4,2,0,0,1,0
75,-100,4,2,0,0,0,0
46075,248.9627,4,2,0,0,1,0
46075,-100,4,2,0,0,0,0
48066.75,247.9339,4,2,0,0,1,0
48066.75,-101.010101010101,4,2,0,0,0,0
50050.25,246.9136,4,2,0,0,1,0
50050.25,-101.010101010101,4,2,0,0,0,0
52025.5,245.9016,4,2,0,0,1,0
52025.5,-102.040816326531,4,2,0,0,0,0
53992.75,244.898,4,2,0,0,1,0
53992.75,-102.040816326531,4,2,0,0,0,0
55951.88,243.9024,4,2,0,0,1,0
55951.88,-102.040816326531,4,2,0,0,0,0
57903.13,242.915,4,2,0,0,1,0
57903.13,-103.092783505155,4,2,0,0,0,0
59846.5,241.9355,4,2,0,0,1,0
59846.5,-103.092783505155,4,2,0,0,0,0
61782,240.9639,4,2,0,0,1,0
61782,-104.166666666667,4,2,0,0,0,0
63709.75,240,4,2,0,0,1,0
63709.75,-104.166666666667,4,2,0,0,0,0
65629.75,239.0438,4,2,0,0,1,0
65629.75,-104.166666666667,4,2,0,0,0,0
67542,238.0952,4,2,0,0,1,0
67542,-105.263157894737,4,2,0,0,0,0
69446.75,237.1541,4,2,0,0,1,0
69446.75,-105.263157894737,4,2,0,0,0,0
71344,236.2205,4,2,0,0,1,0
71344,-106.382978723404,4,2,0,0,0,0
73233.75,235.2941,4,2,0,0,1,0
73233.75,-106.382978723404,4,2,0,0,0,0
75116,234.375,4,2,0,0,1,0
75116,-106.382978723404,4,2,0,0,0,0

[HitObjects]
320,192,75,5,0,0:0:0:0:
320,192,325,1,0,0:0:0:0:
64,192,450,1,0,0:0:0:0:
64,192,700,1,0,0:0:0:0:
320,192,825,1,0,0:0:0:0:
320,192,1075,1,0,0:0:0:0:
64,192,1200,1,0,0:0:0:0:
320,192,1325,1,0,0:0:0:0:
192,192,1450,1,0,0:0:0:0:
448,192,1575,1,0,0:0:0:0:
64,192,1700,1,0,0:0:0:0:
448,192,1825,1,0,0:0:0:0:
192,192,1950,1,0,0:0:0:0:
320,192,2075,1,0,0:0:0:0:
320,192,2325,1,0,0:0:0:0:
64,192,2450,1,0,0:0:0:0:
64,192,2700,1,0,0:0:0:0:
320,192,2825,1,0,0:0:0:0:
320,192,3075,1,0,0:0:0:0:
64,192,3200,1,0,0:0:0:0:
320,192,3325,1,0,0:0:0:0:
192,192,3450,1,0,0:0:0:0:
64,192,3575,1,0,0:0:0:0:
448,192,3575,1,0,0:0:0:0:
64,192,3700,1,0,0:0:0:0:
192,192,3700,1,0,0:0:0:0:
192,192,3825,1,0,0:0:0:0:
320,192,3825,1,0,0:0:0:0:
320,192,3950,1,0,0:0:0:0:
448,192,3950,1,0,0:0:0:0:
64,192,4075,1,0,0:0:0:0:
448,0,4075,128,0,4325:1:0:0:0:
192,192,4200,1,0,0:0:0:0:
64,192,4325,1,0,0:0:0:0:
320,192,4450,1,0,0:0:0:0:
448,192,4450,1,0,0:0:0:0:
192,192,4575,1,0,0:0:0:0:
320,192,4700,1,0,0:0:0:0:
192,192,4825,1,0,0:0:0:0:
64,0,4825,128,0,5075:1:0:0:0:
448,192,4950,1,0,0:0:0:0:
192,192,5075,1,0,0:0:0:0:
320,192,5200,1,0,0:0:0:0:
64,192,5325,1,0,0:0:0:0:
448,192,5325,1,0,0:0:0:0:
192,192,5450,1,0,0:0:0:0:
64,192,5575,1,0,0:0:0:0:
320,192,5575,1,0,0:0:0:0:
448,192,5700,1,0,0:0:0:0:
64,192,5825,1,0,0:0:0:0:
192,192,5825,1,0,0:0:0:0:
320,192,5950,1,0,0:0:0:0:
64,192,6075,1,0,0:0:0:0:
448,192,6075,1,0,0:0:0:0:
320,192,6200,1,0,0:0:0:0:
448,192,6200,1,0,0:0:0:0:
192,192,6325,1,0,0:0:0:0:
320,192,6325,1,0,0:0:0:0:
192,192,6450,1,0,0:0:0:0:
64,0,6450,128,0,6825:1:0:0:0:
448,192,6575,1,0,0:0:0:0:
192,192,6700,1,0,0:0:0:0:
320,192,6825,1,0,0:0:0:0:
64,192,6950,1,0,0:0:0:0:
448,192,7075,1,0,0:0:0:0:
64,192,7200,1,0,0:0:0:0:
192,0,7200,128,0,7325:1:0:0:0:
320,192,7325,1,0,0:0:0:0:
64,192,7450,1,0,0:0:0:0:
448,0,7450,128,0,7575:1:0:0:0:
192,192,7575,1,0,0:0:0:0:
320,192,7700,1,0,0:0:0:0:
448,192,7700,1,0,0:0:0:0:
64,192,7825,1,0,0:0:0:0:
448,192,7825,1,0,0:0:0:0:
64,192,7950,1,0,0:0:0:0:
192,192,7950,1,0,0:0:0:0:
448,192,8075,1,0,0:0:0:0:
64,0,8075,128,0,8325:1:0:0:0:
320,192,8200,1,0,0:0:0:0:
192,192,8325,1,0,0:0:0:0:
448,192,8450,1,0,0:0:0:0:
320,0,8450,128,0,8575:1:0:0:0:
64,192,8575,1,0,0:0:0:0:
320,192,8700,1,0,0:0:0:0:
192,192,8825,1,0,0:0:0:0:
448,0,8825,128,0,9075:1:0:0:0:
64,192,8950,1,0,0:0:0:0:
320,192,9075,1,0,0:0:0:0:
192,192,9200,1,0,0:0:0:0:
320,192,9325,1,0,0:0:0:0:
448,0,9325,128,0,9450:1:0:0:0:
64,192,9450,1,0,0:0:0:0:
192,192,9575,1,0,0:0:0:0:
320,0,9575,128,0,9700:1:0:0:0:
448,192,9700,1,0,0:0:0:0:
64,192,9825,1,0,0:0:0:0:
192,0,9825,128,0,9950:1:0:0:0:
320,192,9950,1,0,0:0:0:0:
64,192,10075,1,0,0:0:0:0:
448,192,10075,1,0,0:0:0:0:
192,192,10137,1,0,0:0:0:0:
320,192,10200,1,0,0:0:0:0:
448,192,10262,1,0,0:0:0:0:
192,192,10325,1,0,0:0:0:0:
64,192,10387,1,0,0:0:0:0:
448,192,10450,1,0,0:0:0:0:
320,192,10512,1,0,0:0:0:0:
192,192,10575,1,0,0:0:0:0:
64,192,10637,1,0,0:0:0:0:
320,192,10700,1,0,0:0:0:0:
192,192,10762,1,0,0:0:0:0:
64,192,10825,1,0,0:0:0:0:
448,192,10825,1,0,0:0:0:0:
320,192,10887,1,0,0:0:0:0:
448,192,10950,1,0,0:0:0:0:
64,192,11012,1,0,0:0:0:0:
192,192,11075,1,0,0:0:0:0:
320,192,11137,1,0,0:0:0:0:
448,192,11200,1,0,0:0:0:0:
192,192,11262,1,0,0:0:0:0:
64,192,11325,1,0,0:0:0:0:
448,192,11387,1,0,0:0:0:0:
320,192,11450,1,0,0:0:0:0:
192,192,11512,1,0,0:0:0:0:
64,192,11575,1,0,0:0:0:0:
320,192,11637,1,0,0:0:0:0:
192,192,11700,1,0,0:0:0:0:
448,192,11762,1,0,0:0:0:0:
320,192,11825,1,0,0:0:0:0:
64,192,11887,1,0,0:0:0:0:
192,192,11950,1,0,0:0:0:0:
320,192,12012,1,0,0:0:0:0:
448,192,12075,1,0,0:0:0:0:
64,0,12075,128,0,12325:1:0:0:0:
192,192,12200,1,0,0:0:0:0:
320,192,12325,1,0,0:0:0:0:
192,192,12450,1,0,0:0:0:0:
448,0,12450,128,0,12575:1:0:0:0:
320,192,12575,1,0,0:0:0:0:
64,192,12700,1,0,0:0:0:0:
448,192,12825,1,0,0:0:0:0:
320,0,12825,128,0,13075:1:0:0:0:
64,192,12950,1,0,0:0:0:0:
448,192,13075,1,0,0:0:0:0:
320,192,13200,1,0,0:0:0:0:
448,192,13325,1,0,0:0:0:0:
192,0,13325,128,0,13450:1:0:0:0:
320,192,13450,1,0,0:0:0:0:
192,192,13575,1,0,0:0:0:0:
64,0,13575,128,0,13700:1:0:0:0:
448,192,13700,1,0,0:0:0:0:
64,192,13825,1,0,0:0:0:0:
320,0,13825,128,0,13950:1:0:0:0:
192,192,13950,1,0,0:0:0:0:
320,192,14075,1,0,0:0:0:0:
448,192,14075,1,0,0:0:0:0:
64,192,14200,1,0,0:0:0:0:
448,192,14200,1,0,0:0:0:0:
64,192,14325,1,0,0:0:0:0:
192,192,14325,1,0,0:0:0:0:
320,192,14450,1,0,0:0:0:0:
448,192,14450,1,0,0:0:0:0:
64,192,14575,1,0,0:0:0:0:
192,192,14700,1,0,0:0:0:0:
320,192,14700,1,0,0:0:0:0:
448,192,14825,1,0,0:0:0:0:
64,192,14950,1,0,0:0:0:0:
192,192,14950,1,0,0:0:0:0:
448,192,15075,1,0,0:0:0:0:
192,192,15200,1,0,0:0:0:0:
320,192,15200,1,0,0:0:0:0:
64,192,15325,1,0,0:0:0:0:
192,192,15450,1,0,0:0:0:0:
448,192,15450,1,0,0:0:0:0:
64,192,15575,1,0,0:0:0:0:
320,192,15700,1,0,0:0:0:0:
448,192,15700,1,0,0:0:0:0:
64,192,15825,1,0,0:0:0:0:
448,192,15825,1,0,0:0:0:0:
64,192,15950,1,0,0:0:0:0:
192,192,15950,1,0,0:0:0:0:
448,192,16075,1,0,0:0:0:0:
320,0,16075,128,0,16325:1:0:0:0:
192,192,16200,1,0,0:0:0:0:
64,192,16325,1,0,0:0:0:0:
192,192,16450,1,0,0:0:0:0:
448,0,16450,128,0,16575:1:0:0:0:
320,192,16575,1,0,0:0:0:0:
192,192,16700,1,0,0:0:0:0:
64,192,16825,1,0,0:0:0:0:
320,0,16825,128,0,17075:1:0:0:0:
448,192,16950,1,0,0:0:0:0:
192,192,17075,1,0,0:0:0:0:
64,192,17200,1,0,0:0:0:0:
448,192,17200,1,0,0:0:0:0:
192,192,17325,1,0,0:0:0:0:
320,192,17325,1,0,0:0:0:0:
64,192,17450,1,0,0:0:0:0:
448,192,17450,1,0,0:0:0:0:
320,192,17575,1,0,0:0:0:0:
448,192,17575,1,0,0:0:0:0:
64,192,17700,1,0,0:0:0:0:
192,192,17700,1,0,0:0:0:0:
192,192,17825,1,0,0:0:0:0:
448,192,17825,1,0,0:0:0:0:
64,192,17950,1,0,0:0:0:0:
320,192,17950,1,0,0:0:0:0:
64,192,18075,1,0,0:0:0:0:
448,192,18075,1,0,0:0:0:0:
320,192,18137,1,0,0:0:0:0:
192,192,18200,1,0,0:0:0:0:
64,192,18262,1,0,0:0:0:0:
320,192,18325,1,0,0:0:0:0:
192,192,18387,1,0,0:0:0:0:
448,192,18450,1,0,0:0:0:0:
320,192,18512,1,0,0:0:0:0:
64,192,18575,1,0,0:0:0:0:
192,192,18637,1,0,0:0:0:0:
320,192,18700,1,0,0:0:0:0:
448,192,18762,1,0,0:0:0:0:
64,192,18825,1,0,0:0:0:0:
192,192,18825,1,0,0:0:0:0:
320,192,18887,1,0,0:0:0:0:
192,192,18950,1,0,0:0:0:0:
448,192,19012,1,0,0:0:0:0:
320,192,19075,1,0,0:0:0:0:
192,192,19137,1,0,0:0:0:0:
64,192,19200,1,0,0:0:0:0:
320,192,19262,1,0,0:0:0:0:
448,192,19325,1,0,0:0:0:0:
192,192,19387,1,0,0:0:0:0:
320,192,19450,1,0,0:0:0:0:
64,192,19512,1,0,0:0:0:0:
448,192,19575,1,0,0:0:0:0:
320,192,19637,1,0,0:0:0:0:
192,192,19700,1,0,0:0:0:0:
64,192,19762,1,0,0:0:0:0:
320,192,19825,1,0,0:0:0:0:
448,192,19887,1,0,0:0:0:0:
64,192,19950,1,0,0:0:0:0:
192,192,20012,1,0,0:0:0:0:
448,192,20075,1,0,0:0:0:0:
320,0,20075,128,0,20137:1:0:0:0:
192,0,20200,128,0,20262:1:0:0:0:
320,0,20325,128,0,20387:1:0:0:0:
64,0,20450,128,0,20512:1:0:0:0:
448,0,20450,128,0,20512:1:0:0:0:
192,192,20575,1,0,0:0:0:0:
320,192,20700,1,0,0:0:0:0:
192,192,20825,1,0,0:0:0:0:
64,0,20825,128,0,21075:1:0:0:0:
448,192,20950,1,0,0:0:0:0:
320,192,21075,1,0,0:0:0:0:
64,192,21200,1,0,0:0:0:0:
192,192,21200,1,0,0:0:0:0:
192,192,21325,1,0,0:0:0:0:
320,192,21325,1,0,0:0:0:0:
320,192,21450,1,0,0:0:0:0:
448,192,21450,1,0,0:0:0:0:
64,192,21575,1,0,0:0:0:0:
448,192,21575,1,0,0:0:0:0:
192,192,21700,1,0,0:0:0:0:
64,192,21825,1,0,0:0:0:0:
448,192,21825,1,0,0:0:0:0:
320,192,21950,1,0,0:0:0:0:
64,192,22075,1,0,0:0:0:0:
192,0,22075,128,0,22137:1:0:0:0:
448,0,22200,128,0,22262:1:0:0:0:
192,0,22325,128,0,22387:1:0:0:0:
64,0,22450,128,0,22512:1:0:0:0:
320,0,22450,128,0,22512:1:0:0:0:
448,192,22575,1,0,0:0:0:0:
192,192,22700,1,0,0:0:0:0:
320,192,22825,1,0,0:0:0:0:
448,0,22825,128,0,22950:1:0:0:0:
192,192,22950,1,0,0:0:0:0:
64,192,23075,1,0,0:0:0:0:
320,0,23075,128,0,23200:1:0:0:0:
448,192,23200,1,0,0:0:0:0:
64,192,23325,1,0,0:0:0:0:
192,0,23325,128,0,23450:1:0:0:0:
320,192,23450,1,0,0:0:0:0:
64,192,23575,1,0,0:0:0:0:
448,0,23575,128,0,23700:1:0:0:0:
192,192,23700,1,0,0:0:0:0:
64,192,23825,1,0,0:0:0:0:
320,0,23825,128,0,23950:1:0:0:0:
448,192,23950,1,0,0:0:0:0:
192,192,24075,1,0,0:0:0:0:
64,0,24075,128,0,24325:1:0:0:0:
320,192,24200,1,0,0:0:0:0:
192,192,24325,1,0,0:0:0:0:
64,192,24450,1,0,0:0:0:0:
448,0,24450,128,0,24575:1:0:0:0:
320,192,24575,1,0,0:0:0:0:
192,192,24700,1,0,0:0:0:0:
64,192,24825,1,0,0:0:0:0:
448,192,24825,1,0,0:0:0:0:
320,192,24950,1,0,0:0:0:0:
448,192,24950,1,0,0:0:0:0:
192,192,25075,1,0,0:0:0:0:
320,192,25200,1,0,0:0:0:0:
448,192,25200,1,0,0:0:0:0:
64,192,25325,1,0,0:0:0:0:
448,192,25325,1,0,0:0:0:0:
64,192,25450,1,0,0:0:0:0:
192,192,25450,1,0,0:0:0:0:
64,192,25575,1,0,0:0:0:0:
448,192,25575,1,0,0:0:0:0:
192,192,25637,1,0,0:0:0:0:
320,192,25700,1,0,0:0:0:0:
448,192,25700,1,0,0:0:0:0:
64,192,25825,1,0,0:0:0:0:
320,192,25825,1,0,0:0:0:0:
192,192,25950,1,0,0:0:0:0:
448,192,25950,1,0,0:0:0:0:
64,192,26075,1,0,0:0:0:0:
192,192,26075,1,0,0:0:0:0:
64,192,26200,1,0,0:0:0:0:
192,192,26200,1,0,0:0:0:0:
448,192,26325,1,0,0:0:0:0:
320,192,26450,1,0,0:0:0:0:
192,192,26575,1,0,0:0:0:0:
64,192,26700,1,0,0:0:0:0:
448,192,26700,1,0,0:0:0:0:
64,192,26825,1,0,0:0:0:0:
192,192,26825,1,0,0:0:0:0:
320,192,26950,1,0,0:0:0:0:
448,192,26950,1,0,0:0:0:0:
192,192,27075,1,0,0:0:0:0:
64,192,27200,1,0,0:0:0:0:
448,192,27325,1,0,0:0:0:0:
192,192,27450,1,0,0:0:0:0:
320,192,27575,1,0,0:0:0:0:
64,192,27700,1,0,0:0:0:0:
448,192,27700,1,0,0:0:0:0:
64,192,27825,1,0,0:0:0:0:
448,192,27825,1,0,0:0:0:0:
192,192,27950,1,0,0:0:0:0:
64,192,28075,1,0,0:0:0:0:
448,192,28075,1,0,0:0:0:0:
320,192,28137,1,0,0:0:0:0:
192,192,28200,1,0,0:0:0:0:
448,192,28262,1,0,0:0:0:0:
64,192,28325,1,0,0:0:0:0:
320,192,28325,1,0,0:0:0:0:
192,192,28387,1,0,0:0:0:0:
448,192,28450,1,0,0:0:0:0:
320,192,28512,1,0,0:0:0:0:
64,192,28575,1,0,0:0:0:0:
192,192,28575,1,0,0:0:0:0:
448,192,28637,1,0,0:0:0:0:
320,192,28700,1,0,0:0:0:0:
192,192,28762,1,0,0:0:0:0:
64,192,28825,1,0,0:0:0:0:
320,192,28825,1,0,0:0:0:0:
448,192,28887,1,0,0:0:0:0:
192,192,28950,1,0,0:0:0:0:
320,192,29012,1,0,0:0:0:0:
64,192,29075,1,0,0:0:0:0:
448,192,29075,1,0,0:0:0:0:
192,192,29137,1,0,0:0:0:0:
320,192,29200,1,0,0:0:0:0:
64,192,29262,1,0,0:0:0:0:
192,192,29325,1,0,0:0:0:0:
448,192,29325,1,0,0:0:0:0:
320,192,29387,1,0,0:0:0:0:
64,192,29450,1,0,0:0:0:0:
192,192,29512,1,0,0:0:0:0:
320,192,29575,1,0,0:0:0:0:
448,192,29575,1,0,0:0:0:0:
64,192,29637,1,0,0:0:0:0:
192,192,29700,1,0,0:0:0:0:
320,192,29762,1,0,0:0:0:0:
192,192,29825,1,0,0:0:0:0:
448,192,29825,1,0,0:0:0:0:
64,192,29887,1,0,0:0:0:0:
320,192,29950,1,0,0:0:0:0:
192,192,30012,1,0,0:0:0:0:
64,192,30075,1,0,0:0:0:0:
448,192,30075,1,0,0:0:0:0:
320,192,30137,1,0,0:0:0:0:
192,192,30200,1,0,0:0:0:0:
320,192,30262,1,0,0:0:0:0:
64,192,30325,1,0,0:0:0:0:
448,192,30325,1,0,0:0:0:0:
192,192,30387,1,0,0:0:0:0:
320,192,30450,1,0,0:0:0:0:
448,192,30512,1,0,0:0:0:0:
192,192,30575,1,0,0:0:0:0:
320,192,30575,1,0,0:0:0:0:
64,192,30637,1,0,0:0:0:0:
448,192,30700,1,0,0:0:0:0:
320,192,30762,1,0,0:0:0:0:
64,192,30825,1,0,0:0:0:0:
192,192,30825,1,0,0:0:0:0:
448,192,30887,1,0,0:0:0:0:
320,192,30950,1,0,0:0:0:0:
192,192,31012,1,0,0:0:0:0:
64,192,31075,1,0,0:0:0:0:
448,192,31075,1,0,0:0:0:0:
320,192,31137,1,0,0:0:0:0:
192,192,31200,1,0,0:0:0:0:
320,192,31262,1,0,0:0:0:0:
64,192,31325,1,0,0:0:0:0:
448,192,31325,1,0,0:0:0:0:
192,192,31387,1,0,0:0:0:0:
64,192,31450,1,0,0:0:0:0:
320,192,31512,1,0,0:0:0:0:
192,192,31575,1,0,0:0:0:0:
448,192,31575,1,0,0:0:0:0:
64,192,31637,1,0,0:0:0:0:
320,192,31700,1,0,0:0:0:0:
448,192,31700,1,0,0:0:0:0:
192,192,31762,1,0,0:0:0:0:
320,192,31825,1,0,0:0:0:0:
448,192,31825,1,0,0:0:0:0:
64,192,31887,1,0,0:0:0:0:
320,192,31950,1,0,0:0:0:0:
192,192,32012,1,0,0:0:0:0:
64,192,32075,1,0,0:0:0:0:
448,192,32075,1,0,0:0:0:0:
320,192,32137,1,0,0:0:0:0:
192,192,32200,1,0,0:0:0:0:
448,192,32262,1,0,0:0:0:0:
64,192,32325,1,0,0:0:0:0:
320,192,32325,1,0,0:0:0:0:
192,192,32387,1,0,0:0:0:0:
320,192,32450,1,0,0:0:0:0:
448,192,32512,1,0,0:0:0:0:
64,192,32575,1,0,0:0:0:0:
192,192,32575,1,0,0:0:0:0:
320,192,32637,1,0,0:0:0:0:
448,192,32700,1,0,0:0:0:0:
192,192,32762,1,0,0:0:0:0:
64,192,32825,1,0,0:0:0:0:
320,192,32825,1,0,0:0:0:0:
448,192,32887,1,0,0:0:0:0:
192,192,32950,1,0,0:0:0:0:
320,192,33012,1,0,0:0:0:0:
64,192,33075,1,0,0:0:0:0:
448,192,33075,1,0,0:0:0:0:
192,192,33137,1,0,0:0:0:0:
320,192,33200,1,0,0:0:0:0:
64,192,33262,1,0,0:0:0:0:
192,192,33325,1,0,0:0:0:0:
448,192,33325,1,0,0:0:0:0:
320,192,33387,1,0,0:0:0:0:
64,192,33450,1,0,0:0:0:0:
192,192,33512,1,0,0:0:0:0:
320,192,33575,1,0,0:0:0:0:
448,192,33575,1,0,0:0:0:0:
192,192,33637,1,0,0:0:0:0:
64,192,33700,1,0,0:0:0:0:
320,192,33762,1,0,0:0:0:0:
192,192,33825,1,0,0:0:0:0:
448,192,33825,1,0,0:0:0:0:
64,192,33887,1,0,0:0:0:0:
320,192,33950,1,0,0:0:0:0:
192,192,34012,1,0,0:0:0:0:
64,192,34075,1,0,0:0:0:0:
448,192,34075,1,0,0:0:0:0:
320,192,34137,1,0,0:0:0:0:
64,192,34200,1,0,0:0:0:0:
192,192,34200,1,0,0:0:0:0:
448,192,34262,1,0,0:0:0:0:
64,192,34325,1,0,0:0:0:0:
192,192,34325,1,0,0:0:0:0:
320,192,34387,1,0,0:0:0:0:
64,192,34450,1,0,0:0:0:0:
448,192,34450,1,0,0:0:0:0:
192,192,34512,1,0,0:0:0:0:
320,192,34575,1,0,0:0:0:0:
448,192,34575,1,0,0:0:0:0:
64,192,34637,1,0,0:0:0:0:
320,192,34700,1,0,0:0:0:0:
448,192,34700,1,0,0:0:0:0:
192,192,34762,1,0,0:0:0:0:
64,192,34825,1,0,0:0:0:0:
320,192,34825,1,0,0:0:0:0:
192,192,34887,1,0,0:0:0:0:
320,192,34950,1,0,0:0:0:0:
448,192,34950,1,0,0:0:0:0:
64,192,35012,1,0,0:0:0:0:
192,192,35075,1,0,0:0:0:0:
448,192,35075,1,0,0:0:0:0:
320,192,35137,1,0,0:0:0:0:
64,192,35200,1,0,0:0:0:0:
192,192,35200,1,0,0:0:0:0:
320,192,35262,1,0,0:0:0:0:
64,192,35325,1,0,0:0:0:0:
448,192,35325,1,0,0:0:0:0:
192,192,35387,1,0,0:0:0:0:
320,192,35450,1,0,0:0:0:0:
448,192,35450,1,0,0:0:0:0:
64,192,35512,1,0,0:0:0:0:
192,192,35575,1,0,0:0:0:0:
320,192,35575,1,0,0:0:0:0:
448,192,35637,1,0,0:0:0:0:
64,192,35700,1,0,0:0:0:0:
192,192,35700,1,0,0:0:0:0:
320,192,35762,1,0,0:0:0:0:
192,192,35825,1,0,0:0:0:0:
448,192,35825,1,0,0:0:0:0:
64,192,35887,1,0,0:0:0:0:
320,192,35950,1,0,0:0:0:0:
448,192,35950,1,0,0:0:0:0:
192,192,36012,1,0,0:0:0:0:
64,192,36075,1,0,0:0:0:0:
448,192,36075,1,0,0:0:0:0:
320,192,36325,1,0,0:0:0:0:
64,192,36450,1,0,0:0:0:0:
64,192,36700,1,0,0:0:0:0:
320,192,36825,1,0,0:0:0:0:
64,192,37075,1,0,0:0:0:0:
320,192,37200,1,0,0:0:0:0:
64,192,37325,1,0,0:0:0:0:
448,192,37325,1,0,0:0:0:0:
320,192,37387,1,0,0:0:0:0:
448,192,37450,1,0,0:0:0:0:
64,192,37575,1,0,0:0:0:0:
448,192,37575,1,0,0:0:0:0:
192,192,37637,1,0,0:0:0:0:
64,192,37700,1,0,0:0:0:0:
64,192,37825,1,0,0:0:0:0:
448,192,37825,1,0,0:0:0:0:
320,192,37887,1,0,0:0:0:0:
448,192,37950,1,0,0:0:0:0:
64,192,38075,1,0,0:0:0:0:
192,192,38075,1,0,0:0:0:0:
320,192,38137,1,0,0:0:0:0:
192,192,38200,1,0,0:0:0:0:
448,192,38262,1,0,0:0:0:0:
64,192,38450,1,0,0:0:0:0:
448,192,38450,1,0,0:0:0:0:
192,192,38512,1,0,0:0:0:0:
320,192,38575,1,0,0:0:0:0:
64,192,38637,1,0,0:0:0:0:
320,192,38825,1,0,0:0:0:0:
448,192,38825,1,0,0:0:0:0:
192,192,38887,1,0,0:0:0:0:
320,192,38950,1,0,0:0:0:0:
64,192,39012,1,0,0:0:0:0:
64,192,39200,1,0,0:0:0:0:
448,192,39200,1,0,0:0:0:0:
320,192,39262,1,0,0:0:0:0:
192,192,39325,1,0,0:0:0:0:
448,192,39387,1,0,0:0:0:0:
64,192,39575,1,0,0:0:0:0:
192,192,39575,1,0,0:0:0:0:
320,192,39637,1,0,0:0:0:0:
192,192,39700,1,0,0:0:0:0:
320,192,39825,1,0,0:0:0:0:
448,192,39825,1,0,0:0:0:0:
192,192,39887,1,0,0:0:0:0:
320,192,39950,1,0,0:0:0:0:
64,192,40075,1,0,0:0:0:0:
448,192,40075,1,0,0:0:0:0:
192,192,40137,1,0,0:0:0:0:
448,192,40200,1,0,0:0:0:0:
64,192,40450,1,0,0:0:0:0:
448,192,40450,1,0,0:0:0:0:
320,192,40512,1,0,0:0:0:0:
64,192,40575,1,0,0:0:0:0:
64,192,40825,1,0,0:0:0:0:
448,192,40825,1,0,0:0:0:0:
192,192,40887,1,0,0:0:0:0:
448,192,40950,1,0,0:0:0:0:
64,192,41200,1,0,0:0:0:0:
448,192,41200,1,0,0:0:0:0:
320,192,41262,1,0,0:0:0:0:
64,192,41325,1,0,0:0:0:0:
320,192,41575,1,0,0:0:0:0:
448,192,41575,1,0,0:0:0:0:
192,192,41637,1,0,0:0:0:0:
320,192,41700,1,0,0:0:0:0:
64,192,41825,1,0,0:0:0:0:
192,192,41825,1,0,0:0:0:0:
320,192,41887,1,0,0:0:0:0:
192,192,41950,1,0,0:0:0:0:
64,192,42075,1,0,0:0:0:0:
448,192,42075,1,0,0:0:0:0:
320,192,42137,1,0,0:0:0:0:
448,192,42200,1,0,0:0:0:0:
192,192,42262,1,0,0:0:0:0:
64,192,42450,1,0,0:0:0:0:
192,192,42512,1,0,0:0:0:0:
64,192,42575,1,0,0:0:0:0:
320,192,42637,1,0,0:0:0:0:
448,192,42825,1,0,0:0:0:0:
64,192,42887,1,0,0:0:0:0:
448,192,42950,1,0,0:0:0:0:
192,192,43012,1,0,0:0:0:0:
64,192,43200,1,0,0:0:0:0:
448,192,43262,1,0,0:0:0:0:
64,192,43325,1,0,0:0:0:0:
320,192,43387,1,0,0:0:0:0:
64,192,43575,1,0,0:0:0:0:
448,192,43575,1,0,0:0:0:0:
192,192,43637,1,0,0:0:0:0:
320,192,43700,1,0,0:0:0:0:
192,192,43762,1,0,0:0:0:0:
64,192,43825,1,0,0:0:0:0:
448,192,43825,1,0,0:0:0:0:
320,192,43887,1,0,0:0:0:0:
192,192,43950,1,0,0:0:0:0:
320,192,44012,1,0,0:0:0:0:
64,192,44075,1,0,0:0:0:0:
448,192,44075,1,0,0:0:0:0:
192,192,44137,1,0,0:0:0:0:
64,192,44200,1,0,0:0:0:0:
448,192,44262,1,0,0:0:0:0:
320,192,44325,1,0,0:0:0:0:
192,192,44387,1,0,0:0:0:0:
64,192,44450,1,0,0:0:0:0:
448,192,44450,1,0,0:0:0:0:
320,192,44512,1,0,0:0:0:0:
448,192,44575,1,0,0:0:0:0:
64,192,44637,1,0,0:0:0:0:
192,192,44700,1,0,0:0:0:0:
320,192,44762,1,0,0:0:0:0:
64,192,44825,1,0,0:0:0:0:
448,192,44825,1,0,0:0:0:0:
192,192,44887,1,0,0:0:0:0:
320,192,44950,1,0,0:0:0:0:
192,192,45012,1,0,0:0:0:0:
448,192,45075,1,0,0:0:0:0:
320,192,45137,1,0,0:0:0:0:
64,192,45200,1,0,0:0:0:0:
192,192,45200,1,0,0:0:0:0:
448,192,45262,1,0,0:0:0:0:
320,192,45325,1,0,0:0:0:0:
64,192,45387,1,0,0:0:0:0:
192,192,45450,1,0,0:0:0:0:
320,192,45512,1,0,0:0:0:0:
64,192,45575,1,0,0:0:0:0:
448,192,45575,1,0,0:0:0:0:
192,192,45637,1,0,0:0:0:0:
320,192,45700,1,0,0:0:0:0:
192,192,45762,1,0,0:0:0:0:
64,192,45825,1,0,0:0:0:0:
448,192,45825,1,0,0:0:0:0:
320,192,45887,1,0,0:0:0:0:
192,192,45950,1,0,0:0:0:0:
320,192,46012,1,0,0:0:0:0:
64,192,46075,1,0,0:0:0:0:
448,192,46075,1,0,0:0:0:0:
192,192,46137,1,0,0:0:0:0:
320,192,46199,1,0,0:0:0:0:
64,192,46261,1,0,0:0:0:0:
320,192,46323,1,0,0:0:0:0:
192,192,46386,1,0,0:0:0:0:
64,192,46448,1,0,0:0:0:0:
448,192,46448,1,0,0:0:0:0:
320,192,46510,1,0,0:0:0:0:
192,192,46572,1,0,0:0:0:0:
448,192,46635,1,0,0:0:0:0:
192,192,46697,1,0,0:0:0:0:
320,192,46759,1,0,0:0:0:0:
64,192,46821,1,0,0:0:0:0:
448,192,46821,1,0,0:0:0:0:
192,192,46884,1,0,0:0:0:0:
320,192,46946,1,0,0:0:0:0:
448,192,47008,1,0,0:0:0:0:
64,192,47070,1,0,0:0:0:0:
192,192,47133,1,0,0:0:0:0:
320,192,47195,1,0,0:0:0:0:
448,192,47195,1,0,0:0:0:0:
192,192,47257,1,0,0:0:0:0:
64,192,47319,1,0,0:0:0:0:
448,192,47382,1,0,0:0:0:0:
320,192,47444,1,0,0:0:0:0:
192,192,47506,1,0,0:0:0:0:
64,192,47568,1,0,0:0:0:0:
448,192,47568,1,0,0:0:0:0:
320,192,47631,1,0,0:0:0:0:
192,192,47693,1,0,0:0:0:0:
320,192,47755,1,0,0:0:0:0:
64,192,47817,1,0,0:0:0:0:
448,192,47817,1,0,0:0:0:0:
192,192,47880,1,0,0:0:0:0:
320,192,47942,1,0,0:0:0:0:
192,192,48004,1,0,0:0:0:0:
64,192,48066,1,0,0:0:0:0:
448,192,48066,1,0,0:0:0:0:
320,192,48128,1,0,0:0:0:0:
448,192,48190,1,0,0:0:0:0:
192,192,48252,1,0,0:0:0:0:
448,192,48314,1,0,0:0:0:0:
320,192,48376,1,0,0:0:0:0:
64,192,48438,1,0,0:0:0:0:
192,192,48438,1,0,0:0:0:0:
448,192,48500,1,0,0:0:0:0:
64,192,48562,1,0,0:0:0:0:
320,192,48624,1,0,0:0:0:0:
64,192,48686,1,0,0:0:0:0:
192,192,48748,1,0,0:0:0:0:
320,192,48810,1,0,0:0:0:0:
448,192,48810,1,0,0:0:0:0:
64,192,48872,1,0,0:0:0:0:
320,192,48934,1,0,0:0:0:0:
192,192,48996,1,0,0:0:0:0:
320,192,49058,1,0,0:0:0:0:
64,192,49120,1,0,0:0:0:0:
192,192,49182,1,0,0:0:0:0:
448,192,49182,1,0,0:0:0:0:
320,192,49244,1,0,0:0:0:0:
192,192,49306,1,0,0:0:0:0:
448,192,49368,1,0,0:0:0:0:
192,192,49430,1,0,0:0:0:0:
320,192,49492,1,0,0:0:0:0:
64,192,49554,1,0,0:0:0:0:
448,192,49554,1,0,0:0:0:0:
192,192,49616,1,0,0:0:0:0:
320,192,49678,1,0,0:0:0:0:
192,192,49740,1,0,0:0:0:0:
64,192,49802,1,0,0:0:0:0:
448,192,49802,1,0,0:0:0:0:
320,192,49864,1,0,0:0:0:0:
192,192,49926,1,0,0:0:0:0:
320,192,49988,1,0,0:0:0:0:
64,192,50050,1,0,0:0:0:0:
448,192,50050,1,0,0:0:0:0:
192,192,50111,1,0,0:0:0:0:
64,192,50173,1,0,0:0:0:0:
320,192,50235,1,0,0:0:0:0:
192,192,50297,1,0,0:0:0:0:
448,192,50358,1,0,0:0:0:0:
192,192,50420,1,0,0:0:0:0:
320,192,50420,1,0,0:0:0:0:
64,192,50482,1,0,0:0:0:0:
320,192,50544,1,0,0:0:0:0:
448,192,50605,1,0,0:0:0:0:
192,192,50667,1,0,0:0:0:0:
320,192,50729,1,0,0:0:0:0:
64,192,50790,1,0,0:0:0:0:
192,192,50790,1,0,0:0:0:0:
448,192,50852,1,0,0:0:0:0:
64,192,50914,1,0,0:0:0:0:
320,192,50976,1,0,0:0:0:0:
192,192,51037,1,0,0:0:0:0:
448,192,51099,1,0,0:0:0:0:
192,192,51161,1,0,0:0:0:0:
320,192,51161,1,0,0:0:0:0:
64,192,51223,1,0,0:0:0:0:
448,192,51284,1,0,0:0:0:0:
320,192,51346,1,0,0:0:0:0:
64,192,51408,1,0,0:0:0:0:
192,192,51469,1,0,0:0:0:0:
320,192,51531,1,0,0:0:0:0:
448,192,51531,1,0,0:0:0:0:
64,192,51593,1,0,0:0:0:0:
192,192,51593,1,0,0:0:0:0:
320,192,51655,1,0,0:0:0:0:
448,192,51655,1,0,0:0:0:0:
64,192,51716,1,0,0:0:0:0:
192,192,51716,1,0,0:0:0:0:
320,192,51778,1,0,0:0:0:0:
448,192,51778,1,0,0:0:0:0:
64,192,51840,1,0,0:0:0:0:
192,192,51840,1,0,0:0:0:0:
320,192,51902,1,0,0:0:0:0:
448,192,51902,1,0,0:0:0:0:
64,192,51963,1,0,0:0:0:0:
192,192,51963,1,0,0:0:0:0:
320,192,52025,1,0,0:0:0:0:
448,192,52025,1,0,0:0:0:0:
64,192,52086,1,0,0:0:0:0:
192,192,52148,1,0,0:0:0:0:
320,192,52209,1,0,0:0:0:0:
192,192,52271,1,0,0:0:0:0:
448,192,52271,1,0,0:0:0:0:
64,192,52332,1,0,0:0:0:0:
448,192,52394,1,0,0:0:0:0:
320,192,52455,1,0,0:0:0:0:
64,192,52517,1,0,0:0:0:0:
192,192,52517,1,0,0:0:0:0:
320,192,52578,1,0,0:0:0:0:
448,192,52640,1,0,0:0:0:0:
192,192,52701,1,0,0:0:0:0:
64,192,52763,1,0,0:0:0:0:
320,192,52763,1,0,0:0:0:0:
448,192,52824,1,0,0:0:0:0:
64,192,52886,1,0,0:0:0:0:
192,192,52947,1,0,0:0:0:0:
320,192,53009,1,0,0:0:0:0:
448,192,53009,1,0,0:0:0:0:
192,192,53070,1,0,0:0:0:0:
64,192,53132,1,0,0:0:0:0:
320,192,53193,1,0,0:0:0:0:
192,192,53255,1,0,0:0:0:0:
448,192,53255,1,0,0:0:0:0:
64,192,53316,1,0,0:0:0:0:
448,192,53377,1,0,0:0:0:0:
320,192,53439,1,0,0:0:0:0:
64,192,53500,1,0,0:0:0:0:
192,192,53500,1,0,0:0:0:0:
320,192,53562,1,0,0:0:0:0:
448,192,53623,1,0,0:0:0:0:
192,192,53685,1,0,0:0:0:0:
64,192,53746,1,0,0:0:0:0:
320,192,53746,1,0,0:0:0:0:
448,192,53808,1,0,0:0:0:0:
64,192,53869,1,0,0:0:0:0:
192,192,53931,1,0,0:0:0:0:
320,192,53992,1,0,0:0:0:0:
448,192,53992,1,0,0:0:0:0:
64,192,54053,1,0,0:0:0:0:
192,192,54115,1,0,0:0:0:0:
320,192,54176,1,0,0:0:0:0:
64,192,54237,1,0,0:0:0:0:
448,192,54237,1,0,0:0:0:0:
192,192,54298,1,0,0:0:0:0:
448,192,54360,1,0,0:0:0:0:
320,192,54421,1,0,0:0:0:0:
64,192,54482,1,0,0:0:0:0:
192,192,54482,1,0,0:0:0:0:
448,192,54543,1,0,0:0:0:0:
320,192,54604,1,0,0:0:0:0:
192,192,54666,1,0,0:0:0:0:
64,192,54727,1,0,0:0:0:0:
448,192,54727,1,0,0:0:0:0:
320,192,54788,1,0,0:0:0:0:
64,192,54849,1,0,0:0:0:0:
192,192,54911,1,0,0:0:0:0:
320,192,54972,1,0,0:0:0:0:
448,192,54972,1,0,0:0:0:0:
64,192,55033,1,0,0:0:0:0:
192,192,55094,1,0,0:0:0:0:
320,192,55155,1,0,0:0:0:0:
64,192,55217,1,0,0:0:0:0:
448,192,55217,1,0,0:0:0:0:
192,192,55278,1,0,0:0:0:0:
448,192,55339,1,0,0:0:0:0:
320,192,55400,1,0,0:0:0:0:
64,192,55462,1,0,0:0:0:0:
192,192,55462,1,0,0:0:0:0:
448,192,55523,1,0,0:0:0:0:
320,192,55584,1,0,0:0:0:0:
192,192,55645,1,0,0:0:0:0:
64,192,55706,1,0,0:0:0:0:
320,192,55706,1,0,0:0:0:0:
448,192,55768,1,0,0:0:0:0:
192,192,55829,1,0,0:0:0:0:
320,192,55890,1,0,0:0:0:0:
64,192,55951,1,0,0:0:0:0:
448,192,55951,1,0,0:0:0:0:
192,192,56012,1,0,0:0:0:0:
64,192,56073,1,0,0:0:0:0:
320,192,56134,1,0,0:0:0:0:
192,192,56195,1,0,0:0:0:0:
448,192,56195,1,0,0:0:0:0:
320,192,56256,1,0,0:0:0:0:
64,192,56317,1,0,0:0:0:0:
192,192,56378,1,0,0:0:0:0:
320,192,56439,1,0,0:0:0:0:
448,192,56439,1,0,0:0:0:0:
64,192,56500,1,0,0:0:0:0:
320,192,56561,1,0,0:0:0:0:
192,192,56622,1,0,0:0:0:0:
64,192,56683,1,0,0:0:0:0:
448,192,56683,1,0,0:0:0:0:
320,192,56744,1,0,0:0:0:0:
448,192,56805,1,0,0:0:0:0:
192,192,56866,1,0,0:0:0:0:
64,192,56927,1,0,0:0:0:0:
320,192,56927,1,0,0:0:0:0:
192,192,56988,1,0,0:0:0:0:
448,192,57049,1,0,0:0:0:0:
320,192,57110,1,0,0:0:0:0:
64,192,57171,1,0,0:0:0:0:
192,192,57171,1,0,0:0:0:0:
448,192,57232,1,0,0:0:0:0:
192,192,57293,1,0,0:0:0:0:
320,192,57354,1,0,0:0:0:0:
64,192,57415,1,0,0:0:0:0:
448,192,57415,1,0,0:0:0:0:
192,192,57476,1,0,0:0:0:0:
320,192,57537,1,0,0:0:0:0:
448,192,57598,1,0,0:0:0:0:
192,192,57659,1,0,0:0:0:0:
320,192,57659,1,0,0:0:0:0:
64,192,57720,1,0,0:0:0:0:
448,192,57781,1,0,0:0:0:0:
320,192,57842,1,0,0:0:0:0:
64,192,57903,1,0,0:0:0:0:
192,192,57903,1,0,0:0:0:0:
448,192,57963,1,0,0:0:0:0:
192,192,58024,1,0,0:0:0:0:
320,192,58085,1,0,0:0:0:0:
64,192,58146,1,0,0:0:0:0:
448,192,58146,1,0,0:0:0:0:
192,192,58206,1,0,0:0:0:0:
448,192,58267,1,0,0:0:0:0:
320,192,58328,1,0,0:0:0:0:
64,192,58388,1,0,0:0:0:0:
192,192,58388,1,0,0:0:0:0:
448,192,58449,1,0,0:0:0:0:
192,192,58510,1,0,0:0:0:0:
320,192,58571,1,0,0:0:0:0:
64,192,58631,1,0,0:0:0:0:
448,192,58631,1,0,0:0:0:0:
192,192,58692,1,0,0:0:0:0:
320,192,58753,1,0,0:0:0:0:
192,192,58814,1,0,0:0:0:0:
64,192,58874,1,0,0:0:0:0:
448,192,58874,1,0,0:0:0:0:
320,192,58935,1,0,0:0:0:0:
64,192,58996,1,0,0:0:0:0:
192,192,59057,1,0,0:0:0:0:
320,192,59117,1,0,0:0:0:0:
448,192,59117,1,0,0:0:0:0:
64,192,59178,1,0,0:0:0:0:
320,192,59239,1,0,0:0:0:0:
192,192,59299,1,0,0:0:0:0:
64,192,59360,1,0,0:0:0:0:
448,192,59360,1,0,0:0:0:0:
320,192,59421,1,0,0:0:0:0:
64,192,59482,1,0,0:0:0:0:
192,192,59482,1,0,0:0:0:0:
448,192,59542,1,0,0:0:0:0:
64,192,59603,1,0,0:0:0:0:
320,192,59603,1,0,0:0:0:0:
192,192,59664,1,0,0:0:0:0:
320,192,59725,1,0,0:0:0:0:
448,192,59725,1,0,0:0:0:0:
192,192,59785,1,0,0:0:0:0:
64,192,59846,1,0,0:0:0:0:
448,192,59846,1,0,0:0:0:0:
320,192,59906,1,0,0:0:0:0:
192,192,59967,1,0,0:0:0:0:
64,192,60027,1,0,0:0:0:0:
320,192,60088,1,0,0:0:0:0:
448,192,60088,1,0,0:0:0:0:
64,192,60148,1,0,0:0:0:0:
192,192,60209,1,0,0:0:0:0:
320,192,60269,1,0,0:0:0:0:
192,192,60330,1,0,0:0:0:0:
448,192,60330,1,0,0:0:0:0:
64,192,60390,1,0,0:0:0:0:
448,192,60451,1,0,0:0:0:0:
320,192,60511,1,0,0:0:0:0:
64,192,60572,1,0,0:0:0:0:
192,192,60572,1,0,0:0:0:0:
320,192,60632,1,0,0:0:0:0:
448,192,60693,1,0,0:0:0:0:
64,192,60753,1,0,0:0:0:0:
192,192,60814,1,0,0:0:0:0:
320,192,60814,1,0,0:0:0:0:
448,192,60874,1,0,0:0:0:0:
64,192,60935,1,0,0:0:0:0:
192,192,60995,1,0,0:0:0:0:
320,192,61056,1,0,0:0:0:0:
448,192,61056,1,0,0:0:0:0:
192,192,61116,1,0,0:0:0:0:
64,192,61177,1,0,0:0:0:0:
320,192,61237,1,0,0:0:0:0:
64,192,61298,1,0,0:0:0:0:
448,192,61298,1,0,0:0:0:0:
192,192,61358,1,0,0:0:0:0:
320,192,61419,1,0,0:0:0:0:
448,192,61419,1,0,0:0:0:0:
192,192,61479,1,0,0:0:0:0:
64,192,61540,1,0,0:0:0:0:
448,192,61540,1,0,0:0:0:0:
320,192,61600,1,0,0:0:0:0:
64,192,61661,1,0,0:0:0:0:
192,192,61661,1,0,0:0:0:0:
320,192,61721,1,0,0:0:0:0:
64,192,61782,1,0,0:0:0:0:
448,192,61782,1,0,0:0:0:0:
192,192,61842,1,0,0:0:0:0:
320,192,61902,1,0,0:0:0:0:
448,192,61962,1,0,0:0:0:0:
64,192,62022,1,0,0:0:0:0:
192,192,62022,1,0,0:0:0:0:
448,192,62083,1,0,0:0:0:0:
320,192,62143,1,0,0:0:0:0:
192,192,62203,1,0,0:0:0:0:
64,192,62263,1,0,0:0:0:0:
448,192,62263,1,0,0:0:0:0:
320,192,62324,1,0,0:0:0:0:
64,192,62384,1,0,0:0:0:0:
192,192,62444,1,0,0:0:0:0:
320,192,62504,1,0,0:0:0:0:
448,192,62504,1,0,0:0:0:0:
64,192,62565,1,0,0:0:0:0:
448,192,62625,1,0,0:0:0:0:
320,192,62685,1,0,0:0:0:0:
64,192,62745,1,0,0:0:0:0:
192,192,62745,1,0,0:0:0:0:
448,192,62806,1,0,0:0:0:0:
320,192,62866,1,0,0:0:0:0:
192,192,62926,1,0,0:0:0:0:
64,192,62986,1,0,0:0:0:0:
320,192,62986,1,0,0:0:0:0:
448,192,63047,1,0,0:0:0:0:
192,192,63107,1,0,0:0:0:0:
320,192,63167,1,0,0:0:0:0:
64,192,63227,1,0,0:0:0:0:
448,192,63227,1,0,0:0:0:0:
192,192,63288,1,0,0:0:0:0:
320,192,63348,1,0,0:0:0:0:
448,192,63348,1,0,0:0:0:0:
64,192,63408,1,0,0:0:0:0:
320,192,63468,1,0,0:0:0:0:
448,192,63468,1,0,0:0:0:0:
192,192,63529,1,0,0:0:0:0:
64,192,63589,1,0,0:0:0:0:
448,192,63589,1,0,0:0:0:0:
320,192,63649,1,0,0:0:0:0:
64,192,63709,1,0,0:0:0:0:
192,192,63709,1,0,0:0:0:0:
448,192,63769,1,0,0:0:0:0:
320,192,63829,1,0,0:0:0:0:
192,192,63889,1,0,0:0:0:0:
64,192,63949,1,0,0:0:0:0:
320,192,63949,1,0,0:0:0:0:
448,192,64009,1,0,0:0:0:0:
64,192,64069,1,0,0:0:0:0:
192,192,64129,1,0,0:0:0:0:
320,192,64189,1,0,0:0:0:0:
448,192,64189,1,0,0:0:0:0:
192,192,64249,1,0,0:0:0:0:
64,192,64309,1,0,0:0:0:0:
320,192,64369,1,0,0:0:0:0:
192,192,64429,1,0,0:0:0:0:
448,192,64429,1,0,0:0:0:0:
320,192,64489,1,0,0:0:0:0:
64,192,64549,1,0,0:0:0:0:
192,192,64609,1,0,0:0:0:0:
320,192,64669,1,0,0:0:0:0:
448,192,64669,1,0,0:0:0:0:
64,192,64729,1,0,0:0:0:0:
448,192,64789,1,0,0:0:0:0:
320,192,64849,1,0,0:0:0:0:
64,192,64909,1,0,0:0:0:0:
192,192,64909,1,0,0:0:0:0:
320,192,64969,1,0,0:0:0:0:
448,192,65029,1,0,0:0:0:0:
192,192,65089,1,0,0:0:0:0:
64,192,65149,1,0,0:0:0:0:
448,192,65149,1,0,0:0:0:0:
320,192,65209,1,0,0:0:0:0:
64,192,65269,1,0,0:0:0:0:
192,192,65269,1,0,0:0:0:0:
448,192,65329,1,0,0:0:0:0:
64,192,65389,1,0,0:0:0:0:
192,192,65389,1,0,0:0:0:0:
320,192,65449,1,0,0:0:0:0:
64,192,65509,1,0,0:0:0:0:
448,192,65509,1,0,0:0:0:0:
192,192,65569,1,0,0:0:0:0:
320,192,65629,1,0,0:0:0:0:
448,192,65629,1,0,0:0:0:0:
64,192,65689,1,0,0:0:0:0:
192,192,65749,1,0,0:0:0:0:
320,192,65809,1,0,0:0:0:0:
64,192,65868,1,0,0:0:0:0:
448,192,65868,1,0,0:0:0:0:
192,192,65928,1,0,0:0:0:0:
64,192,65988,1,0,0:0:0:0:
448,192,66048,1,0,0:0:0:0:
192,192,66107,1,0,0:0:0:0:
320,192,66107,1,0,0:0:0:0:
448,192,66167,1,0,0:0:0:0:
64,192,66227,1,0,0:0:0:0:
192,192,66287,1,0,0:0:0:0:
320,192,66346,1,0,0:0:0:0:
448,192,66346,1,0,0:0:0:0:
64,192,66406,1,0,0:0:0:0:
192,192,66466,1,0,0:0:0:0:
320,192,66526,1,0,0:0:0:0:
192,192,66585,1,0,0:0:0:0:
448,192,66585,1,0,0:0:0:0:
64,192,66645,1,0,0:0:0:0:
448,192,66705,1,0,0:0:0:0:
320,192,66765,1,0,0:0:0:0:
64,192,66824,1,0,0:0:0:0:
192,192,66824,1,0,0:0:0:0:
448,192,66884,1,0,0:0:0:0:
192,192,66944,1,0,0:0:0:0:
320,192,67004,1,0,0:0:0:0:
64,192,67063,1,0,0:0:0:0:
448,192,67063,1,0,0:0:0:0:
192,192,67123,1,0,0:0:0:0:
320,192,67183,1,0,0:0:0:0:
448,192,67183,1,0,0:0:0:0:
64,192,67243,1,0,0:0:0:0:
192,192,67302,1,0,0:0:0:0:
320,192,67302,1,0,0:0:0:0:
448,192,67362,1,0,0:0:0:0:
192,192,67422,1,0,0:0:0:0:
320,192,67422,1,0,0:0:0:0:
64,192,67482,1,0,0:0:0:0:
320,192,67542,1,0,0:0:0:0:
448,192,67542,1,0,0:0:0:0:
64,192,67601,1,0,0:0:0:0:
192,192,67661,1,0,0:0:0:0:
320,192,67720,1,0,0:0:0:0:
192,192,67780,1,0,0:0:0:0:
448,192,67780,1,0,0:0:0:0:
64,192,67839,1,0,0:0:0:0:
320,192,67899,1,0,0:0:0:0:
448,192,67958,1,0,0:0:0:0:
64,192,68018,1,0,0:0:0:0:
192,192,68018,1,0,0:0:0:0:
448,192,68077,1,0,0:0:0:0:
320,192,68137,1,0,0:0:0:0:
192,192,68196,1,0,0:0:0:0:
64,192,68256,1,0,0:0:0:0:
320,192,68256,1,0,0:0:0:0:
448,192,68315,1,0,0:0:0:0:
64,192,68375,1,0,0:0:0:0:
192,192,68434,1,0,0:0:0:0:
320,192,68494,1,0,0:0:0:0:
448,192,68494,1,0,0:0:0:0:
192,192,68553,1,0,0:0:0:0:
64,192,68613,1,0,0:0:0:0:
320,192,68672,1,0,0:0:0:0:
192,192,68732,1,0,0:0:0:0:
448,192,68732,1,0,0:0:0:0:
64,192,68791,1,0,0:0:0:0:
320,192,68851,1,0,0:0:0:0:
192,192,68911,1,0,0:0:0:0:
64,192,68970,1,0,0:0:0:0:
448,192,68970,1,0,0:0:0:0:
320,192,69030,1,0,0:0:0:0:
64,192,69089,1,0,0:0:0:0:
192,192,69089,1,0,0:0:0:0:
448,192,69149,1,0,0:0:0:0:
192,192,69208,1,0,0:0:0:0:
320,192,69208,1,0,0:0:0:0:
64,192,69268,1,0,0:0:0:0:
192,192,69327,1,0,0:0:0:0:
320,192,69327,1,0,0:0:0:0:
448,192,69387,1,0,0:0:0:0:
64,192,69446,1,0,0:0:0:0:
192,192,69446,1,0,0:0:0:0:
448,192,69506,1,0,0:0:0:0:
320,192,69565,1,0,0:0:0:0:
192,192,69624,1,0,0:0:0:0:
64,192,69683,1,0,0:0:0:0:
320,192,69683,1,0,0:0:0:0:
448,192,69743,1,0,0:0:0:0:
64,192,69802,1,0,0:0:0:0:
192,192,69861,1,0,0:0:0:0:
320,192,69921,1,0,0:0:0:0:
448,192,69921,1,0,0:0:0:0:
192,192,69980,1,0,0:0:0:0:
64,192,70039,1,0,0:0:0:0:
320,192,70098,1,0,0:0:0:0:
192,192,70158,1,0,0:0:0:0:
448,192,70158,1,0,0:0:0:0:
320,192,70217,1,0,0:0:0:0:
64,192,70276,1,0,0:0:0:0:
192,192,70336,1,0,0:0:0:0:
320,192,70395,1,0,0:0:0:0:
448,192,70395,1,0,0:0:0:0:
64,192,70454,1,0,0:0:0:0:
448,192,70513,1,0,0:0:0:0:
320,192,70573,1,0,0:0:0:0:
64,192,70632,1,0,0:0:0:0:
192,192,70632,1,0,0:0:0:0:
320,192,70691,1,0,0:0:0:0:
448,192,70751,1,0,0:0:0:0:
192,192,70810,1,0,0:0:0:0:
64,192,70869,1,0,0:0:0:0:
448,192,70869,1,0,0:0:0:0:
320,192,70928,1,0,0:0:0:0:
64,192,70988,1,0,0:0:0:0:
192,192,70988,1,0,0:0:0:0:
320,192,71047,1,0,0:0:0:0:
64,192,71106,1,0,0:0:0:0:
448,192,71106,1,0,0:0:0:0:
192,192,71166,1,0,0:0:0:0:
320,192,71225,1,0,0:0:0:0:
448,192,71225,1,0,0:0:0:0:
192,192,71284,1,0,0:0:0:0:
64,192,71344,1,0,0:0:0:0:
448,192,71344,1,0,0:0:0:0:
320,192,71403,1,0,0:0:0:0:
64,192,71462,1,0,0:0:0:0:
192,192,71462,1,0,0:0:0:0:
320,192,71521,1,0,0:0:0:0:
64,192,71580,1,0,0:0:0:0:
448,192,71580,1,0,0:0:0:0:
192,192,71639,1,0,0:0:0:0:
320,192,71698,1,0,0:0:0:0:
448,192,71698,1,0,0:0:0:0:
64,192,71757,1,0,0:0:0:0:
192,192,71816,1,0,0:0:0:0:
320,192,71816,1,0,0:0:0:0:
448,192,71875,1,0,0:0:0:0:
192,192,71934,1,0,0:0:0:0:
320,192,71934,1,0,0:0:0:0:
64,192,71993,1,0,0:0:0:0:
320,192,72052,1,0,0:0:0:0:
448,192,72052,1,0,0:0:0:0:
192,192,72111,1,0,0:0:0:0:
64,192,72170,1,0,0:0:0:0:
448,192,72170,1,0,0:0:0:0:
192,192,72229,1,0,0:0:0:0:
320,192,72288,1,0,0:0:0:0:
448,192,72288,1,0,0:0:0:0:
64,192,72347,1,0,0:0:0:0:
192,192,72406,1,0,0:0:0:0:
320,192,72406,1,0,0:0:0:0:
448,192,72466,1,0,0:0:0:0:
64,192,72525,1,0,0:0:0:0:
192,192,72525,1,0,0:0:0:0:
320,192,72584,1,0,0:0:0:0:
64,192,72643,1,0,0:0:0:0:
448,192,72643,1,0,0:0:0:0:
192,192,72702,1,0,0:0:0:0:
320,192,72761,1,0,0:0:0:0:
448,192,72761,1,0,0:0:0:0:
64,192,72820,1,0,0:0:0:0:
192,192,72820,1,0,0:0:0:0:
320,192,72879,1,0,0:0:0:0:
448,192,72879,1,0,0:0:0:0:
64,192,72938,1,0,0:0:0:0:
192,192,72938,1,0,0:0:0:0:
320,192,72997,1,0,0:0:0:0:
448,192,72997,1,0,0:0:0:0:
64,192,73056,1,0,0:0:0:0:
192,192,73056,1,0,0:0:0:0:
320,192,73115,1,0,0:0:0:0:
448,192,73115,1,0,0:0:0:0:
64,192,73174,1,0,0:0:0:0:
192,192,73174,1,0,0:0:0:0:
320,192,73233,1,0,0:0:0:0:
448,192,73233,1,0,0:0:0:0:
64,192,73292,1,0,0:0:0:0:
192,192,73351,1,0,0:0:0:0:
320,192,73351,1,0,0:0:0:0:
448,192,73410,1,0,0:0:0:0:
192,192,73469,1,0,0:0:0:0:
320,192,73469,1,0,0:0:0:0:
64,192,73527,1,0,0:0:0:0:
320,192,73586,1,0,0:0:0:0:
448,192,73586,1,0,0:0:0:0:
192,192,73645,1,0,0:0:0:0:
64,192,73704,1,0,0:0:0:0:
448,192,73704,1,0,0:0:0:0:
320,192,73763,1,0,0:0:0:0:
64,192,73821,1,0,0:0:0:0:
192,192,73821,1,0,0:0:0:0:
320,192,73880,1,0,0:0:0:0:
64,192,73939,1,0,0:0:0:0:
448,192,73939,1,0,0:0:0:0:
192,192,73998,1,0,0:0:0:0:
320,192,74057,1,0,0:0:0:0:
448,192,74057,1,0,0:0:0:0:
64,192,74116,1,0,0:0:0:0:
320,192,74174,1,0,0:0:0:0:
448,192,74174,1,0,0:0:0:0:
192,192,74233,1,0,0:0:0:0:
64,192,74292,1,0,0:0:0:0:
448,192,74292,1,0,0:0:0:0:
320,192,74351,1,0,0:0:0:0:
64,192,74410,1,0,0:0:0:0:
192,192,74410,1,0,0:0:0:0:
448,192,74468,1,0,0:0:0:0:
64,192,74527,1,0,0:0:0:0:
192,192,74527,1,0,0:0:0:0:
320,192,74586,1,0,0:0:0:0:
64,192,74645,1,0,0:0:0:0:
192,192,74645,1,0,0:0:0:0:
320,192,74704,1,0,0:0:0:0:
448,192,74704,1,0,0:0:0:0:
64,192,74763,1,0,0:0:0:0:
192,192,74763,1,0,0:0:0:0:
320,192,74821,1,0,0:0:0:0:
448,192,74821,1,0,0:0:0:0:
64,192,74880,1,0,0:0:0:0:
192,192,74880,1,0,0:0:0:0:
320,192,74939,1,0,0:0:0:0:
448,192,74939,1,0,0:0:0:0:
64,192,74998,1,0,0:0:0:0:
192,192,74998,1,0,0:0:0:0:
320,192,75057,1,0,0:0:0:0:
64,192,75116,1,0,0:0:0:0:
448,192,75116,1,0,0:0:0:0:
192,192,75174,1,0,0:0:0:0:
320,192,75233,1,0,0:0:0:0:
448,192,75233,1,0,0:0:0:0:
64,192,75291,1,0,0:0:0:0:
192,192,75350,1,0,0:0:0:0:
448,192,75350,1,0,0:0:0:0:
320,192,75408,1,0,0:0:0:0:
64,192,75467,1,0,0:0:0:0:
192,192,75467,1,0,0:0:0:0:
448,192,75526,1,0,0:0:0:0:
64,192,75584,1,0,0:0:0:0:
320,192,75584,1,0,0:0:0:0:
192,192,75643,1,0,0:0:0:0:
320,192,75701,1,0,0:0:0:0:
448,192,75701,1,0,0:0:0:0:
192,192,75760,1,0,0:0:0:0:
64,192,75819,1,0,0:0:0:0:
320,192,75819,1,0,0:0:0:0:
448,192,75877,1,0,0:0:0:0:
64,192,75936,1,0,0:0:0:0:
192,192,75936,1,0,0:0:0:0:
320,192,75994,1,0,0:0:0:0:
192,192,76053,1,0,0:0:0:0:
448,192,76053,1,0,0:0:0:0:
320,192,76112,1,0,0:0:0:0:
64,192,76170,1,0,0:0:0:0:
192,192,76170,1,0,0:0:0:0:
448,192,76229,1,0,0:0:0:0:
192,192,76287,1,0,0:0:0:0:
320,192,76287,1,0,0:0:0:0:
64,192,76346,1,0,0:0:0:0:
320,192,76405,1,0,0:0:0:0:
448,192,76405,1,0,0:0:0:0:
192,192,76463,1,0,0:0:0:0:
64,192,76522,1,0,0:0:0:0:
320,192,76522,1,0,0:0:0:0:
192,192,76580,1,0,0:0:0:0:
320,192,76639,1,0,0:0:0:0:
448,192,76639,1,0,0:0:0:0:
64,192,76698,1,0,0:0:0:0:
192,192,76756,1,0,0:0:0:0:
448,192,76756,1,0,0:0:0:0:
320,192,76815,1,0,0:0:0:0:
64,192,76873,1,0,0:0:0:0:
192,192,76873,1,0,0:0:0:0:
448,192,76932,1,0,0:0:0:0:
192,192,76991,1,0,0:0:0:0:
320,192,76991,1,0,0:0:0:0:
64,192,77049,1,0,0:0:0:0:
320,192,77108,1,0,0:0:0:0:
448,192,77108,1,0,0:0:0:0:
192,192,77166,1,0,0:0:0:0:
320,192,77225,1,0,0:0:0:0:
448,192,77225,1,0,0:0:0:0:
64,192,77283,1,0,0:0:0:0:
192,192,77342,1,0,0:0:0:0:
448,192,77342,1,0,0:0:0:0:
320,192,77401,1,0,0:0:0:0:
64,192,77459,1,0,0:0:0:0:
192,192,77459,1,0,0:0:0:0:
448,192,77518,1,0,0:0:0:0:
64,192,77576,1,0,0:0:0:0:
192,192,77576,1,0,0:0:0:0:
320,192,77635,1,0,0:0:0:0:
192,192,77694,1,0,0:0:0:0:
448,192,77694,1,0,0:0:0:0:
64,192,77752,1,0,0:0:0:0:
320,192,77811,1,0,0:0:0:0:
448,192,77811,1,0,0:0:0:0:
192,192,77869,1,0,0:0:0:0:
64,192,77928,1,0,0:0:0:0:
320,192,77928,1,0,0:0:0:0:
448,192,77928,1,0,0:0:0:0:
64,192,78045,1,0,0:0:0:0:
192,192,78162,1,0,0:0:0:0:
192,192,78280,1,0,0:0:0:0:
320,192,78397,1,0,0:0:0:0:
320,192,78514,1,0,0:0:0:0:
448,192,78631,1,0,0:0:0:0:
448,192,78748,1,0,0:0:0:0:
64,192,78866,1,0,0:0:0:0:
448,192,78866,1,0,0:0:0:0:
64,192,78983,1,0,0:0:0:0:
192,192,79100,1,0,0:0:0:0:
320,192,79217,1,0,0:0:0:0:
448,192,79217,1,0,0:0:0:0:
448,192,79334,1,0,0:0:0:0:
320,192,79451,1,0,0:0:0:0:
192,192,79569,1,0,0:0:0:0:
64,0,79569,128,0,79803:1:0:0:0:
448,192,79686,1,0,0:0:0:0:
192,192,79803,1,0,0:0:0:0:
320,192,79920,1,0,0:0:0:0:
64,192,80037,1,0,0:0:0:0:
448,192,80037,1,0,0:0:0:0:
192,192,80155,1,0,0:0:0:0:
320,192,80272,1,0,0:0:0:0:
448,192,80272,1,0,0:0:0:0:
64,192,80389,1,0,0:0:0:0:
192,192,80506,1,0,0:0:0:0:
320,192,80506,1,0,0:0:0:0:
448,192,80623,1,0,0:0:0:0:
64,192,80741,1,0,0:0:0:0:
192,192,80741,1,0,0:0:0:0:
448,192,80799,1,0,0:0:0:0:
192,192,80858,1,0,0:0:0:0:
448,192,80916,1,0,0:0:0:0:
320,192,80975,1,0,0:0:0:0:
64,0,80975,128,0,81092:1:0:0:0:
192,192,81092,1,0,0:0:0:0:
448,0,81092,128,0,81326:1:0:0:0:
320,192,81209,1,0,0:0:0:0:
64,192,81326,1,0,0:0:0:0:
192,192,81444,1,0,0:0:0:0:
320,192,81561,1,0,0:0:0:0:
448,192,81561,1,0,0:0:0:0:
192,192,81619,1,0,0:0:0:0:
64,192,81678,1,0,0:0:0:0:
448,192,81678,1,0,0:0:0:0:
320,192,81737,1,0,0:0:0:0:
192,192,81795,1,0,0:0:0:0:
320,192,81854,1,0,0:0:0:0:
64,192,81912,1,0,0:0:0:0:
448,192,81971,1,0,0:0:0:0:
64,192,82030,1,0,0:0:0:0:
320,192,82088,1,0,0:0:0:0:
192,192,82147,1,0,0:0:0:0:
448,192,82205,1,0,0:0:0:0:
192,192,82264,1,0,0:0:0:0:
320,192,82323,1,0,0:0:0:0:
64,192,82381,1,0,0:0:0:0:
448,192,82440,1,0,0:0:0:0:
64,192,82498,1,0,0:0:0:0:
192,192,82557,1,0,0:0:0:0:
320,192,82616,1,0,0:0:0:0:
448,192,82616,1,0,0:0:0:0:
320,192,82733,1,0,0:0:0:0:
448,192,82733,1,0,0:0:0:0:
192,192,82850,1,0,0:0:0:0:
64,192,82967,1,0,0:0:0:0:
448,192,82967,1,0,0:0:0:0:
64,192,83084,1,0,0:0:0:0:
448,192,83084,1,0,0:0:0:0:
320,192,83201,1,0,0:0:0:0:
64,192,83319,1,0,0:0:0:0:
192,0,83319,128,0,83553:1:0:0:0:
448,192,83436,1,0,0:0:0:0:
64,192,83553,1,0,0:0:0:0:
320,192,83670,1,0,0:0:0:0:
448,192,83670,1,0,0:0:0:0:
64,192,83787,1,0,0:0:0:0:
448,192,83787,1,0,0:0:0:0:
192,192,83905,1,0,0:0:0:0:
320,192,83905,1,0,0:0:0:0:
64,192,84022,1,0,0:0:0:0:
448,192,84022,1,0,0:0:0:0:
320,192,84080,1,0,0:0:0:0:
64,192,84139,1,0,0:0:0:0:
192,192,84139,1,0,0:0:0:0:
192,192,84256,1,0,0:0:0:0:
448,192,84256,1,0,0:0:0:0:
64,192,84373,1,0,0:0:0:0:
320,192,84373,1,0,0:0:0:0:
64,192,84491,1,0,0:0:0:0:
448,192,84491,1,0,0:0:0:0:
320,192,84549,1,0,0:0:0:0:
64,192,84608,1,0,0:0:0:0:
320,192,84666,1,0,0:0:0:0:
192,192,84725,1,0,0:0:0:0:
448,192,84783,1,0,0:0:0:0:
192,192,84842,1,0,0:0:0:0:
320,192,84901,1,0,0:0:0:0:
64,192,84959,1,0,0:0:0:0:
448,192,85018,1,0,0:0:0:0:
192,192,85076,1,0,0:0:0:0:
448,192,85135,1,0,0:0:0:0:
64,192,85194,1,0,0:0:0:0:
192,192,85194,1,0,0:0:0:0:
320,192,85252,1,0,0:0:0:0:
64,192,85311,1,0,0:0:0:0:
448,192,85369,1,0,0:0:0:0:
192,192,85428,1,0,0:0:0:0:
448,192,85487,1,0,0:0:0:0:
320,192,85545,1,0,0:0:0:0:
192,192,85604,1,0,0:0:0:0:
64,192,85662,1,0,0:0:0:0:
448,192,85721,1,0,0:0:0:0:
192,192,85780,1,0,0:0:0:0:
320,192,85838,1,0,0:0:0:0:
64,192,85897,1,0,0:0:0:0:
448,192,85955,1,0,0:0:0:0:
64,192,86014,1,0,0:0:0:0:
320,192,86073,1,0,0:0:0:0:
192,192,86131,1,0,0:0:0:0:
448,192,86190,1,0,0:0:0:0:
64,192,86248,1,0,0:0:0:0:
192,192,86307,1,0,0:0:0:0:
320,192,86366,1,0,0:0:0:0:
448,192,86366,1,0,0:0:0:0:
320,192,86483,1,0,0:0:0:0:
192,192,86600,1,0,0:0:0:0:
64,192,86717,1,0,0:0:0:0:
448,192,86717,1,0,0:0:0:0:
448,192,86834,1,0,0:0:0:0:
320,192,86951,1,0,0:0:0:0:
192,192,87069,1,0,0:0:0:0:
64,0,87069,128,0,87303:1:0:0:0:
448,192,87186,1,0,0:0:0:0:
192,192,87303,1,0,0:0:0:0:
320,192,87420,1,0,0:0:0:0:
192,192,87537,1,0,0:0:0:0:
448,192,87537,1,0,0:0:0:0:
64,192,87655,1,0,0:0:0:0:
192,192,87772,1,0,0:0:0:0:
320,192,87772,1,0,0:0:0:0:
64,192,87889,1,0,0:0:0:0:
320,192,88006,1,0,0:0:0:0:
448,192,88006,1,0,0:0:0:0:
192,192,88123,1,0,0:0:0:0:
64,192,88241,1,0,0:0:0:0:
448,192,88241,1,0,0:0:0:0:
320,192,88299,1,0,0:0:0:0:
64,192,88358,1,0,0:0:0:0:
448,192,88416,1,0,0:0:0:0:
64,192,88475,1,0,0:0:0:0:
192,192,88533,1,0,0:0:0:0:
320,192,88592,1,0,0:0:0:0:
448,192,88592,1,0,0:0:0:0:
64,192,88709,1,0,0:0:0:0:
192,192,88826,1,0,0:0:0:0:
320,192,88826,1,0,0:0:0:0:
448,192,88944,1,0,0:0:0:0:
64,192,89061,1,0,0:0:0:0:
192,192,89061,1,0,0:0:0:0:
320,192,89178,1,0,0:0:0:0:
64,192,89295,1,0,0:0:0:0:
448,192,89295,1,0,0:0:0:0:
192,192,89412,1,0,0:0:0:0:
64,192,89530,1,0,0:0:0:0:
448,192,89530,1,0,0:0:0:0:
192,192,89588,1,0,0:0:0:0:
320,192,89647,1,0,0:0:0:0:
64,192,89705,1,0,0:0:0:0:
448,192,89764,1,0,0:0:0:0:
192,192,89823,1,0,0:0:0:0:
448,192,89881,1,0,0:0:0:0:
64,192,89940,1,0,0:0:0:0:
320,192,89998,1,0,0:0:0:0:
192,192,90057,1,0,0:0:0:0:
320,192,90116,1,0,0:0:0:0:
448,0,90116,128,0,90350:1:0:0:0:
64,192,90233,1,0,0:0:0:0:
320,192,90350,1,0,0:0:0:0:
192,192,90467,1,0,0:0:0:0:
448,192,90467,1,0,0:0:0:0:
320,192,90584,1,0,0:0:0:0:
64,192,90701,1,0,0:0:0:0:
320,192,90819,1,0,0:0:0:0:
192,0,90819,128,0,90936:1:0:0:0:
448,192,90936,1,0,0:0:0:0:
192,192,91053,1,0,0:0:0:0:
64,192,91170,1,0,0:0:0:0:
320,192,91170,1,0,0:0:0:0:
64,192,91287,1,0,0:0:0:0:
448,192,91287,1,0,0:0:0:0:
192,192,91405,1,0,0:0:0:0:
448,192,91405,1,0,0:0:0:0:
64,192,91522,1,0,0:0:0:0:
448,192,91522,1,0,0:0:0:0:
320,192,91580,1,0,0:0:0:0:
64,192,91639,1,0,0:0:0:0:
192,192,91639,1,0,0:0:0:0:
320,192,91756,1,0,0:0:0:0:
448,192,91756,1,0,0:0:0:0:
64,192,91873,1,0,0:0:0:0:
192,192,91873,1,0,0:0:0:0:
64,192,91991,1,0,0:0:0:0:
448,192,91991,1,0,0:0:0:0:
320,192,92049,1,0,0:0:0:0:
448,192,92108,1,0,0:0:0:0:
192,192,92166,1,0,0:0:0:0:
320,192,92225,1,0,0:0:0:0:
64,192,92283,1,0,0:0:0:0:
192,192,92342,1,0,0:0:0:0:
64,192,92401,1,0,0:0:0:0:
320,192,92459,1,0,0:0:0:0:
192,192,92518,1,0,0:0:0:0:
448,192,92576,1,0,0:0:0:0:
320,192,92635,1,0,0:0:0:0:
64,192,92694,1,0,0:0:0:0:
192,192,92694,1,0,0:0:0:0:
448,192,92752,1,0,0:0:0:0:
192,192,92811,1,0,0:0:0:0:
320,192,92869,1,0,0:0:0:0:
192,192,92928,1,0,0:0:0:0:
448,192,92987,1,0,0:0:0:0:
64,192,93045,1,0,0:0:0:0:
320,192,93104,1,0,0:0:0:0:
192,192,93162,1,0,0:0:0:0:
320,192,93221,1,0,0:0:0:0:
64,192,93280,1,0,0:0:0:0:
448,192,93338,1,0,0:0:0:0:
192,192,93397,1,0,0:0:0:0:
448,192,93455,1,0,0:0:0:0:
64,192,93514,1,0,0:0:0:0:
320,192,93573,1,0,0:0:0:0:
64,192,93631,1,0,0:0:0:0:
448,192,93690,1,0,0:0:0:0:
320,192,93748,1,0,0:0:0:0:
192,192,93807,1,0,0:0:0:0:
64,192,93866,1,0,0:0:0:0:
448,192,93866,1,0,0:0:0:0:
320,192,93924,1,0,0:0:0:0:
448,192,93983,1,0,0:0:0:0:
192,192,94100,1,0,0:0:0:0:
64,192,94217,1,0,0:0:0:0:
448,192,94217,1,0,0:0:0:0:
320,192,94334,1,0,0:0:0:0:
192,192,94451,1,0,0:0:0:0:
64,192,94569,1,0,0:0:0:0:
320,192,94569,1,0,0:0:0:0:
448,192,94686,1,0,0:0:0:0:
192,192,94803,1,0,0:0:0:0:
320,192,94920,1,0,0:0:0:0:
448,192,94920,1,0,0:0:0:0:
64,192,95037,1,0,0:0:0:0:
448,192,95037,1,0,0:0:0:0:
64,192,95155,1,0,0:0:0:0:
192,192,95155,1,0,0:0:0:0:
64,192,95272,1,0,0:0:0:0:
448,192,95272,1,0,0:0:0:0:
320,192,95330,1,0,0:0:0:0:
64,192,95389,1,0,0:0:0:0:
448,192,95448,1,0,0:0:0:0:
192,192,95506,1,0,0:0:0:0:
448,192,95565,1,0,0:0:0:0:
64,192,95623,1,0,0:0:0:0:
192,192,95682,1,0,0:0:0:0:
320,192,95741,1,0,0:0:0:0:
448,192,95741,1,0,0:0:0:0:
64,192,95858,1,0,0:0:0:0:
320,192,95975,1,0,0:0:0:0:
64,192,96092,1,0,0:0:0:0:
448,192,96092,1,0,0:0:0:0:
192,192,96209,1,0,0:0:0:0:
448,192,96326,1,0,0:0:0:0:
64,192,96444,1,0,0:0:0:0:
320,192,96444,1,0,0:0:0:0:
192,192,96502,1,0,0:0:0:0:
448,192,96561,1,0,0:0:0:0:
320,192,96619,1,0,0:0:0:0:
448,192,96678,1,0,0:0:0:0:
192,192,96737,1,0,0:0:0:0:
320,192,96795,1,0,0:0:0:0:
64,192,96854,1,0,0:0:0:0:
320,192,96912,1,0,0:0:0:0:
192,192,96971,1,0,0:0:0:0:
448,192,97030,1,0,0:0:0:0:
320,192,97088,1,0,0:0:0:0:
448,192,97147,1,0,0:0:0:0:
192,192,97205,1,0,0:0:0:0:
320,192,97264,1,0,0:0:0:0:
64,192,97323,1,0,0:0:0:0:
448,192,97381,1,0,0:0:0:0:
64,192,97440,1,0,0:0:0:0:
192,192,97498,1,0,0:0:0:0:
320,192,97557,1,0,0:0:0:0:
448,192,97616,1,0,0:0:0:0:
64,0,97616,128,0,97850:1:0:0:0:
192,192,97733,1,0,0:0:0:0:
320,192,97850,1,0,0:0:0:0:
192,192,97967,1,0,0:0:0:0:
448,192,97967,1,0,0:0:0:0:
64,192,98084,1,0,0:0:0:0:
320,192,98201,1,0,0:0:0:0:
64,192,98319,1,0,0:0:0:0:
192,192,98319,1,0,0:0:0:0:
320,192,98436,1,0,0:0:0:0:
448,192,98436,1,0,0:0:0:0:
192,192,98553,1,0,0:0:0:0:
320,192,98670,1,0,0:0:0:0:
448,192,98670,1,0,0:0:0:0:
192,192,98787,1,0,0:0:0:0:
320,192,98787,1,0,0:0:0:0:
64,192,98905,1,0,0:0:0:0:
192,192,98905,1,0,0:0:0:0:
64,192,99022,1,0,0:0:0:0:
448,192,99022,1,0,0:0:0:0:
320,192,99080,1,0,0:0:0:0:
64,192,99139,1,0,0:0:0:0:
192,192,99139,1,0,0:0:0:0:
192,192,99256,1,0,0:0:0:0:
448,192,99256,1,0,0:0:0:0:
64,192,99373,1,0,0:0:0:0:
320,192,99373,1,0,0:0:0:0:
64,192,99491,1,0,0:0:0:0:
448,192,99491,1,0,0:0:0:0:
64,192,99608,1,0,0:0:0:0:
448,192,99608,1,0,0:0:0:0:
320,192,99725,1,0,0:0:0:0:
192,192,99842,1,0,0:0:0:0:
320,192,99959,1,0,0:0:0:0:
64,192,100076,1,0,0:0:0:0:
448,192,100076,1,0,0:0:0:0:
64,192,100194,1,0,0:0:0:0:
192,192,100194,1,0,0:0:0:0:
448,192,100311,1,0,0:0:0:0:
320,0,100311,128,0,100545:1:0:0:0:
64,192,100428,1,0,0:0:0:0:
192,192,100545,1,0,0:0:0:0:
448,192,100662,1,0,0:0:0:0:
320,192,100780,1,0,0:0:0:0:
192,192,100897,1,0,0:0:0:0:
64,192,101014,1,0,0:0:0:0:
448,192,101014,1,0,0:0:0:0:
64,192,101131,1,0,0:0:0:0:
448,192,101131,1,0,0:0:0:0:
320,192,101248,1,0,0:0:0:0:
64,192,101366,1,0,0:0:0:0:
448,192,101366,1,0,0:0:0:0:
192,192,101424,1,0,0:0:0:0:
320,192,101483,1,0,0:0:0:0:
448,192,101541,1,0,0:0:0:0:
64,192,101600,1,0,0:0:0:0:
192,192,101600,1,0,0:0:0:0:
448,192,101658,1,0,0:0:0:0:
320,192,101717,1,0,0:0:0:0:
192,192,101776,1,0,0:0:0:0:
64,192,101834,1,0,0:0:0:0:
448,192,101834,1,0,0:0:0:0:
320,192,101893,1,0,0:0:0:0:
192,192,101951,1,0,0:0:0:0:
64,192,102010,1,0,0:0:0:0:
320,192,102069,1,0,0:0:0:0:
448,192,102069,1,0,0:0:0:0:
64,192,102127,1,0,0:0:0:0:
192,192,102186,1,0,0:0:0:0:
320,192,102244,1,0,0:0:0:0:
64,192,102303,1,0,0:0:0:0:
448,192,102303,1,0,0:0:0:0:
192,192,102362,1,0,0:0:0:0:
320,192,102420,1,0,0:0:0:0:
192,192,102479,1,0,0:0:0:0:
64,192,102537,1,0,0:0:0:0:
448,192,102537,1,0,0:0:0:0:
320,192,102596,1,0,0:0:0:0:
64,192,102655,1,0,0:0:0:0:
192,192,102713,1,0,0:0:0:0:
320,192,102772,1,0,0:0:0:0:
448,192,102772,1,0,0:0:0:0:
64,192,102830,1,0,0:0:0:0:
448,192,102889,1,0,0:0:0:0:
320,192,102948,1,0,0:0:0:0:
64,192,103006,1,0,0:0:0:0:
192,192,103006,1,0,0:0:0:0:
448,192,103065,1,0,0:0:0:0:
192,192,103123,1,0,0:0:0:0:
320,192,103182,1,0,0:0:0:0:
64,192,103241,1,0,0:0:0:0:
448,192,103241,1,0,0:0:0:0:
192,192,103299,1,0,0:0:0:0:
320,192,103358,1,0,0:0:0:0:
192,192,103416,1,0,0:0:0:0:
64,192,103475,1,0,0:0:0:0:
448,192,103475,1,0,0:0:0:0:
320,192,103533,1,0,0:0:0:0:
448,192,103592,1,0,0:0:0:0:
192,192,103651,1,0,0:0:0:0:
64,192,103709,1,0,0:0:0:0:
320,192,103709,1,0,0:0:0:0:
192,192,103768,1,0,0:0:0:0:
448,192,103826,1,0,0:0:0:0:
320,192,103885,1,0,0:0:0:0:
64,192,103944,1,0,0:0:0:0:
192,192,103944,1,0,0:0:0:0:
448,192,104002,1,0,0:0:0:0:
192,192,104061,1,0,0:0:0:0:
320,192,104119,1,0,0:0:0:0:
64,192,104178,1,0,0:0:0:0:
448,192,104178,1,0,0:0:0:0:
192,192,104237,1,0,0:0:0:0:
64,192,104295,1,0,0:0:0:0:
320,192,104354,1,0,0:0:0:0:
192,192,104412,1,0,0:0:0:0:
448,192,104412,1,0,0:0:0:0:
320,192,104471,1,0,0:0:0:0:
64,192,104530,1,0,0:0:0:0:
192,192,104588,1,0,0:0:0:0:
320,192,104647,1,0,0:0:0:0:
448,192,104647,1,0,0:0:0:0:
64,192,104705,1,0,0:0:0:0:
192,192,104764,1,0,0:0:0:0:
320,192,104764,1,0,0:0:0:0:
448,192,104823,1,0,0:0:0:0:
192,192,104881,1,0,0:0:0:0:
320,192,104881,1,0,0:0:0:0:
64,192,104940,1,0,0:0:0:0:
320,192,104998,1,0,0:0:0:0:
192,192,105057,1,0,0:0:0:0:
64,192,105116,1,0,0:0:0:0:
448,192,105116,1,0,0:0:0:0:
320,192,105174,1,0,0:0:0:0:
192,192,105233,1,0,0:0:0:0:
320,192,105291,1,0,0:0:0:0:
64,192,105350,1,0,0:0:0:0:
448,192,105350,1,0,0:0:0:0:
192,192,105408,1,0,0:0:0:0:
448,192,105467,1,0,0:0:0:0:
320,192,105526,1,0,0:0:0:0:
64,192,105584,1,0,0:0:0:0:
192,192,105584,1,0,0:0:0:0:
448,192,105643,1,0,0:0:0:0:
320,192,105701,1,0,0:0:0:0:
192,192,105760,1,0,0:0:0:0:
64,192,105819,1,0,0:0:0:0:
320,192,105819,1,0,0:0:0:0:
448,192,105877,1,0,0:0:0:0:
192,192,105936,1,0,0:0:0:0:
320,192,105994,1,0,0:0:0:0:
64,192,106053,1,0,0:0:0:0:
448,192,106053,1,0,0:0:0:0:
192,192,106112,1,0,0:0:0:0:
320,192,106170,1,0,0:0:0:0:
192,192,106229,1,0,0:0:0:0:
64,192,106287,1,0,0:0:0:0:
448,192,106287,1,0,0:0:0:0:
320,192,106346,1,0,0:0:0:0:
64,192,106405,1,0,0:0:0:0:
192,192,106463,1,0,0:0:0:0:
320,192,106522,1,0,0:0:0:0:
448,192,106522,1,0,0:0:0:0:
64,192,106580,1,0,0:0:0:0:
192,192,106639,1,0,0:0:0:0:
320,192,106698,1,0,0:0:0:0:
64,192,106756,1,0,0:0:0:0:
448,192,106756,1,0,0:0:0:0:
192,192,106815,1,0,0:0:0:0:
448,192,106873,1,0,0:0:0:0:
320,192,106932,1,0,0:0:0:0:
64,192,106991,1,0,0:0:0:0:
192,192,106991,1,0,0:0:0:0:
448,192,107049,1,0,0:0:0:0:
192,192,107108,1,0,0:0:0:0:
320,192,107108,1,0,0:0:0:0:
64,192,107166,1,0,0:0:0:0:
320,192,107225,1,0,0:0:0:0:
448,192,107225,1,0,0:0:0:0:
192,192,107283,1,0,0:0:0:0:
320,192,107342,1,0,0:0:0:0:
448,192,107342,1,0,0:0:0:0:
64,192,107401,1,0,0:0:0:0:
192,192,107459,1,0,0:0:0:0:
448,192,107459,1,0,0:0:0:0:
320,192,107518,1,0,0:0:0:0:
64,192,107576,1,0,0:0:0:0:
192,192,107576,1,0,0:0:0:0:
448,192,107635,1,0,0:0:0:0:
64,192,107694,1,0,0:0:0:0:
192,192,107694,1,0,0:0:0:0:
320,192,107752,1,0,0:0:0:0:
192,192,107811,1,0,0:0:0:0:
448,192,107811,1,0,0:0:0:0:
64,192,107869,1,0,0:0:0:0:
192,192,107928,1,0,0:0:0:0:
320,192,107928,1,0,0:0:0:0:
448,192,107987,1,0,0:0:0:0:
64,192,108045,1,0,0:0:0:0:
320,192,108045,1,0,0:0:0:0:
192,192,108104,1,0,0:0:0:0:
320,192,108162,1,0,0:0:0:0:
448,192,108162,1,0,0:0:0:0:
192,192,108221,1,0,0:0:0:0:
64,192,108280,1,0,0:0:0:0:
448,192,108280,1,0,0:0:0:0:
320,192,108338,1,0,0:0:0:0:
64,192,108397,1,0,0:0:0:0:
192,192,108397,1,0,0:0:0:0:
320,192,108455,1,0,0:0:0:0:
64,192,108514,1,0,0:0:0:0:
448,192,108514,1,0,0:0:0:0:
192,192,108573,1,0,0:0:0:0:
320,192,108631,1,0,0:0:0:0:
448,192,108631,1,0,0:0:0:0:
192,192,108690,1,0,0:0:0:0:
64,192,108748,1,0,0:0:0:0:
448,192,108748,1,0,0:0:0:0:
320,192,108807,1,0,0:0:0:0:
64,192,108866,1,0,0:0:0:0:
192,192,108866,1,0,0:0:0:0:
320,192,109100,1,0,0:0:0:0:
64,192,109217,1,0,0:0:0:0:
64,192,109451,1,0,0:0:0:0:
320,192,109569,1,0,0:0:0:0:
320,192,109803,1,0,0:0:0:0:
64,192,109920,1,0,0:0:0:0:
320,192,110037,1,0,0:0:0:0:
448,192,110037,1,0,0:0:0:0:
192,192,110096,1,0,0:0:0:0:
320,192,110155,1,0,0:0:0:0:
64,192,110272,1,0,0:0:0:0:
192,192,110272,1,0,0:0:0:0:
320,192,110330,1,0,0:0:0:0:
192,192,110389,1,0,0:0:0:0:
320,192,110506,1,0,0:0:0:0:
448,192,110506,1,0,0:0:0:0:
192,192,110565,1,0,0:0:0:0:
320,192,110623,1,0,0:0:0:0:
64,192,110741,1,0,0:0:0:0:
192,192,110799,1,0,0:0:0:0:
320,192,110858,1,0,0:0:0:0:
448,192,111092,1,0,0:0:0:0:
320,192,111151,1,0,0:0:0:0:
192,192,111209,1,0,0:0:0:0:
64,192,111444,1,0,0:0:0:0:
192,192,111502,1,0,0:0:0:0:
320,192,111561,1,0,0:0:0:0:
