osu file format v14

[General]
AudioFilename: audio.mp3
AudioLeadIn: 0
PreviewTime: 36982
Countdown: 0
SampleSet: None
StackLeniency: 0.7
Mode: 1
LetterboxInBreaks: 0
WidescreenStoryboard: 0

[Editor]
Bookmarks: 38232,44982,52931,60751,72246,79767,94767,102267
DistanceSpacing: 0.8
BeatDivisor: 4
GridSize: 32
TimelineZoom: 3.599998

[Metadata]
Title:++
TitleUnicode:++
Artist:Cardboard Box
ArtistUnicode:Cardboard Box
Creator:Vulkin
Version:Kazu's Inner Oni
Source:
Tags:chiptune Dainesl Grimbow koseh -Kazu- Myckoll
BeatmapID:1539351
BeatmapSetID:572069

[Difficulty]
HPDrainRate:6
CircleSize:5
OverallDifficulty:6.5
ApproachRate:5
SliderMultiplier:1.4
SliderTickRate:1

[Events]
//Background and Video events
0,0,"purazu.jpg",0,0
//Break Periods
//Storyboard Layer 0 (Background)
//Storyboard Layer 1 (Fail)
//Storyboard Layer 2 (Pass)
//Storyboard Layer 3 (Foreground)
//Storyboard Sound Samples

[TimingPoints]
982,250,4,1,0,80,1,0
28982,-100,4,1,0,80,0,1
36982,-100,4,1,0,80,0,0
46982,248.96265560166,4,1,0,80,1,0
46982,-100.416666666667,4,1,0,80,0,0
48973,247.933884297521,4,1,0,80,1,0
48973,-100.833333333333,4,1,0,80,0,0
50956,246.913580246914,4,1,0,80,1,0
50956,-101.25,4,1,0,80,0,0
52931,245.901639344262,4,1,0,80,1,0
52931,-101.666666666667,4,1,0,80,0,0
54898,244.897959183673,4,1,0,80,1,0
54898,-102.083333333333,4,1,0,80,0,0
56857,243.90243902439,4,1,0,80,1,0
56857,-102.5,4,1,0,80,0,0
58808,242.914979757085,4,1,0,80,1,0
58808,-102.916666666667,4,1,0,80,0,0
60751,241.935483870968,4,1,0,80,1,1
60751,-103.333333333333,4,1,0,80,0,1
62686,240.963855421687,4,1,0,80,1,1
62686,-104.583333333333,4,1,0,80,0,1
64613,240,4,1,0,80,1,1
64613,-104.166666666667,4,1,0,80,0,1
66533,239.043824701195,4,1,0,80,1,1
66533,-104.583333333333,4,1,0,80,0,1
68445,238.095238095238,4,1,0,80,1,1
68445,-105,4,1,0,80,0,1
70349,237.154150197628,4,1,0,80,1,1
70349,-105.416666666667,4,1,0,80,0,1
72246,236.220472440945,4,1,0,80,1,1
72246,-105.833333333333,4,1,0,80,0,1
74135,235.294117647059,4,1,0,80,1,1
74135,-106.25,4,1,0,80,0,1
76017,234.375,4,1,0,80,1,1
76017,-106.666666666667,4,1,0,80,0,1
78829,-106.666666666667,4,1,0,80,0,0
102267,-106.666666666667,4,1,0,80,0,1
109767,-106.666666666667,4,1,0,80,0,0

[HitObjects]
256,192,4482,5,0,0:0:0:0:
256,192,4607,1,8,0:0:0:0:
256,192,4732,1,8,0:0:0:0:
256,192,4857,1,0,0:0:0:0:
256,192,4982,1,8,0:0:0:0:
256,192,5232,1,8,0:0:0:0:
256,192,5357,1,8,0:0:0:0:
256,192,5607,1,0,0:0:0:0:
256,192,5732,1,8,0:0:0:0:
256,192,5857,1,0,0:0:0:0:
256,192,5982,1,0,0:0:0:0:
256,192,6232,1,8,0:0:0:0:
256,192,6357,1,0,0:0:0:0:
256,192,6482,1,8,0:0:0:0:
256,192,6607,1,0,0:0:0:0:
256,192,6732,1,8,0:0:0:0:
256,192,6857,1,8,0:0:0:0:
256,192,6982,1,0,0:0:0:0:
256,192,7107,1,0,0:0:0:0:
256,192,7232,1,8,0:0:0:0:
256,192,7357,1,0,0:0:0:0:
256,192,7607,1,0,0:0:0:0:
256,192,7732,1,8,0:0:0:0:
256,192,7857,1,0,0:0:0:0:
256,192,8107,1,0,0:0:0:0:
256,192,8232,1,8,0:0:0:0:
256,192,8357,1,8,0:0:0:0:
256,192,8482,1,0,0:0:0:0:
256,192,8607,1,0,0:0:0:0:
256,192,8732,1,8,0:0:0:0:
256,192,8857,1,0,0:0:0:0:
256,192,8982,1,0,0:0:0:0:
256,192,9107,1,0,0:0:0:0:
256,192,9232,1,8,0:0:0:0:
256,192,9357,1,0,0:0:0:0:
256,192,9607,1,0,0:0:0:0:
256,192,9732,1,8,0:0:0:0:
256,192,9857,1,0,0:0:0:0:
256,192,9982,1,0,0:0:0:0:
256,192,10107,1,0,0:0:0:0:
256,192,10232,1,8,0:0:0:0:
256,192,10482,1,0,0:0:0:0:
256,192,10607,1,0,0:0:0:0:
256,192,10732,1,8,0:0:0:0:
256,192,10857,1,0,0:0:0:0:
256,192,10982,1,8,0:0:0:0:
256,192,11044,1,8,0:0:0:0:
256,192,11107,1,0,0:0:0:0:
256,192,11169,1,8,0:0:0:0:
256,192,11232,1,0,0:0:0:0:
256,192,11294,1,0,0:0:0:0:
256,192,11357,1,8,0:0:0:0:
256,192,11419,1,8,0:0:0:0:
256,192,11482,1,0,0:0:0:0:
256,192,11544,1,0,0:0:0:0:
256,192,11607,1,0,0:0:0:0:
256,192,11669,1,0,0:0:0:0:
256,192,11732,1,8,0:0:0:0:
256,192,11794,1,8,0:0:0:0:
256,192,11857,1,0,0:0:0:0:
256,192,11919,1,8,0:0:0:0:
256,192,11982,1,0,0:0:0:0:
256,192,12044,1,0,0:0:0:0:
256,192,12107,1,8,0:0:0:0:
256,192,12169,1,8,0:0:0:0:
256,192,12232,1,0,0:0:0:0:
256,192,12294,1,0,0:0:0:0:
256,192,12357,1,0,0:0:0:0:
256,192,12419,1,0,0:0:0:0:
256,192,12482,1,8,0:0:0:0:
256,192,12544,1,0,0:0:0:0:
256,192,12607,1,8,0:0:0:0:
256,192,12669,1,8,0:0:0:0:
256,192,12732,1,0,0:0:0:0:
256,192,12794,1,0,0:0:0:0:
256,192,12857,1,0,0:0:0:0:
256,192,12919,1,8,0:0:0:0:
256,192,12982,1,0,0:0:0:0:
256,192,13107,1,0,0:0:0:0:
256,192,13232,1,8,0:0:0:0:
256,192,13357,1,0,0:0:0:0:
256,192,13607,1,0,0:0:0:0:
256,192,13732,1,8,0:0:0:0:
256,192,13857,1,0,0:0:0:0:
256,192,13982,1,0,0:0:0:0:
256,192,14107,1,0,0:0:0:0:
256,192,14232,1,8,0:0:0:0:
256,192,14482,1,8,0:0:0:0:
256,192,14607,1,0,0:0:0:0:
256,192,14732,1,8,0:0:0:0:
256,192,14857,1,8,0:0:0:0:
256,192,14982,1,0,0:0:0:0:
256,192,15107,1,0,0:0:0:0:
256,192,15232,1,8,0:0:0:0:
256,192,15357,1,0,0:0:0:0:
256,192,15607,1,0,0:0:0:0:
256,192,15732,1,8,0:0:0:0:
256,192,15857,1,0,0:0:0:0:
256,192,15982,1,0,0:0:0:0:
256,192,16232,1,8,0:0:0:0:
256,192,16357,1,0,0:0:0:0:
256,192,16607,1,0,0:0:0:0:
256,192,16732,1,8,0:0:0:0:
256,192,16857,1,8,0:0:0:0:
256,192,16982,1,0,0:0:0:0:
256,192,17107,1,0,0:0:0:0:
256,192,17232,1,8,0:0:0:0:
256,192,17357,1,0,0:0:0:0:
256,192,17607,1,0,0:0:0:0:
256,192,17732,1,8,0:0:0:0:
256,192,17857,1,0,0:0:0:0:
256,192,17982,1,0,0:0:0:0:
256,192,18107,1,8,0:0:0:0:
256,192,18232,1,8,0:0:0:0:
256,192,18357,1,0,0:0:0:0:
256,192,18482,1,0,0:0:0:0:
256,192,18544,1,8,0:0:0:0:
256,192,18607,1,0,0:0:0:0:
256,192,18732,1,8,0:0:0:0:
256,192,18857,1,0,0:0:0:0:
256,192,18982,1,8,0:0:0:0:
256,192,19044,1,8,0:0:0:0:
256,192,19107,1,0,0:0:0:0:
256,192,19169,1,0,0:0:0:0:
256,192,19232,1,8,0:0:0:0:
256,192,19294,1,0,0:0:0:0:
256,192,19357,1,8,0:0:0:0:
256,192,19419,1,8,0:0:0:0:
256,192,19482,1,0,0:0:0:0:
256,192,19544,1,0,0:0:0:0:
256,192,19607,1,0,0:0:0:0:
256,192,19669,1,0,0:0:0:0:
256,192,19732,1,8,0:0:0:0:
256,192,19794,1,8,0:0:0:0:
256,192,19857,1,8,0:0:0:0:
256,192,19919,1,8,0:0:0:0:
256,192,19982,1,0,0:0:0:0:
256,192,20044,1,0,0:0:0:0:
256,192,20107,1,8,0:0:0:0:
256,192,20169,1,0,0:0:0:0:
256,192,20232,1,8,0:0:0:0:
256,192,20294,1,8,0:0:0:0:
256,192,20357,1,0,0:0:0:0:
256,192,20419,1,0,0:0:0:0:
256,192,20482,1,8,0:0:0:0:
256,192,20607,1,0,0:0:0:0:
256,192,20669,1,0,0:0:0:0:
256,192,20732,1,8,0:0:0:0:
256,192,20794,1,8,0:0:0:0:
256,192,20857,1,0,0:0:0:0:
256,192,20919,1,8,0:0:0:0:
256,192,20982,1,4,0:0:0:0:
256,192,21107,1,8,0:0:0:0:
256,192,21169,1,8,0:0:0:0:
256,192,21232,1,8,0:0:0:0:
256,192,21357,1,4,0:0:0:0:
256,192,21607,1,8,0:0:0:0:
256,192,21732,1,4,0:0:0:0:
256,192,22107,1,0,0:0:0:0:
256,192,22232,1,8,0:0:0:0:
256,192,22357,1,0,0:0:0:0:
256,192,22482,1,0,0:0:0:0:
256,192,22544,1,0,0:0:0:0:
256,192,22607,1,0,0:0:0:0:
256,192,22732,1,8,0:0:0:0:
256,192,22857,1,0,0:0:0:0:
256,192,22982,1,4,0:0:0:0:
256,192,23107,1,0,0:0:0:0:
256,192,23169,1,0,0:0:0:0:
256,192,23232,1,0,0:0:0:0:
256,192,23357,1,12,0:0:0:0:
256,192,23482,1,8,0:0:0:0:
256,192,23544,1,8,0:0:0:0:
256,192,23607,1,8,0:0:0:0:
256,192,23732,1,4,0:0:0:0:
256,192,23982,1,8,0:0:0:0:
256,192,24107,1,0,0:0:0:0:
256,192,24232,1,8,0:0:0:0:
256,192,24357,1,8,0:0:0:0:
256,192,24482,1,0,0:0:0:0:
256,192,24607,1,0,0:0:0:0:
256,192,24732,1,8,0:0:0:0:
256,192,24857,1,0,0:0:0:0:
256,192,24982,1,4,0:0:0:0:
256,192,25107,1,8,0:0:0:0:
256,192,25169,1,8,0:0:0:0:
256,192,25232,1,8,0:0:0:0:
256,192,25357,1,4,0:0:0:0:
256,192,25607,1,8,0:0:0:0:
256,192,25732,1,0,0:0:0:0:
256,192,25857,1,8,0:0:0:0:
256,192,26107,1,8,0:0:0:0:
256,192,26232,1,0,0:0:0:0:
256,192,26357,1,8,0:0:0:0:
256,192,26482,1,0,0:0:0:0:
256,192,26544,1,8,0:0:0:0:
256,192,26607,1,8,0:0:0:0:
256,192,26669,1,0,0:0:0:0:
256,192,26732,1,8,0:0:0:0:
256,192,26857,1,0,0:0:0:0:
256,192,26982,1,4,0:0:0:0:
256,192,27232,1,8,0:0:0:0:
256,192,27357,1,0,0:0:0:0:
256,192,27607,1,0,0:0:0:0:
256,192,27732,1,8,0:0:0:0:
256,192,27857,1,4,0:0:0:0:
256,192,27982,12,0,28857,0:0:0:0:
256,192,28982,5,8,0:0:0:0:
256,192,29044,1,8,0:0:0:0:
256,192,29107,1,0,0:0:0:0:
256,192,29169,1,0,0:0:0:0:
256,192,29232,1,0,0:0:0:0:
256,192,29294,1,0,0:0:0:0:
256,192,29357,1,8,0:0:0:0:
256,192,29419,1,8,0:0:0:0:
256,192,29482,1,0,0:0:0:0:
256,192,29544,1,0,0:0:0:0:
256,192,29607,1,0,0:0:0:0:
256,192,29669,1,0,0:0:0:0:
256,192,29732,1,8,0:0:0:0:
256,192,29794,1,8,0:0:0:0:
256,192,29857,1,0,0:0:0:0:
256,192,29919,1,0,0:0:0:0:
256,192,29982,1,8,0:0:0:0:
256,192,30044,1,8,0:0:0:0:
256,192,30107,1,0,0:0:0:0:
256,192,30169,1,0,0:0:0:0:
256,192,30232,1,0,0:0:0:0:
256,192,30294,1,0,0:0:0:0:
256,192,30357,1,8,0:0:0:0:
256,192,30419,1,8,0:0:0:0:
256,192,30482,1,0,0:0:0:0:
256,192,30544,1,0,0:0:0:0:
256,192,30607,1,0,0:0:0:0:
256,192,30669,1,0,0:0:0:0:
256,192,30732,1,8,0:0:0:0:
256,192,30794,1,8,0:0:0:0:
256,192,30857,1,0,0:0:0:0:
256,192,30982,1,8,0:0:0:0:
256,192,31044,1,0,0:0:0:0:
256,192,31107,1,8,0:0:0:0:
256,192,31169,1,8,0:0:0:0:
256,192,31232,1,0,0:0:0:0:
256,192,31294,1,0,0:0:0:0:
256,192,31357,1,8,0:0:0:0:
256,192,31419,1,0,0:0:0:0:
256,192,31482,1,8,0:0:0:0:
256,192,31544,1,8,0:0:0:0:
256,192,31607,1,0,0:0:0:0:
256,192,31669,1,0,0:0:0:0:
256,192,31732,1,8,0:0:0:0:
256,192,31794,1,0,0:0:0:0:
256,192,31857,1,8,0:0:0:0:
256,192,31919,1,8,0:0:0:0:
256,192,31982,1,0,0:0:0:0:
256,192,32044,1,0,0:0:0:0:
256,192,32107,1,8,0:0:0:0:
256,192,32169,1,0,0:0:0:0:
256,192,32232,1,8,0:0:0:0:
256,192,32294,1,0,0:0:0:0:
256,192,32357,1,0,0:0:0:0:
256,192,32419,1,0,0:0:0:0:
256,192,32482,1,8,0:0:0:0:
256,192,32544,1,0,0:0:0:0:
256,192,32607,1,8,0:0:0:0:
256,192,32669,1,8,0:0:0:0:
256,192,32732,1,0,0:0:0:0:
256,192,32794,1,0,0:0:0:0:
256,192,32857,1,8,0:0:0:0:
256,192,32982,1,8,0:0:0:0:
256,192,33044,1,8,0:0:0:0:
256,192,33107,1,0,0:0:0:0:
256,192,33169,1,0,0:0:0:0:
256,192,33232,1,0,0:0:0:0:
256,192,33294,1,0,0:0:0:0:
256,192,33357,1,8,0:0:0:0:
256,192,33419,1,8,0:0:0:0:
256,192,33482,1,0,0:0:0:0:
256,192,33544,1,0,0:0:0:0:
256,192,33607,1,0,0:0:0:0:
256,192,33669,1,0,0:0:0:0:
256,192,33732,1,8,0:0:0:0:
256,192,33794,1,8,0:0:0:0:
256,192,33857,1,0,0:0:0:0:
256,192,33919,1,0,0:0:0:0:
256,192,33982,1,8,0:0:0:0:
256,192,34044,1,8,0:0:0:0:
256,192,34107,1,0,0:0:0:0:
256,192,34169,1,0,0:0:0:0:
256,192,34232,1,0,0:0:0:0:
256,192,34294,1,0,0:0:0:0:
256,192,34357,1,8,0:0:0:0:
256,192,34419,1,8,0:0:0:0:
256,192,34482,1,0,0:0:0:0:
256,192,34544,1,0,0:0:0:0:
256,192,34607,1,0,0:0:0:0:
256,192,34669,1,0,0:0:0:0:
256,192,34732,1,8,0:0:0:0:
256,192,34794,1,8,0:0:0:0:
256,192,34857,1,0,0:0:0:0:
256,192,34982,1,0,0:0:0:0:
256,192,35044,1,0,0:0:0:0:
256,192,35107,1,8,0:0:0:0:
256,192,35169,1,0,0:0:0:0:
256,192,35232,1,8,0:0:0:0:
256,192,35294,1,8,0:0:0:0:
256,192,35357,1,0,0:0:0:0:
256,192,35419,1,8,0:0:0:0:
256,192,35482,1,0,0:0:0:0:
256,192,35544,1,0,0:0:0:0:
256,192,35607,1,8,0:0:0:0:
256,192,35669,1,8,0:0:0:0:
256,192,35732,1,0,0:0:0:0:
256,192,35794,1,8,0:0:0:0:
256,192,35857,1,8,0:0:0:0:
256,192,35919,1,8,0:0:0:0:
256,192,35982,1,0,0:0:0:0:
256,192,36044,1,0,0:0:0:0:
256,192,36107,1,8,0:0:0:0:
256,192,36169,1,0,0:0:0:0:
256,192,36232,1,8,0:0:0:0:
256,192,36294,1,8,0:0:0:0:
256,192,36357,1,8,0:0:0:0:
256,192,36419,1,0,0:0:0:0:
256,192,36482,1,8,0:0:0:0:
256,192,36544,1,8,0:0:0:0:
256,192,36607,1,0,0:0:0:0:
256,192,36669,1,0,0:0:0:0:
256,192,36732,1,8,0:0:0:0:
256,192,36794,1,0,0:0:0:0:
256,192,36857,1,0,0:0:0:0:
256,192,38232,1,8,0:0:0:0:
256,192,38294,1,8,0:0:0:0:
256,192,38357,1,0,0:0:0:0:
256,192,38482,1,8,0:0:0:0:
256,192,38544,1,8,0:0:0:0:
256,192,38607,1,0,0:0:0:0:
256,192,38732,1,8,0:0:0:0:
256,192,38794,1,8,0:0:0:0:
256,192,38857,1,0,0:0:0:0:
256,192,38982,1,8,0:0:0:0:
256,192,39044,1,8,0:0:0:0:
256,192,39107,1,0,0:0:0:0:
256,192,39232,1,0,0:0:0:0:
256,192,39357,1,8,0:0:0:0:
256,192,39419,1,8,0:0:0:0:
256,192,39482,1,0,0:0:0:0:
256,192,39607,1,0,0:0:0:0:
256,192,39732,1,8,0:0:0:0:
256,192,39794,1,8,0:0:0:0:
256,192,39857,1,0,0:0:0:0:
256,192,39982,1,0,0:0:0:0:
256,192,40107,1,8,0:0:0:0:
256,192,40169,1,8,0:0:0:0:
256,192,40232,1,0,0:0:0:0:
256,192,40357,1,0,0:0:0:0:
256,192,40482,1,8,0:0:0:0:
256,192,40544,1,8,0:0:0:0:
256,192,40607,1,0,0:0:0:0:
256,192,40732,1,8,0:0:0:0:
256,192,40794,1,8,0:0:0:0:
256,192,40857,1,0,0:0:0:0:
256,192,40982,1,8,0:0:0:0:
256,192,41044,1,8,0:0:0:0:
256,192,41107,1,0,0:0:0:0:
256,192,41357,1,8,0:0:0:0:
256,192,41419,1,8,0:0:0:0:
256,192,41482,1,0,0:0:0:0:
256,192,41732,1,8,0:0:0:0:
256,192,41794,1,8,0:0:0:0:
256,192,41857,1,0,0:0:0:0:
256,192,42107,1,8,0:0:0:0:
256,192,42169,1,8,0:0:0:0:
256,192,42232,1,0,0:0:0:0:
256,192,42482,1,8,0:0:0:0:
256,192,42544,1,8,0:0:0:0:
256,192,42607,1,0,0:0:0:0:
256,192,42732,1,8,0:0:0:0:
256,192,42794,1,8,0:0:0:0:
256,192,42857,1,0,0:0:0:0:
256,192,42982,1,8,0:0:0:0:
256,192,43044,1,0,0:0:0:0:
256,192,43107,1,0,0:0:0:0:
256,192,43169,1,0,0:0:0:0:
256,192,43357,1,8,0:0:0:0:
256,192,43419,1,0,0:0:0:0:
256,192,43482,1,0,0:0:0:0:
256,192,43544,1,0,0:0:0:0:
256,192,43732,1,8,0:0:0:0:
256,192,43794,1,0,0:0:0:0:
256,192,43857,1,0,0:0:0:0:
256,192,43919,1,0,0:0:0:0:
256,192,44107,1,8,0:0:0:0:
256,192,44169,1,0,0:0:0:0:
256,192,44232,1,0,0:0:0:0:
256,192,44294,1,0,0:0:0:0:
256,192,44482,1,8,0:0:0:0:
256,192,44544,1,0,0:0:0:0:
256,192,44607,1,0,0:0:0:0:
256,192,44669,1,0,0:0:0:0:
256,192,44732,1,8,0:0:0:0:
256,192,44794,1,0,0:0:0:0:
256,192,44857,1,0,0:0:0:0:
256,192,44919,1,0,0:0:0:0:
256,192,44982,1,8,0:0:0:0:
256,192,45044,1,8,0:0:0:0:
256,192,45107,1,0,0:0:0:0:
256,192,45169,1,0,0:0:0:0:
256,192,45232,1,0,0:0:0:0:
256,192,45357,1,8,0:0:0:0:
256,192,45419,1,8,0:0:0:0:
256,192,45482,1,0,0:0:0:0:
256,192,45544,1,0,0:0:0:0:
256,192,45607,1,0,0:0:0:0:
256,192,45732,1,8,0:0:0:0:
256,192,45794,1,0,0:0:0:0:
256,192,45857,1,8,0:0:0:0:
256,192,45919,1,0,0:0:0:0:
256,192,45982,1,0,0:0:0:0:
256,192,46107,1,8,0:0:0:0:
256,192,46169,1,8,0:0:0:0:
256,192,46232,1,0,0:0:0:0:
256,192,46294,1,0,0:0:0:0:
256,192,46357,1,0,0:0:0:0:
256,192,46419,1,0,0:0:0:0:
256,192,46482,1,8,0:0:0:0:
256,192,46544,1,0,0:0:0:0:
256,192,46607,1,8,0:0:0:0:
256,192,46669,1,8,0:0:0:0:
256,192,46732,1,0,0:0:0:0:
256,192,46794,1,0,0:0:0:0:
256,192,46857,1,8,0:0:0:0:
256,192,46919,1,0,0:0:0:0:
256,192,46982,1,8,0:0:0:0:
256,192,47044,1,8,0:0:0:0:
256,192,47106,1,0,0:0:0:0:
256,192,47168,1,0,0:0:0:0:
256,192,47230,1,0,0:0:0:0:
256,192,47355,1,8,0:0:0:0:
256,192,47417,1,8,0:0:0:0:
256,192,47479,1,0,0:0:0:0:
256,192,47542,1,0,0:0:0:0:
256,192,47604,1,0,0:0:0:0:
256,192,47728,1,8,0:0:0:0:
256,192,47791,1,8,0:0:0:0:
256,192,47853,1,0,0:0:0:0:
256,192,47915,1,0,0:0:0:0:
256,192,47977,1,0,0:0:0:0:
256,192,48102,1,8,0:0:0:0:
256,192,48164,1,0,0:0:0:0:
256,192,48226,1,8,0:0:0:0:
256,192,48289,1,8,0:0:0:0:
256,192,48351,1,0,0:0:0:0:
256,192,48413,1,0,0:0:0:0:
256,192,48475,1,8,0:0:0:0:
256,192,48538,1,8,0:0:0:0:
256,192,48600,1,0,0:0:0:0:
256,192,48662,1,0,0:0:0:0:
256,192,48724,1,8,0:0:0:0:
256,192,48786,1,8,0:0:0:0:
256,192,48849,1,8,0:0:0:0:
256,192,48911,1,0,0:0:0:0:
256,192,48973,1,8,0:0:0:0:
256,192,49034,1,8,0:0:0:0:
256,192,49096,1,0,0:0:0:0:
256,192,49158,1,0,0:0:0:0:
256,192,49220,1,0,0:0:0:0:
256,192,49344,1,8,0:0:0:0:
256,192,49406,1,8,0:0:0:0:
256,192,49468,1,0,0:0:0:0:
256,192,49530,1,0,0:0:0:0:
256,192,49592,1,0,0:0:0:0:
256,192,49716,1,8,0:0:0:0:
256,192,49778,1,8,0:0:0:0:
256,192,49840,1,0,0:0:0:0:
256,192,49902,1,0,0:0:0:0:
256,192,49964,1,0,0:0:0:0:
256,192,50088,1,8,0:0:0:0:
256,192,50150,1,0,0:0:0:0:
256,192,50212,1,8,0:0:0:0:
256,192,50274,1,8,0:0:0:0:
256,192,50336,1,0,0:0:0:0:
256,192,50398,1,0,0:0:0:0:
256,192,50460,1,8,0:0:0:0:
256,192,50522,1,8,0:0:0:0:
256,192,50584,1,0,0:0:0:0:
256,192,50646,1,0,0:0:0:0:
256,192,50708,1,8,0:0:0:0:
256,192,50770,1,0,0:0:0:0:
256,192,50832,1,8,0:0:0:0:
256,192,50894,1,8,0:0:0:0:
256,192,50956,1,8,0:0:0:0:
256,192,51017,1,8,0:0:0:0:
256,192,51079,1,0,0:0:0:0:
256,192,51141,1,0,0:0:0:0:
256,192,51202,1,0,0:0:0:0:
256,192,51326,1,8,0:0:0:0:
256,192,51388,1,8,0:0:0:0:
256,192,51449,1,8,0:0:0:0:
256,192,51511,1,0,0:0:0:0:
256,192,51573,1,0,0:0:0:0:
256,192,51696,1,8,0:0:0:0:
256,192,51758,1,8,0:0:0:0:
256,192,51820,1,8,0:0:0:0:
256,192,51881,1,0,0:0:0:0:
256,192,51943,1,0,0:0:0:0:
256,192,52067,1,8,0:0:0:0:
256,192,52128,1,8,0:0:0:0:
256,192,52190,1,0,0:0:0:0:
256,192,52252,1,0,0:0:0:0:
256,192,52314,1,0,0:0:0:0:
256,192,52375,1,0,0:0:0:0:
256,192,52437,1,0,0:0:0:0:
256,192,52499,1,0,0:0:0:0:
256,192,52560,1,8,0:0:0:0:
256,192,52622,1,0,0:0:0:0:
256,192,52684,1,8,0:0:0:0:
256,192,52746,1,8,0:0:0:0:
256,192,52807,1,8,0:0:0:0:
256,192,52869,1,0,0:0:0:0:
256,192,52931,1,8,0:0:0:0:
256,192,53053,1,0,0:0:0:0:
256,192,53176,1,8,0:0:0:0:
256,192,53299,1,8,0:0:0:0:
256,192,53361,1,8,0:0:0:0:
256,192,53422,1,0,0:0:0:0:
256,192,53545,1,0,0:0:0:0:
256,192,53668,1,8,0:0:0:0:
256,192,53730,1,0,0:0:0:0:
256,192,53791,1,0,0:0:0:0:
256,192,53914,1,0,0:0:0:0:
256,192,54037,1,8,0:0:0:0:
256,192,54099,1,8,0:0:0:0:
256,192,54160,1,0,0:0:0:0:
256,192,54221,1,0,0:0:0:0:
256,192,54283,1,8,0:0:0:0:
256,192,54344,1,0,0:0:0:0:
256,192,54406,1,8,0:0:0:0:
256,192,54529,1,8,0:0:0:0:
256,192,54652,1,0,0:0:0:0:
256,192,54713,1,0,0:0:0:0:
256,192,54775,1,0,0:0:0:0:
256,192,54836,1,0,0:0:0:0:
256,192,54898,1,8,0:0:0:0:
256,192,54959,1,8,0:0:0:0:
256,192,55020,1,0,0:0:0:0:
256,192,55142,1,0,0:0:0:0:
256,192,55265,1,8,0:0:0:0:
256,192,55326,1,8,0:0:0:0:
256,192,55387,1,0,0:0:0:0:
256,192,55510,1,0,0:0:0:0:
256,192,55632,1,8,0:0:0:0:
256,192,55693,1,0,0:0:0:0:
256,192,55755,1,8,0:0:0:0:
256,192,55816,1,8,0:0:0:0:
256,192,55877,1,0,0:0:0:0:
256,192,56000,1,8,0:0:0:0:
256,192,56061,1,0,0:0:0:0:
256,192,56122,1,0,0:0:0:0:
256,192,56244,1,8,0:0:0:0:
256,192,56367,1,0,0:0:0:0:
256,192,56428,1,0,0:0:0:0:
256,192,56489,1,8,0:0:0:0:
256,192,56551,1,0,0:0:0:0:
256,192,56612,1,8,0:0:0:0:
256,192,56673,1,8,0:0:0:0:
256,192,56734,1,0,0:0:0:0:
256,192,56795,1,0,0:0:0:0:
256,192,56857,1,8,0:0:0:0:
256,192,56917,1,8,0:0:0:0:
256,192,56978,1,8,0:0:0:0:
256,192,57039,1,0,0:0:0:0:
256,192,57100,1,8,0:0:0:0:
256,192,57222,1,8,0:0:0:0:
256,192,57344,1,8,0:0:0:0:
256,192,57405,1,0,0:0:0:0:
256,192,57466,1,0,0:0:0:0:
256,192,57588,1,8,0:0:0:0:
256,192,57649,1,8,0:0:0:0:
256,192,57710,1,8,0:0:0:0:
256,192,57771,1,8,0:0:0:0:
256,192,57832,1,0,0:0:0:0:
256,192,57954,1,8,0:0:0:0:
256,192,58015,1,0,0:0:0:0:
256,192,58076,1,8,0:0:0:0:
256,192,58137,1,8,0:0:0:0:
256,192,58198,1,0,0:0:0:0:
256,192,58320,1,0,0:0:0:0:
256,192,58442,1,0,0:0:0:0:
256,192,58503,1,8,0:0:0:0:
256,192,58564,1,0,0:0:0:0:
256,192,58625,1,0,0:0:0:0:
256,192,58686,1,8,0:0:0:0:
256,192,58747,1,8,0:0:0:0:
256,192,58808,1,8,0:0:0:0:
256,192,58929,1,8,0:0:0:0:
256,192,58990,1,8,0:0:0:0:
256,192,59050,1,0,0:0:0:0:
256,192,59172,1,8,0:0:0:0:
256,192,59233,1,0,0:0:0:0:
256,192,59293,1,0,0:0:0:0:
256,192,59354,1,8,0:0:0:0:
256,192,59415,1,0,0:0:0:0:
256,192,59536,1,8,0:0:0:0:
256,192,59597,1,8,0:0:0:0:
256,192,59658,1,0,0:0:0:0:
256,192,59779,1,0,0:0:0:0:
256,192,59901,1,8,0:0:0:0:
256,192,60022,1,0,0:0:0:0:
256,192,60083,1,0,0:0:0:0:
256,192,60144,1,0,0:0:0:0:
256,192,60265,1,0,0:0:0:0:
256,192,60326,1,0,0:0:0:0:
256,192,60386,1,8,0:0:0:0:
256,192,60447,1,0,0:0:0:0:
256,192,60508,1,0,0:0:0:0:
256,192,60569,1,0,0:0:0:0:
256,192,60629,1,8,0:0:0:0:
256,192,60690,1,0,0:0:0:0:
256,192,60751,1,8,0:0:0:0:
256,192,60871,1,8,0:0:0:0:
256,192,60932,1,8,0:0:0:0:
256,192,60992,1,0,0:0:0:0:
256,192,61113,1,8,0:0:0:0:
256,192,61174,1,0,0:0:0:0:
256,192,61234,1,8,0:0:0:0:
256,192,61295,1,8,0:0:0:0:
256,192,61355,1,0,0:0:0:0:
256,192,61476,1,0,0:0:0:0:
256,192,61597,1,8,0:0:0:0:
256,192,61658,1,0,0:0:0:0:
256,192,61718,1,0,0:0:0:0:
256,192,61839,1,8,0:0:0:0:
256,192,61900,1,0,0:0:0:0:
256,192,61960,1,8,0:0:0:0:
256,192,62021,1,8,0:0:0:0:
256,192,62081,1,0,0:0:0:0:
256,192,62202,1,0,0:0:0:0:
256,192,62263,1,0,0:0:0:0:
256,192,62323,1,8,0:0:0:0:
256,192,62444,1,0,0:0:0:0:
256,192,62565,1,8,0:0:0:0:
256,192,62686,1,8,0:0:0:0:
256,192,62746,1,8,0:0:0:0:
256,192,62806,1,0,0:0:0:0:
256,192,62866,1,8,0:0:0:0:
256,192,62926,1,0,0:0:0:0:
256,192,63047,1,8,0:0:0:0:
256,192,63107,1,8,0:0:0:0:
256,192,63167,1,0,0:0:0:0:
256,192,63288,1,0,0:0:0:0:
256,192,63408,1,8,0:0:0:0:
256,192,63469,1,0,0:0:0:0:
256,192,63529,1,8,0:0:0:0:
256,192,63589,1,8,0:0:0:0:
256,192,63649,1,0,0:0:0:0:
256,192,63770,1,8,0:0:0:0:
256,192,63830,1,0,0:0:0:0:
256,192,63890,1,8,0:0:0:0:
256,192,64011,1,0,0:0:0:0:
256,192,64131,1,0,0:0:0:0:
256,192,64192,1,0,0:0:0:0:
256,192,64252,1,8,0:0:0:0:
256,192,64312,1,8,0:0:0:0:
256,192,64372,1,0,0:0:0:0:
256,192,64432,1,0,0:0:0:0:
256,192,64493,1,8,0:0:0:0:
256,192,64613,1,8,0:0:0:0:
256,192,64673,1,8,0:0:0:0:
256,192,64733,1,0,0:0:0:0:
256,192,64793,1,8,0:0:0:0:
256,192,64853,1,0,0:0:0:0:
256,192,64973,1,8,0:0:0:0:
256,192,65033,1,0,0:0:0:0:
256,192,65093,1,8,0:0:0:0:
256,192,65153,1,8,0:0:0:0:
256,192,65213,1,0,0:0:0:0:
256,192,65333,1,8,0:0:0:0:
256,192,65393,1,0,0:0:0:0:
256,192,65453,1,0,0:0:0:0:
256,192,65513,1,8,0:0:0:0:
256,192,65573,1,0,0:0:0:0:
256,192,65693,1,8,0:0:0:0:
256,192,65813,1,8,0:0:0:0:
256,192,65873,1,0,0:0:0:0:
256,192,65933,1,0,0:0:0:0:
256,192,65993,1,8,0:0:0:0:
256,192,66053,1,0,0:0:0:0:
256,192,66173,1,0,0:0:0:0:
256,192,66233,1,8,0:0:0:0:
256,192,66293,1,8,0:0:0:0:
256,192,66353,1,0,0:0:0:0:
256,192,66413,1,8,0:0:0:0:
256,192,66533,1,8,0:0:0:0:
256,192,66652,1,8,0:0:0:0:
256,192,66712,1,0,0:0:0:0:
256,192,66772,1,0,0:0:0:0:
256,192,66891,1,8,0:0:0:0:
256,192,66951,1,8,0:0:0:0:
256,192,67011,1,8,0:0:0:0:
256,192,67070,1,8,0:0:0:0:
256,192,67130,1,0,0:0:0:0:
256,192,67250,1,8,0:0:0:0:
256,192,67309,1,8,0:0:0:0:
256,192,67369,1,0,0:0:0:0:
256,192,67429,1,8,0:0:0:0:
256,192,67489,1,0,0:0:0:0:
256,192,67608,1,0,0:0:0:0:
256,192,67728,1,8,0:0:0:0:
256,192,67847,1,0,0:0:0:0:
256,192,67907,1,8,0:0:0:0:
256,192,67967,1,0,0:0:0:0:
256,192,68086,1,0,0:0:0:0:
256,192,68146,1,8,0:0:0:0:
256,192,68206,1,8,0:0:0:0:
256,192,68266,1,0,0:0:0:0:
256,192,68325,1,0,0:0:0:0:
256,192,68385,1,8,0:0:0:0:
256,192,68445,1,8,0:0:0:0:
256,192,68504,1,8,0:0:0:0:
256,192,68564,1,0,0:0:0:0:
256,192,68683,1,0,0:0:0:0:
256,192,68802,1,8,0:0:0:0:
256,192,68921,1,8,0:0:0:0:
256,192,68980,1,8,0:0:0:0:
256,192,69040,1,0,0:0:0:0:
256,192,69159,1,8,0:0:0:0:
256,192,69278,1,0,0:0:0:0:
256,192,69337,1,0,0:0:0:0:
256,192,69397,1,0,0:0:0:0:
256,192,69516,1,8,0:0:0:0:
256,192,69635,1,8,0:0:0:0:
256,192,69695,1,0,0:0:0:0:
256,192,69754,1,0,0:0:0:0:
256,192,69873,1,8,0:0:0:0:
256,192,69992,1,0,0:0:0:0:
256,192,70111,1,0,0:0:0:0:
256,192,70230,1,8,0:0:0:0:
256,192,70349,1,8,0:0:0:0:
256,192,70408,1,8,0:0:0:0:
256,192,70467,1,0,0:0:0:0:
256,192,70586,1,0,0:0:0:0:
256,192,70704,1,8,0:0:0:0:
256,192,70764,1,8,0:0:0:0:
256,192,70823,1,0,0:0:0:0:
256,192,70882,1,8,0:0:0:0:
256,192,70941,1,0,0:0:0:0:
256,192,71060,1,8,0:0:0:0:
256,192,71119,1,8,0:0:0:0:
256,192,71179,1,0,0:0:0:0:
256,192,71297,1,0,0:0:0:0:
256,192,71416,1,8,0:0:0:0:
256,192,71653,1,0,0:0:0:0:
256,192,71712,1,0,0:0:0:0:
256,192,71771,1,8,0:0:0:0:
256,192,71831,1,0,0:0:0:0:
256,192,71890,1,8,0:0:0:0:
256,192,72009,1,8,0:0:0:0:
256,192,72127,1,8,0:0:0:0:
256,192,72246,1,8,0:0:0:0:
256,192,72305,1,8,0:0:0:0:
256,192,72364,1,0,0:0:0:0:
256,192,72423,1,8,0:0:0:0:
256,192,72482,1,0,0:0:0:0:
256,192,72541,1,0,0:0:0:0:
256,192,72600,1,8,0:0:0:0:
256,192,72659,1,0,0:0:0:0:
256,192,72718,1,8,0:0:0:0:
256,192,72777,1,0,0:0:0:0:
256,192,72836,1,0,0:0:0:0:
256,192,72895,1,0,0:0:0:0:
256,192,72954,1,8,0:0:0:0:
256,192,73013,1,0,0:0:0:0:
256,192,73072,1,0,0:0:0:0:
256,192,73131,1,0,0:0:0:0:
256,192,73190,1,8,0:0:0:0:
256,192,73249,1,8,0:0:0:0:
256,192,73308,1,0,0:0:0:0:
256,192,73368,1,8,0:0:0:0:
256,192,73427,1,0,0:0:0:0:
256,192,73545,1,0,0:0:0:0:
256,192,73663,1,0,0:0:0:0:
256,192,73722,1,0,0:0:0:0:
256,192,73781,1,8,0:0:0:0:
256,192,73840,1,8,0:0:0:0:
256,192,73899,1,0,0:0:0:0:
256,192,73958,1,8,0:0:0:0:
256,192,74017,1,0,0:0:0:0:
256,192,74076,1,8,0:0:0:0:
256,192,74135,1,8,0:0:0:0:
256,192,74193,1,8,0:0:0:0:
256,192,74252,1,0,0:0:0:0:
256,192,74311,1,8,0:0:0:0:
256,192,74370,1,0,0:0:0:0:
256,192,74429,1,0,0:0:0:0:
256,192,74487,1,8,0:0:0:0:
256,192,74546,1,0,0:0:0:0:
256,192,74605,1,8,0:0:0:0:
256,192,74664,1,0,0:0:0:0:
256,192,74723,1,0,0:0:0:0:
256,192,74782,1,0,0:0:0:0:
256,192,74840,1,8,0:0:0:0:
256,192,74899,1,0,0:0:0:0:
256,192,74958,1,0,0:0:0:0:
256,192,75017,1,8,0:0:0:0:
256,192,75076,1,0,0:0:0:0:
256,192,75193,1,0,0:0:0:0:
256,192,75311,1,0,0:0:0:0:
256,192,75370,1,0,0:0:0:0:
256,192,75429,1,8,0:0:0:0:
256,192,75487,1,0,0:0:0:0:
256,192,75546,1,0,0:0:0:0:
256,192,75605,1,8,0:0:0:0:
256,192,75664,1,8,0:0:0:0:
256,192,75723,1,8,0:0:0:0:
256,192,75782,1,0,0:0:0:0:
256,192,75840,1,8,0:0:0:0:
256,192,75899,1,8,0:0:0:0:
256,192,75958,1,0,0:0:0:0:
256,192,76017,1,8,0:0:0:0:
256,192,76075,1,8,0:0:0:0:
256,192,76134,1,0,0:0:0:0:
256,192,76192,1,0,0:0:0:0:
256,192,76251,1,8,0:0:0:0:
256,192,76309,1,8,0:0:0:0:
256,192,76368,1,0,0:0:0:0:
256,192,76427,1,0,0:0:0:0:
256,192,76485,1,8,0:0:0:0:
256,192,76544,1,0,0:0:0:0:
256,192,76602,1,0,0:0:0:0:
256,192,76661,1,0,0:0:0:0:
256,192,76720,1,8,0:0:0:0:
256,192,76778,1,8,0:0:0:0:
256,192,76837,1,0,0:0:0:0:
256,192,76895,1,0,0:0:0:0:
256,192,76954,1,8,0:0:0:0:
256,192,77013,1,0,0:0:0:0:
256,192,77071,1,0,0:0:0:0:
256,192,77130,1,0,0:0:0:0:
256,192,77188,1,8,0:0:0:0:
256,192,77247,1,8,0:0:0:0:
256,192,77306,1,0,0:0:0:0:
256,192,77364,1,0,0:0:0:0:
256,192,77423,1,0,0:0:0:0:
256,192,77481,1,8,0:0:0:0:
256,192,77540,1,0,0:0:0:0:
256,192,77599,1,0,0:0:0:0:
256,192,77657,1,8,0:0:0:0:
256,192,77716,1,8,0:0:0:0:
256,192,77774,1,0,0:0:0:0:
256,192,77833,1,8,0:0:0:0:
256,192,77892,1,8,0:0:0:0:
256,192,77950,1,8,0:0:0:0:
256,192,78009,1,0,0:0:0:0:
256,192,78067,1,0,0:0:0:0:
256,192,78126,1,8,0:0:0:0:
256,192,78184,1,0,0:0:0:0:
256,192,78243,1,0,0:0:0:0:
256,192,78302,1,0,0:0:0:0:
256,192,78360,1,8,0:0:0:0:
256,192,78419,1,8,0:0:0:0:
256,192,78477,1,0,0:0:0:0:
256,192,78536,1,8,0:0:0:0:
256,192,78595,1,0,0:0:0:0:
256,192,78653,1,0,0:0:0:0:
256,192,78712,1,0,0:0:0:0:
256,192,78770,1,0,0:0:0:0:
256,192,78829,1,8,0:0:0:0:
256,192,78946,1,8,0:0:0:0:
256,192,79063,1,0,0:0:0:0:
256,192,79181,1,0,0:0:0:0:
256,192,79298,1,8,0:0:0:0:
256,192,79415,1,8,0:0:0:0:
256,192,79532,1,8,0:0:0:0:
256,192,79649,1,8,0:0:0:0:
256,192,79767,1,0,0:0:0:0:
256,192,80001,1,8,0:0:0:0:
256,192,80118,1,0,0:0:0:0:
256,192,80352,1,0,0:0:0:0:
256,192,80470,1,8,0:0:0:0:
256,192,80587,1,0,0:0:0:0:
256,192,80704,1,0,0:0:0:0:
256,192,80821,1,0,0:0:0:0:
256,192,80938,1,8,0:0:0:0:
256,192,81173,1,0,0:0:0:0:
256,192,81290,1,0,0:0:0:0:
256,192,81407,1,8,0:0:0:0:
256,192,81642,1,0,0:0:0:0:
256,192,81876,1,8,0:0:0:0:
256,192,81993,1,0,0:0:0:0:
256,192,82227,1,0,0:0:0:0:
256,192,82345,1,8,0:0:0:0:
256,192,82462,1,0,0:0:0:0:
256,192,82520,1,0,0:0:0:0:
256,192,82579,1,8,0:0:0:0:
256,192,82638,1,8,0:0:0:0:
256,192,82696,1,0,0:0:0:0:
256,192,82755,1,8,0:0:0:0:
256,192,82813,1,8,0:0:0:0:
256,192,82872,1,8,0:0:0:0:
256,192,82931,1,0,0:0:0:0:
256,192,82989,1,8,0:0:0:0:
256,192,83048,1,0,0:0:0:0:
256,192,83106,1,0,0:0:0:0:
256,192,83165,1,8,0:0:0:0:
256,192,83224,1,0,0:0:0:0:
256,192,83282,1,8,0:0:0:0:
256,192,83341,1,8,0:0:0:0:
256,192,83399,1,8,0:0:0:0:
256,192,83458,1,8,0:0:0:0:
256,192,83517,1,0,0:0:0:0:
256,192,83751,1,8,0:0:0:0:
256,192,83868,1,0,0:0:0:0:
256,192,84102,1,0,0:0:0:0:
256,192,84220,1,8,0:0:0:0:
256,192,84337,1,0,0:0:0:0:
256,192,84454,1,0,0:0:0:0:
256,192,84688,1,8,0:0:0:0:
256,192,84923,1,0,0:0:0:0:
256,192,85040,1,0,0:0:0:0:
256,192,85157,1,8,0:0:0:0:
256,192,85392,1,8,0:0:0:0:
256,192,85450,1,8,0:0:0:0:
256,192,85509,1,0,0:0:0:0:
256,192,85567,1,0,0:0:0:0:
256,192,85626,1,8,0:0:0:0:
256,192,85684,1,8,0:0:0:0:
256,192,85743,1,8,0:0:0:0:
256,192,85802,1,8,0:0:0:0:
256,192,85860,1,0,0:0:0:0:
256,192,85919,1,0,0:0:0:0:
256,192,85977,1,0,0:0:0:0:
256,192,86036,1,0,0:0:0:0:
256,192,86095,1,8,0:0:0:0:
256,192,86153,1,8,0:0:0:0:
256,192,86212,1,0,0:0:0:0:
256,192,86270,1,0,0:0:0:0:
256,192,86329,1,0,0:0:0:0:
256,192,86388,1,0,0:0:0:0:
256,192,86446,1,8,0:0:0:0:
256,192,86505,1,8,0:0:0:0:
256,192,86563,1,0,0:0:0:0:
256,192,86622,1,0,0:0:0:0:
256,192,86681,1,8,0:0:0:0:
256,192,86739,1,8,0:0:0:0:
256,192,86798,1,0,0:0:0:0:
256,192,86856,1,0,0:0:0:0:
256,192,86915,1,0,0:0:0:0:
256,192,86974,1,0,0:0:0:0:
256,192,87032,1,8,0:0:0:0:
256,192,87091,1,8,0:0:0:0:
256,192,87149,1,0,0:0:0:0:
256,192,87208,1,0,0:0:0:0:
256,192,87267,1,8,0:0:0:0:
256,192,87501,1,8,0:0:0:0:
256,192,87618,1,0,0:0:0:0:
256,192,87852,1,0,0:0:0:0:
256,192,87970,1,8,0:0:0:0:
256,192,88087,1,0,0:0:0:0:
256,192,88204,1,0,0:0:0:0:
256,192,88438,1,8,0:0:0:0:
256,192,88673,1,0,0:0:0:0:
256,192,88790,1,0,0:0:0:0:
256,192,88907,1,8,0:0:0:0:
256,192,89142,1,0,0:0:0:0:
256,192,89376,1,8,0:0:0:0:
256,192,89493,1,0,0:0:0:0:
256,192,89727,1,0,0:0:0:0:
256,192,89845,1,8,0:0:0:0:
256,192,90079,1,0,0:0:0:0:
256,192,90196,1,0,0:0:0:0:
256,192,90313,1,8,0:0:0:0:
256,192,90431,1,0,0:0:0:0:
256,192,90489,1,0,0:0:0:0:
256,192,90548,1,8,0:0:0:0:
256,192,90606,1,8,0:0:0:0:
256,192,90665,1,0,0:0:0:0:
256,192,90724,1,0,0:0:0:0:
256,192,90782,1,8,0:0:0:0:
256,192,90841,1,0,0:0:0:0:
256,192,90899,1,8,0:0:0:0:
256,192,90958,1,8,0:0:0:0:
256,192,91017,1,0,0:0:0:0:
256,192,91251,1,8,0:0:0:0:
256,192,91368,1,0,0:0:0:0:
256,192,91602,1,0,0:0:0:0:
256,192,91720,1,8,0:0:0:0:
256,192,91837,1,0,0:0:0:0:
256,192,91954,1,0,0:0:0:0:
256,192,92071,1,0,0:0:0:0:
256,192,92188,1,8,0:0:0:0:
256,192,92423,1,0,0:0:0:0:
256,192,92540,1,0,0:0:0:0:
256,192,92657,1,8,0:0:0:0:
256,192,92892,1,8,0:0:0:0:
256,192,92950,1,8,0:0:0:0:
256,192,93009,1,0,0:0:0:0:
256,192,93067,1,0,0:0:0:0:
256,192,93126,1,8,0:0:0:0:
256,192,93184,1,8,0:0:0:0:
256,192,93243,1,8,0:0:0:0:
256,192,93302,1,8,0:0:0:0:
256,192,93360,1,0,0:0:0:0:
256,192,93419,1,0,0:0:0:0:
256,192,93477,1,0,0:0:0:0:
256,192,93536,1,0,0:0:0:0:
256,192,93595,1,8,0:0:0:0:
256,192,93653,1,8,0:0:0:0:
256,192,93712,1,0,0:0:0:0:
256,192,93770,1,0,0:0:0:0:
256,192,93829,1,0,0:0:0:0:
256,192,93888,1,0,0:0:0:0:
256,192,93946,1,8,0:0:0:0:
256,192,94005,1,8,0:0:0:0:
256,192,94063,1,0,0:0:0:0:
256,192,94122,1,0,0:0:0:0:
256,192,94181,1,0,0:0:0:0:
256,192,94239,1,0,0:0:0:0:
256,192,94298,1,8,0:0:0:0:
256,192,94356,1,0,0:0:0:0:
256,192,94415,1,8,0:0:0:0:
256,192,94474,1,0,0:0:0:0:
256,192,94532,1,8,0:0:0:0:
256,192,94591,1,8,0:0:0:0:
256,192,94649,1,0,0:0:0:0:
256,192,94708,1,8,0:0:0:0:
256,192,94767,1,0,0:0:0:0:
256,192,94884,1,8,0:0:0:0:
256,192,94942,1,8,0:0:0:0:
256,192,95001,1,8,0:0:0:0:
256,192,95118,1,4,0:0:0:0:
256,192,95352,1,0,0:0:0:0:
256,192,95470,1,12,0:0:0:0:
256,192,95704,1,0,0:0:0:0:
256,192,95821,1,0,0:0:0:0:
256,192,95938,1,8,0:0:0:0:
256,192,96056,1,0,0:0:0:0:
256,192,96114,1,0,0:0:0:0:
256,192,96173,1,8,0:0:0:0:
256,192,96231,1,0,0:0:0:0:
256,192,96290,1,8,0:0:0:0:
256,192,96349,1,8,0:0:0:0:
256,192,96407,1,0,0:0:0:0:
256,192,96466,1,0,0:0:0:0:
256,192,96524,1,8,0:0:0:0:
256,192,96642,1,4,0:0:0:0:
256,192,96759,1,8,0:0:0:0:
256,192,96817,1,8,0:0:0:0:
256,192,96876,1,8,0:0:0:0:
256,192,96993,1,4,0:0:0:0:
256,192,97345,1,0,0:0:0:0:
256,192,97462,1,8,0:0:0:0:
256,192,97520,1,0,0:0:0:0:
256,192,97579,1,8,0:0:0:0:
256,192,97638,1,8,0:0:0:0:
256,192,97696,1,0,0:0:0:0:
256,192,97755,1,0,0:0:0:0:
256,192,97813,1,8,0:0:0:0:
256,192,97872,1,8,0:0:0:0:
256,192,97931,1,0,0:0:0:0:
256,192,98048,1,8,0:0:0:0:
256,192,98106,1,0,0:0:0:0:
256,192,98165,1,0,0:0:0:0:
256,192,98224,1,8,0:0:0:0:
256,192,98282,1,8,0:0:0:0:
256,192,98341,1,8,0:0:0:0:
256,192,98399,1,0,0:0:0:0:
256,192,98517,1,12,0:0:0:0:
256,192,98634,1,0,0:0:0:0:
256,192,98692,1,0,0:0:0:0:
256,192,98751,1,8,0:0:0:0:
256,192,98868,1,4,0:0:0:0:
256,192,99102,1,0,0:0:0:0:
256,192,99220,1,12,0:0:0:0:
256,192,99571,1,0,0:0:0:0:
256,192,99688,1,8,0:0:0:0:
256,192,99806,1,0,0:0:0:0:
256,192,99923,1,8,0:0:0:0:
256,192,99981,1,8,0:0:0:0:
256,192,100040,1,0,0:0:0:0:
256,192,100157,1,8,0:0:0:0:
256,192,100274,1,0,0:0:0:0:
256,192,100392,1,0,0:0:0:0:
256,192,100626,1,8,0:0:0:0:
256,192,100743,1,0,0:0:0:0:
256,192,100977,1,0,0:0:0:0:
256,192,101095,1,8,0:0:0:0:
256,192,101212,1,0,0:0:0:0:
256,192,101563,1,8,0:0:0:0:
256,192,101798,1,0,0:0:0:0:
256,192,101915,1,0,0:0:0:0:
256,192,102032,1,8,0:0:0:0:
256,192,102267,5,8,0:0:0:0:
256,192,102325,1,8,0:0:0:0:
256,192,102384,1,0,0:0:0:0:
256,192,102442,1,0,0:0:0:0:
256,192,102501,1,0,0:0:0:0:
256,192,102559,1,0,0:0:0:0:
256,192,102618,1,8,0:0:0:0:
256,192,102677,1,8,0:0:0:0:
256,192,102736,1,0,0:0:0:0:
256,192,102794,1,0,0:0:0:0:
256,192,102853,1,0,0:0:0:0:
256,192,102912,1,0,0:0:0:0:
256,192,102970,1,8,0:0:0:0:
256,192,103029,1,8,0:0:0:0:
256,192,103087,1,0,0:0:0:0:
256,192,103146,1,0,0:0:0:0:
256,192,103205,1,8,0:0:0:0:
256,192,103263,1,8,0:0:0:0:
256,192,103322,1,0,0:0:0:0:
256,192,103380,1,0,0:0:0:0:
256,192,103439,1,0,0:0:0:0:
256,192,103498,1,0,0:0:0:0:
256,192,103556,1,8,0:0:0:0:
256,192,103613,1,8,0:0:0:0:
256,192,103672,1,0,0:0:0:0:
256,192,103731,1,0,0:0:0:0:
256,192,103789,1,0,0:0:0:0:
256,192,103848,1,0,0:0:0:0:
256,192,103906,1,8,0:0:0:0:
256,192,103965,1,8,0:0:0:0:
256,192,104024,1,0,0:0:0:0:
256,192,104142,1,8,0:0:0:0:
256,192,104200,1,0,0:0:0:0:
256,192,104259,1,8,0:0:0:0:
256,192,104317,1,8,0:0:0:0:
256,192,104376,1,0,0:0:0:0:
256,192,104435,1,0,0:0:0:0:
256,192,104494,1,8,0:0:0:0:
256,192,104552,1,0,0:0:0:0:
256,192,104611,1,8,0:0:0:0:
256,192,104670,1,8,0:0:0:0:
256,192,104728,1,0,0:0:0:0:
256,192,104787,1,0,0:0:0:0:
256,192,104845,1,8,0:0:0:0:
256,192,104904,1,0,0:0:0:0:
256,192,104963,1,8,0:0:0:0:
256,192,105021,1,8,0:0:0:0:
256,192,105080,1,0,0:0:0:0:
256,192,105138,1,0,0:0:0:0:
256,192,105197,1,8,0:0:0:0:
256,192,105256,1,0,0:0:0:0:
256,192,105314,1,8,0:0:0:0:
256,192,105372,1,0,0:0:0:0:
256,192,105431,1,0,0:0:0:0:
256,192,105490,1,0,0:0:0:0:
256,192,105548,1,8,0:0:0:0:
256,192,105607,1,0,0:0:0:0:
256,192,105665,1,8,0:0:0:0:
256,192,105724,1,8,0:0:0:0:
256,192,105783,1,0,0:0:0:0:
256,192,105841,1,0,0:0:0:0:
256,192,105899,1,8,0:0:0:0:
256,192,106017,1,8,0:0:0:0:
256,192,106075,1,8,0:0:0:0:
256,192,106134,1,8,0:0:0:0:
256,192,106193,1,0,0:0:0:0:
256,192,106252,1,0,0:0:0:0:
256,192,106310,1,0,0:0:0:0:
256,192,106369,1,8,0:0:0:0:
256,192,106428,1,8,0:0:0:0:
256,192,106486,1,0,0:0:0:0:
256,192,106545,1,0,0:0:0:0:
256,192,106603,1,0,0:0:0:0:
256,192,106662,1,0,0:0:0:0:
256,192,106721,1,8,0:0:0:0:
256,192,106779,1,8,0:0:0:0:
256,192,106838,1,0,0:0:0:0:
256,192,106896,1,0,0:0:0:0:
256,192,106955,1,8,0:0:0:0:
256,192,107014,1,8,0:0:0:0:
256,192,107072,1,0,0:0:0:0:
256,192,107130,1,0,0:0:0:0:
256,192,107189,1,0,0:0:0:0:
256,192,107248,1,0,0:0:0:0:
256,192,107306,1,8,0:0:0:0:
256,192,107365,1,8,0:0:0:0:
256,192,107423,1,0,0:0:0:0:
256,192,107482,1,0,0:0:0:0:
256,192,107541,1,0,0:0:0:0:
256,192,107599,1,0,0:0:0:0:
256,192,107658,1,8,0:0:0:0:
256,192,107716,1,8,0:0:0:0:
256,192,107775,1,0,0:0:0:0:
256,192,107893,1,0,0:0:0:0:
256,192,107952,1,0,0:0:0:0:
256,192,108010,1,8,0:0:0:0:
256,192,108068,1,0,0:0:0:0:
256,192,108127,1,8,0:0:0:0:
256,192,108186,1,8,0:0:0:0:
256,192,108244,1,0,0:0:0:0:
256,192,108303,1,8,0:0:0:0:
256,192,108361,1,0,0:0:0:0:
256,192,108420,1,0,0:0:0:0:
256,192,108479,1,8,0:0:0:0:
256,192,108537,1,8,0:0:0:0:
256,192,108596,1,0,0:0:0:0:
256,192,108654,1,8,0:0:0:0:
256,192,108713,1,8,0:0:0:0:
256,192,108772,1,8,0:0:0:0:
256,192,108830,1,0,0:0:0:0:
256,192,108889,1,0,0:0:0:0:
256,192,108948,1,8,0:0:0:0:
256,192,109007,1,0,0:0:0:0:
256,192,109065,1,8,0:0:0:0:
256,192,109124,1,8,0:0:0:0:
256,192,109182,1,8,0:0:0:0:
256,192,109241,1,0,0:0:0:0:
256,192,109300,1,8,0:0:0:0:
256,192,109358,1,8,0:0:0:0:
256,192,109417,1,0,0:0:0:0:
256,192,109475,1,0,0:0:0:0:
256,192,109534,1,8,0:0:0:0:
256,192,109592,1,0,0:0:0:0:
256,192,109651,1,0,0:0:0:0:
256,192,110938,1,8,0:0:0:0:
256,192,110997,1,8,0:0:0:0:
256,192,111056,1,0,0:0:0:0:
256,192,111173,1,8,0:0:0:0:
256,192,111231,1,8,0:0:0:0:
256,192,111290,1,0,0:0:0:0:
256,192,111407,1,8,0:0:0:0:
256,192,111466,1,8,0:0:0:0:
256,192,111524,1,0,0:0:0:0:
256,192,111642,1,8,0:0:0:0:
256,192,111700,1,0,0:0:0:0:
256,192,111759,1,0,0:0:0:0:
256,192,111817,1,0,0:0:0:0:
256,192,111993,1,8,0:0:0:0:
256,192,112052,1,0,0:0:0:0:
256,192,112111,1,0,0:0:0:0:
256,192,112169,1,0,0:0:0:0:
256,192,112345,1,8,0:0:0:0:
256,192,112403,1,0,0:0:0:0:
256,192,112462,1,0,0:0:0:0:
256,192,112520,1,0,0:0:0:0:
