osu file format v14

[General]
AudioFilename: audio.mp3
AudioLeadIn: 0
PreviewTime: 36982
Countdown: 0
SampleSet: Normal
StackLeniency: 0.7
Mode: 1
LetterboxInBreaks: 0
WidescreenStoryboard: 0

[Editor]
DistanceSpacing: 0.8
BeatDivisor: 2
GridSize: 32
TimelineZoom: 1

[Metadata]
Title:++
TitleUnicode:++
Artist:Cardboard Box
ArtistUnicode:Cardboard Box
Creator:Vulkin
Version:Kantan
Source:
Tags:chiptune Dainesl Grimbow koseh -Kazu- Myckoll
BeatmapID:1213130
BeatmapSetID:572069

[Difficulty]
HPDrainRate:7
CircleSize:5
OverallDifficulty:3
ApproachRate:5
SliderMultiplier:1.1
SliderTickRate:1

[Events]
//Background and Video events
0,0,"purazu.jpg",0,0
//Break Periods
//Storyboard Layer 0 (Background)
//Storyboard Layer 1 (Fail)
//Storyboard Layer 2 (Pass)
//Storyboard Layer 3 (Foreground)
//Storyboard Sound Samples

[TimingPoints]
982,250,4,1,0,80,1,0
28982,-100,4,1,0,80,0,1
36982,-100,4,1,0,80,0,0
46982,248.96265560166,4,1,0,80,1,0
46982,-100.416666666667,4,1,0,80,0,0
48973,247.933884297521,4,1,0,80,1,0
48973,-100.833333333333,4,1,0,80,0,0
50956,246.913580246914,4,1,0,80,1,0
50956,-101.25,4,1,0,80,0,0
52931,245.901639344262,4,1,0,80,1,0
52931,-101.666666666667,4,1,0,80,0,0
54898,244.897959183673,4,1,0,80,1,0
54898,-102.083333333333,4,1,0,80,0,0
56857,243.90243902439,4,1,0,80,1,0
56857,-102.5,4,1,0,80,0,0
58808,242.914979757085,4,1,0,80,1,0
58808,-102.916666666667,4,1,0,80,0,0
60751,241.935483870968,4,1,0,80,1,1
60751,-103.333333333333,4,1,0,80,0,1
62686,240.963855421687,4,1,0,80,1,1
62686,-104.583333333333,4,1,0,80,0,1
64613,240,4,1,0,80,1,1
64613,-104.166666666667,4,1,0,80,0,1
66533,239.043824701195,4,1,0,80,1,1
66533,-104.583333333333,4,1,0,80,0,1
68445,238.095238095238,4,1,0,80,1,1
68445,-105,4,1,0,80,0,1
70349,237.154150197628,4,1,0,80,1,1
70349,-105.416666666667,4,1,0,80,0,1
72246,236.220472440945,4,1,0,80,1,1
72246,-105.833333333333,4,1,0,80,0,1
74135,235.294117647059,4,1,0,80,1,1
74135,-106.25,4,1,0,80,0,1
76017,234.375,4,1,0,80,1,1
76017,-106.666666666667,4,1,0,80,0,1
77892,-106.666666666667,4,1,0,80,0,0
102267,-106.666666666667,4,1,0,80,0,1
109767,-106.666666666667,4,1,0,80,0,0

[HitObjects]
256,192,982,5,8,0:0:0:0:
256,192,2982,1,8,0:0:0:0:
256,192,4482,1,0,0:0:0:0:
256,192,4982,1,8,0:0:0:0:
256,192,5732,1,8,0:0:0:0:
256,192,6482,1,0,0:0:0:0:
256,192,6982,1,8,0:0:0:0:
256,192,8482,1,0,0:0:0:0:
256,192,8982,1,8,0:0:0:0:
256,192,9732,1,8,0:0:0:0:
256,192,10482,1,0,0:0:0:0:
256,192,10982,1,8,0:0:0:0:
256,192,11732,1,8,0:0:0:0:
256,192,12482,1,0,0:0:0:0:
256,192,12982,1,8,0:0:0:0:
256,192,13732,1,8,0:0:0:0:
256,192,14482,1,0,0:0:0:0:
256,192,14982,1,8,0:0:0:0:
256,192,15982,1,0,0:0:0:0:
256,192,16482,1,0,0:0:0:0:
256,192,16982,1,8,0:0:0:0:
256,192,17732,1,8,0:0:0:0:
256,192,18482,1,0,0:0:0:0:
256,192,18982,1,8,0:0:0:0:
256,192,19732,1,8,0:0:0:0:
256,192,20482,1,0,0:0:0:0:
256,192,20982,1,8,0:0:0:0:
256,192,21732,1,0,0:0:0:0:
256,192,22982,1,0,0:0:0:0:
256,192,23732,1,8,0:0:0:0:
256,192,24982,1,8,0:0:0:0:
256,192,25732,1,0,0:0:0:0:
256,192,26482,1,0,0:0:0:0:
256,192,26982,1,8,0:0:0:0:
256,192,27857,1,8,0:0:0:0:
256,192,28482,1,0,0:0:0:0:
256,192,28982,1,8,0:0:0:0:
256,192,29982,1,8,0:0:0:0:
256,192,30982,1,8,0:0:0:0:
256,192,31982,1,8,0:0:0:0:
256,192,32482,1,0,0:0:0:0:
256,192,32982,1,8,0:0:0:0:
256,192,33982,1,8,0:0:0:0:
256,192,34982,1,0,0:0:0:0:
256,192,35482,1,0,0:0:0:0:
256,192,35982,1,8,0:0:0:0:
256,192,36482,1,0,0:0:0:0:
256,192,36982,1,8,0:0:0:0:
256,192,38232,1,8,0:0:0:0:
256,192,38482,1,8,0:0:0:0:
256,192,38982,1,8,0:0:0:0:
256,192,39357,1,0,0:0:0:0:
256,192,39732,1,0,0:0:0:0:
256,192,40482,1,0,0:0:0:0:
256,192,40982,1,8,0:0:0:0:
256,192,41357,1,0,0:0:0:0:
256,192,41732,1,0,0:0:0:0:
256,192,42482,1,0,0:0:0:0:
256,192,42982,1,8,0:0:0:0:
256,192,43732,1,8,0:0:0:0:
256,192,44482,1,8,0:0:0:0:
256,192,44982,1,8,0:0:0:0:
256,192,46482,1,0,0:0:0:0:
256,192,46982,1,8,0:0:0:0:
256,192,48475,1,0,0:0:0:0:
256,192,48973,1,8,0:0:0:0:
256,192,50460,1,0,0:0:0:0:
256,192,50956,1,8,0:0:0:0:
256,192,52437,1,8,0:0:0:0:
256,192,52931,1,0,0:0:0:0:
256,192,53668,1,8,0:0:0:0:
256,192,54898,1,0,0:0:0:0:
256,192,55632,1,8,0:0:0:0:
256,192,56857,1,8,0:0:0:0:
256,192,57588,1,8,0:0:0:0:
256,192,58808,1,8,0:0:0:0:
256,192,59536,1,0,0:0:0:0:
256,192,60265,1,0,0:0:0:0:
256,192,60751,1,8,0:0:0:0:
256,192,61476,1,8,0:0:0:0:
256,192,62686,1,8,0:0:0:0:
256,192,63408,1,8,0:0:0:0:
256,192,64613,1,0,0:0:0:0:
256,192,65333,1,8,0:0:0:0:
256,192,66533,1,8,0:0:0:0:
256,192,67250,1,0,0:0:0:0:
256,192,67967,1,0,0:0:0:0:
256,192,68445,1,8,0:0:0:0:
256,192,69159,1,0,0:0:0:0:
256,192,69873,1,0,0:0:0:0:
256,192,70349,1,8,0:0:0:0:
256,192,71060,1,0,0:0:0:0:
256,192,71771,1,0,0:0:0:0:
256,192,72246,12,0,73190,0:0:0:0:
256,192,74135,12,0,75076,0:0:0:0:
256,192,76017,12,0,78829,0:0:0:0:
256,192,79767,5,8,0:0:0:0:
256,192,80470,1,8,0:0:0:0:
256,192,81173,1,0,0:0:0:0:
256,192,81642,1,8,0:0:0:0:
256,192,83517,1,0,0:0:0:0:
256,192,84220,1,8,0:0:0:0:
256,192,84923,1,0,0:0:0:0:
256,192,85392,1,8,0:0:0:0:
256,192,86095,1,8,0:0:0:0:
256,192,87267,1,8,0:0:0:0:
256,192,87970,1,8,0:0:0:0:
256,192,88673,1,0,0:0:0:0:
256,192,89142,1,8,0:0:0:0:
256,192,91017,1,0,0:0:0:0:
256,192,91720,1,8,0:0:0:0:
256,192,92423,1,0,0:0:0:0:
256,192,92892,1,8,0:0:0:0:
256,192,93595,1,8,0:0:0:0:
256,192,94298,1,8,0:0:0:0:
256,192,94767,1,0,0:0:0:0:
256,192,95470,1,8,0:0:0:0:
256,192,96642,1,0,0:0:0:0:
256,192,97345,1,8,0:0:0:0:
256,192,98517,1,0,0:0:0:0:
256,192,99220,1,8,0:0:0:0:
256,192,100392,1,8,0:0:0:0:
256,192,101329,1,8,0:0:0:0:
256,192,102267,1,0,0:0:0:0:
256,192,102735,1,0,0:0:0:0:
256,192,103204,1,8,0:0:0:0:
256,192,104142,1,8,0:0:0:0:
256,192,105079,1,0,0:0:0:0:
256,192,106017,5,0,0:0:0:0:
256,192,106485,1,0,0:0:0:0:
256,192,106954,1,8,0:0:0:0:
256,192,107892,1,0,0:0:0:0:
256,192,108829,1,8,0:0:0:0:
256,192,109298,1,0,0:0:0:0:
256,192,109767,1,8,0:0:0:0:
32,32,110938,2,4,L|128:32,6,65.625001564622
256,192,112345,1,4,0:0:0:0:
