osu file format v14

[General]
AudioFilename: audio.mp3
AudioLeadIn: 0
PreviewTime: 44405
Countdown: 0
SampleSet: Normal
StackLeniency: 0.7
Mode: 0
LetterboxInBreaks: 1
WidescreenStoryboard: 1

[Editor]
DistanceSpacing: 1.2
BeatDivisor: 8
GridSize: 16
TimelineZoom: 1

[Metadata]
Title:Lone Digger
TitleUnicode:Lone Digger
Artist:Caravan Palace
ArtistUnicode:Caravan Palace
Creator:poiuyos
Version:READY SET GO
Source:yes
Tags:
BeatmapID:1130631
BeatmapSetID:533691

[Difficulty]
HPDrainRate:7.5
CircleSize:3.8
OverallDifficulty:7
ApproachRate:8.4
SliderMultiplier:1.3
SliderTickRate:2

[Events]
//Background and Video events
0,0,"bg.png",0,0
//Break Periods
2,19657,24572
2,66108,71023
2,112561,118445
//Storyboard Layer 0 (Background)
//Storyboard Layer 1 (Fail)
//Storyboard Layer 2 (Pass)
//Storyboard Layer 3 (Foreground)
//Storyboard Sound Samples

[TimingPoints]
103,483.870967741935,4,1,0,30,1,0
3611,-133.333333333333,4,1,0,30,0,0
3973,-66.6666666666667,4,1,0,30,0,0
48490,-133.333333333333,4,1,0,30,0,0
50425,-50,4,1,0,30,0,0
71957,-66.6666666666667,4,1,0,30,0,0
73651,-133.333333333333,4,1,0,30,0,0
81393,-66.6666666666667,4,1,0,30,0,0
94941,-133.333333333333,4,1,0,30,0,0
96877,-50,4,1,0,30,0,0
119135,-133.333333333333,4,1,0,30,0,0
120102,-66.6666666666667,4,1,0,30,0,0
143328,-50,4,1,0,30,0,0

[HitObjects]
256,192,2038,12,0,3490,0:0:0:0:
330,118,3611,6,0,L|260:110,1,48.750001859665
233,105,3973,1,0,0:0:0:0:
136,92,4215,1,0,0:0:0:0:
26,188,4457,2,0,P|54:217|122:237,1,97.50000371933
227,152,4941,1,0,0:0:0:0:
266,123,5062,1,0,0:0:0:0:
347,69,5304,2,0,L|458:83,1,97.50000371933
495,28,5667,5,0,0:0:0:0:
429,243,5909,1,0,0:0:0:0:
490,135,6151,1,0,0:0:0:0:
396,105,6393,2,0,P|333:137|301:187,1,97.50000371933
256,234,6877,1,0,0:0:0:0:
229,275,6998,1,0,0:0:0:0:
173,355,7240,2,0,L|85:255,1,97.50000371933
34,276,7602,5,0,0:0:0:0:
237,211,7844,1,0,0:0:0:0:
77,212,8086,1,0,0:0:0:0:
127,128,8328,2,0,P|155:99|223:79,1,97.50000371933
305,85,8812,1,0,0:0:0:0:
353,92,8933,1,0,0:0:0:0:
450,100,9175,2,0,L|391:207,1,97.50000371933
375,225,9538,1,0,0:0:0:0:
312,299,9780,6,0,B|260:310|260:310|193:269,1,97.50000371933
137,208,10264,1,0,0:0:0:0:
270,223,10506,1,0,0:0:0:0:
201,110,10748,1,0,0:0:0:0:
236,281,10990,1,0,0:0:0:0:
362,98,11232,2,0,L|293:158,1,48.750001859665
181,238,11473,1,0,0:0:0:0:
62,57,11715,1,0,0:0:0:0:
161,118,11957,6,0,L|273:133,1,97.50000371933
354,144,12441,1,0,0:0:0:0:
406,226,12683,2,0,B|419:246|419:246|401:263,1,48.750001859665
330,321,13046,2,0,L|229:309,1,97.50000371933
169,346,13409,5,0,0:0:0:0:
330,235,13651,1,0,0:0:0:0:
171,269,13893,1,0,0:0:0:0:
112,190,14135,2,0,P|165:182|205:161,1,97.50000371933
276,96,14619,2,0,B|296:81|296:81|314:96,1,48.750001859665
396,145,14982,2,0,L|402:271,1,97.50000371933
462,280,15344,5,0,0:0:0:0:
249,310,15586,1,0,0:0:0:0:
362,304,15828,1,0,0:0:0:0:
289,239,16070,2,0,P|245:175|243:128,1,97.50000371933
240,59,16554,2,0,B|185:76|185:76|144:129,2,97.50000371933
335,37,17280,1,0,0:0:0:0:
349,276,17522,6,0,P|291:264|277:250,1,65.0000024795533,0|0,0:3|0:3,0:3:0:0:
161,228,17764,2,0,P|208:217|233:190,1,65.0000024795533
291,167,18006,2,0,P|256:135|245:102,1,65.0000024795533
190,83,18248,2,0,P|218:34|217:-3,1,65.0000024795533
341,106,18611,2,0,B|353:143|409:145|409:145|401:196|421:235|421:235|496:234|503:117|461:108,1,341.250013017655
196,148,25264,5,0,0:0:0:0:
141,265,25506,2,0,P|171:282|218:266,1,48.750001859665
232,226,25748,2,0,P|266:210|306:234,1,48.750001859665
326,264,25990,2,0,P|363:262|387:222,1,48.750001859665
404,190,26232,1,0,0:0:0:0:
191,215,26473,1,0,0:0:0:0:
306,142,26715,1,0,0:0:0:0:
186,254,26957,1,0,0:0:0:0:
275,63,27199,6,0,P|326:57|367:78,1,97.50000371933
296,206,27683,1,0,0:0:0:0:
198,207,27925,1,0,0:0:0:0:
257,130,28167,2,0,P|281:125|323:129,2,48.750001859665
168,246,28651,1,0,0:0:0:0:
177,99,28893,1,0,0:0:0:0:
263,217,29135,5,0,0:0:0:0:
263,217,29256,1,0,0:0:0:0:
263,217,29377,1,0,0:0:0:0:
336,153,29619,1,0,0:0:0:0:
336,153,29740,1,0,0:0:0:0:
336,153,29861,1,0,0:0:0:0:
405,221,30102,2,0,P|422:230|451:234,2,48.750001859665
408,124,30586,2,0,P|425:115|454:111,2,48.750001859665
311,294,31070,6,0,P|240:313|199:305,1,97.50000371933
104,215,31554,1,0,0:0:0:0:
200,229,31796,1,0,0:0:0:0:
222,134,32038,2,0,P|220:92|209:68,2,48.750001859665
180,275,32522,1,0,0:0:0:0:
180,275,32764,1,0,0:0:0:0:
393,168,34941,6,0,P|355:238|319:256,1,97.50000371933
195,253,35425,1,0,0:0:0:0:
275,198,35667,1,0,0:0:0:0:
128,206,35909,2,0,P|71:150|63:110,1,97.50000371933
110,47,36393,1,0,0:0:0:0:
164,128,36635,1,0,0:0:0:0:
236,62,36877,6,0,P|258:45|287:37,2,48.750001859665
132,166,37361,2,0,P|110:183|81:191,2,48.750001859665
164,129,37723,1,0,0:0:0:0:
193,90,37844,2,0,P|215:73|244:65,2,48.750001859665
163,183,38328,1,0,0:0:0:0:
252,144,38570,1,0,0:0:0:0:
113,280,38812,6,0,B|129:264|129:264|162:281|212:281,1,97.50000371933
341,238,39296,1,0,0:0:0:0:
252,198,39538,1,0,0:0:0:0:
333,326,39780,2,0,P|385:315|420:286,1,97.50000371933
466,202,40264,2,0,P|466:148|450:105,1,97.50000371933
261,168,40748,5,8,0:0:0:0:
397,29,40990,2,0,P|359:56|291:63,1,97.50000371933
213,50,41473,1,0,0:0:0:0:
309,65,41715,2,0,B|300:125|247:146|247:146|274:214|274:214|332:188|364:131,1,292.50001115799
417,65,42683,6,0,P|454:136|442:197,1,97.50000371933
391,284,43167,1,0,0:0:0:0:
356,141,43409,1,0,0:0:0:0:
264,248,43651,1,0,0:0:0:0:
237,129,43893,1,0,0:0:0:0:
174,205,44135,1,0,0:0:0:0:
158,115,44377,1,0,0:0:0:0:
193,295,44619,6,0,P|257:335|307:326,1,97.50000371933
366,298,45102,1,0,0:0:0:0:
285,253,45344,1,0,0:0:0:0:
378,214,45586,1,0,0:0:0:0:
269,164,45828,1,0,0:0:0:0:
383,119,46070,1,0,0:0:0:0:
254,63,46312,1,0,0:0:0:0:
397,36,46554,6,0,P|417:41|447:59,2,48.750001859665
299,31,47038,1,0,0:0:0:0:
209,70,47280,1,0,0:0:0:0:
146,144,47522,2,0,P|134:165|126:192,2,48.750001859665
268,52,48006,1,0,0:0:0:0:
207,185,48248,1,0,0:0:0:0:
233,291,48490,6,0,P|302:307|270:245,1,170.625006508827
204,221,49457,6,0,P|181:155|247:175,1,170.625006508827
275,245,50425,6,0,P|318:244|339:224,1,65
399,80,50667,2,0,P|376:43|348:35,1,65
194,47,50909,2,0,P|173:84|180:112,1,65
252,266,51151,2,0,P|225:288|173:286,1,65
49,219,51393,1,0,0:0:0:0:
104,322,51635,1,0,0:0:0:0:
82,134,51877,6,0,P|41:130|3:142,2,65
138,167,52240,1,0,0:0:0:0:
192,201,52361,2,0,P|223:208|267:191,1,65
313,171,52602,1,0,0:0:0:0:
204,99,52844,2,0,B|164:62|164:62|273:71,1,130
461,204,53328,1,0,0:0:0:0:
368,32,53570,1,0,0:0:0:0:
384,291,53812,2,0,P|341:322|223:303,1,130
298,219,54296,5,8,0:0:0:0:
469,280,54538,1,0,0:0:0:0:
298,219,54780,2,0,P|335:212|389:167,1,65,0|0,0:3|0:3,0:3:0:0:
469,280,55022,2,0,P|444:249|432:180,1,65
425,115,55264,2,0,P|386:74|323:82,1,65
281,59,55506,2,0,P|227:73|203:131,1,65
192,214,55748,2,0,P|230:254|293:246,1,65
336,270,55990,2,0,P|389:255|413:197,1,65
469,190,56232,6,0,L|469:265,1,65
469,320,56473,1,0,0:0:0:0:
418,132,56715,1,0,0:0:0:0:
337,302,56957,1,0,0:0:0:0:
374,68,57199,1,0,0:0:0:0:
168,278,57441,1,0,0:0:0:0:
322,22,57683,1,0,0:0:0:0:
19,181,57925,1,0,0:0:0:0:
185,53,58167,6,0,P|245:56|268:99,1,65
312,213,58409,2,0,P|279:263|230:262,1,65
107,256,58651,2,0,P|79:202|105:160,1,65
246,56,58893,2,0,P|218:75|163:75,1,65
123,65,59135,5,0,0:0:0:0:
299,147,59377,1,0,0:0:0:0:
95,153,59619,2,0,P|158:178|175:223,1,65
258,253,59861,2,0,P|190:251|157:286,1,65
26,317,60102,5,0,0:0:0:0:
28,186,60344,1,0,0:0:0:0:
185,301,60586,6,0,L|185:219,1,65
186,137,60828,1,0,0:0:0:0:
340,256,61070,5,0,0:0:0:0:
340,256,61312,1,0,0:0:0:0:
340,86,61554,1,0,0:0:0:0:
419,189,61796,1,0,0:0:0:0:
285,305,62038,6,0,P|222:306|185:262,1,65
146,244,62280,2,0,P|113:191|133:136,1,65
77,64,62522,2,0,P|139:62|176:106,1,65
216,125,62764,2,0,P|248:177|228:232,1,65
262,308,63006,6,0,P|304:294|327:238,1,65
400,146,63248,2,0,P|341:142|341:200,1,130
460,256,63732,1,0,0:0:0:0:
290,96,63973,2,0,P|237:93|193:113,1,65
160,158,64215,2,0,P|157:211|177:254,1,65
222,288,64457,2,0,P|275:291|319:270,1,65
352,226,64699,2,0,P|355:173|334:129,1,65
235,103,65062,2,0,B|191:74|132:113|132:113|186:164|136:223|136:223|58:179|3:97|102:30,1,455
256,112,71715,5,0,0:0:0:0:
179,171,71957,2,0,P|168:229|182:251,1,48.750001859665
238,217,72199,2,0,P|249:275|235:297,1,48.750001859665
185,289,72441,2,0,P|226:330|253:331,1,48.750001859665
288,326,72683,1,0,0:0:0:0:
137,202,72925,1,0,0:0:0:0:
222,155,73167,1,0,0:0:0:0:
138,104,73409,1,0,0:0:0:0:
231,275,73651,6,0,P|290:299|350:299,1,97.50000371933
413,340,74377,1,0,0:0:0:0:
445,247,74619,2,0,P|435:184|404:133,1,97.50000371933
355,82,75344,1,0,0:0:0:0:
342,178,75586,2,0,P|284:204|224:207,1,97.50000371933
247,111,76312,1,0,0:0:0:0:
161,158,76554,2,0,P|139:98|141:38,1,97.50000371933
233,86,77280,1,0,0:0:0:0:
296,160,77522,6,0,L|335:212,1,48.750001859665
287,289,78006,2,0,L|248:237,1,48.750001859665
160,263,78490,2,0,L|199:315,1,48.750001859665
92,314,78973,1,0,0:0:0:0:
33,235,79215,1,0,0:0:0:0:
256,192,79457,12,0,80909,0:0:0:0:
383,83,81393,6,0,P|303:93|267:124,1,97.50000371933
199,216,81877,1,0,0:0:0:0:
292,188,82119,1,0,0:0:0:0:
168,109,82361,2,0,P|121:127|84:184,1,97.50000371933
44,269,82844,1,0,0:0:0:0:
19,174,83086,1,0,0:0:0:0:
122,278,83328,6,0,P|203:303|231:294,1,97.50000371933
371,224,83812,1,0,0:0:0:0:
305,295,84054,1,0,0:0:0:0:
266,103,84296,1,0,0:0:0:0:
356,140,84538,1,0,0:0:0:0:
191,232,84780,1,0,0:0:0:0:
195,134,85022,1,0,0:0:0:0:
287,305,85264,6,0,P|213:334|157:317,1,97.50000371933
201,185,85748,1,0,0:0:0:0:
332,250,85990,1,0,0:0:0:0:
349,204,86111,1,0,0:0:0:0:
352,155,86232,2,0,P|324:96|267:61,1,97.50000371933,0|0,0:3|0:3,0:3:0:0:
254,161,86715,1,0,0:0:0:0:
221,68,86957,1,0,0:0:0:0:
99,185,87199,5,0,0:0:0:0:
155,264,87441,2,0,B|210:284|203:228|256:253,1,97.50000371933
338,281,87925,1,0,0:0:0:0:
316,185,88167,6,0,B|306:137|350:75|350:75|316:66|229:128|229:128|229:105|229:105|162:152|100:144,1,390.00001487732
131,46,89377,5,0,0:0:0:0:
52,169,89619,1,0,0:0:0:0:
123,235,89861,1,0,0:0:0:0:
203,289,90102,2,0,P|258:262|290:221,1,97.50000371933
243,63,90586,2,0,P|261:124|308:151,1,97.50000371933
383,155,91070,5,0,0:0:0:0:
338,68,91312,1,0,0:0:0:0:
303,179,91554,1,0,0:0:0:0:
232,62,91796,1,0,0:0:0:0:
198,214,92038,1,0,0:0:0:0:
110,61,92280,1,0,0:0:0:0:
115,255,92522,2,0,P|160:302|220:306,1,97.50000371933
332,272,93006,5,0,0:0:0:0:
196,216,93248,2,0,P|256:205|286:177,1,97.50000371933
321,92,93732,1,0,0:0:0:0:
129,126,94215,2,0,P|97:142|85:151,2,48.750001859665
321,92,94699,1,0,0:0:0:0:
374,184,94941,6,0,B|389:229|341:253|341:253|293:229|309:181,1,170.625006508827
341,122,95909,6,0,B|356:76|308:52|308:52|260:76|275:121,1,170.625006508827
308,184,96877,6,0,P|289:246|245:265,1,65
103,305,97119,2,0,P|58:257|64:209,1,65
101,68,97361,2,0,P|164:53|202:82,1,65
139,213,97602,2,0,P|209:251|231:245,1,65
320,251,97844,1,0,0:0:0:0:
220,166,98086,1,0,0:0:0:0:
366,104,98328,6,0,P|429:139|433:168,2,65
300,106,98691,1,0,0:0:0:0:
244,140,98812,2,0,P|212:206|220:227,1,65
212,258,99054,1,0,0:0:0:0:
113,106,99296,6,0,B|95:62|95:62|191:96,1,130
420,169,99780,1,0,0:0:0:0:
294,76,100022,1,0,0:0:0:0:
403,311,100264,2,0,P|354:350|283:343,1,130
93,216,100748,5,0,0:0:0:0:
281,266,100990,1,0,0:0:0:0:
93,216,101232,2,0,P|154:188|175:145,1,65
281,266,101473,2,0,P|245:208|251:161,1,65
219,31,101715,6,0,P|270:67|282:114,1,65
300,161,101957,2,0,P|283:221|243:248,1,65
127,273,102199,2,0,P|76:236|64:189,1,65
46,143,102441,2,0,P|62:82|102:55,1,65
188,119,102683,6,0,L|228:174,1,65
285,249,102925,1,0,0:0:0:0:
162,203,103167,1,0,0:0:0:0:
316,181,103409,1,0,0:0:0:0:
141,235,103651,1,0,0:0:0:0:
321,109,103893,1,0,0:0:0:0:
140,273,104135,1,0,0:0:0:0:
310,32,104377,1,0,0:0:0:0:
63,250,104619,6,0,P|71:313|93:339,1,65
266,335,104861,2,0,P|316:296|328:264,1,65
252,112,105102,2,0,P|193:87|159:93,1,65
63,250,105344,2,0,P|56:218|61:186,1,65
114,66,105586,5,0,0:0:0:0:
114,66,105828,1,0,0:0:0:0:
216,276,106070,2,0,L|216:189,1,65
217,112,106312,1,0,0:0:0:0:
378,221,106554,5,0,0:0:0:0:
217,112,106796,1,0,0:0:0:0:
375,54,107038,6,0,L|274:91,1,65
217,112,107280,1,0,0:0:0:0:
106,43,107522,5,0,0:0:0:0:
106,43,107764,1,0,0:0:0:0:
217,112,108006,1,0,0:0:0:0:
156,276,108248,2,0,P|154:249|213:226,1,97.5
245,247,108490,2,0,P|302:232|333:190,1,65
380,165,108732,2,0,P|400:109|384:59,1,65
271,91,108973,2,0,P|213:105|182:147,1,65
136,173,109215,2,0,P|115:228|131:278,1,65
173,350,109457,6,0,P|178:278|210:252,1,65
267,259,109699,2,0,P|290:262|283:162,1,130
113,80,110183,1,0,0:0:0:0:
243,80,110425,6,8,L|201:167,1,65
168,225,110667,1,0,0:0:0:0:
298,138,110909,1,0,0:0:0:0:
164,220,111151,1,0,0:0:0:0:
363,178,111393,1,0,0:0:0:0:
160,216,111635,1,0,0:0:0:0:
413,233,111877,1,0,0:0:0:0:
156,208,112119,1,0,0:0:0:0:
441,303,112361,1,0,0:0:0:0:
291,53,119135,6,0,P|399:94|455:101,1,170.625006508827
454,101,120102,2,0,P|398:152|390:197,1,97.50000371933
246,189,121070,1,0,0:0:0:0:
91,211,122038,1,0,0:0:0:0:
205,105,123006,1,0,0:0:0:0:
244,194,123490,1,0,0:0:0:0:
401,56,123973,6,0,L|361:164,1,97.50000371933
335,219,124457,1,0,0:0:0:0:
306,291,124699,1,0,0:0:0:0:
248,99,124941,2,0,L|208:207,1,97.50000371933
182,262,125425,1,0,0:0:0:0:
153,334,125667,1,0,0:0:0:0:
114,142,125909,6,0,P|113:203|133:228,1,65.0000024795533
221,313,126151,2,0,P|257:264|256:233,1,65.0000024795533
304,125,126393,2,0,P|356:155|366:182,1,65.0000024795533
390,290,126635,2,0,P|331:272|317:251,1,65.0000024795533
234,194,126877,2,0,P|293:198|311:219,1,65.0000024795533,0|0,0:3|0:0,0:0:0:0:
258,314,127119,2,0,P|197:309|176:288,1,65.0000024795533
369,79,127844,5,0,0:0:0:0:
281,253,128086,1,0,0:0:0:0:
234,338,128328,2,0,P|170:332|139:278,1,97.50000371933
144,114,128812,1,0,0:0:0:0:
230,192,129054,2,0,B|249:209|249:209|258:127,1,97.50000371933
269,40,129538,1,0,0:0:0:0:
103,132,129780,5,0,0:0:0:0:
136,167,129901,1,0,0:0:0:0:
173,198,130022,1,0,0:0:0:0:
209,229,130143,1,0,0:0:0:0:
250,254,130264,2,0,P|309:242|359:205,1,97.50000371933
410,93,130748,1,0,0:0:0:0:
276,140,130990,2,0,P|249:129|209:77,2,48.750001859665
373,130,131473,1,0,0:0:0:0:
209,236,131715,5,0,0:0:0:0:
121,192,131957,2,0,P|158:153|245:141,1,97.50000371933
392,147,132441,1,0,0:0:0:0:
220,251,132683,1,0,0:0:0:0:
92,201,132925,2,0,P|177:192|197:166,1,97.50000371933
236,106,133409,1,0,0:0:0:0:
119,116,133651,6,0,B|105:207|105:207|176:149,1,146.250005578995
200,124,134135,1,0,0:0:0:0:
240,233,134377,1,0,0:0:0:0:
366,111,134619,1,0,0:0:0:0:
311,246,134861,1,0,0:0:0:0:
178,104,135102,1,0,0:0:0:0:
224,242,135344,1,0,0:0:0:0:
374,89,135586,1,0,0:0:0:0:
297,289,135828,5,8,0:0:0:0:
203,259,136070,2,0,P|159:210|174:150,1,97.50000371933
329,136,136554,1,0,0:0:0:0:
155,109,136796,2,0,L|77:96,2,48.750001859665
251,125,137280,1,0,0:0:0:0:
424,149,137522,5,0,0:0:0:0:
394,188,137643,1,0,0:0:0:0:
357,219,137764,1,0,0:0:0:0:
310,232,137885,1,0,0:0:0:0:
261,232,138006,2,0,P|180:242|135:226,1,97.50000371933
202,94,138490,1,0,0:0:0:0:
57,117,138732,2,0,P|69:168|118:212,1,97.50000371933
187,241,139215,1,0,0:0:0:0:
188,94,139457,5,0,0:0:0:0:
263,273,139699,2,0,P|327:288|365:283,1,97.50000371933
467,241,140183,1,0,0:0:0:0:
304,174,140425,1,0,0:0:0:0:
227,234,140667,2,0,B|190:261|190:261|197:165,1,97.50000371933
196,111,141151,1,0,0:0:0:0:
370,94,141393,2,0,L|318:142,1,48.750001859665
271,189,141635,1,0,0:0:0:0:
256,92,141877,1,0,0:0:0:0:
342,197,142119,1,0,0:0:0:0:
175,142,142361,1,0,0:0:0:0:
328,121,142602,1,0,0:0:0:0:
139,259,142844,1,0,0:0:0:0:
248,97,143086,1,0,0:0:0:0:
265,318,143328,6,0,P|233:316|207:299,1,65
398,125,143570,2,0,P|414:153|412:186,1,65
162,116,143812,2,0,P|179:89|207:75,1,65
206,298,144054,2,0,P|256:262|269:218,1,65
357,107,144296,5,0,0:0:0:0:
335,283,144538,1,0,0:0:0:0:
438,86,144780,2,0,P|432:61|416:40,1,43.3333333333333
424,207,145022,2,0,P|435:185|436:161,1,48.750001859665
288,274,145264,6,0,P|223:303|169:279,1,130
98,143,145748,2,0,B|80:67|80:67|156:92,1,130
391,187,146232,1,0,0:0:0:0:
235,50,146473,1,0,0:0:0:0:
253,334,146715,1,0,0:0:0:0:
349,180,146957,2,0,P|332:160|365:106,1,97.5
404,102,147199,5,0,0:0:0:0:
381,308,147441,1,0,0:0:0:0:
404,102,147683,2,0,P|369:140|343:147,1,65
381,308,147925,2,0,P|353:264|332:255,1,65
257,135,148167,2,0,P|280:159|290:189,1,65
127,91,148409,2,0,P|158:86|189:95,1,65
81,264,148651,2,0,P|58:240|48:210,1,65
211,308,148893,2,0,P|179:312|148:303,1,65
132,202,149135,6,0,B|181:236|216:216|216:216|232:177|189:127,1,173.333333333333
73,100,149619,1,0,0:0:0:0:
71,230,149861,1,0,0:0:0:0:
193,96,150102,1,0,0:0:0:0:
192,288,150344,1,0,0:0:0:0:
320,96,150586,1,0,0:0:0:0:
320,336,150828,1,0,0:0:0:0:
445,137,151070,6,0,P|430:108|402:92,1,65
311,333,151312,2,0,P|343:335|371:319,1,65
199,125,151554,2,0,P|181:151|182:184,1,65
311,333,151796,2,0,P|273:278|289:246,1,65
279,187,152038,5,0,0:0:0:0:
182,274,152280,1,0,0:0:0:0:
218,88,152522,2,0,P|197:112|189:143,1,65
334,158,152764,2,0,P|331:125|315:98,1,65
106,65,153006,6,0,B|75:62|75:62|102:189,1,130
265,147,153490,2,0,L|248:239,1,65
234,307,153732,1,0,0:0:0:0:
158,170,153973,1,0,0:0:0:0:
158,170,154215,1,0,0:0:0:0:
234,307,154457,1,0,0:0:0:0:
366,242,154699,2,0,P|343:282|298:274,1,97.5
284,237,154941,6,0,P|292:205|284:175,1,65
158,312,155183,2,0,P|190:320|221:312,1,65
87,181,155425,2,0,P|79:213|88:244,1,65
207,101,155667,2,0,P|175:93|145:102,1,65
301,303,155909,2,0,P|328:286|346:259,1,65
246,176,156151,2,0,P|263:149|291:132,1,65
398,210,156393,2,0,B|440:174|452:130|452:130|401:129|384:95|384:95|403:62,1,195
256,192,156877,12,0,158812,0:0:0:0:
