osu file format v14

[General]
AudioFilename: Lone Digger.mp3
AudioLeadIn: 0
PreviewTime: 65955
Countdown: 0
SampleSet: Normal
StackLeniency: 0.7
Mode: 0
LetterboxInBreaks: 0
WidescreenStoryboard: 0

[Editor]
Bookmarks: 97407,136116,197810
DistanceSpacing: 0.71
BeatDivisor: 4
GridSize: 8
TimelineZoom: 3.050002

[Metadata]
Title:Lone Digger
TitleUnicode:Lone Digger
Artist:Caravan Palace
ArtistUnicode:Caravan Palace
Creator:Sheepcraft
Version:Funky
Source:
Tags:caravan palace lone digger electro swing
BeatmapID:824970
BeatmapSetID:376860

[Difficulty]
HPDrainRate:5
CircleSize:3.8
OverallDifficulty:8.3
ApproachRate:9.8
SliderMultiplier:2.4
SliderTickRate:2

[Events]
//Background and Video events
0,0,"gramophone-1080.png",0,0
//Break Periods
2,35671,50476
2,97606,104670
2,152042,158379
2,160509,165637
//Storyboard Layer 0 (Background)
//Storyboard Layer 1 (Fail)
//Storyboard Layer 2 (Pass)
//Storyboard Layer 3 (Foreground)
//Storyboard Sound Samples

[TimingPoints]
633,483.870967741935,4,1,0,80,1,0
19624,-142.857142857143,4,1,0,80,0,0
20471,-83.3333333333333,4,1,0,80,0,0
27608,-66.6666666666667,4,1,0,80,0,0
27708,-83.3333333333333,4,1,0,80,0,0
33536,-100,4,1,0,80,0,0
35108,-76.9230769230769,4,1,0,80,0,0
50713,-100,4,1,0,80,0,0
64503,-200,4,1,0,80,0,0
65411,-200,4,1,0,5,0,0
65471,-200,4,1,0,80,0,0
65834,-200,4,1,0,60,0,0
65955,-200,4,1,0,80,0,0
66439,-76.9230769230769,4,1,0,80,0,1
74100,-76.9230769230769,4,1,0,80,0,0
74181,-76.9230769230769,4,1,0,80,0,1
76600,-55.5555555555556,4,1,0,80,0,1
77205,-71.4285714285714,4,1,0,80,0,1
77568,-76.9230769230769,4,1,0,80,0,1
79262,-90.9090909090909,4,1,0,80,0,1
79745,-90.9090909090909,4,1,0,80,0,0
79987,-100,4,1,0,80,0,0
80229,-111.111111111111,4,1,0,70,0,0
80471,-125,4,1,0,60,0,0
80713,-142.857142857143,4,1,0,50,0,0
80955,-166.666666666667,4,1,0,39,0,0
81197,-200,4,1,0,30,0,0
81520,-90.9090909090909,4,1,0,80,0,0
81560,-66.6666666666667,4,1,0,80,0,0
82165,-83.3333333333333,4,1,0,80,0,0
89544,-66.6666666666667,4,1,0,80,0,0
89644,-83.3333333333333,4,1,0,80,0,0
105149,-200,4,1,0,80,0,0
105995,-200,4,1,0,5,0,0
106116,-200,4,1,0,80,0,0
106963,-200,4,1,0,5,0,0
107084,-200,4,1,0,80,0,0
107931,-200,4,1,0,5,0,0
108052,-200,4,1,0,80,0,0
108899,-200,4,1,0,5,0,0
109020,-200,4,1,0,80,0,0
109866,-200,4,1,0,5,0,0
109987,-200,4,1,0,80,0,0
112891,-100,4,1,0,80,0,0
116762,-83.3333333333333,4,1,0,80,0,0
117245,-100,4,1,0,80,0,0
124503,-83.3333333333333,4,1,0,80,0,0
128253,-125,4,1,0,80,0,0
136116,-71.4285714285714,4,1,0,80,0,1
143737,-71.4285714285714,4,1,0,80,0,0
143858,-71.4285714285714,4,1,0,80,0,1
146278,-52.6315789473684,4,1,0,80,0,1
146762,-62.5,4,1,0,80,0,1
147245,-71.4285714285714,4,1,0,80,0,1
149423,-90.9090909090909,4,1,0,80,0,1
149907,-71.4285714285714,4,1,0,80,0,1
151842,-71.4285714285714,4,1,0,80,0,0
158858,-125,4,1,0,80,0,0
159584,-200,4,1,0,80,0,0
168052,-200,4,1,0,60,0,0
180874,-166.666666666667,4,1,0,60,0,0
181116,-142.857142857143,4,1,0,60,0,0
181358,-125,4,1,0,60,0,0
181600,-111.111111111111,4,1,0,60,0,0
181842,-100,4,1,0,60,0,0
182202,-66.6666666666667,4,1,0,80,0,0
182810,-83.3333333333333,4,1,0,80,0,0
197568,-76.9230769230769,4,1,0,80,0,0
197810,-71.4285714285714,4,1,0,80,0,0
198052,-66.6666666666667,4,1,0,80,0,1
205673,-66.6666666666667,4,1,0,80,0,0
205794,-66.6666666666667,4,1,0,80,0,1
208213,-50,4,1,0,80,0,1
208697,-58.8235294117647,4,1,0,80,0,1
208939,-66.6666666666667,4,1,0,80,0,1
210632,-76.9230769230769,4,1,0,80,0,1
210995,-90.9090909090909,4,1,0,80,0,1
211358,-66.6666666666667,4,1,0,80,0,0

[HitObjects]
120,232,19624,6,0,L|280:232,1,125.999996154785,0|4,0:0|0:0,0:0:0:0:
392,232,20229,1,0,0:0:0:0:
320,128,20471,2,0,P|256:96|184:152,1,143.999995605469,8|0,0:0|0:0,0:0:0:0:
112,184,20834,1,0,0:0:0:0:
128,280,20955,2,0,L|248:224,1,71.9999978027344
264,328,21197,2,0,L|357:234,1,71.9999978027344
400,224,21439,1,8,0:0:0:0:
399,224,21681,6,0,L|232:224,1,143.999995605469
64,224,22165,1,0,0:0:0:0:
196,305,22407,2,0,P|258:336|320:304,1,143.999995605469,8|0,0:0|0:0,0:0:0:0:
384,224,22770,1,0,0:0:0:0:
384,120,22891,2,0,L|504:120,1,71.9999978027344
264,120,23132,2,0,L|176:120,1,71.9999978027344
328,224,23374,1,8,0:0:0:0:
328,224,23616,6,0,B|256:248|256:248|144:208,1,143.999995605469
392,88,24100,1,0,0:0:0:0:
128,88,24342,1,8,0:0:0:0:
128,88,24584,2,0,P|72:152|72:184,1,71.9999978027344
112,320,24826,2,0,P|91:290|60:272,1,71.9999978027344
87,163,25068,1,0,0:0:0:0:
224,192,25189,2,0,P|244:221|275:239,1,71.9999978027344,0|8,0:0|0:0,0:0:0:0:
224,192,25552,6,0,P|291:242|323:240,1,71.9999978027344
416,248,25794,1,0,0:0:0:0:
192,168,25915,2,0,P|199:120|304:72,1,143.999995605469
368,152,26278,2,0,P|401:202|384:273,1,71.9999978027344,10|0,0:0|0:0,0:0:0:0:
280,261,26520,2,0,P|230:295|159:280,1,71.9999978027344,2|0,0:0|0:0,0:0:0:0:
180,192,26762,2,0,P|120:182|79:122,1,71.9999978027344,2|0,0:0|0:0,0:0:0:0:
280,288,27003,6,0,P|315:282|345:263,1,71.9999978027344,2|0,0:0|0:0,0:0:0:0:
292,165,27245,2,0,P|312:136|319:101,1,71.9999978027344,10|0,0:0|0:0,0:0:0:0:
104,56,27487,1,0,0:0:0:0:
104,56,27608,2,0,L|104:168,1,90.0000034332277,0|4,0:0|0:0,0:0:0:0:
104,144,27971,6,0,P|184:176|256:144,1,143.999995605469,0|8,0:0|0:0,0:0:0:0:
400,64,28455,2,0,P|432:120|424:168,1,71.9999978027344
382,235,28697,1,0,0:0:0:0:
272,280,28818,2,0,L|182:280,2,71.9999978027344
80,240,29181,1,8,0:0:0:0:
80,240,29423,6,0,L|80:104,1,71.9999978027344
256,112,29665,1,0,0:0:0:0:
336,304,29907,1,0,0:0:0:0:
256,344,30028,1,0,0:0:0:0:
176,304,30149,1,8,0:0:0:0:
176,304,30391,6,0,L|56:304,1,71.9999978027344
336,304,30632,2,0,L|448:304,1,71.9999978027344
256,192,30874,1,0,0:0:0:0:
176,80,30995,2,0,P|112:56|64:80,1,71.9999978027344,0|8,0:0|0:0,0:0:0:0:
40,136,31237,1,0,0:0:0:0:
56,224,31358,2,0,L|128:312,1,71.9999978027344
176,80,31600,5,0,0:0:0:0:
336,80,31842,1,0,0:0:0:0:
336,80,32084,1,8,0:0:0:0:
336,80,32326,2,0,P|400:56|448:80,1,71.9999978027344
480,208,32568,1,0,0:0:0:0:
416,296,32689,2,0,L|320:240,1,71.9999978027344
280,160,32931,5,0,0:0:0:0:
153,322,33052,2,0,P|128:232|160:176,1,143.999995605469,8|0,0:0|0:0,0:0:0:0:
280,160,33415,1,0,0:0:0:0:
352,72,33536,2,0,P|375:103|385:142,1,80,2|0,0:0|0:0,0:0:0:0:
456,192,33778,2,0,P|424:215|385:225,1,80,2|0,0:0|0:0,0:0:0:0:
336,288,34020,2,0,P|312:256|302:217,1,80,2|0,0:0|0:0,0:0:0:0:
296,136,34262,1,0,0:0:0:0:
128,304,34382,1,4,0:0:0:0:
128,304,34665,6,0,L|96:256,1,40,0|0,2:0|2:0,2:0:0:0:
176,232,34907,6,0,L|198:198,1,40,0|0,2:0|2:0,2:0:0:0:
112,176,35149,6,0,L|80:120,1,51.999997619629,0|0,2:0|2:0,2:0:0:0:
256,192,35471,1,4,2:0:0:0:
416,272,50955,6,0,L|288:272,1,120,4|0,0:0|0:0,0:0:0:0:
136,168,51439,1,8,0:0:0:0:
288,48,51681,1,0,0:0:0:0:
440,168,51923,2,0,P|480:240|480:312,1,120
272,304,52407,2,0,P|232:232|232:160,1,120,8|0,0:0|0:0,0:0:0:0:
168,120,52770,1,0,0:0:0:0:
88,168,52891,6,0,B|40:206|40:206|8:280,1,120
240,320,53374,1,8,0:0:0:0:
216,128,53616,2,0,L|256:176,1,60
352,264,53858,2,0,L|440:128,2,120,0|0|8,0:0|0:0|0:0,0:0:0:0:
328,72,54584,1,0,0:0:0:0:
328,72,54826,2,0,L|168:72,1,120,4|0,0:0|0:0,0:0:0:0:
48,72,55310,5,8,0:0:0:0:
176,168,55552,1,0,0:0:0:0:
112,312,55794,2,0,L|272:312,1,120
392,312,56278,1,8,0:0:0:0:
392,168,56520,1,0,0:0:0:0:
392,96,56641,1,0,0:0:0:0:
392,240,56762,1,0,0:0:0:0:
392,240,57003,6,0,L|312:280,1,60
243,282,57245,2,0,L|216:335,1,60,8|0,0:0|0:0,0:0:0:0:
136,288,57487,2,0,L|96:208,1,60
80,152,57729,1,0,0:0:0:0:
144,88,57850,1,0,0:0:0:0:
232,72,57971,1,0,0:0:0:0:
320,104,58092,5,0,0:0:0:0:
256,168,58213,1,8,0:0:0:0:
168,184,58334,1,0,0:0:0:0:
80,152,58455,2,0,L|48:56,1,60
160,328,58697,1,2,0:0:0:0:
160,328,58939,1,2,0:0:0:0:
160,328,59181,6,0,P|248:272|296:280,1,120,8|0,0:0|0:0,0:0:0:0:
448,272,59665,1,0,0:0:0:0:
280,176,59907,1,0,0:0:0:0:
472,176,60149,2,0,P|384:120|336:128,1,120,8|0,0:0|0:0,0:0:0:0:
280,176,60512,1,0,0:0:0:0:
192,120,60632,2,0,P|134:106|92:63,1,120
48,160,60995,1,0,0:0:0:0:
120,240,61116,2,0,P|177:253|219:296,1,120,8|0,0:0|0:0,0:0:0:0:
400,176,61600,5,0,0:0:0:0:
200,88,61842,2,0,P|129:106|90:138,1,120,0|8,0:0|0:0,0:0:0:0:
184,288,62326,1,0,0:0:0:0:
264,336,62447,1,0,0:0:0:0:
336,280,62568,2,0,L|440:264,1,60
291,174,62810,2,0,L|232:184,1,60
160,96,63052,1,8,0:0:0:0:
56,224,63294,1,0,0:0:0:0:
228,149,63536,2,0,P|153:183|138:185,1,60
160,96,63778,6,0,P|256:64|312:72,1,120,0|8,0:0|0:0,0:0:0:0:
400,88,64262,1,0,0:0:0:0:
400,88,64503,2,0,P|323:64|224:152,1,225,0|0,2:0|2:0,2:0:0:0:
253,270,65471,2,0,P|294:253|335:211,1,90
248,128,65955,5,2,0:0:0:0:
328,224,66076,1,2,0:0:0:0:
328,40,66197,1,2,0:0:0:0:
136,128,66318,1,2,0:0:0:0:
368,128,66439,2,0,P|408:88|416:48,1,77.9999964294435,4|0,0:0|0:0,0:0:0:0:
472,280,66681,2,0,P|432:320|424:360,1,77.9999964294435,4|0,0:0|0:0,0:0:0:0:
192,224,66923,5,8,0:0:0:0:
416,224,67044,1,0,0:0:0:0:
304,144,67165,1,0,0:0:0:0:
304,304,67286,1,0,0:0:0:0:
144,144,67407,2,0,L|48:144,1,77.9999964294435,2|0,0:0|0:0,0:0:0:0:
368,144,67649,2,0,L|464:144,1,77.9999964294435,0|2,0:0|0:0,0:0:0:0:
256,192,67891,5,8,0:0:0:0:
256,336,68012,1,0,0:0:0:0:
256,96,68132,2,0,L|256:32,2,38.9999982147218
64,192,68374,1,0,0:0:0:0:
448,192,68616,1,0,0:0:0:0:
448,192,68858,5,8,0:0:0:0:
249,192,68979,2,0,L|160:192,1,77.9999964294435
349,291,69221,1,0,0:0:0:0:
349,93,69342,2,0,P|416:40|456:40,1,77.9999964294435,2|0,0:0|0:0,0:0:0:0:
249,192,69584,1,0,0:0:0:0:
163,291,69705,6,0,P|96:344|56:344,1,77.9999964294435,2|8,0:0|0:0,0:0:0:0:
32,192,69947,1,0,0:0:0:0:
216,80,70068,2,0,B|256:88|256:88|296:80,1,77.9999964294435
480,256,70310,1,0,0:0:0:0:
32,256,70552,1,0,0:0:0:0:
392,208,70794,6,0,P|428:230|453:292,1,77.9999964294435,8|0,0:0|0:0,0:0:0:0:
120,176,71036,2,0,P|83:153|58:91,1,77.9999964294435
344,320,71278,1,2,1:0:0:0:
210,136,71399,1,2,1:0:0:0:
426,206,71520,1,2,1:0:0:0:
210,276,71641,1,2,1:0:0:0:
344,92,71762,5,10,1:0:0:0:
344,320,71882,1,2,1:0:0:0:
177,168,72003,1,2,1:0:0:0:
385,102,72124,1,2,1:0:0:0:
176,56,72245,1,2,1:0:0:0:
40,168,72366,2,0,P|64:248|144:264,1,155.999992858887
192,152,72729,6,0,P|264:112|296:112,1,77.9999964294435,8|0,0:0|0:0,0:0:0:0:
336,184,72971,2,0,P|372:170|401:145,1,77.9999964294435
512,96,73213,6,0,P|508:134|493:170,1,77.9999964294435
424,280,73455,2,0,P|390:298|363:327,1,77.9999964294435
224,296,73697,6,0,P|185:287|128:256,1,77.9999964294435,8|8,0:0|0:0,0:0:0:0:
160,128,73939,2,0,P|198:115|262:112,1,77.9999964294435
422,257,74181,5,4,0:0:0:0:
211,151,74302,1,0,0:0:0:0:
422,257,74423,1,0,0:0:0:0:
211,151,74544,1,0,0:0:0:0:
422,257,74665,2,0,P|478:329|478:377,1,77.9999964294435,8|0,0:0|0:0,0:0:0:0:
211,151,74907,2,0,P|155:79|155:31,1,77.9999964294435
316,209,75149,1,2,0:0:0:0:
208,312,75270,2,0,L|104:312,1,77.9999964294435
316,209,75512,1,2,0:0:0:0:
216,104,75632,6,0,L|112:104,1,77.9999964294435,8|0,0:0|0:0,0:0:0:0:
376,168,75874,2,0,L|424:168,1,38.9999982147218
456,104,75995,2,0,L|504:104,1,38.9999982147218
216,104,76116,1,0,0:0:0:0:
216,104,76358,2,0,L|216:208,1,77.9999964294435
368,232,76600,2,0,B|416:280|416:280|416:328,1,107.999996704102,8|0,0:0|0:0,0:0:0:0:
160,320,76842,2,0,B|112:272|112:272|112:224,1,107.999996704102
368,152,77084,6,0,L|480:152,2,107.999996704102,2|0|0,0:0|0:0|0:0,0:0:0:0:
414,47,77447,2,0,L|312:48,1,83.9999974365235,2|8,0:0|0:0,0:0:0:0:
190,54,77689,1,0,0:0:0:0:
62,118,77810,1,0,2:0:0:0:
46,142,77870,1,0,2:0:0:0:
38,174,77931,1,0,2:0:0:0:
46,206,77991,1,0,2:0:0:0:
66,231,78052,6,0,B|120:288|176:304|176:304,1,77.9999964294435
228,212,78294,1,0,0:0:0:0:
194,94,78415,1,0,0:0:0:0:
296,26,78536,2,0,L|384:27,1,77.9999964294435,8|0,0:0|0:0,0:0:0:0:
456,147,78778,2,0,L|368:147,1,77.9999964294435
216,176,79020,1,0,0:0:0:0:
160,280,79141,1,0,0:0:0:0:
272,304,79262,2,0,P|328:296|376:224,1,132.00000402832,0|8,0:0|0:0,0:0:0:0:
256,192,79745,1,0,0:0:0:0:
256,192,79987,6,0,P|200:224|184:272,1,80,0|0,2:0|2:0,2:0:0:0:
216,272,80229,2,0,P|189:301|160:312,1,71.9999978027344,0|0,2:0|2:0,2:0:0:0:
136,272,80471,2,0,P|102:259|80:232,1,71.9999978027344,0|0,2:0|2:0,2:0:0:0:
96,192,80713,6,0,P|118:164|144:152,1,55.9999982910157,0|0,2:0|2:0,2:0:0:0:
128,120,80955,2,0,P|151:105|168:80,1,47.9999985351563,0|0,2:0|2:0,2:0:0:0:
208,64,81197,2,0,P|228:76|240:96,1,40,0|0,2:0|2:0,2:0:0:0:
262,140,81560,6,0,P|279:238|212:163,1,270.000010299683,4|4,0:0|0:0,0:0:0:0:
376,72,82044,1,0,0:0:0:0:
376,72,82104,1,0,0:0:0:0:
376,72,82165,2,0,P|424:128|448:216,1,143.999995605469,0|8,0:0|0:0,0:0:0:0:
425,310,82528,1,0,0:0:0:0:
312,288,82649,2,0,L|208:288,1,71.9999978027344
120,304,82891,1,0,0:0:0:0:
168,192,83012,2,0,P|216:184|264:200,1,71.9999978027344
360,216,83253,1,0,0:0:0:0:
448,136,83374,2,0,P|344:96|216:112,1,215.999993408203,8|0,0:0|0:0,0:0:0:0:
104,168,83858,5,0,0:0:0:0:
56,264,83979,1,0,0:0:0:0:
272,184,84100,2,0,P|224:176|176:192,1,71.9999978027344
40,72,84342,2,0,P|75:67|110:75,1,71.9999978027344,8|0,0:0|0:0,0:0:0:0:
240,80,84584,2,0,P|275:84|310:76,1,71.9999978027344
432,56,84826,1,0,0:0:0:0:
480,168,84947,2,0,L|520:256,2,71.9999978027344
360,96,85310,2,0,P|256:56|168:72,2,143.999995605469,8|0|0,0:0|0:0|0:0,0:0:0:0:
448,296,85915,5,0,0:0:0:0:
448,296,85975,1,0,0:0:0:0:
448,296,86036,2,0,P|392:320|296:312,1,143.999995605469,0|8,0:0|0:0,0:0:0:0:
366,232,86399,1,0,0:0:0:0:
264,192,86520,2,0,P|185:187|150:209,1,71.9999978027344
144,296,86762,1,0,0:0:0:0:
80,192,86882,2,0,L|80:120,1,71.9999978027344
184,48,87124,1,0,0:0:0:0:
304,48,87245,2,0,L|464:48,2,143.999995605469,8|0|0,0:0|0:0|0:0,0:0:0:0:
176,48,87850,6,0,P|96:64|56:136,1,143.999995605469
144,240,88213,2,0,L|230:309,1,71.9999978027344,10|0,0:0|0:0,0:0:0:0:
238,195,88455,2,0,L|249:123,1,71.9999978027344,2|0,0:0|0:0,0:0:0:0:
338,165,88697,2,0,L|424:234,1,71.9999978027344,2|0,0:0|0:0,0:0:0:0:
432,120,88939,2,0,L|443:48,1,71.9999978027344,2|0,0:0|0:0,0:0:0:0:
328,56,89181,2,0,L|255:56,1,71.9999978027344,10|0,0:0|0:0,0:0:0:0:
104,56,89423,1,0,0:0:0:0:
104,56,89544,2,0,L|104:168,1,90.0000034332277,0|4,0:0|0:0,0:0:0:0:
104,216,89786,5,0,0:0:0:0:
104,216,89846,1,0,0:0:0:0:
104,216,89907,2,0,B|144:294|144:294|216:358,2,143.999995605469,0|8|0,0:0|0:0|0:0,0:0:0:0:
200,80,90512,1,0,0:0:0:0:
368,128,90632,2,0,L|464:128,1,71.9999978027344
268,166,90874,1,0,0:0:0:0:
342,245,90995,1,0,0:0:0:0:
224,264,91116,2,0,B|144:272|144:272|48:240,2,143.999995605469,8|0|0,0:0|0:0|0:0,0:0:0:0:
224,264,91842,5,0,0:0:0:0:
296,120,92084,2,0,P|368:72|392:72,1,71.9999978027344,8|0,0:0|0:0,0:0:0:0:
200,56,92326,1,0,0:0:0:0:
144,152,92447,1,0,0:0:0:0:
144,152,92568,2,0,P|168:176|217:199,1,71.9999978027344
296,120,92810,2,0,P|368:72|392:72,1,71.9999978027344
440,80,93052,2,0,P|528:168|416:280,1,287.999991210938,8|0,0:0|0:0,0:0:0:0:
432,176,93657,5,0,0:0:0:0:
432,176,93717,1,0,0:0:0:0:
432,176,93778,2,0,P|336:128|264:152,1,143.999995605469,0|8,0:0|0:0,0:0:0:0:
163,220,94141,1,0,0:0:0:0:
24,136,94262,2,0,P|72:72|104:56,1,71.9999978027344
223,52,94503,1,0,0:0:0:0:
376,104,94624,2,0,L|472:144,1,71.9999978027344
448,224,94866,1,0,0:0:0:0:
320,184,94987,2,0,L|416:336,1,143.999995605469,8|0,0:0|0:0,0:0:0:0:
396,305,95350,1,0,0:0:0:0:
320,336,95471,6,0,L|184:336,1,95.9999970703126,2|0,0:0|0:0,0:0:0:0:
120,256,95713,2,0,L|248:256,1,95.9999970703126,2|0,0:0|0:0,0:0:0:0:
320,176,95955,2,0,L|184:176,1,95.9999970703126,2|0,0:0|0:0,0:0:0:0:
104,176,96197,1,0,0:0:0:0:
408,176,96318,1,4,0:0:0:0:
408,176,96600,6,0,L|408:256,1,47.9999985351563,0|0,2:0|2:0,2:0:0:0:
456,328,96842,2,0,L|456:276,1,47.9999985351563,0|0,2:0|2:0,2:0:0:0:
366,283,97084,2,0,P|300:230|222:303,1,191.999994140625,0|0,2:0|2:0,2:0:0:0:
344,280,105149,6,0,B|368:192|432:144|432:144|352:136|392:144,1,210,0|0,2:0|2:0,2:0:0:0:
320,158,106116,6,0,B|265:231|267:311|267:311|211:252|242:279,1,210,0|0,2:0|2:0,2:0:0:0:
208,208,107084,2,0,B|240:136|271:102|271:102|216:120|176:104,1,210,0|0,2:0|2:0,2:0:0:0:
129,159,108052,2,0,P|115:74|223:42,1,210,0|0,2:0|2:0,2:0:0:0:
272,112,109020,2,0,B|336:88|336:88|360:120|432:104|432:104|464:152|472:144,1,210,0|0,2:0|2:0,2:0:0:0:
408,216,109987,2,0,B|360:248|360:248|312:192|248:192|248:192|192:224,1,240,0|0,2:0|2:0,2:0:0:0:
256,192,111076,12,0,112770,0:0:0:0:
94,290,112891,5,4,0:0:0:0:
171,242,113012,1,0,0:0:0:0:
258,257,113132,2,0,L|296:304,1,60,2|2,0:0|0:0,0:0:0:0:
369,361,113374,1,8,0:0:0:0:
454,328,113495,1,0,0:0:0:0:
493,250,113616,2,0,L|480:192,1,60,2|2,0:0|0:0,0:0:0:0:
410,133,113858,5,0,0:0:0:0:
339,190,113979,1,0,0:0:0:0:
251,185,114100,2,0,L|208:144,1,60,2|2,0:0|0:0,0:0:0:0:
168,64,114342,1,8,0:0:0:0:
104,128,114463,1,0,0:0:0:0:
99,216,114584,2,0,L|136:264,1,60,2|2,0:0|0:0,0:0:0:0:
328,256,114826,6,0,P|368:200|368:168,1,60
240,48,115068,2,0,P|200:104|200:136,1,60,2|2,0:0|0:0,0:0:0:0:
128,352,115310,2,0,P|97:290|102:258,1,60,8|0,0:0|0:0,0:0:0:0:
246,159,115552,2,0,P|276:220|271:252,1,60,2|2,0:0|0:0,0:0:0:0:
16,128,115794,2,0,P|81:107|112:117,1,60
188,274,116036,2,0,P|122:294|91:284,1,60,2|2,0:0|0:0,0:0:0:0:
225,113,116278,2,0,P|278:69|309:66,1,60,8|0,0:0|0:0,0:0:0:0:
440,184,116520,2,0,P|386:227|355:230,1,60,2|2,0:0|0:0,0:0:0:0:
176,64,116762,6,0,L|88:24,1,71.9999978027344,4|0,0:0|0:0,0:0:0:0:
304,168,117003,2,0,L|216:200,1,71.9999978027344,4|0,0:0|0:0,0:0:0:0:
440,248,117245,2,0,P|472:304|512:328,1,60,8|0,0:0|0:0,0:0:0:0:
272,280,117487,2,0,P|240:224|200:200,1,60
432,96,117729,6,0,P|464:40|504:16,2,60
408,192,118092,1,0,0:0:0:0:
432,288,118213,2,0,P|464:344|504:368,2,60,8|0|0,0:0|0:0|0:0,0:0:0:0:
408,192,118576,1,0,0:0:0:0:
408,192,118697,2,0,P|360:144|352:112,1,60
192,72,118939,2,0,P|173:95|148:111,1,60
152,312,119181,6,0,P|256:248|341:367,1,240,8|0,0:0|0:0,0:0:0:0:
368,224,119786,1,0,0:0:0:0:
424,160,119907,2,0,P|481:122|514:126,1,60
152,64,120149,2,0,P|94:101|61:97,1,60,8|0,0:0|0:0,0:0:0:0:
232,312,120391,2,0,P|258:325|278:347,1,60
72,192,120632,5,4,0:0:0:0:
72,192,120874,2,0,L|144:208,1,60
320,296,121116,2,0,L|261:282,1,60,8|0,0:0|0:0,0:0:0:0:
192,120,121358,2,0,L|264:136,1,60
440,224,121600,2,0,L|320:200,1,120
216,224,121963,1,0,0:0:0:0:
120,272,122084,2,0,P|64:200|64:128,1,120,8|0,0:0|0:0,0:0:0:0:
288,144,122447,1,0,0:0:0:0:
296,248,122568,6,0,L|345:281,1,60
416,208,122810,2,0,L|367:175,1,60
277,105,123052,2,0,L|228:138,1,60,8|0,0:0|0:0,0:0:0:0:
153,166,123294,1,0,0:0:0:0:
80,140,123415,1,0,0:0:0:0:
48,208,123536,6,0,L|48:288,1,60
175,325,123778,1,0,0:0:0:0:
256,304,123899,1,0,0:0:0:0:
336,272,124020,2,0,B|384:232|384:232|432:152,1,120,8|0,0:0|0:0,0:0:0:0:
320,80,124382,1,0,0:0:0:0:
224,152,124503,6,0,L|128:208,1,71.9999978027344
24,32,124745,2,0,L|88:72,1,71.9999978027344
256,272,124987,1,8,0:0:0:0:
256,272,125229,1,0,0:0:0:0:
192,200,125350,1,0,0:0:0:0:
112,264,125471,2,0,P|72:328|48:336,1,71.9999978027344
240,112,125713,2,0,P|280:48|304:40,2,71.9999978027344,0|0|8,0:0|0:0|0:0,0:0:0:0:
216,280,126197,5,2,0:0:0:0:
336,144,126318,1,2,0:0:0:0:
160,160,126439,1,12,0:0:0:0:
160,160,126681,6,0,L|256:184,1,71.9999978027344
216,264,126923,2,0,L|296:336,1,71.9999978027344,8|0,0:0|0:0,0:0:0:0:
72,280,127165,2,0,L|136:312,1,71.9999978027344
144,208,127407,2,0,L|208:176,1,71.9999978027344
248,328,127649,2,0,L|304:280,1,71.9999978027344
416,304,127891,2,0,L|448:240,1,71.9999978027344,8|0,0:0|0:0,0:0:0:0:
387,126,128132,1,0,0:0:0:0:
272,48,128253,6,0,P|216:40|160:72,1,96,0|0,2:0|2:0,2:0:0:0:
111,107,128616,1,0,2:0:0:0:
66,174,128737,1,0,2:0:0:0:
134,219,128858,1,0,2:0:0:0:
179,150,128979,1,0,2:0:0:0:
179,150,129100,2,0,L|256:176,1,48,0|0,2:0|2:0,2:0:0:0:
280,96,129342,2,0,L|320:160,1,48,0|0,2:0|2:0,2:0:0:0:
400,32,129584,6,0,L|456:192,1,144,0|0,2:0|2:0,2:0:0:0:
432,256,130068,1,0,2:0:0:0:
360,208,130189,1,0,2:0:0:0:
432,256,130431,1,0,2:0:0:0:
360,208,130552,2,0,L|200:272,1,144,0|0,2:0|2:0,2:0:0:0:
288,328,131036,1,0,2:0:0:0:
376,352,131157,1,0,2:0:0:0:
464,328,131278,2,0,L|440:256,1,48,0|0,2:0|2:0,2:0:0:0:
384,104,131641,6,0,L|336:160,1,48,0|0,2:0|2:0,2:0:0:0:
256,72,131882,2,0,L|208:32,2,48,0|0|0,2:0|2:0|2:0,2:0:0:0:
56,32,132245,2,0,L|72:112,1,48,0|0,2:0|2:0,2:0:0:0:
128,144,132487,1,0,2:0:0:0:
200,96,132608,2,0,P|264:104|304:128,1,96,0|0,2:0|2:0,2:0:0:0:
328,192,132971,1,0,2:0:0:0:
328,280,133092,6,0,P|280:277|236:257,1,96,0|0,2:0|2:0,2:0:0:0:
168,192,133455,2,0,L|112:240,3,48,0|0|0|0,2:0|2:0|2:0|2:0,2:0:0:0:
120,312,133939,2,0,L|112:376,1,48,0|0,2:0|2:0,2:0:0:0:
120,312,134302,5,0,2:0:0:0:
79,242,134423,1,0,2:0:0:0:
168,219,134544,1,0,2:0:0:0:
126,132,134665,1,0,2:0:0:0:
265,186,134786,1,0,2:0:0:0:
392,128,134907,1,0,2:0:0:0:
416,271,135028,1,0,2:0:0:0:
416,271,135632,5,2,0:0:0:0:
320,319,135753,1,2,0:0:0:0:
384,151,135874,1,2,0:0:0:0:
200,319,135995,1,2,0:0:0:0:
112,152,136116,6,0,P|80:88|0:56,1,83.9999974365235,4|0,0:0|0:0,0:0:0:0:
400,232,136358,2,0,P|432:296|512:328,1,83.9999974365235,4|0,0:0|0:0,0:0:0:0:
240,136,136600,1,8,0:0:0:0:
232,272,136721,1,0,0:0:0:0:
352,112,136842,1,0,0:0:0:0:
160,224,136963,1,0,0:0:0:0:
241,9,137084,1,2,0:0:0:0:
96,152,137205,2,0,P|40:200|24:240,1,83.9999974365235
271,375,137447,1,2,0:0:0:0:
416,232,137568,6,0,P|472:184|488:144,1,83.9999974365235,8|0,0:0|0:0,0:0:0:0:
144,120,137810,2,0,L|192:96,1,41.9999987182618
352,176,137931,2,0,L|314:157,1,41.9999987182618
256,48,138052,1,0,0:0:0:0:
256,48,138294,2,0,L|256:160,1,83.9999974365235
112,320,138536,5,8,0:0:0:0:
136,64,138657,2,0,P|104:144|104:208,1,83.9999974365235
256,320,138899,1,0,0:0:0:0:
376,64,139020,2,0,P|408:144|408:208,1,83.9999974365235,2|0,0:0|0:0,0:0:0:0:
400,320,139262,1,0,0:0:0:0:
293,52,139382,2,0,P|378:64|433:96,1,83.9999974365235,2|8,0:0|0:0,0:0:0:0:
384,200,139624,5,0,0:0:0:0:
216,104,139745,1,0,2:0:0:0:
192,104,139806,1,0,2:0:0:0:
168,112,139866,1,0,2:0:0:0:
144,128,139927,1,0,2:0:0:0:
128,144,139987,2,0,P|72:200|32:208,1,83.9999974365235
384,240,140229,2,0,P|440:184|480:176,1,83.9999974365235
136,280,140471,6,0,P|100:301|76:335,1,83.9999974365235,8|0,0:0|0:0,0:0:0:0:
376,104,140713,2,0,P|411:82|435:48,1,83.9999974365235
139,137,140955,5,2,0:0:0:0:
240,308,141076,1,2,0:0:0:0:
325,129,141197,1,2,0:0:0:0:
236,334,141318,5,2,0:0:0:0:
109,121,141439,1,10,0:0:0:0:
337,257,141560,1,2,0:0:0:0:
232,67,141681,1,2,0:0:0:0:
129,265,141802,1,2,0:0:0:0:
344,115,141923,5,2,0:0:0:0:
80,64,142044,2,0,P|16:80|72:128,1,167.999994873047
240,112,142407,2,0,P|296:72|312:32,1,83.9999974365235,8|0,0:0|0:0,0:0:0:0:
448,224,142649,2,0,P|392:264|376:304,1,83.9999974365235
200,272,142891,6,0,P|144:232|128:192,1,83.9999974365235
184,64,143132,2,0,P|199:102|230:131,1,83.9999974365235
336,320,143374,2,0,P|338:278|357:241,1,83.9999974365235,8|0,0:0|0:0,0:0:0:0:
480,32,143616,2,0,P|477:73|458:110,1,83.9999974365235
384,272,143858,5,4,0:0:0:0:
320,128,143979,1,0,0:0:0:0:
257,274,144100,1,0,0:0:0:0:
192,127,144221,1,0,0:0:0:0:
137,275,144342,5,8,0:0:0:0:
192,127,144463,1,0,0:0:0:0:
45,185,144584,1,0,0:0:0:0:
102,36,144705,1,0,0:0:0:0:
352,152,144826,2,0,B|400:200|400:200|400:256,1,83.9999974365235,2|0,0:0|0:0,0:0:0:0:
144,72,145068,1,0,0:0:0:0:
264,248,145189,2,0,L|352:336,2,83.9999974365235,2|8|0,0:0|0:0|0:0,0:0:0:0:
40,80,145552,2,0,L|80:128,1,41.9999987182618
104,280,145673,2,0,L|77:247,1,41.9999987182618
136,168,145794,5,0,0:0:0:0:
456,112,146036,1,0,0:0:0:0:
416,224,146157,1,0,0:0:0:0:
312,160,146278,2,0,P|216:120|144:120,1,113.999996955872,8|0,0:0|0:0,0:0:0:0:
63,230,146520,2,0,P|118:244|168:272,1,113.999996955872
376,328,146762,2,0,P|456:312|488:248,2,96,2|0|0,0:0|0:0|0:0,0:0:0:0:
256,192,147124,1,2,0:0:0:0:
80,152,147245,2,0,P|40:240|48:296,1,83.9999974365235,8|0,0:0|0:0,0:0:0:0:
432,232,147487,2,0,P|472:144|464:88,1,83.9999974365235
64,64,147729,5,6,0:0:0:0:
448,64,147971,5,6,0:0:0:0:
448,64,148697,6,0,L|336:64,1,83.9999974365235,2|0,0:0|0:0,0:0:0:0:
256,168,148939,1,0,0:0:0:0:
64,64,149060,2,0,L|176:64,1,83.9999974365235,2|8,0:0|0:0,0:0:0:0:
329,117,149302,1,0,0:0:0:0:
432,224,149423,2,0,P|398:302|342:337,1,132.00000402832
224,320,149786,1,0,0:0:0:0:
96,200,149907,6,0,P|80:144|32:104,1,83.9999974365235
248,32,150149,2,0,P|304:16|344:-32,1,83.9999974365235,8|0,0:0|0:0,0:0:0:0:
440,96,150391,2,0,P|411:146|417:209,1,83.9999974365235
272,224,150632,2,0,P|264:265|241:299,1,83.9999974365235
136,184,150874,2,0,P|145:143|137:102,1,83.9999974365235
336,120,151116,2,0,P|314:155|280:179,1,83.9999974365235,8|0,0:0|0:0,0:0:0:0:
328,312,151358,2,0,P|369:310|407:292,1,83.9999974365235
432,80,151600,5,6,0:0:0:0:
432,80,151842,1,6,0:0:0:0:
160,56,158858,6,0,P|216:56|248:72,1,72,0|0,2:0|2:0,2:0:0:0:
264,88,159100,6,0,P|298:97|334:93,1,72,0|0,2:0|2:0,2:0:0:0:
352,176,159342,1,0,2:0:0:0:
352,176,159584,2,0,L|160:176,1,180,0|0,2:0|2:0,2:0:0:0:
172,176,166116,6,0,L|400:176,1,210,0|0,2:0|2:0,2:0:0:0:
382,176,167084,1,0,2:0:0:0:
382,176,167326,1,0,2:0:0:0:
382,176,168052,2,0,L|440:176,2,30,0|0|0,2:0|2:0|2:0,2:0:0:0:
384,176,169020,6,0,L|336:176,1,30,0|0,2:0|2:0,2:0:0:0:
272,176,169262,2,0,L|224:152,1,30,0|0,2:0|2:0,2:0:0:0:
96,96,169624,2,0,L|48:120,1,30,0|0,2:0|2:0,2:0:0:0:
104,184,169866,1,0,2:0:0:0:
104,184,169987,5,0,2:0:0:0:
184,176,170108,2,0,L|224:216,1,30,0|0,2:0|2:0,2:0:0:0:
224,280,170350,1,0,2:0:0:0:
320,152,170592,2,0,L|344:200,1,30,0|0,2:0|2:0,2:0:0:0:
352,256,170834,1,0,2:0:0:0:
416,64,170955,6,0,L|440:112,1,30,0|0,2:0|2:0,2:0:0:0:
448,168,171197,1,0,2:0:0:0:
448,168,171439,1,0,2:0:0:0:
448,168,171681,1,0,2:0:0:0:
320,72,171923,6,0,L|344:120,2,30,0|0|0,2:0|2:0|2:0,2:0:0:0:
320,72,172407,1,0,2:0:0:0:
320,72,172649,1,0,2:0:0:0:
176,152,172891,2,0,L|128:152,2,30,0|0|0,2:0|2:0|2:0,2:0:0:0:
200,72,173253,1,0,2:0:0:0:
40,56,173495,2,0,L|32:112,1,30,0|0,2:0|2:0,2:0:0:0:
72,160,173737,1,0,2:0:0:0:
128,224,173858,6,0,B|72:208|104:280|152:288|152:216|208:192,1,150,0|0,2:0|2:0,2:0:0:0:
248,256,174584,1,0,2:0:0:0:
312,208,174705,1,0,2:0:0:0:
360,144,174826,1,0,2:0:0:0:
152,144,175068,1,0,2:0:0:0:
256,192,175310,12,0,180512,2:0:0:0:
224,112,180632,6,0,P|192:96|176:104,1,40,0|0,2:0|2:0,2:0:0:0:
160,200,180874,2,0,P|192:216|216:208,1,47.9999985351563,0|0,2:0|2:0,2:0:0:0:
312,168,181116,6,0,P|280:152|248:160,1,55.9999982910157,0|0,2:0|2:0,2:0:0:0:
352,48,181358,2,0,P|371:67|376:104,1,64,0|0,2:0|2:0,2:0:0:0:
472,80,181600,6,0,P|474:107|448:144,1,71.9999978027344,0|0,2:0|2:0,2:0:0:0:
352,192,181842,2,0,P|349:219|384:264,1,80,0|0,2:0|2:0,2:0:0:0:
448,192,182205,2,0,P|496:144|376:128,1,270.000010299683,4|4,0:0|0:0,0:0:0:0:
360,288,182689,5,0,0:0:0:0:
360,288,182749,1,0,0:0:0:0:
360,288,182810,2,0,P|248:312|168:288,1,143.999995605469,0|8,0:0|0:0,0:0:0:0:
264,200,183173,1,0,0:0:0:0:
176,96,183294,2,0,P|264:72|312:80,1,71.9999978027344
336,216,183536,2,0,P|377:233|421:240,1,71.9999978027344
416,80,183778,2,0,P|460:86|501:104,1,71.9999978027344
315,113,184020,2,0,P|208:96|64:184,1,215.999993408203,8|0,0:0|0:0,0:0:0:0:
72,172,184503,5,0,0:0:0:0:
152,272,184624,2,0,P|248:240|256:240,2,71.9999978027344
240,336,184987,2,0,P|336:304|408:240,1,143.999995605469,8|0,0:0|0:0,0:0:0:0:
376,128,185350,1,0,0:0:0:0:
184,80,185471,2,0,P|96:48|80:40,1,71.9999978027344
152,208,185713,2,0,P|240:240|256:248,1,71.9999978027344
320,144,185955,2,0,P|432:128|496:72,2,143.999995605469,8|0|0,0:0|0:0|0:0,0:0:0:0:
144,80,186560,5,0,0:0:0:0:
144,80,186620,1,0,0:0:0:0:
144,80,186681,2,0,P|57:155|28:233,1,143.999995605469,0|8,0:0|0:0,0:0:0:0:
96,320,187044,1,0,0:0:0:0:
192,232,187165,2,0,P|272:192|296:184,1,71.9999978027344
400,104,187407,2,0,P|392:56|352:80,1,71.9999978027344
256,192,187649,1,0,0:0:0:0:
361,323,187770,2,0,P|402:320|400:280,1,71.9999978027344,0|8,0:0|0:0,0:0:0:0:
320,184,188012,5,0,0:0:0:0:
256,256,188132,1,0,0:0:0:0:
168,208,188253,1,0,0:0:0:0:
96,280,188374,1,0,0:0:0:0:
64,152,188495,2,0,P|152:80|232:64,1,143.999995605469
344,136,188858,2,0,P|424:80|448:80,1,71.9999978027344,8|0,0:0|0:0,0:0:0:0:
248,136,189100,2,0,P|309:60|332:53,1,71.9999978027344
144,136,189342,2,0,P|182:46|202:33,1,71.9999978027344
96,240,189584,6,0,P|134:329|154:342,1,71.9999978027344
224,224,189826,2,0,P|260:197|303:188,1,71.9999978027344,8|0,0:0|0:0,0:0:0:0:
360,288,190068,2,0,P|424:288|472:216,1,143.999995605469
448,144,190431,5,0,0:0:0:0:
448,144,190491,1,0,0:0:0:0:
448,144,190552,2,0,P|363:67|281:47,1,143.999995605469,0|8,0:0|0:0,0:0:0:0:
248,168,190915,1,0,0:0:0:0:
168,72,191036,2,0,P|64:64|40:48,1,71.9999978027344
104,232,191278,2,0,P|79:269|68:312,1,71.9999978027344
320,312,191520,2,0,P|309:268|284:231,1,71.9999978027344
104,160,191762,2,0,P|88:80|184:112,1,215.999993408203,8|0,0:0|0:0,0:0:0:0:
264,216,192245,6,0,L|328:304,1,71.9999978027344
328,80,192487,2,0,L|392:168,1,71.9999978027344
440,336,192729,2,0,L|328:184,1,143.999995605469,8|0,0:0|0:0,0:0:0:0:
272,304,193092,1,0,0:0:0:0:
128,224,193213,2,0,L|32:152,1,71.9999978027344
128,40,193455,2,0,L|200:94,1,71.9999978027344
288,200,193697,2,0,P|392:200|480:152,2,143.999995605469,8|0|0,0:0|0:0|0:0,0:0:0:0:
112,264,194302,5,0,0:0:0:0:
112,264,194362,1,0,0:0:0:0:
112,264,194423,2,0,L|48:80,1,143.999995605469,0|8,0:0|0:0,0:0:0:0:
176,160,194786,1,0,0:0:0:0:
280,72,194907,2,0,P|376:40|416:40,1,71.9999978027344
360,264,195149,2,0,P|314:354|286:382,1,71.9999978027344
480,136,195391,2,0,P|461:235|442:270,1,71.9999978027344
336,48,195632,2,0,P|216:32|88:112,1,215.999993408203,8|0,0:0|0:0,0:0:0:0:
136,232,196116,5,0,0:0:0:0:
240,144,196237,2,0,P|344:120|432:136,1,143.999995605469
371,201,196600,2,0,P|269:223|256:236,1,71.9999978027344,8|0,0:0|0:0,0:0:0:0:
337,340,196842,2,0,P|372:332|408:336,1,71.9999978027344
456,208,197084,2,0,P|466:173|465:137,1,71.9999978027344
224,88,197326,2,0,P|255:70|290:62,1,71.9999978027344
320,248,197568,6,0,P|248:296|192:312,1,77.9999964294435,10|2,0:0|0:0,0:0:0:0:
48,120,197810,6,0,P|120:72|176:56,1,83.9999974365235,2|2,0:0|0:0,0:0:0:0:
416,96,198052,1,4,0:0:0:0:
256,96,198173,1,0,0:0:0:0:
336,218,198294,1,0,0:0:0:0:
336,144,198415,1,0,0:0:0:0:
176,144,198536,5,8,0:0:0:0:
256,266,198657,1,0,0:0:0:0:
96,266,198778,1,0,0:0:0:0:
256,266,198899,1,0,0:0:0:0:
167,62,199020,2,0,P|122:66|80:80,1,90.0000034332277,2|0,0:0|0:0,0:0:0:0:
256,280,199262,1,0,0:0:0:0:
344,62,199382,6,0,P|389:66|432:80,2,90.0000034332277,2|8|0,0:0|0:0|0:0,0:0:0:0:
136,48,199745,2,0,L|88:80,1,45.0000017166138
160,128,199866,2,0,L|136:168,1,45.0000017166138
144,240,199987,6,0,P|152:320|128:360,1,90.0000034332277
368,144,200229,2,0,P|360:64|384:24,1,90.0000034332277
400,320,200471,1,8,0:0:0:0:
160,248,200592,2,0,P|112:192|40:168,2,90.0000034332277
368,248,200955,2,0,P|421:197|441:123,1,90.0000034332277,2|0,0:0|0:0,0:0:0:0:
112,320,201197,1,0,0:0:0:0:
257,126,201318,2,0,P|297:64|301:-11,1,90.0000034332277,2|8,0:0|0:0,0:0:0:0:
400,320,201560,1,0,0:0:0:0:
288,240,201681,5,0,2:0:0:0:
304,215,201741,1,0,2:0:0:0:
329,194,201802,1,0,2:0:0:0:
359,182,201862,1,0,2:0:0:0:
390,172,201923,6,0,P|430:152|458:118,1,90.0000034332277
122,212,202165,2,0,P|81:231|53:265,1,90.0000034332277
392,312,202407,6,0,P|434:302|471:277,1,90.0000034332277,8|0,0:0|0:0,0:0:0:0:
120,72,202649,2,0,P|77:81|40:106,1,90.0000034332277
256,328,202891,5,2,0:0:0:0:
176,144,203012,1,2,0:0:0:0:
128,320,203132,1,2,0:0:0:0:
281,157,203253,1,2,0:0:0:0:
128,128,203374,5,10,0:0:0:0:
333,262,203495,1,2,0:0:0:0:
114,265,203616,1,2,0:0:0:0:
344,88,203737,1,2,0:0:0:0:
144,136,203858,5,2,0:0:0:0:
376,264,203979,2,0,P|464:272|440:184,1,180.000006866455
328,112,204342,6,0,P|248:48|232:24,1,90.0000034332277,8|0,0:0|0:0,0:0:0:0:
24,160,204584,2,0,P|35:261|29:290,1,90.0000034332277
224,328,204826,6,0,P|255:296|293:271,1,90.0000034332277
400,72,205068,2,0,P|423:110|437:152,1,90.0000034332277
296,272,205310,6,0,P|256:293|213:307,1,90.0000034332277,8|0,0:0|0:0,0:0:0:0:
72,88,205552,2,0,P|111:66|154:52,1,90.0000034332277
272,166,205794,5,4,0:0:0:0:
335,261,205915,1,0,0:0:0:0:
240,324,206036,1,0,0:0:0:0:
176,229,206157,1,0,0:0:0:0:
400,48,206278,5,8,0:0:0:0:
444,187,206399,1,0,0:0:0:0:
302,231,206520,1,0,0:0:0:0:
256,91,206641,1,0,0:0:0:0:
448,272,206762,2,0,P|376:336|352:344,1,90.0000034332277,2|0,0:0|0:0,0:0:0:0:
256,160,207003,1,0,0:0:0:0:
128,332,207124,2,0,P|91:307|64:272,2,90.0000034332277,2|8|0,0:0|0:0|0:0,0:0:0:0:
184,72,207487,2,0,L|148:100,1,45.0000017166138
240,256,207608,2,0,L|280:224,1,45.0000017166138
216,160,207729,5,0,0:0:0:0:
216,160,207971,2,0,L|312:112,1,90.0000034332277
464,272,208213,2,0,L|344:344,1,120,8|0,0:0|0:0,0:0:0:0:
201,277,208455,2,0,L|304:216,1,120
168,40,208697,2,0,P|69:92|37:136,1,102.000001945496,2|0,0:0|0:0,0:0:0:0:
280,232,208939,2,0,P|376:184|410:135,1,90.0000034332277,0|2,0:0|0:0,0:0:0:0:
432,72,209181,5,8,0:0:0:0:
232,168,209302,1,0,0:0:0:0:
336,48,209423,1,0,0:0:0:0:
280,262,209544,1,0,0:0:0:0:
148,84,209665,2,0,P|56:112|40:128,1,90.0000034332277
176,296,209907,2,0,P|220:292|261:273,1,90.0000034332277
264,96,210149,6,0,P|215:179|215:201,1,90.0000034332277,8|0,0:0|0:0,0:0:0:0:
429,231,210391,2,0,P|459:197|475:156,1,90.0000034332277
203,257,210632,2,0,P|221:291|248:320,1,77.9999964294435,2|0,0:0|0:0,0:0:0:0:
440,320,210874,1,0,0:0:0:0:
384,144,210995,2,0,P|367:102|336:72,2,66.0000020141602,2|8|0,0:0|0:0|0:0,0:0:0:0:
256,192,211358,12,0,213536,0:0:0:0:
