osu file format v14

[General]
AudioFilename: audio.mp3
AudioLeadIn: 0
PreviewTime: 65955
Countdown: 0
SampleSet: None
StackLeniency: 0.7
Mode: 0
LetterboxInBreaks: 0
WidescreenStoryboard: 1

[Editor]
DistanceSpacing: 0.9
BeatDivisor: 8
GridSize: 4
TimelineZoom: 2.600005

[Metadata]
Title:Lone Digger
TitleUnicode:Lone Digger
Artist:Caravan Palace
ArtistUnicode:Caravan Palace
Creator:Ohai
Version:Wii2ZeeBro's Extra
Source:
Tags:caravan palace lone digger palace caravan digger lone funk electronic swing electro swing
BeatmapID:1165848
BeatmapSetID:454079

[Difficulty]
HPDrainRate:6
CircleSize:6.2
OverallDifficulty:8
ApproachRate:9.3
SliderMultiplier:2.1
SliderTickRate:2

[Events]
//Background and Video events
0,0,"bg.jpg",0,0
//Break Periods
2,35670,40724
2,97606,102659
2,152042,158304
2,159784,165562
//Storyboard Layer 0 (Background)
//Storyboard Layer 1 (Fail)
//Storyboard Layer 2 (Pass)
//Storyboard Layer 3 (Foreground)
//Storyboard Sound Samples

[TimingPoints]
633,483.870967741935,4,2,0,5,1,0
14181,-100,4,2,0,6,0,0
14302,-100,4,2,0,7,0,0
14423,-100,4,2,0,8,0,0
14544,-100,4,2,0,9,0,0
14665,-100,4,2,0,10,0,0
14786,-100,4,2,0,11,0,0
14907,-100,4,2,0,12,0,0
15028,-100,4,2,0,13,0,0
15149,-100,4,2,0,14,0,0
15270,-100,4,2,0,15,0,0
15391,-100,4,2,0,16,0,0
15512,-100,4,2,0,17,0,0
15632,-100,4,2,0,18,0,0
15753,-100,4,2,0,19,0,0
15874,-100,4,2,0,20,0,0
15995,-100,4,2,0,21,0,0
16116,-100,4,2,0,22,0,0
16237,-100,4,2,0,23,0,0
16358,-100,4,2,0,24,0,0
16479,-100,4,2,0,25,0,0
16600,-100,4,2,0,26,0,0
16721,-100,4,2,0,27,0,0
16842,-100,4,2,0,28,0,0
16963,-100,4,2,0,29,0,0
17084,-100,4,2,0,30,0,0
17205,-100,4,2,0,31,0,0
17326,-100,4,2,0,32,0,0
17447,-100,4,2,0,33,0,0
17568,-100,4,2,0,34,0,0
17689,-100,4,2,0,35,0,0
17810,-100,4,2,0,5,0,0
18052,-100,4,2,0,20,0,0
19503,-100,4,2,0,50,0,0
33536,-100,4,2,0,35,0,0
43213,-133.333333333333,4,2,0,35,0,0
50955,-100,4,2,0,50,0,0
64503,-100,4,2,0,53,0,0
64624,-100,4,2,0,56,0,0
64745,-100,4,2,0,59,0,0
64866,-100,4,2,0,62,0,0
64987,-100,4,2,0,65,0,0
65108,-100,4,2,0,68,0,0
65229,-100,4,2,0,71,0,0
65350,-100,4,2,0,73,0,0
65471,-100,4,2,0,50,0,0
66439,-90.9090909090909,4,2,0,75,0,1
79987,-90.9090909090909,4,2,0,20,0,1
81923,-100,4,2,0,50,0,0
105149,-133.333333333333,4,2,0,35,0,0
112891,-100,4,2,0,50,0,0
126439,-133.333333333333,4,2,0,50,0,0
128616,-133.333333333333,4,2,0,35,0,0
136116,-90.9090909090909,4,2,0,75,0,1
151600,-100,4,2,0,50,0,0
167084,-133.333333333333,4,2,0,35,0,0
174826,-125,4,2,0,38,0,0
176278,-117.647058823529,4,2,0,41,0,0
177729,-111.111111111111,4,2,0,44,0,0
179181,-105.263157894737,4,2,0,47,0,0
180632,-100,4,2,0,20,0,0
182568,-100,4,2,0,50,0,0
198052,-83.3333333333333,4,2,0,75,0,1
211600,-100,4,2,0,37,0,0
211721,-100,4,2,0,35,0,0
211842,-100,4,2,0,33,0,0
211963,-100,4,2,0,31,0,0
212084,-100,4,2,0,29,0,0
212205,-100,4,2,0,27,0,0
212326,-100,4,2,0,25,0,0
212447,-100,4,2,0,23,0,0
212568,-100,4,2,0,21,0,0
212689,-100,4,2,0,19,0,0
212810,-100,4,2,0,17,0,0
212931,-100,4,2,0,15,0,0
213052,-100,4,2,0,13,0,0
213173,-100,4,2,0,11,0,0
213294,-100,4,2,0,9,0,0
213415,-100,4,2,0,7,0,0
213536,-100,4,2,0,5,0,0

[HitObjects]
256,192,14181,12,0,17810,0:0:0:0:
292,168,18052,6,2,P|352:160|372:144,1,78.75
388,88,18294,6,2,P|328:96|308:112,1,78.75
292,168,18536,6,2,L|288:256,1,78.75
224,212,18778,6,2,L|228:124,1,78.75
256,68,19020,6,2,B|256:52|256:52|192:80,1,78.75
164,132,19262,6,2,B|161:215,1,70
72,216,19665,6,2,P|60:256|100:228,1,105
80,240,19987,2,2,B|84:264|84:264|108:272|108:272|108:300|148:324,1,105,0|2,1:0|0:0,0:0:0:0:
260,272,20471,2,0,P|220:248|164:268,1,105,8|0,0:0|0:0,0:0:0:0:
208,316,20834,1,0,0:0:0:0:
272,336,20955,2,0,L|336:352,2,52.5,0|0|0,1:0|0:0|0:0,0:0:0:0:
224,384,21318,1,0,0:0:0:0:
324,292,21439,1,8,0:0:0:0:
324,292,21681,6,2,B|360:280|360:280|400:304,1,78.75
408,332,21923,2,2,L|396:220,1,105,0|2,1:0|0:0,0:0:0:0:
248,188,22407,2,0,P|285:224|348:214,1,105,8|0,0:0|0:0,0:0:0:0:
372,168,22770,1,0,0:0:0:0:
440,176,22891,2,0,L|504:184,1,52.5,0|0,1:0|0:0,0:0:0:0:
307,161,23132,1,0,0:0:0:0:
412,112,23253,1,0,0:0:0:0:
460,240,23374,1,8,0:0:0:0:
460,240,23616,6,2,B|440:232|440:232|408:232|408:232|380:224|380:224,1,78.75
368,200,23858,2,2,B|308:160|308:160|308:208,1,105,0|2,1:0|0:0,0:0:0:0:
344,108,24342,2,0,P|300:96|248:132,1,105,8|0,0:0|0:0,0:0:0:0:
248,188,24705,1,0,0:0:0:0:
372,168,24826,2,0,L|448:160,2,52.5,0|0|0,1:0|0:0|0:0,0:0:0:0:
320,252,25189,1,0,0:0:0:0:
308,160,25310,1,8,0:0:0:0:
308,160,25552,5,0,0:0:0:0:
248,188,25673,1,0,0:0:0:0:
188,216,25794,6,2,B|136:244|136:244|148:216,1,78.75
156,164,26036,6,2,B|104:176|104:176|80:208,1,78.75
72,260,26278,6,2,P|92:292|144:308,1,78.75
192,300,26520,6,2,B|224:320|224:320|180:344,1,78.75
128,308,26762,6,2,L|144:196,1,105
197,166,27245,2,2,L|208:80,2,87.5
200,232,27729,6,2,L|288:248,1,78.75,4|2,1:0|0:0,0:0:0:0:
292,272,27971,2,2,P|280:232|296:184,1,78.75
304,176,28213,1,8,0:0:0:0:
400,224,28455,1,0,0:0:0:0:
400,224,28576,1,0,0:0:0:0:
400,224,28697,2,0,L|332:236,1,52.5,0|0,1:0|0:0,0:0:0:0:
304,176,28939,1,0,0:0:0:0:
292,272,29060,1,0,0:0:0:0:
356,336,29181,1,8,0:0:0:0:
400,224,29423,6,2,B|396:204|396:204|404:168|404:168|400:136,1,78.75
396,124,29665,2,2,P|360:92|288:108,1,105,0|2,1:0|0:0,0:0:0:0:
464,104,30149,2,0,B|480:132|480:132|480:56,1,105,8|0,0:0|0:0,0:0:0:0:
417,52,30512,1,0,0:0:0:0:
336,152,30632,2,0,P|360:180|396:184,1,52.5,0|0,1:0|0:0,0:0:0:0:
440,180,30874,1,0,0:0:0:0:
417,52,30995,1,0,0:0:0:0:
305,95,31116,1,8,0:0:0:0:
305,95,31358,6,2,L|204:84,1,78.75
224,64,31600,2,2,P|208:44|120:56,1,105,0|2,1:0|0:0,0:0:0:0:
143,151,32084,2,0,B|220:172|220:172|204:152,1,105,8|0,0:0|0:0,0:0:0:0:
168,88,32447,1,0,0:0:0:0:
96,100,32568,2,0,L|36:116,1,52.5,0|0,1:0|0:0,0:0:0:0:
8,168,32810,1,0,0:0:0:0:
76,176,32931,1,0,0:0:0:0:
128,220,33052,1,8,0:0:0:0:
128,220,33294,6,0,L|188:244,1,52.5
244,236,33536,6,2,L|328:224,1,70
360,280,33778,6,2,L|276:292,1,70
313,226,34020,6,2,P|360:208|400:224,1,70
360,280,34262,6,2,L|352:364,1,70
428,260,34665,5,2,0:0:0:0:
440,256,34745,2,2,L|448:172,1,70
384,168,34987,6,2,P|384:204|408:236,1,70
432,124,35229,6,2,L|304:92,1,105,2|0,0:0|1:0,0:0:0:0:
372,220,41278,5,8,0:0:0:0:
372,220,43213,6,0,P|408:224|460:196,1,78.7500030040742,0|0,1:0|0:0,0:0:0:0:
316,184,43697,2,0,P|308:204|308:228,1,39.3750015020371
372,156,44060,2,0,L|360:36,1,118.125004506111
320,84,44665,2,0,P|376:96|408:80,1,78.7500030040742
300,24,45149,5,0,1:0:0:0:
256,72,45391,2,0,L|252:156,1,78.7500030040742
368,196,46056,1,0,0:0:0:0:
376,204,46116,2,0,L|292:196,1,78.7500030040742
156,204,46600,2,0,L|240:212,1,78.7500030040742
280,260,47084,6,0,L|296:340,2,78.7500030040742,0|0|0,1:0|0:0|0:0,0:0:0:0:
152,216,47991,1,0,0:0:0:0:
156,204,48052,2,0,L|148:152,1,39.3750015020371
96,120,48294,1,0,0:0:0:0:
92,236,48536,2,0,P|108:264|164:276,1,78.7500030040742
96,120,49020,5,8,0:0:0:0:
96,120,50713,6,0,L|172:132,1,59.0625022530557
172,112,50955,2,0,P|176:160|224:192,1,105,0|0,1:0|0:0,0:0:0:0:
292,176,51318,1,0,0:0:0:0:
304,96,51439,2,0,B|236:128|236:128|256:92,1,105,8|0,0:0|0:0,0:0:0:0:
272,40,51802,1,0,0:0:0:0:
208,52,51923,2,0,L|96:56,1,105,0|0,1:0|0:0,0:0:0:0:
272,40,52407,2,0,L|384:36,1,105,8|0,0:0|0:0,0:0:0:0:
292,176,52891,5,0,1:0:0:0:
304,96,53132,1,0,0:0:0:0:
292,176,53374,2,0,L|284:240,1,52.5,8|0,0:0|0:0,0:0:0:0:
356,156,53737,2,0,P|296:108|228:152,1,157.5
344,224,54342,2,0,L|444:192,1,105,8|0,0:0|0:0,0:0:0:0:
420,136,54705,1,0,0:0:0:0:
292,176,54826,6,0,L|228:192,2,52.5,0|0|0,1:0|0:0|0:0,0:0:0:0:
344,224,55189,1,0,0:0:0:0:
384,284,55310,2,0,B|404:316|408:364|408:364|376:332,1,105,8|0,0:0|0:0,0:0:0:0:
416,220,55794,2,0,B|448:200|496:196|496:196|464:228,1,105,0|0,1:0|0:0,0:0:0:0:
456,276,56157,1,0,0:0:0:0:
384,284,56278,2,0,P|312:300|272:328,1,105,8|0,0:0|0:0,0:0:0:0:
340,356,56641,1,0,0:0:0:0:
344,224,56762,5,8,1:0:0:0:
224,212,57003,2,0,L|164:208,1,52.5
248,268,57245,2,0,P|272:248|264:164,1,105,8|0,0:0|0:0,0:0:0:0:
60,172,57729,2,0,L|120:176,1,52.5,0|0,1:0|0:0,0:0:0:0:
224,212,57971,2,0,L|164:208,1,52.5
24,224,58213,2,0,L|84:228,1,52.5,8|0,0:0|0:0,0:0:0:0:
188,264,58455,2,0,L|128:260,1,52.5
60,172,58697,6,0,L|40:112,2,52.5,0|0|0,1:0|0:0|0:0,0:0:0:0:
224,212,59181,2,0,P|176:184|112:200,1,105,8|0,0:0|0:0,0:0:0:0:
80,240,59544,1,0,0:0:0:0:
60,172,59665,2,0,L|40:112,2,52.5,0|0|0,1:0|0:0|0:0,0:0:0:0:
160,260,60149,2,0,L|172:368,1,105,8|0,0:0|0:0,0:0:0:0:
104,340,60512,1,0,0:0:0:0:
228,276,60632,6,0,B|216:200|216:200|248:228,1,105,0|0,1:0|0:0,0:0:0:0:
284,300,61116,2,0,B|296:376|296:376|272:356,1,105,8|0,0:0|0:0,0:0:0:0:
284,176,61600,6,0,L|292:112,1,52.5,0|0,1:0|0:0,0:0:0:0:
344,32,61842,2,0,L|336:96,1,52.5
344,196,62084,2,0,L|352:132,1,52.5,8|0,0:0|0:0,0:0:0:0:
404,52,62326,2,0,L|396:116,1,52.5
404,216,62568,6,0,L|412:152,2,52.5,0|0|0,1:0|0:0|0:0,0:0:0:0:
348,260,62931,1,0,0:0:0:0:
416,284,63052,2,0,B|488:272|488:272|464:296,1,105,8|0,0:0|0:0,0:0:0:0:
428,352,63415,1,0,0:0:0:0:
360,328,63536,2,0,L|292:344,2,52.5,0|0|0,1:0|0:0|0:0,0:0:0:0:
428,352,63899,1,0,0:0:0:0:
404,216,64020,1,8,0:0:0:0:
292,304,64262,5,0,0:0:0:0:
256,192,64503,12,0,65471,0:0:0:0:
208,220,65955,5,0,0:0:0:0:
268,196,66076,1,0,0:0:0:0:
328,172,66197,1,0,0:0:0:0:
276,132,66318,1,0,0:0:0:0:
216,156,66439,5,0,1:0:0:0:
320,236,66560,1,0,0:0:0:0:
336,108,66681,5,0,0:0:0:0:
224,92,66802,1,0,0:0:0:0:
208,220,66923,5,8,0:0:0:0:
328,172,67044,1,0,0:0:0:0:
285,68,67165,5,0,0:0:0:0:
268,196,67286,1,0,0:0:0:0:
156,180,67407,6,0,L|72:168,1,57.7500017623902,0|0,1:0|0:0,0:0:0:0:
0,112,67649,2,0,L|84:124,1,57.7500017623902
80,236,67891,2,0,P|60:264|28:276,1,57.7500017623902,8|0,0:0|0:0,0:0:0:0:
16,212,68132,1,0,0:0:0:0:
144,244,68253,1,0,0:0:0:0:
264,272,68374,6,2,B|304:296|352:280|352:280|308:268,1,115.50000352478,0|2,1:0|0:0,0:0:0:0:
300,212,68737,1,0,0:0:0:0:
232,212,68858,2,0,P|208:232|196:264,1,57.7500017623902,8|0,0:0|0:0,0:0:0:0:
264,272,69100,1,0,0:0:0:0:
300,212,69221,1,0,0:0:0:0:
268,152,69342,6,0,L|188:152,1,57.7500017623902,0|0,1:0|0:0,0:0:0:0:
336,152,69584,2,0,B|348:112|336:84|336:84|324:104,1,86.6250026435853
352,120,69826,2,0,L|480:112,1,115.50000352478,8|0,0:0|0:0,0:0:0:0:
508,64,70189,1,0,0:0:0:0:
467,112,70310,6,2,L|475:184,1,57.7500017623902,0|0,1:0|0:0,0:0:0:0:
448,280,70552,2,2,L|440:208,1,57.7500017623902
384,288,70794,2,0,P|396:320|436:336,1,57.7500017623902,8|0,0:0|0:0,0:0:0:0:
330,256,71036,2,0,P|318:224|278:208,1,57.7500017623902
330,316,71278,5,0,1:0:0:0:
264,320,71399,1,0,0:0:0:0:
300,376,71520,5,0,0:0:0:0:
296,260,71641,1,0,0:0:0:0:
236,380,71762,5,8,0:0:0:0:
368,372,71882,1,0,0:0:0:0:
264,320,72003,2,0,P|216:312|184:316,1,57.7500017623902
108,348,72245,6,2,P|144:324|152:276,1,86.6250026435853
112,236,72487,6,2,B|69:254|69:254|99:298,1,86.6250026435853
176,224,72729,6,2,L|280:216,1,86.6250026435853
224,160,72971,6,2,L|120:168,1,86.6250026435853
64,164,73213,6,2,P|33:178|65:189,1,86.6250026435853
104,104,73455,6,2,B|40:100|40:100|16:68,1,86.6250026435853
80,36,73697,6,2,P|136:36|168:72,2,96.250002937317
104,104,74181,6,0,L|176:124,1,57.7500017623902,4|0,1:0|0:0,0:0:0:0:
224,136,74423,1,0,0:0:0:0:
288,152,74544,1,0,0:0:0:0:
268,88,74665,1,8,0:0:0:0:
204,72,74786,1,0,0:0:0:0:
160,120,74907,1,0,0:0:0:0:
176,184,75028,1,0,0:0:0:0:
240,200,75149,2,0,P|276:216|316:212,1,57.7500017623902,0|0,1:0|0:0,0:0:0:0:
400,196,75391,2,0,P|364:180|324:184,1,57.7500017623902
352,244,75632,6,0,L|360:304,1,57.7500017623902,8|0,0:0|0:0,0:0:0:0:
416,260,75874,1,0,0:0:0:0:
296,280,75995,1,0,0:0:0:0:
184,304,76116,6,2,B|132:308|108:288|108:288|128:290|152:280,1,115.50000352478,0|2,1:0|0:0,0:0:0:0:
120,228,76479,1,0,0:0:0:0:
52,248,76600,2,0,L|28:368,1,115.50000352478,8|0,0:0|0:0,0:0:0:0:
204,368,77024,5,0,0:0:0:0:
220,360,77084,2,0,P|248:324|220:248,1,115.50000352478,0|0,1:0|0:0,0:0:0:0:
176,188,77568,2,0,L|184:311,1,115.50000352478,8|0,0:0|0:0,0:0:0:0:
220,360,77931,1,0,0:0:0:0:
288,364,78052,6,2,P|328:360|360:348,1,57.7500017623902,0|2,1:0|0:0,0:0:0:0:
444,300,78294,2,2,P|404:304|372:316,1,57.7500017623902
328,292,78536,2,0,L|316:208,1,57.7500017623902,8|0,0:0|0:0,0:0:0:0:
352,184,78778,1,0,0:0:0:0:
404,152,78899,1,0,0:0:0:0:
464,148,79020,6,0,P|483:116|483:88,1,57.7500017623902,0|0,1:0|0:0,0:0:0:0:
404,152,79262,2,0,P|384:183|384:211,1,57.7500017623902
428,96,79503,2,0,L|284:88,1,144.375004405975,8|0,0:0|0:0,0:0:0:0:
209,113,79987,6,2,P|245:117|285:85,1,86.6250026435853
228,52,80229,6,2,B|156:44|156:44|176:76,1,86.6250026435853
136,112,80471,6,2,P|124:136|160:176,1,86.6250026435853
136,112,80713,6,2,B|104:100|104:100|80:108|80:108|36:92,1,86.6250026435853
28,180,80955,6,2,P|52:200|44:164,1,86.6250026435853
112,228,81197,6,2,P|152:240|192:240,1,77.0000023498536
224,352,81600,6,2,B|240:328|240:328|224:312|224:312|248:280|248:240,1,115.50000352478
256,228,81923,6,2,B|248:192|248:192|292:168,1,78.75,0|0,1:0|0:0,0:0:0:0:
296,176,82165,2,2,P|344:172|376:144,1,78.75
372,144,82407,1,8,0:0:0:0:
264,104,82649,2,0,L|332:116,1,52.5
368,76,82891,2,0,P|372:48|368:20,2,52.5,0|0|0,1:0|0:0|0:0,0:0:0:0:
372,144,83253,1,0,0:0:0:0:
260,100,83374,1,8,0:0:0:0:
260,100,83616,6,0,L|200:88,1,52.5
168,44,83858,2,2,B|124:12|124:12|96:76,1,105,0|0,1:0|0:0,0:0:0:0:
148,104,84221,1,0,0:0:0:0:
228,32,84342,1,8,0:0:0:0:
148,104,84584,2,0,L|136:176,1,52.5
84,192,84826,2,0,L|12:180,1,52.5,0|0,1:0|0:0,0:0:0:0:
12,116,85068,1,0,0:0:0:0:
80,128,85189,1,0,0:0:0:0:
144,220,85310,1,8,0:0:0:0:
144,220,85552,6,2,B|176:260|176:260|216:260,1,78.75
224,248,85794,2,2,P|248:224|320:232,1,105,0|2,1:0|0:0,0:0:0:0:
280,280,86157,1,0,0:0:0:0:
220,312,86278,2,0,B|188:324|188:324|260:344,1,105,8|0,0:0|0:0,0:0:0:0:
320,336,86641,1,0,0:0:0:0:
388,328,86762,2,0,L|444:300,1,52.5,0|0,1:0|0:0,0:0:0:0:
448,364,87003,1,0,0:0:0:0:
320,336,87124,1,0,0:0:0:0:
224,248,87245,1,8,0:0:0:0:
224,248,87487,6,0,L|152:240,1,52.5
60,240,87729,6,2,P|32:208|36:160,1,78.75
92,184,87971,6,2,B|116:168|116:168|116:240,1,78.75
72,120,88213,6,2,B|108:100|108:100|152:112,1,78.75
216,99,88455,6,2,B|180:119|180:119|136:107,1,78.75
72,24,88697,6,2,L|176:56,1,105
316,28,89181,2,2,P|268:24|224:40,2,87.5
336,48,89665,5,4,1:0:0:0:
360,116,89846,1,0,0:0:0:0:
369,109,89907,2,0,P|392:86|390:11,1,105,0|8,0:0|0:0,0:0:0:0:
336,48,90270,1,0,0:0:0:0:
296,104,90391,2,0,L|296:164,1,52.5
360,184,90632,2,0,L|424:172,2,52.5,0|0|0,1:0|0:0|0:0,0:0:0:0:
304,224,90995,1,0,0:0:0:0:
428,168,91116,1,8,0:0:0:0:
428,168,91358,6,0,L|416:240,1,52.5
448,276,91600,2,2,P|476:296|516:292,1,52.5,0|2,1:0|0:0,0:0:0:0:
384,276,91842,2,2,P|352:290|336:326,1,52.5
408,380,92084,2,0,P|432:356|384:360,1,105,8|0,0:0|0:0,0:0:0:0:
324,364,92447,1,0,0:0:0:0:
256,356,92568,2,0,L|192:344,2,52.5,0|0|0,1:0|0:0|0:0,0:0:0:0:
300,296,92931,1,0,0:0:0:0:
304,224,93052,1,8,0:0:0:0:
304,224,93294,6,2,B|248:224|248:224|212:240,1,78.75
200,248,93536,2,2,P|156:264|128:256,1,52.5,0|2,1:0|0:0,0:0:0:0:
100,220,93778,1,0,0:0:0:0:
160,204,93899,1,0,0:0:0:0:
92,280,94020,2,0,B|60:312|56:352|56:352|92:332,1,105,8|0,0:0|0:0,0:0:0:0:
140,328,94382,1,0,0:0:0:0:
204,320,94503,2,0,P|240:320|272:336,2,52.5,0|0|0,1:0|0:0|0:0,0:0:0:0:
140,328,94866,1,0,0:0:0:0:
160,204,94987,1,8,0:0:0:0:
160,204,95229,6,0,L|152:144,1,52.5
96,120,95471,6,2,B|108:68|108:68|72:88,1,70
36,152,95713,6,2,P|76:180|112:180,1,70
168,80,95955,6,2,P|160:32|140:12,1,70
96,120,96197,6,2,L|184:152,1,70
292,164,96600,5,2,0:0:0:0:
284,168,96681,2,2,P|248:180|200:160,1,70
248,112,96923,6,2,B|268:56|268:56|288:80,1,70
416,92,97165,6,2,L|308:108,1,105,0|0,0:0|1:0,0:0:0:0:
416,196,103213,5,8,0:0:0:0:
416,196,105149,6,0,L|320:208,1,78.7500030040742,0|0,1:0|0:0,0:0:0:0:
464,244,105632,2,0,P|480:224|480:200,1,39.3750015020371
400,260,105995,2,0,B|392:344|392:344|420:324,1,118.125004506111
480,308,106600,1,0,0:0:0:0:
352,308,106842,1,0,0:0:0:0:
232,308,107084,5,0,1:0:0:0:
344,296,107326,1,0,0:0:0:0:
264,360,107568,2,0,L|168:368,1,78.7500030040742
292,308,107991,1,0,0:0:0:0:
280,300,108052,2,0,L|268:208,1,78.7500030040742
216,100,108536,2,0,L|228:192,1,78.7500030040742
328,196,109020,5,0,1:0:0:0:
212,236,109262,2,0,P|196:276|192:312,1,78.7500030040742
276,232,109745,1,0,0:0:0:0:
156,208,109927,1,0,0:0:0:0:
144,220,109987,2,0,L|88:228,1,39.3750015020371
60,184,110229,1,0,0:0:0:0:
136,96,110471,2,0,P|136:140|113:169,1,78.7500030040742
8,148,110955,5,8,0:0:0:0:
256,192,111016,12,0,112649,0:0:0:0:
128,224,112891,6,0,L|248:208,1,105,0|0,1:0|0:0,0:0:0:0:
340,244,113374,2,0,P|304:236|288:208,1,52.5,8|0,0:0|0:0,0:0:0:0:
276,164,113616,1,0,0:0:0:0:
340,180,113737,1,0,0:0:0:0:
400,212,113858,2,0,P|424:236|500:228,1,105,0|0,1:0|0:0,0:0:0:0:
456,180,114221,1,0,0:0:0:0:
400,212,114342,2,0,L|388:328,1,105,8|0,0:0|0:0,0:0:0:0:
340,244,114705,1,0,0:0:0:0:
396,144,114826,6,0,B|408:116|408:116|320:120,1,105,0|0,1:0|0:0,0:0:0:0:
272,112,115189,1,0,0:0:0:0:
216,144,115310,2,0,P|200:184|204:252,1,105,8|0,0:0|0:0,0:0:0:0:
272,176,115673,1,0,0:0:0:0:
160,116,115794,2,0,L|104:112,1,52.5,0|0,1:0|0:0,0:0:0:0:
216,144,116036,2,0,L|272:148,1,52.5
160,180,116278,2,0,L|104:176,1,52.5,8|0,0:0|0:0,0:0:0:0:
216,208,116520,2,0,L|272:212,1,52.5
160,244,116762,6,0,P|140:280|128:352,1,105,0|0,1:0|0:0,0:0:0:0:
256,332,117124,1,0,0:0:0:0:
204,288,117245,2,0,P|188:336|216:388,1,105,8|0,0:0|0:0,0:0:0:0:
256,332,117608,1,0,0:0:0:0:
267,268,117729,2,0,L|372:276,1,105,0|0,1:0|0:0,0:0:0:0:
336,336,118092,1,0,0:0:0:0:
404,332,118213,2,0,L|516:340,1,105,8|0,0:0|0:0,0:0:0:0:
336,336,118697,5,8,0:0:0:0:
448,276,118939,2,0,L|456:216,1,52.5
444,156,119181,2,0,P|408:124|340:136,1,105,8|0,0:0|0:0,0:0:0:0:
320,180,119544,1,0,0:0:0:0:
380,236,119665,2,0,L|388:168,1,52.5,0|0,1:0|0:0,0:0:0:0:
326,127,119907,2,0,L|320:180,1,52.5
260,120,120149,2,0,L|268:52,1,52.5,8|0,0:0|0:0,0:0:0:0:
206,11,120391,2,0,L|199:63,1,52.5
180,208,120632,6,0,B|185:134|185:134|152:100,1,105,0|0,1:0|0:0,0:0:0:0:
100,96,120995,1,0,0:0:0:0:
36,116,121116,2,0,P|68:152|140:152,1,105,8|0,0:0|0:0,0:0:0:0:
100,96,121479,1,0,0:0:0:0:
76,32,121600,1,0,1:0:0:0:
200,148,121842,2,0,L|163:112,1,52.5
180,208,122084,2,0,P|228:208|264:160,1,105,8|0,0:0|0:0,0:0:0:0:
132,160,122568,6,0,L|112:232,1,52.5,0|0,1:0|0:0,0:0:0:0:
216,245,122810,2,0,L|163:191,1,52.5
100,276,123052,2,0,L|172:257,1,52.5,8|0,0:0|0:0,0:0:0:0:
52,232,123294,1,0,0:0:0:0:
196,308,123536,2,0,B|268:304|268:304|292:272,1,105,0|0,1:0|0:0,0:0:0:0:
408,312,124020,2,0,B|336:316|336:316|312:348,1,105,8|0,0:0|0:0,0:0:0:0:
256,364,124382,1,0,0:0:0:0:
344,252,124503,6,0,P|368:208|360:140,1,105,0|0,1:0|0:0,0:0:0:0:
316,120,124866,1,0,0:0:0:0:
372,92,124987,2,0,B|452:76|452:76|416:60,1,105,8|0,0:0|0:0,0:0:0:0:
380,28,125350,2,0,L|316:40,1,52.5,0|0,0:0|1:0,0:0:0:0:
316,120,125713,1,0,0:0:0:0:
428,128,125834,1,0,0:0:0:0:
380,28,125955,1,8,0:0:0:0:
365,154,126197,2,0,P|328:180|280:164,1,78.75
316,120,126439,5,8,0:0:0:0:
428,128,126681,1,0,0:0:0:0:
440,160,126802,1,0,0:0:0:0:
452,192,126923,1,0,1:0:0:0:
464,224,127044,1,0,0:0:0:0:
448,232,127165,1,0,0:0:0:0:
404,280,127286,5,0,0:0:0:0:
388,272,127407,1,0,1:0:0:0:
340,224,127528,5,0,0:0:0:0:
324,232,127649,1,0,0:0:0:0:
280,280,127770,5,0,0:0:0:0:
264,272,127891,1,0,1:0:0:0:
216,220,128012,5,0,0:0:0:0:
200,228,128133,1,0,0:0:0:0:
160,280,128253,2,2,L|64:272,1,78.7500030040742,0|0,0:0|0:0,0:0:0:0:
56,248,128616,5,0,0:0:0:0:
48,232,128737,1,0,0:0:0:0:
40,168,128858,5,0,0:0:0:0:
41,150,128979,1,0,0:0:0:0:
56,88,129100,5,0,0:0:0:0:
65,73,129221,1,0,0:0:0:0:
117,34,129342,5,0,0:0:0:0:
133,26,129463,1,0,0:0:0:0:
196,20,129584,2,2,L|332:20,1,118.125004506111,0|0,0:0|0:0,0:0:0:0:
372,20,130068,1,0,0:0:0:0:
432,20,130189,1,0,0:0:0:0:
432,20,130431,5,0,0:0:0:0:
402,72,130552,2,2,P|390:112|424:192,1,118.125004506111,0|0,0:0|0:0,0:0:0:0:
444,200,131036,1,0,0:0:0:0:
448,220,131157,1,0,0:0:0:0:
412,296,131278,5,0,0:0:0:0:
408,276,131399,1,0,0:0:0:0:
412,296,131641,5,0,0:0:0:0:
408,276,131762,1,0,0:0:0:0:
348,216,131882,5,0,0:0:0:0:
352,236,132003,1,0,0:0:0:0:
324,317,132124,5,0,0:0:0:0:
320,297,132245,1,0,0:0:0:0:
260,237,132365,5,0,0:0:0:0:
264,257,132486,1,0,0:0:0:0:
256,328,132608,2,2,P|228:364|184:368,1,78.7500030040742,0|0,0:0|0:0,0:0:0:0:
136,344,132971,5,0,0:0:0:0:
192,308,133092,2,2,L|200:200,1,78.7500030040742,0|0,0:0|0:0,0:0:0:0:
172,204,133455,1,0,0:0:0:0:
172,184,133576,1,0,0:0:0:0:
224,144,133697,5,0,0:0:0:0:
224,124,133818,1,0,0:0:0:0:
276,84,133939,5,0,0:0:0:0:
276,64,134060,1,0,0:0:0:0:
276,64,134302,5,0,0:0:0:0:
340,56,134423,1,0,0:0:0:0:
316,114,134544,1,0,0:0:0:0:
301,5,134665,1,0,0:0:0:0:
381,106,134786,1,0,0:0:0:0:
251,124,134907,1,0,0:0:0:0:
301,5,135028,1,0,0:0:0:0:
301,5,135632,5,0,0:0:0:0:
236,12,135753,1,0,0:0:0:0:
276,64,135874,1,0,0:0:0:0:
212,73,135995,1,0,0:0:0:0:
251,124,136116,5,0,1:0:0:0:
122,142,136237,1,0,0:0:0:0:
226,184,136358,5,0,0:0:0:0:
97,202,136479,1,0,0:0:0:0:
202,242,136600,5,8,0:0:0:0:
72,258,136721,1,0,0:0:0:0:
176,300,136842,5,0,0:0:0:0:
48,316,136963,1,0,0:0:0:0:
202,242,137084,6,0,P|240:244|276:224,1,57.7500017623902,0|0,1:0|0:0,0:0:0:0:
97,202,137326,2,0,P|56:200|23:220,1,57.7500017623902
48,316,137568,2,0,P|89:318|122:298,1,57.7500017623902,8|0,0:0|0:0,0:0:0:0:
136,248,137810,1,0,0:0:0:0:
72,258,137931,1,0,0:0:0:0:
202,242,138052,6,2,P|256:232|336:240,1,115.50000352478,0|2,1:0|0:0,0:0:0:0:
364,280,138415,1,0,0:0:0:0:
304,296,138536,1,8,0:0:0:0:
380,220,138657,2,0,B|428:216|456:224|456:224|412:248,1,115.50000352478
332,176,139020,6,0,P|296:144|296:116,1,57.7500017623902,0|0,1:0|0:0,0:0:0:0:
360,44,139262,2,0,P|368:104|336:128,1,86.6250026435853
328,120,139503,2,0,B|248:120|248:120|216:96,1,115.50000352478,8|0,0:0|0:0,0:0:0:0:
268,60,139866,1,0,0:0:0:0:
264,176,139987,6,2,L|262:246,1,57.7500017623902,0|2,1:0|0:0,0:0:0:0:
196,152,140229,2,2,L|148:208,1,57.7500017623902
96,216,140471,2,0,P|64:216|40:204,1,57.7500017623902,8|0,0:0|0:0,0:0:0:0:
148,256,140713,2,0,P|180:256|204:268,1,57.7500017623902
92,276,140955,5,0,1:0:0:0:
36,282,141076,1,0,0:0:0:0:
14,334,141197,1,0,0:0:0:0:
48,379,141318,1,0,0:0:0:0:
103,372,141439,1,8,0:0:0:0:
125,320,141560,1,0,0:0:0:0:
236,306,141681,2,0,L|308:298,1,57.7500017623902
404,344,141923,6,2,P|360:360|312:340,1,86.6250026435853
360,296,142165,6,2,B|384:232|384:232|392:264,1,86.6250026435853
340,192,142407,6,2,B|376:168|376:168|420:184,1,86.6250026435853
484,244,142649,6,2,P|448:236|480:228,1,86.6250026435853
512,312,142891,6,2,L|408:296,1,86.6250026435853
388,249,143132,6,2,B|324:261|324:261|292:252,1,86.6250026435853
256,204,143374,6,2,P|236:244|244:288,2,86.6250026435853
288,143,143858,6,0,L|306:84,1,57.7500017623902,4|0,1:0|0:0,0:0:0:0:
264,34,144100,1,0,0:0:0:0:
244,96,144221,1,0,0:0:0:0:
288,143,144342,5,8,0:0:0:0:
325,22,144463,1,0,0:0:0:0:
201,48,144584,5,0,0:0:0:0:
307,82,144705,1,0,0:0:0:0:
160,16,144826,6,0,P|144:58|141:89,1,57.7500017623902,0|0,1:0|0:0,0:0:0:0:
112,180,145068,2,0,P|127:137|130:106,1,57.7500017623902
32,72,145310,2,0,L|104:88,1,57.7500017623902,8|0,0:0|0:0,0:0:0:0:
188,120,145552,1,0,0:0:0:0:
232,204,145673,1,0,0:0:0:0:
136,200,145794,6,2,B|52:196|52:196|80:220,1,115.50000352478,0|2,1:0|0:0,0:0:0:0:
120,264,146157,1,0,0:0:0:0:
184,248,146278,1,8,0:0:0:0:
232,204,146399,2,0,P|268:168|336:180,1,115.50000352478
280,280,146762,2,0,L|292:216,1,57.7500017623902,0|0,1:0|0:0,0:0:0:0:
404,212,147003,2,0,L|342:233,1,57.7500017623902
284,136,147245,2,0,L|333:178,1,57.7500017623902,8|0,0:0|0:0,0:0:0:0:
344,296,147487,6,0,B|360:320|360:320|420:328,1,86.6250026435853
436,328,147729,1,0,1:0:0:0:
444,264,147850,1,0,0:0:0:0:
404,212,147971,1,2,0:0:0:0:
340,200,148092,1,0,0:0:0:0:
284,232,148213,2,0,P|248:244|208:236,1,57.7500017623902
172,212,148455,1,0,0:0:0:0:
228,180,148576,1,0,0:0:0:0:
172,276,148697,6,0,P|143:276|116:286,1,57.7500017623902,0|0,1:0|0:0,0:0:0:0:
228,242,148939,2,0,P|257:242|284:232,1,57.7500017623902
210,119,149181,2,0,P|170:151|178:220,1,115.50000352478,8|0,0:0|0:0,0:0:0:0:
228,180,149544,1,0,0:0:0:0:
276,132,149665,6,2,B|304:72|304:72|312:104,1,86.6250026435853
244,56,149907,6,2,P|272:20|316:12,1,86.6250026435853
368,48,150149,6,2,B|412:56|412:56|392:104,1,86.6250026435853
344,144,150391,6,2,P|348:180|360:144,1,86.6250026435853
408,224,150632,6,2,P|432:184|416:124,1,86.6250026435853
344,240,150874,6,2,L|448:248,1,86.6250026435853
444,308,151116,6,2,P|480:288|488:228,2,96.250002937317
400,360,151600,5,4,1:0:0:0:
344,240,151842,5,4,0:0:0:0:
240,256,158858,6,2,P|204:276|156:272,1,78.75
192,216,159100,6,2,B|192:152|192:152|212:172,1,78.75
256,192,159342,5,4,0:0:0:0:
112,248,159584,5,4,0:0:0:0:
256,192,166116,12,0,166963,0:0:0:0:
208,192,167084,5,4,0:0:0:0:
328,136,167326,5,4,0:0:0:0:
316,260,167568,6,0,B|344:256|344:256|360:232,1,52.5000020027161
360,216,167810,1,0,0:0:0:0:
260,296,168052,6,0,L|252:360,1,59.0625022530557
260,368,168294,1,0,0:0:0:0:
396,320,168536,2,0,L|312:328,1,78.7500030040742
256,232,169020,5,0,0:0:0:0:
200,200,169141,1,0,0:0:0:0:
256,168,169262,1,0,0:0:0:0:
256,232,169382,2,0,P|236:252|172:256,1,78.7500030040742
136,224,169745,1,0,0:0:0:0:
88,176,169866,1,0,0:0:0:0:
152,160,169987,2,0,P|176:156|200:136,1,39.3750015020371
72,240,170229,2,0,P|48:244|24:264,1,39.3750015020371
152,160,170592,5,0,0:0:0:0:
168,96,170713,1,0,0:0:0:0:
184,32,170834,1,0,0:0:0:0:
233,81,170955,5,0,0:0:0:0:
168,96,171076,1,0,0:0:0:0:
104,111,171197,1,0,0:0:0:0:
216,144,171439,2,0,P|248:160|304:156,1,78.7500030040742
355,252,171923,1,0,0:0:0:0:
295,224,172044,1,0,0:0:0:0:
350,187,172165,1,0,0:0:0:0:
484,232,172407,2,0,P|452:216|396:220,1,78.7500030040742
295,224,172891,5,0,0:0:0:0:
350,187,173012,1,0,0:0:0:0:
405,150,173132,1,0,0:0:0:0:
460,113,173253,2,0,B|480:96|480:96|412:84,1,78.7500030040742
364,80,173616,1,0,0:0:0:0:
299,73,173737,1,0,0:0:0:0:
232,68,173858,6,0,P|180:76|148:96,1,78.7500030040742
76,172,174221,2,0,P|128:164|160:144,1,78.7500030040742
212,128,174584,1,0,0:0:0:0:
157,88,174705,1,0,0:0:0:0:
150,151,174826,5,4,0:0:0:0:
299,73,175068,5,4,0:0:0:0:
212,128,175310,6,0,L|208:180,2,42
299,73,175794,1,0,0:0:0:0:
360,76,175915,1,0,0:0:0:0:
420,80,176036,1,0,0:0:0:0:
327,126,176278,2,0,P|319:162|319:178,1,44.6250008511543
368,232,176520,2,0,P|376:196|376:180,1,44.6250008511543
318,169,176762,5,0,0:0:0:0:
260,200,176882,1,0,0:0:0:0:
241,261,177003,1,0,0:0:0:0:
269,321,177124,2,0,L|366:297,1,89.2500017023087
368,232,177487,1,0,0:0:0:0:
304,247,177608,1,0,0:0:0:0:
241,261,177729,6,0,L|184:276,1,47.2499985580445
104,328,177971,2,0,L|161:313,1,47.2499985580445
216,376,178213,2,0,L|204:312,1,47.2499985580445
140,256,178455,2,0,L|128:192,1,47.2499985580445
148,148,178697,5,0,0:0:0:0:
196,100,178818,1,0,0:0:0:0:
260,84,178939,1,0,0:0:0:0:
140,56,179181,2,0,L|76:48,2,49.8749986681939
148,148,179665,5,0,0:0:0:0:
196,100,179786,1,0,0:0:0:0:
260,84,179907,1,0,0:0:0:0:
140,56,180149,2,0,L|76:48,2,49.8749986681939
260,84,180632,6,0,B|320:92|320:92|348:72,1,78.75
368,24,180874,6,0,P|404:28|376:60,1,78.75
380,124,181116,6,0,P|372:152|400:212,1,78.75
436,156,181358,6,0,L|344:168,1,78.75
308,204,181600,6,0,B|328:220|328:220|336:276,1,78.75
272,260,181842,6,0,P|248:232|244:188,1,70
396,252,182245,6,0,B|444:228|444:228|484:268,1,105
488,284,182568,6,2,P|468:348|420:360,1,105,0|0,1:0|0:0,0:0:0:0:
388,320,182931,1,0,0:0:0:0:
324,312,183052,2,0,P|288:312|228:344,1,105,8|0,0:0|0:0,0:0:0:0:
348,372,183415,1,0,0:0:0:0:
388,320,183536,2,0,P|400:296|400:268,1,52.5,0|0,1:0|0:0,0:0:0:0:
324,312,183778,1,0,0:0:0:0:
348,372,183899,1,0,0:0:0:0:
396,252,184020,1,8,0:0:0:0:
396,252,184262,6,0,L|332:244,1,52.5
226,244,184503,2,2,P|198:212|211:150,1,105,0|2,1:0|0:0,0:0:0:0:
253,190,184866,1,0,0:0:0:0:
286,240,184987,2,0,P|282:272|210:304,1,105,8|0,0:0|0:0,0:0:0:0:
168,276,185350,1,0,0:0:0:0:
112,248,185471,2,0,L|52:248,1,52.5,0|0,1:0|0:0,0:0:0:0:
115,310,185713,1,0,0:0:0:0:
168,276,185834,1,0,0:0:0:0:
253,190,185955,1,8,0:0:0:0:
253,190,186197,6,2,B|232:156|232:156|236:116,1,78.75
252,104,186439,2,2,P|200:104|164:56,1,105,0|2,1:0|0:0,0:0:0:0:
178,4,186802,1,0,0:0:0:0:
228,44,186923,1,8,0:0:0:0:
115,25,187165,2,0,P|83:17|55:21,1,52.5
104,88,187407,2,0,P|92:120|92:144,2,52.5,0|0|0,1:0|0:0|0:0,0:0:0:0:
115,25,187770,1,0,0:0:0:0:
228,44,187891,1,8,0:0:0:0:
228,44,188132,6,0,L|300:56,1,52.5
288,120,188374,6,2,B|332:116|332:116|352:80,1,78.75
377,18,188616,6,2,P|349:54|349:90,1,78.75
484,88,188858,6,2,L|396:68,1,78.75
404,180,189100,6,2,P|412:140|384:148,1,78.75
424,240,189342,6,2,P|456:224|480:168,1,78.75
360,232,189584,6,2,L|280:244,1,78.75
332,304,189826,6,2,B|384:296|384:296|424:320,2,87.5
260,312,190310,6,0,P|232:300|216:272,1,52.5,4|0,1:0|0:0,0:0:0:0:
176,188,190552,2,0,P|204:200|220:228,1,52.5
156,256,190794,2,0,L|52:264,1,105,8|0,0:0|0:0,0:0:0:0:
24,324,191157,1,0,0:0:0:0:
92,320,191278,2,0,P|120:328|152:328,2,52.5,0|0|0,1:0|0:0|0:0,0:0:0:0:
51,264,191641,1,0,0:0:0:0:
176,188,191762,1,8,0:0:0:0:
176,188,192003,2,0,P|144:160|144:128,1,52.5
132,56,192245,6,2,B|116:104|116:104|80:116,1,78.75,0|2,1:0|0:0,0:0:0:0:
60,116,192487,2,2,B|8:100|9:54|9:54|-8:76,1,105,2|10,0:0|0:0,0:0:0:0:
80,0,192971,2,0,L|68:72,1,52.5
132,56,193213,2,0,P|164:72|196:64,1,52.5,0|0,1:0|0:0,0:0:0:0:
232,32,193455,1,0,0:0:0:0:
172,8,193576,1,0,0:0:0:0:
209,128,193697,1,8,0:0:0:0:
209,128,193939,6,2,B|216:148|216:148|284:180,1,78.75
288,184,194181,2,2,P|320:208|312:284,1,105,0|2,1:0|0:0,0:0:0:0:
260,304,194544,1,0,0:0:0:0:
204,256,194665,2,0,B|184:240|184:240|272:244,1,105,8|0,0:0|0:0,0:0:0:0:
322,269,195028,1,0,0:0:0:0:
320,332,195149,2,0,L|388:336,1,52.5,0|0,1:0|0:0,0:0:0:0:
412,292,195391,1,0,0:0:0:0:
322,269,195512,1,0,0:0:0:0:
288,184,195632,1,8,0:0:0:0:
288,184,195874,6,0,L|300:116,1,52.5
360,120,196116,6,2,B|392:140|392:140|440:132,1,78.75
424,40,196358,6,2,B|416:20|416:20|400:88,1,78.75
496,108,196600,6,2,P|508:92|472:100,1,78.75
492,184,196842,6,2,L|392:200,1,78.75
328,256,197084,6,2,P|352:200|356:164,1,78.75
304,113,197326,6,2,P|332:93|360:125,1,78.75
296,172,197568,5,8,0:0:0:0:
232,184,197689,1,0,0:0:0:0:
168,196,197810,1,0,0:0:0:0:
104,208,197931,1,0,0:0:0:0:
148,84,198052,5,4,1:0:0:0:
104,208,198173,1,0,0:0:0:0:
212,72,198294,5,0,0:0:0:0:
168,196,198415,1,0,0:0:0:0:
276,60,198536,5,8,0:0:0:0:
232,184,198657,1,0,0:0:0:0:
340,48,198778,5,0,0:0:0:0:
296,172,198899,1,0,0:0:0:0:
276,236,199020,6,0,P|272:272|288:312,1,62.9999980773926,0|0,1:0|0:0,0:0:0:0:
340,384,199262,2,0,P|344:348|328:308,1,62.9999980773926
220,360,199503,2,0,L|292:356,1,62.9999980773926,8|0,0:0|0:0,0:0:0:0:
336,260,199745,1,0,0:0:0:0:
276,236,199866,1,0,0:0:0:0:
210,246,199987,6,2,B|158:270|118:274|118:274|142:258,1,125.999996154785,0|2,1:0|0:0,0:0:0:0:
232,184,200350,1,0,0:0:0:0:
276,236,200471,1,8,0:0:0:0:
336,260,200592,2,0,B|388:256|420:228|420:228|396:232|372:220,1,125.999996154785
468,188,200955,2,0,P|480:232|468:260,1,62.9999980773926,0|0,1:0|0:0,0:0:0:0:
408,164,201197,2,0,L|424:52,1,94.499997116089
448,80,201439,2,0,B|480:100|480:100|384:88,1,125.999996154785,8|0,0:0|0:0,0:0:0:0:
332,100,201802,1,0,0:0:0:0:
268,80,201923,6,2,P|232:56|224:20,1,62.9999980773926,0|2,1:0|0:0,0:0:0:0:
284,144,202165,2,2,P|312:160|328:192,1,62.9999980773926
216,124,202407,2,0,L|134:101,1,62.9999980773926,8|0,0:0|0:0,0:0:0:0:
204,188,202649,2,0,L|285:210,1,62.9999980773926
204,188,202891,5,0,1:0:0:0:
106,164,203012,1,0,0:0:0:0:
222,248,203132,5,0,0:0:0:0:
124,225,203253,1,0,0:0:0:0:
240,309,203374,5,8,0:0:0:0:
142,285,203495,1,0,0:0:0:0:
258,369,203615,5,0,0:0:0:0:
160,346,203736,1,0,0:0:0:0:
264,304,203858,6,2,B|284:296|284:296|368:332,1,94.499997116089
456,316,204100,6,2,P|440:360|404:340,1,94.499997116089
364,272,204342,6,2,B|395:237|395:237|405:284,1,94.499997116089
312,236,204584,6,2,B|364:180|364:180|400:172,1,94.499997116089
468,164,204826,6,2,P|484:200|448:172,1,94.499997116089
420,128,205068,6,2,B|408:48|408:48|376:48,1,94.499997116089
332,40,205310,5,0,0:0:0:0:
268,32,205431,1,0,0:0:0:0:
204,24,205552,1,0,0:0:0:0:
140,16,205673,1,0,0:0:0:0:
164,76,205794,5,4,1:1:0:0:
296,92,205915,1,0,0:0:0:0:
152,128,206036,5,0,0:0:0:0:
284,144,206157,1,0,0:0:0:0:
140,180,206278,5,8,0:0:0:0:
272,196,206399,1,0,0:0:0:0:
128,232,206520,5,0,0:0:0:0:
260,248,206641,1,0,0:0:0:0:
196,212,206762,6,0,P|196:260|216:284,1,62.9999980773926,0|0,1:0|0:0,0:0:0:0:
256,368,207003,2,0,P|256:320|236:296,1,62.9999980773926
136,348,207245,2,0,P|180:348|208:340,1,62.9999980773926,8|0,0:0|0:0,0:0:0:0:
260,248,207487,1,0,0:0:0:0:
324,236,207608,1,0,0:0:0:0:
388,236,207729,6,2,B|432:240|488:260|488:260|456:268,1,125.999996154785,0|2,1:0|0:0,0:0:0:0:
417,304,208092,1,0,0:0:0:0:
356,292,208213,1,8,0:0:0:0:
324,236,208334,2,0,B|312:176|314:137|314:137|338:175,1,125.999996154785
442,125,208697,6,0,P|406:152|323:157,1,125.999996154785,0|0,1:0|0:0,0:0:0:0:
277,196,209060,1,0,0:0:0:0:
212,191,209181,2,0,P|248:164|331:159,1,125.999996154785,8|0,0:0|0:0,0:0:0:0:
341,217,209544,1,0,0:0:0:0:
277,196,209665,5,0,1:0:0:0:
212,191,209786,1,0,0:0:0:0:
146,200,209907,1,0,0:0:0:0:
85,224,210028,1,0,0:0:0:0:
167,312,210149,6,0,B|192:338|192:338|205:307|183:239,1,125.999996154785,8|0,0:0|0:0,0:0:0:0:
146,200,210512,1,0,0:0:0:0:
95,158,210632,1,0,1:0:0:0:
56,104,210753,1,0,0:0:0:0:
33,44,210874,2,0,P|84:33|121:34,1,62.9999980773926
240,72,211116,6,0,P|172:96|100:84,1,125.999996154785,8|0,0:0|0:0,0:0:0:0:
256,192,211600,12,4,213536,0:0:0:0:
