osu file format v14

[General]
AudioFilename: audio.mp3
AudioLeadIn: 0
PreviewTime: 65955
Countdown: 0
SampleSet: Soft
StackLeniency: 0.6
Mode: 0
LetterboxInBreaks: 0
WidescreenStoryboard: 1

[Editor]
DistanceSpacing: 1
BeatDivisor: 4
GridSize: 32
TimelineZoom: 2.650001

[Metadata]
Title:Lone Digger
TitleUnicode:Lone Digger
Artist:Caravan Palace
ArtistUnicode:Caravan Palace
Creator:Ohai
Version:Halli's Hard
Source:
Tags:caravan palace lone digger palace caravan digger lone funk electronic swing electro swing Bakari riffy Elirac Halliday P330 FruityEnLoops Hayu Peuniak Cooldude4232 yoshee4232 Wii2ZeeBro Kondou-Shinichi
BeatmapID:1399239
BeatmapSetID:454079

[Difficulty]
HPDrainRate:6
CircleSize:4
OverallDifficulty:6
ApproachRate:7.5
SliderMultiplier:1.99999995231628
SliderTickRate:1

[Events]
//Background and Video events
0,0,"bg.jpg",0,0
//Break Periods
2,97607,104249
2,128574,135216
2,151801,157958
2,159541,166184
2,168251,173926
//Storyboard Layer 0 (Background)
//Storyboard Layer 1 (Fail)
//Storyboard Layer 2 (Pass)
//Storyboard Layer 3 (Foreground)
//Storyboard Layer 4 (Overlay)
//Storyboard Sound Samples

[TimingPoints]
633,483.870967741935,4,2,0,60,1,0
633,-100,4,2,0,60,0,0
14181,-100,4,2,0,20,0,0
15149,-100,4,2,0,30,0,0
16116,-100,4,2,0,40,0,0
17084,-100,4,2,0,50,0,0
18052,-100,4,2,0,60,0,0
19745,-100,4,3,0,40,0,0
19987,-100,4,3,0,80,0,0
33536,-100,4,2,0,20,0,0
35471,-200,4,2,0,40,0,0
43213,-200,4,2,0,60,0,0
50955,-100,4,1,0,60,0,0
64503,-100,4,2,0,20,0,0
65955,-200,4,2,0,60,0,0
66439,-80,4,1,0,80,0,1
79987,-80,4,2,0,80,0,1
81318,-200,4,2,0,60,0,1
81923,-100,4,3,0,80,0,0
95471,-100,4,2,0,60,0,0
97407,-200,4,2,0,20,0,0
105149,-200,4,2,0,20,0,0
106116,-166.666666666667,4,2,0,30,0,0
107084,-142.857142857143,4,2,0,50,0,0
108052,-125,4,2,0,60,0,0
109020,-111.111111111111,4,2,0,80,0,0
109987,-99.9999999999999,4,2,0,90,0,0
110955,-79.9999999999999,4,2,0,100,0,0
111923,-133.333333333333,4,2,0,60,0,0
112891,-100,4,1,0,60,0,0
126439,-100,4,2,0,60,0,0
128374,-133.333333333333,4,2,0,20,0,0
136116,-80,4,1,0,80,0,1
151600,-153.846153846153,4,2,0,60,0,0
159342,-133.333333333333,4,2,0,60,0,0
167084,-117.647058823529,4,2,0,60,0,0
174826,-105.263157894737,4,2,0,60,0,0
180632,-200,4,2,0,60,0,0
182568,-100,4,3,0,80,0,0
198052,-80,4,1,0,80,0,1
209665,-80,4,1,0,60,0,1
211358,-80,4,2,0,60,0,1
211600,-133.333333333333,4,2,0,60,0,0
213536,-200,4,2,0,60,0,0

[Colours]
Combo1 : 209,202,176
Combo2 : 115,44,123
Combo3 : 179,179,215
Combo4 : 68,50,102

[HitObjects]
256,192,14181,12,2,18052,0:0:0:0:
292,82,19745,5,2,0:0:0:0:
292,82,19987,2,0,P|337:115|354:168,1,99.999997615814,4|2,0:0|0:0,0:0:0:0:
317,248,20471,2,0,P|272:215|254:164,1,99.999997615814,8|2,0:0|0:0,0:0:0:0:
352,154,20955,1,2,0:0:0:0:
352,154,21076,2,0,L|445:200,1,99.999997615814,2|2,0:0|0:0,0:0:0:0:
485,222,21439,1,10,0:0:0:0:
429,305,21681,1,2,0:0:0:0:
333,333,21923,6,0,B|284:344|284:344|240:300,1,99.999997615814,4|2,0:0|0:0,0:0:0:0:
274,211,22407,2,0,B|323:200|323:200|367:244,1,99.999997615814,8|2,0:0|0:0,0:0:0:0:
248,308,22891,1,2,0:0:0:0:
248,308,23012,2,0,L|138:288,1,99.999997615814,2|2,0:0|0:0,0:0:0:0:
110,283,23374,1,10,0:0:0:0:
152,192,23616,1,2,0:0:0:0:
152,91,23858,6,0,P|102:104|66:139,1,99.999997615814,4|2,0:0|0:0,0:0:0:0:
152,192,24342,2,0,P|201:205|250:193,1,99.999997615814,8|2,0:0|0:0,0:0:0:0:
348,194,24826,1,2,0:0:0:0:
348,194,24947,2,0,L|328:88,1,99.999997615814,2|2,0:0|0:0,0:0:0:0:
320,56,25310,1,10,0:0:0:0:
230,100,25552,1,2,0:0:0:0:
230,200,25794,6,0,B|230:253|230:253|265:288,2,99.999997615814,6|2|8,0:0|0:0|0:0,0:0:0:0:
329,211,26520,1,2,0:0:0:0:
220,107,26762,2,0,B|182:69|182:69|132:65,2,99.999997615814,6|2|8,0:0|0:0|0:0,0:0:0:0:
142,170,27487,1,2,0:0:0:0:
142,170,27729,6,0,P|157:222|187:266,1,99.999997615814,4|2,0:0|0:0,0:0:0:0:
282,260,28213,2,0,P|319:298|342:346,1,99.999997615814,8|2,0:0|0:0,0:0:0:0:
411,268,28697,1,2,0:0:0:0:
411,268,28818,2,0,L|427:168,1,99.999997615814,2|2,0:0|0:0,0:0:0:0:
432,129,29181,1,10,0:0:0:0:
377,44,29423,1,2,0:0:0:0:
294,100,29665,6,0,B|247:118|247:118|201:100,1,99.999997615814,4|2,0:0|0:0,0:0:0:0:
156,190,30149,2,0,B|201:209|201:209|221:255,1,99.999997615814,8|2,0:0|0:0,0:0:0:0:
181,347,30632,1,2,0:0:0:0:
181,347,30753,2,0,P|234:355|286:333,1,99.999997615814,2|2,0:0|0:0,0:0:0:0:
307,313,31116,1,10,0:0:0:0:
307,212,31358,1,2,0:0:0:0:
406,181,31600,6,0,L|479:254,1,99.999997615814,4|2,0:0|0:0,0:0:0:0:
497,153,32084,2,0,L|424:80,1,99.999997615814,8|2,0:0|0:0,0:0:0:0:
331,114,32568,2,0,P|268:115|294:180,2,149.999996423721,4|2|2,0:0|0:0|0:0,0:0:0:0:
256,192,33536,12,8,35471,0:0:0:0:
375,88,35955,5,2,0:0:0:0:
372,80,36923,1,0,0:0:0:0:
292,218,37891,5,2,0:0:0:0:
289,210,38858,1,0,0:0:0:0:
173,100,39826,5,2,0:0:0:0:
170,92,40794,1,0,0:0:0:0:
36,196,41278,6,0,P|44:245|96:285,1,99.999997615814,8|0,0:0|0:0,0:0:0:0:
223,240,42245,2,0,P|261:271|270:336,1,99.999997615814
373,318,43213,6,0,L|382:231,1,74.9999982118605,4|2,0:0|0:0,0:0:0:0:
385,205,43697,1,2,0:0:0:0:
362,133,43939,1,2,0:0:0:0:
305,83,44181,2,0,P|263:73|245:74,1,49.999998807907,8|0,0:0|0:0,0:0:0:0:
186,100,44665,2,0,P|144:110|126:109,1,49.999998807907,0|2,0:0|0:0,0:0:0:0:
84,163,45149,6,0,L|99:241,1,74.9999982118605,4|2,0:0|0:0,0:0:0:0:
106,273,45632,1,2,0:0:0:0:
167,316,45874,1,2,0:0:0:0:
241,323,46116,2,0,P|284:309|294:300,1,49.999998807907,8|0,0:0|0:0,0:0:0:0:
341,254,46600,2,0,P|381:233|394:232,1,49.999998807907,0|2,0:0|0:0,0:0:0:0:
438,179,47084,5,4,0:0:0:0:
384,125,47326,1,2,0:0:0:0:
330,71,47568,1,2,0:0:0:0:
223,177,48052,2,0,L|212:242,1,49.999998807907,8|0,0:0|0:0,0:0:0:0:
283,256,48536,2,0,L|317:215,1,49.999998807907,0|2,0:0|0:0,0:0:0:0:
293,145,49020,1,4,0:0:0:0:
316,53,50955,6,0,L|387:131,1,99.999997615814,4|2,0:0|0:0,0:0:0:0:
445,205,51439,1,10,0:0:0:0:
392,290,51681,1,0,0:0:0:0:
292,279,51923,2,0,P|249:256|213:207,1,99.999997615814,8|2,0:0|0:0,0:0:0:0:
178,124,52407,1,10,0:0:0:0:
225,35,52649,1,2,0:0:0:0:
125,44,52891,6,0,P|91:87|87:151,1,99.999997615814,4|2,0:0|0:0,0:0:0:0:
134,216,53374,2,0,P|155:266|143:329,1,99.999997615814,10|2,0:0|0:0,0:0:0:0:
249,333,53858,1,8,0:0:0:0:
323,266,54100,1,2,0:0:0:0:
338,167,54342,2,0,B|342:114|342:114|304:76,1,99.999997615814,10|0,0:0|0:0,0:0:0:0:
394,28,54826,6,0,P|430:62|445:124,1,99.999997615814,4|2,0:0|0:0,0:0:0:0:
431,208,55310,1,10,0:0:0:0:
352,270,55552,1,2,0:0:0:0:
269,326,55794,2,0,L|173:292,1,99.999997615814,8|2,0:0|0:0,0:0:0:0:
75,308,56278,2,0,B|79:253|79:253|110:216,1,99.999997615814,10|0,0:0|0:0,0:0:0:0:
248,164,56762,5,4,0:0:0:0:
341,199,57003,1,2,0:0:0:0:
422,140,57245,1,10,0:0:0:0:
330,100,57487,1,0,0:0:0:0:
281,12,57729,1,8,0:0:0:0:
210,82,57971,1,2,0:0:0:0:
124,30,58213,1,10,0:0:0:0:
97,126,58455,1,2,0:0:0:0:
97,126,58697,6,0,L|119:234,1,99.999997615814,4|2,0:0|0:0,0:0:0:0:
146,320,59181,1,10,0:0:0:0:
242,346,59423,1,0,0:0:0:0:
340,327,59665,2,0,P|397:277|401:237,1,99.999997615814,8|2,0:0|0:0,0:0:0:0:
422,158,60149,2,0,P|472:101|512:97,1,99.999997615814,10|2,0:0|0:0,0:0:0:0:
412,36,60632,5,4,0:0:0:0:
336,101,60874,1,2,0:0:0:0:
236,89,61116,1,10,0:0:0:0:
136,76,61358,1,2,0:0:0:0:
136,76,61600,2,0,B|113:125|113:125|123:178,1,99.999997615814,8|2,0:0|0:0,0:0:0:0:
149,266,62084,1,10,0:0:0:0:
247,283,62326,1,0,0:0:0:0:
279,188,62568,6,0,P|306:140|345:111,1,99.999997615814,4|2,0:0|0:0,0:0:0:0:
439,94,63052,1,10,0:0:0:0:
470,188,63294,1,2,0:0:0:0:
413,270,63536,2,0,L|329:328,1,99.999997615814,8|2,0:0|0:0,0:0:0:0:
289,356,63899,1,0,0:0:0:0:
289,356,64020,1,10,0:0:0:0:
218,285,64262,1,0,0:0:0:0:
256,192,64503,12,0,65955,0:0:0:0:
374,71,66439,6,2,L|310:89,1,62.4999985098837,6|0,0:0|0:0,0:0:0:0:
310,138,66681,2,2,L|374:156,1,62.4999985098837,2|0,0:0|0:0,0:0:0:0:
398,198,66923,2,0,P|363:261|304:278,1,124.999997019767,8|0,0:0|0:0,0:0:0:0:
266,271,67286,1,0,0:0:0:0:
217,260,67407,2,0,B|155:272|155:272|121:328,1,124.999997019767,8|0,0:0|0:0,0:0:0:0:
34,236,67891,2,0,P|40:198|62:170,1,62.4999985098837,8|0,0:0|0:0,0:0:0:0:
90,142,68132,2,2,P|102:106|98:70,1,62.4999985098837,2|0,0:0|0:0,0:0:0:0:
135,43,68374,6,2,L|257:66,1,124.999997019767,6|0,0:0|0:0,0:0:0:0:
346,155,68858,2,0,B|324:209|367:217|348:278,1,124.999997019767,8|0,0:0|0:0,0:0:0:0:
324,320,69221,1,0,0:0:0:0:
279,341,69342,2,0,P|245:350|208:347,1,62.4999985098837,8|0,0:0|0:0,0:0:0:0:
170,331,69584,1,0,0:0:0:0:
236,256,69826,1,8,0:0:0:0:
196,164,70068,1,2,0:0:0:0:
196,164,70310,6,2,B|161:158|137:140|137:140|110:158|80:164,1,124.999997019767,6|0,0:0|0:0,0:0:0:0:
107,40,70794,2,0,P|135:35|186:43,1,62.4999985098837,8|0,0:0|0:0,0:0:0:0:
213,60,71036,2,0,P|241:65|292:57,1,62.4999985098837
322,44,71278,1,8,0:0:0:0:
350,32,71399,1,0,0:0:0:0:
381,32,71520,1,0,0:0:0:0:
409,43,71641,1,0,0:0:0:0:
430,65,71762,2,0,P|441:122|397:176,1,124.999997019767,8|0,0:0|0:0,0:0:0:0:
374,184,72124,1,0,0:0:0:0:
343,191,72245,6,0,B|305:204|305:204|300:249|300:249|334:277,2,124.999997019767,6|2|8,0:0|0:0|0:0,0:0:0:0:
454,248,72971,1,2,0:0:0:0:
289,337,73213,2,0,B|222:284|222:284|226:224,2,124.999997019767,10|2|8,0:0|0:0|0:0,0:0:0:0:
119,255,73939,1,2,0:0:0:0:
251,122,74181,6,2,L|301:162,1,62.4999985098837,6|0,0:0|0:0,0:0:0:0:
335,125,74423,2,2,L|379:169,1,62.4999985098837,2|0,0:0|0:0,0:0:0:0:
414,133,74665,2,0,P|448:77|408:37,1,124.999997019767,8|0,0:0|0:0,0:0:0:0:
365,27,75028,1,0,0:0:0:0:
315,32,75149,2,0,P|261:32|192:18,1,124.999997019767,8|0,0:0|0:0,0:0:0:0:
102,106,75632,2,0,B|130:129|130:129|170:129,1,62.4999985098837,8|0,0:0|0:0,0:0:0:0:
191,164,75874,2,2,B|226:158|226:158|261:178,1,62.4999985098837,2|0,0:0|0:0,0:0:0:0:
285,135,76116,6,2,L|399:194,1,124.999997019767,6|0,0:0|0:0,0:0:0:0:
484,281,76600,2,0,P|436:308|365:311,1,124.999997019767,8|0,0:0|0:0,0:0:0:0:
320,292,76963,1,0,0:0:0:0:
320,292,77084,1,8,0:0:0:0:
285,198,77326,1,0,0:0:0:0:
191,164,77568,1,8,0:0:0:0:
120,234,77810,1,2,0:0:0:0:
120,234,78052,6,2,L|147:306,1,62.4999985098837,6|0,0:0|0:0,0:0:0:0:
188,312,78294,2,2,L|260:285,1,62.4999985098837,2|0,0:0|0:0,0:0:0:0:
293,272,78536,1,8,0:0:0:0:
340,184,78778,2,0,L|313:128,1,62.4999985098837
262,127,79020,2,0,L|206:100,1,62.4999985098837,8|0,0:0|0:0,0:0:0:0:
205,50,79262,1,0,0:0:0:0:
105,57,79503,1,8,0:0:0:0:
47,138,79745,1,0,0:0:0:0:
47,138,79987,6,0,P|50:177|62:199,1,62.4999985098837,2|0,0:0|0:0,0:0:0:0:
111,197,80229,2,0,P|127:232|128:257,1,62.4999985098837
182,308,80471,2,0,P|221:305|243:293,1,62.4999985098837,2|0,0:0|0:0,0:0:0:0:
241,243,80713,2,0,P|276:226|301:225,1,62.4999985098837
352,171,80955,2,0,P|349:132|337:110,2,62.4999985098837,2|0|0,0:0|0:0|0:0,0:0:0:0:
370,244,81318,6,0,P|387:279|387:333,1,74.9999982118605,4|10,0:0|0:0,0:0:0:0:
290,304,81923,6,2,L|186:324,1,99.999997615814,6|0,0:1|0:0,0:1:0:0:
120,251,82407,2,0,L|163:160,1,99.999997615814,8|0,0:0|0:0,0:0:0:0:
212,73,82891,1,8,0:0:0:0:
257,94,83012,2,0,B|303:115|303:115|350:89,1,99.999997615814
388,64,83374,1,8,0:0:0:0:
458,134,83616,1,0,0:0:0:0:
458,134,83858,6,2,P|456:179|422:231,1,99.999997615814,6|0,0:1|0:0,0:1:0:0:
338,269,84342,2,0,P|302:302|286:350,1,99.999997615814,8|0,0:0|0:0,0:0:0:0:
195,306,84826,1,8,0:0:0:0:
209,258,84947,2,0,L|233:159,1,99.999997615814
244,111,85310,1,8,0:0:0:0:
150,74,85552,1,2,0:1:0:0:
150,74,85794,6,2,B|117:113|117:113|67:119,1,99.999997615814,6|0,0:1|0:0,0:1:0:0:
68,219,86278,2,0,B|116:224|116:224|149:263,1,99.999997615814,8|0,0:0|0:0,0:0:0:0:
220,334,86762,1,8,0:0:0:0:
269,331,86882,2,0,P|317:309|332:259,1,99.999997615814
327,216,87245,1,8,0:0:0:0:
256,145,87487,1,0,0:0:0:0:
405,136,87729,6,0,L|477:208,2,99.999997615814,6|2|8,0:1|0:1|0:0,0:0:0:0:
502,110,88455,1,2,0:1:0:0:
374,237,88697,2,0,L|424:325,2,99.999997615814,10|2|8,0:1|0:1|0:0,0:0:0:0:
475,237,89423,1,2,0:1:0:0:
318,326,89665,6,0,B|268:315|268:315|243:270,1,99.999997615814,6|0,0:1|0:0,0:0:0:0:
173,201,90149,2,0,B|149:158|149:158|99:147,1,99.999997615814,8|0,0:0|0:0,0:0:0:0:
99,47,90632,1,8,0:0:0:0:
148,43,90753,2,0,L|254:37,1,99.999997615814
298,35,91116,1,8,0:0:0:0:
374,99,91358,1,0,0:0:0:0:
374,99,91600,6,2,P|398:144|398:195,1,99.999997615814,6|0,0:1|0:0,0:1:0:0:
326,262,92084,2,0,P|302:217|302:166,1,99.999997615814,8|0,0:0|0:0,0:0:0:0:
398,192,92568,1,8,0:0:0:0:
426,232,92689,2,0,B|451:275|451:275|424:322,1,99.999997615814
395,358,93052,1,8,0:0:0:0:
318,293,93294,1,0,0:0:0:0:
318,293,93536,6,2,L|205:293,1,99.999997615814,6|0,0:1|0:0,0:1:0:0:
168,205,94020,2,0,L|267:205,1,99.999997615814,8|0,0:0|0:0,0:0:0:0:
341,137,94503,1,8,0:0:0:0:
341,137,94624,1,0,0:0:0:0:
306,43,94866,1,0,0:0:0:0:
306,43,94987,1,8,0:0:0:0:
235,114,95229,1,0,0:0:0:0:
256,192,95471,12,8,97407,0:0:0:0:
405,259,105149,6,0,B|403:345|403:345|323:306,1,174.999995827674,8|0,0:0|0:0,0:0:0:0:
297,293,106116,2,0,B|270:198|270:198|194:283,1,209.999988584518,2|0,0:0|0:0,0:0:0:0:
168,302,107084,6,0,B|130:321|90:304|90:304|50:292|50:292|68:268|68:268|75:225|137:207,1,244.999986681938,8|0,0:0|0:0,0:0:0:0:
160,179,108052,2,0,B|136:131|157:81|157:81|172:31|172:31|202:54|202:54|256:62|278:140,1,279.999993324279,2|0,0:0|0:0,0:0:0:0:
309,123,109020,6,0,P|382:118|302:239,1,314.999982876777,8|0,0:0|0:0,0:0:0:0:
349,184,109987,2,0,B|490:184|490:184|492:233|479:273|449:298|419:324|354:331,1,349.999991655349,2|0,0:0|0:0,0:0:0:0:
256,192,110955,12,0,112407,0:0:0:0:
417,148,112891,6,0,L|341:72,1,99.999997615814,4|2,0:0|0:0,0:0:0:0:
251,46,113374,1,10,0:0:0:0:
161,91,113616,1,0,0:0:0:0:
140,188,113858,2,0,P|151:242|184:277,1,99.999997615814,8|2,0:0|0:0,0:0:0:0:
274,307,114342,1,10,0:0:0:0:
334,227,114584,1,2,0:0:0:0:
301,132,114826,6,0,L|344:42,1,99.999997615814,4|2,0:0|0:0,0:0:0:0:
428,95,115310,1,10,0:0:0:0:
442,193,115552,1,0,0:0:0:0:
402,284,115794,2,0,P|379:322|328:353,1,99.999997615814,8|2,0:0|0:0,0:0:0:0:
232,353,116278,1,10,0:0:0:0:
153,290,116520,1,2,0:0:0:0:
192,145,116762,5,4,0:0:0:0:
121,74,117003,1,2,0:0:0:0:
121,74,117245,2,0,B|86:110|86:110|70:166,1,99.999997615814,10|2,0:0|0:0,0:0:0:0:
114,249,117729,1,8,0:0:0:0:
207,285,117971,1,2,0:0:0:0:
305,268,118213,2,0,B|339:232|339:232|353:183,1,99.999997615814,10|0,0:0|0:0,0:0:0:0:
299,43,118697,5,4,0:0:0:0:
228,113,118939,1,2,0:0:0:0:
151,48,119181,1,10,0:0:0:0:
64,98,119423,1,2,0:0:0:0:
64,198,119665,1,8,0:0:0:0:
161,220,119907,1,2,0:0:0:0:
119,310,120149,1,10,0:0:0:0:
218,323,120391,1,0,0:0:0:0:
218,323,120632,6,0,L|314:282,1,99.999997615814,4|2,0:0|0:0,0:0:0:0:
395,231,121116,1,10,0:0:0:0:
351,140,121358,1,0,0:0:0:0:
251,132,121600,2,0,P|205:145|167:188,1,99.999997615814,8|2,0:0|0:0,0:0:0:0:
71,166,122084,2,0,P|61:121|79:67,1,99.999997615814,10|2,0:0|0:0,0:0:0:0:
175,53,122568,5,4,0:0:0:0:
273,35,122810,1,2,0:0:0:0:
343,105,123052,1,10,0:0:0:0:
413,175,123294,1,0,0:0:0:0:
413,175,123536,2,0,B|383:215|383:215|331:222,1,99.999997615814,8|2,0:0|0:0,0:0:0:0:
234,239,124020,2,0,B|184:245|184:245|154:285,1,99.999997615814,10|2,0:0|0:0,0:0:0:0:
84,214,124503,5,4,0:0:0:0:
125,122,124745,1,2,0:0:0:0:
220,91,124987,2,0,L|323:78,1,99.999997615814,10|2,0:0|0:0,0:0:0:0:
390,149,125471,1,8,0:0:0:0:
363,245,125713,1,2,0:0:0:0:
317,225,125834,1,0,0:0:0:0:
271,204,125955,1,10,0:0:0:0:
237,298,126197,1,0,0:0:0:0:
256,192,126439,12,0,128374,0:0:0:0:
194,58,136116,6,2,L|251:91,1,62.4999985098837,6|0,0:0|0:0,0:0:0:0:
238,139,136358,2,2,L|171:139,1,62.4999985098837,2|0,0:0|0:0,0:0:0:0:
137,174,136600,2,0,P|154:243|207:275,1,124.999997019767,8|0,0:0|0:0,0:0:0:0:
246,279,136963,1,0,0:0:0:0:
296,281,137084,2,0,B|352:308|352:308|371:371,1,124.999997019767,8|0,0:0|0:0,0:0:0:0:
479,305,137568,2,0,P|483:266|469:234,1,62.4999985098837,8|0,0:0|0:0,0:0:0:0:
449,200,137809,2,2,P|446:162|459:128,1,62.4999985098837,2|0,0:0|0:0,0:0:0:0:
432,92,138051,6,2,L|308:82,1,124.999997019767,6|0,0:0|0:0,0:0:0:0:
199,146,138535,2,0,B|206:203|162:200|165:264,1,124.999997019767,8|0,0:0|0:0,0:0:0:0:
177,311,138898,1,0,0:0:0:0:
215,343,139019,2,0,P|245:360|282:367,1,62.4999985098837,8|0,0:0|0:0,0:0:0:0:
323,361,139261,1,0,0:0:0:0:
279,272,139503,1,8,0:0:0:0:
341,193,139745,1,2,0:0:0:0:
341,193,139987,6,2,B|376:196|404:185|404:185|425:209|453:223,1,124.999997019767,6|0,0:0|0:0,0:0:0:0:
459,97,140471,2,0,P|433:84|381:79,1,62.4999985098837,8|0,0:0|0:0,0:0:0:0:
352,89,140713,2,0,P|323:86|276:65,1,62.4999985098837
251,45,140955,1,8,0:0:0:0:
227,26,141076,1,0,0:0:0:0:
197,18,141197,1,0,0:0:0:0:
167,21,141318,1,0,0:0:0:0:
141,37,141439,2,0,P|115:89|144:152,1,124.999997019767,8|0,0:0|0:0,0:0:0:0:
164,167,141801,1,0,0:0:0:0:
192,181,141922,6,0,B|225:203|225:203|218:248|218:248|178:266,2,124.999997019767,6|2|8,0:0|0:0|0:0,0:0:0:0:
70,208,142648,5,2,0:0:0:0:
207,336,142890,2,0,B|285:302|285:302|297:243,2,124.999997019767,10|2|8,0:0|0:0|0:0,0:0:0:0:
392,301,143616,1,2,0:0:0:0:
299,139,143858,6,2,L|240:164,1,62.4999985098837,6|0,0:0|0:0,0:0:0:0:
217,120,144100,2,2,L|163:151,1,62.4999985098837,2|0,0:0|0:0,0:0:0:0:
139,107,144342,2,0,P|120:44|169:15,1,124.999997019767,8|0,0:0|0:0,0:0:0:0:
214,17,144705,1,0,0:0:0:0:
261,35,144826,2,0,P|313:48|383:53,1,124.999997019767,8|0,0:0|0:0,0:0:0:0:
447,162,145309,2,0,B|414:176|414:176|375:166,1,62.4999985098837,8|0,0:0|0:0,0:0:0:0:
346,195,145551,6,2,B|313:180|313:180|274:190,1,62.4999985098837,2|0,0:0|0:0,0:0:0:0:
263,142,145793,6,2,L|137:169,1,124.999997019767,6|0,0:0|0:0,0:0:0:0:
52,257,146277,6,0,B|103:298|103:298|161:287,1,124.999997019767,8|0,0:0|0:0,0:0:0:0:
211,279,146641,1,0,0:0:0:0:
211,279,146762,1,8,0:0:0:0:
219,179,147004,1,0,0:0:0:0:
317,160,147246,1,8,0:0:0:0:
388,230,147488,1,2,0:0:0:0:
388,230,147730,6,2,P|388:265|361:302,1,62.4999985098837,6|0,0:0|0:0,0:0:0:0:
331,312,147972,2,2,P|300:313|269:301,1,62.4999985098837,2|0,0:0|0:0,0:0:0:0:
228,276,148214,1,8,0:0:0:0:
288,196,148456,2,0,L|293:134,1,62.4999985098837
249,108,148698,2,0,L|215:56,1,62.4999985098837,8|0,0:0|0:0,0:0:0:0:
166,69,148940,1,0,0:0:0:0:
36,144,149182,2,0,P|46:186|104:154,1,124.999997019767
256,192,149666,12,0,151601,0:0:0:0:
256,256,158858,6,0,B|246:219|246:219|256:191|256:191|241:158|241:158|243:129,1,129.999990949631
405,204,167084,6,0,B|339:182|310:231|243:177|243:177|208:205|208:205|175:184|175:184|123:204|89:191,1,339.999998378753
268,99,174826,6,0,B|282:148|256:193|256:193|269:213|269:213|259:235|259:235|269:256|269:256|257:281,1,189.999990396499
256,192,175794,12,0,180632,0:0:0:0:
209,85,182568,6,2,L|304:38,1,99.999997615814,6|0,0:1|0:0,0:1:0:0:
386,92,183052,2,0,L|368:191,1,99.999997615814,8|0,0:0|0:0,0:0:0:0:
343,287,183536,1,8,0:0:0:0:
294,279,183657,2,0,B|244:270|244:270|205:307,1,99.999997615814
176,341,184019,1,8,0:0:0:0:
89,292,184261,1,0,0:0:0:0:
89,292,184503,6,2,P|79:248|98:188,1,99.999997615814,6|0,0:1|0:0,0:1:0:0:
171,131,184987,2,0,P|197:89|200:39,1,99.999997615814,8|0,0:0|0:0,0:0:0:0:
299,58,185471,1,8,0:0:0:0:
298,108,185592,2,0,L|300:209,1,99.999997615814
302,259,185955,1,8,0:0:0:0:
402,270,186197,1,2,0:1:0:0:
402,270,186439,6,2,B|423:223|423:223|470:205,1,99.999997615814,6|0,0:1|0:0,0:1:0:0:
444,109,186923,2,0,B|396:116|396:116|354:87,1,99.999997615814,8|0,0:0|0:0,0:0:0:0:
268,37,187407,1,8,0:0:0:0:
221,53,187527,2,0,P|180:86|178:138,1,99.999997615814
195,179,187890,1,8,0:0:0:0:
282,229,188132,1,0,0:0:0:0:
140,276,188374,6,0,L|51:225,2,99.999997615814,6|2|8,0:1|0:1|0:0,0:0:0:0:
54,326,189100,1,2,0:1:0:0:
144,170,189342,2,0,L|72:97,2,99.999997615814,10|2|8,0:1|0:1|0:0,0:0:0:0:
46,197,190068,1,2,0:1:0:0:
175,70,190310,6,0,B|226:67|226:67|261:104,1,99.999997615814,6|0,0:1|0:0,0:0:0:0:
347,153,190794,2,0,B|381:188|381:188|432:186,1,99.999997615814,8|0,0:0|0:0,0:0:0:0:
458,283,191277,1,8,0:0:0:0:
412,299,191398,2,0,L|311:332,1,99.999997615814
269,346,191761,1,8,0:0:0:0:
180,304,192003,1,0,0:0:0:0:
180,304,192245,6,2,P|145:266|131:217,1,99.999997615814,6|0,0:1|0:0,0:1:0:0:
184,134,192729,2,0,P|218:171|232:220,1,99.999997615814,8|0,0:0|0:0,0:0:0:0:
132,221,193213,1,8,0:0:0:0:
95,189,193334,2,0,B|59:153|59:153|73:101,1,99.999997615814
93,60,193697,1,8,0:0:0:0:
184,102,193939,1,0,0:0:0:0:
184,102,194181,6,2,L|293:72,1,99.999997615814,6|0,0:1|0:0,0:1:0:0:
352,148,194665,2,0,L|256:173,1,99.999997615814,8|0,0:0|0:0,0:0:0:0:
202,259,195148,1,8,0:0:0:0:
202,259,195269,1,0,0:0:0:0:
259,340,195511,1,0,0:0:0:0:
259,340,195632,1,8,0:0:0:0:
310,254,195874,1,0,0:0:0:0:
459,249,196116,6,0,P|432:205|374:223,2,99.999997615814
472,135,196842,1,0,0:0:0:0:
321,135,197084,6,0,B|310:77|310:77|362:56,2,99.999997615814
236,188,197810,1,0,0:0:0:0:
377,311,198052,6,2,L|313:293,1,62.4999985098837,6|0,0:0|0:0,0:0:0:0:
313,244,198294,2,2,L|377:226,1,62.4999985098837,2|0,0:0|0:0,0:0:0:0:
401,184,198536,2,0,P|366:121|307:104,1,124.999997019767,8|0,0:0|0:0,0:0:0:0:
269,111,198899,1,0,0:0:0:0:
220,122,199020,2,0,B|158:110|158:110|124:54,1,124.999997019767,8|0,0:0|0:0,0:0:0:0:
37,146,199504,2,0,P|43:184|65:212,1,62.4999985098837,8|0,0:0|0:0,0:0:0:0:
93,240,199745,2,2,P|105:276|101:312,1,62.4999985098837,2|0,0:0|0:0,0:0:0:0:
138,339,199987,6,2,L|260:316,1,124.999997019767,6|0,0:0|0:0,0:0:0:0:
349,227,200471,2,0,B|327:173|370:165|351:104,1,124.999997019767,8|0,0:0|0:0,0:0:0:0:
327,62,200834,1,0,0:0:0:0:
282,41,200955,2,0,P|248:32|211:35,1,62.4999985098837,8|0,0:0|0:0,0:0:0:0:
173,51,201197,1,0,0:0:0:0:
239,126,201439,1,8,0:0:0:0:
199,218,201681,1,2,0:0:0:0:
199,218,201923,6,2,B|164:224|140:242|140:242|113:224|83:218,1,124.999997019767,6|0,0:0|0:0,0:0:0:0:
110,342,202407,2,0,P|138:347|189:339,1,62.4999985098837,8|0,0:0|0:0,0:0:0:0:
216,322,202649,2,0,P|244:317|295:325,1,62.4999985098837
325,338,202891,1,8,0:0:0:0:
353,350,203012,1,0,0:0:0:0:
384,350,203133,1,0,0:0:0:0:
412,339,203254,1,0,0:0:0:0:
433,317,203375,2,0,P|444:260|400:206,1,124.999997019767,8|0,0:0|0:0,0:0:0:0:
377,198,203737,1,0,0:0:0:0:
346,191,203858,6,0,B|308:178|308:178|303:133|303:133|337:105,2,124.999997019767,6|2|8,0:0|0:0|0:0,0:0:0:0:
457,134,204584,1,2,0:0:0:0:
292,45,204826,2,0,B|225:98|225:98|229:158,2,124.999997019767,10|2|8,0:0|0:0|0:0,0:0:0:0:
122,127,205552,1,2,0:0:0:0:
254,260,205794,6,2,L|304:220,1,62.4999985098837,6|0,0:0|0:0,0:0:0:0:
338,257,206036,2,2,L|382:213,1,62.4999985098837,2|0,0:0|0:0,0:0:0:0:
417,249,206278,2,0,P|451:305|411:345,1,124.999997019767,8|0,0:0|0:0,0:0:0:0:
368,355,206641,1,0,0:0:0:0:
318,350,206762,2,0,P|264:350|195:364,1,124.999997019767,8|0,0:0|0:0,0:0:0:0:
105,276,207245,2,0,B|133:253|133:253|173:253,1,62.4999985098837,8|0,0:0|0:0,0:0:0:0:
194,218,207487,2,2,B|229:224|229:224|264:204,1,62.4999985098837,2|0,0:0|0:0,0:0:0:0:
288,247,207729,6,2,L|402:188,1,124.999997019767,6|0,0:0|0:0,0:0:0:0:
476,101,208213,2,0,P|428:74|357:71,1,124.999997019767,8|0,0:0|0:0,0:0:0:0:
323,90,208576,1,0,0:0:0:0:
323,90,208697,1,8,0:0:0:0:
288,184,208939,1,0,0:0:0:0:
194,218,209181,1,8,0:0:0:0:
123,148,209423,1,2,0:0:0:0:
123,148,209665,6,2,L|150:76,1,62.4999985098837,6|0,0:0|0:0,0:0:0:0:
191,70,209907,2,2,L|263:97,1,62.4999985098837,2|0,0:0|0:0,0:0:0:0:
296,110,210149,1,8,0:0:0:0:
343,198,210391,2,0,L|316:254,1,62.4999985098837
265,255,210633,2,0,L|209:282,1,62.4999985098837,8|0,0:0|0:0,0:0:0:0:
208,332,210875,1,0,0:0:0:0:
108,325,211116,1,8,0:0:0:0:
256,192,211358,12,0,213536,0:0:0:0:
