osu file format v14

[General]
AudioFilename: audio.mp3
AudioLeadIn: 0
PreviewTime: 65955
Countdown: 0
SampleSet: Normal
StackLeniency: 0.7
Mode: 0
LetterboxInBreaks: 0
WidescreenStoryboard: 0

[Editor]
DistanceSpacing: 3
BeatDivisor: 4
GridSize: 8
TimelineZoom: 3.250001

[Metadata]
Title:Lone Digger
TitleUnicode:Lone Digger
Artist:Caravan Palace
ArtistUnicode:Caravan Palace
Creator:Ohai
Version:Bakari's Easy
Source:
Tags:caravan palace lone digger palace caravan digger lone funk electronic swing electro swing Bakari riffy Elirac Halliday P330 FruityEnLoops Hayu Peuniak Cooldude4232 yoshee4232 Wii2ZeeBro Kondou-Shinichi
BeatmapID:975177
BeatmapSetID:454079

[Difficulty]
HPDrainRate:2
CircleSize:3
OverallDifficulty:2
ApproachRate:3
SliderMultiplier:1.1
SliderTickRate:1

[Events]
//Background and Video events
0,0,"bg.jpg",0,0
//Break Periods
2,97417,109030
2,128385,134191
//Storyboard Layer 0 (Background)
//Storyboard Layer 1 (Fail)
//Storyboard Layer 2 (Pass)
//Storyboard Layer 3 (Foreground)
//Storyboard Layer 4 (Overlay)
//Storyboard Sound Samples

[TimingPoints]
633,483.870967741935,4,1,0,65,1,0
27366,-100,4,1,0,65,0,0
27729,-100,4,1,0,65,0,0
29060,-100,4,1,0,65,0,0
35481,-100,4,1,0,65,0,0
50965,-100,4,1,0,65,0,0
65955,-100,4,2,0,80,0,0
66449,-100,4,2,0,80,0,1
70068,-100,4,2,0,80,0,1
81439,-100,4,1,0,65,0,1
81933,-100,4,1,0,65,0,0
89423,-100,4,1,0,65,0,0
89665,-100,4,1,0,65,0,0
96560,-100,4,1,0,65,0,0
97286,-100,4,1,0,65,0,0
105149,-100,4,1,0,65,0,0
112891,-100,4,1,0,65,0,0
115068,-100,4,1,0,65,0,0
116762,-100,4,1,0,65,0,0
119665,-100,4,1,0,65,0,0
119907,-100,4,1,0,65,0,0
123536,-100,4,1,0,65,0,0
126439,-100,4,2,0,65,0,0
128253,-100,4,2,0,65,0,0
128264,-100,4,1,0,65,0,0
135632,-100,4,2,0,80,0,0
136127,-100,4,2,0,80,0,1
138052,-100,4,2,0,80,0,1
151358,-100,4,1,0,65,0,1
151600,-100,4,1,0,65,0,1
151610,-100,4,1,0,65,0,0
158858,-100,4,1,0,65,0,0
159100,-100,4,1,0,65,0,0
166116,-100,4,2,0,65,0,0
167094,-100,4,1,0,65,0,0
174100,-100,4,2,0,65,0,0
174463,-100,4,2,0,65,0,0
180632,-100,4,1,0,65,0,0
182205,-100,4,1,0,65,0,0
182568,-100,4,1,0,65,0,0
188737,-100,4,1,0,65,0,0
190068,-100,4,1,0,65,0,0
197326,-100,4,1,0,65,0,0
197568,-100,4,1,0,65,0,0
198052,-100,4,2,0,80,0,0
198062,-100,4,1,0,65,0,0
203858,-100,4,2,0,80,0,0
204342,-100,4,2,0,80,0,0
204826,-100,4,2,0,80,0,0
205310,-100,4,2,0,80,0,0
209665,-100,4,2,0,80,0,0
211116,-100,4,2,0,80,0,0
211237,-100,4,1,0,65,0,0
213536,-100,4,1,0,65,0,0
213546,-100,4,2,0,80,0,0

[Colours]
Combo1 : 255,223,128
Combo2 : 132,255,132
Combo3 : 130,186,255
Combo4 : 247,108,130

[HitObjects]
48,72,19987,6,0,B|160:44|160:44|216:56|216:56|280:36,1,220,0|0,1:1|1:1,1:1:0:0:
496,108,21923,2,0,P|504:176|484:224,1,110,0|0,1:1|1:1,1:1:0:0:
424,316,22891,1,0,1:1:0:0:
220,184,23858,6,0,P|168:208|128:268,1,110,0|0,1:1|1:1,0:0:0:0:
200,352,24826,2,0,L|312:344,1,110,0|0,1:1|1:1,1:1:0:0:
340,228,25794,2,0,B|360:188|324:124|324:124|292:68|328:12,1,220,0|0,0:0|1:1,1:1:0:0:
432,72,27246,1,0,1:1:0:0:
484,180,27729,5,0,0:0:0:0:
252,104,28697,2,0,L|144:120,1,110,0|0,0:0|0:0,0:0:0:0:
84,228,29665,2,0,P|124:264|164:332,1,110,0|0,0:0|0:0,0:0:0:0:
276,332,30633,2,0,P|328:316|388:312,1,110,0|0,0:0|0:0,0:0:0:0:
496,356,31600,5,0,0:0:0:0:
348,164,32568,2,0,L|236:180,1,110,0|0,0:0|0:0,0:0:0:0:
168,84,33536,2,0,B|212:48|272:64|272:64|388:46,1,220,0|0,0:0|0:0,0:0:0:0:
504,256,35471,5,0,0:0:0:0:
328,164,36439,2,0,P|306:192|284:265,2,110,0|0|0,0:0|0:0|0:0,0:0:0:0:
512,104,38375,1,0,0:0:0:0:
340,8,39342,6,0,B|232:32|232:32|168:120|168:120|56:144,1,330,0|0,0:0|0:0,0:0:0:0:
16,232,41278,2,0,P|28:260|40:344,2,110,0|0|0,0:0|0:0|0:0,0:0:0:0:
216,232,43213,6,0,B|272:256|360:252|408:172|408:172|360:152|328:92,1,330,0|0,0:0|0:0,0:0:0:0:
148,20,45633,1,0,0:0:0:0:
20,168,46600,1,0,0:0:0:0:
92,236,47084,6,0,L|100:352,1,110,0|0,0:0|0:0,0:0:0:0:
196,320,48052,1,0,0:0:0:0:
292,344,48536,1,0,0:0:0:0:
388,368,49020,2,0,B|400:312|356:264|356:264|376:160|376:160|332:120|336:44,1,330,0|0,0:0|0:0,0:0:0:0:
436,72,50955,5,0,0:0:0:0:
492,180,51439,2,0,L|472:304,2,110,0|0|0,0:0|0:0|0:0,0:0:0:0:
292,44,53375,2,0,P|288:92|308:156,1,110,0|0,0:0|0:0,0:0:0:0:
404,220,54342,1,0,0:0:0:0:
356,332,54826,6,0,B|308:312|288:252|288:252|180:232|180:232|160:168|116:136,1,330,0|0,0:0|0:0,0:0:0:0:
0,140,56762,2,0,P|-24:184|72:232,2,165,0|0|0,0:0|0:0|0:0,0:0:0:0:
92,60,58697,6,0,L|220:48,1,110,0|0,0:0|0:0,0:0:0:0:
316,16,59665,1,0,0:0:0:0:
368,236,60633,2,0,P|352:272|344:348,1,110,0|0,0:0|0:0,0:0:0:0:
460,380,61600,1,0,0:0:0:0:
512,268,62084,1,0,0:0:0:0:
480,152,62568,6,0,B|456:96|408:72|408:72|288:72,1,220
204,296,64504,2,0,P|160:292|72:156,1,220,0|0,0:0|0:0,0:0:0:0:
152,64,65955,1,0,0:0:0:0:
248,128,66439,6,0,L|260:192,2,55,0|0|8,0:0|0:0|0:0,0:0:0:0:
328,36,67407,1,0,0:0:0:0:
440,84,67891,1,8,0:0:0:0:
428,204,68375,2,0,P|404:248|396:332,1,110,0|8,0:0|0:0,0:0:0:0:
292,372,69342,2,0,P|256:368|176:368,1,110,0|8,0:0|0:0,0:0:0:0:
72,316,70310,6,0,B|57:291|57:264|57:264|85:242|94:224|94:224|80:200|72:176|72:176|88:160|100:124,1,220,0|0,0:0|0:0,0:0:0:0:
52,16,71762,1,8,0:0:0:0:
168,52,72246,2,0,L|280:36,1,110,0|8,0:0|0:0,0:0:0:0:
364,120,73213,2,0,L|236:136,1,110,0|8,0:0|0:0,0:0:0:0:
152,200,74181,6,0,P|116:184|88:176,2,55,0|0|8,0:0|0:0|0:0,0:0:0:0:
256,264,75149,2,0,P|288:264|324:268,2,55,0|0|8,0:0|0:0|0:0,0:0:0:0:
176,356,76117,2,0,P|132:340|80:272,2,110,0|8|0,0:0|0:0|0:0,0:0:0:0:
296,348,77568,1,8,0:0:0:0:
416,360,78052,6,0,B|424:304|376:256|376:256|377:151,1,220,0|0,0:0|0:0,0:0:0:0:
308,52,79504,1,8,0:0:0:0:
200,108,79987,6,0,P|180:84|168:52,2,55,0|0|0,0:0|0:0|0:0,0:0:0:0:
140,212,80955,2,0,P|112:204|80:180,2,55,0|0|0,0:0|0:0|0:0,0:0:0:0:
248,264,81923,6,0,P|264:300|272:376,2,110,0|0|0,0:0|0:0|0:0,0:0:0:0:
164,164,83375,1,0,0:0:0:0:
252,84,83858,2,0,L|372:76,2,110,0|0|0,0:0|0:0|0:0,0:0:0:0:
152,20,85310,1,0,0:0:0:0:
64,104,85794,5,0,0:0:0:0:
164,172,86278,2,0,L|144:284,2,110,0|0|0,0:0|0:0|0:0,0:0:0:0:
224,64,87729,2,0,P|256:88|288:168,1,110,0|0,0:0|0:0,0:0:0:0:
272,272,88697,1,0,0:0:0:0:
380,216,89181,1,0,0:0:0:0:
472,136,89665,5,0,0:0:0:0:
364,120,90149,2,0,L|248:104,2,110,0|0|0,0:0|0:0|0:0,0:0:0:0:
448,208,91600,1,0,0:0:0:0:
344,272,92084,2,0,P|320:312|308:384,2,110,0|0|0,0:0|0:0|0:0,0:0:0:0:
276,172,93536,6,0,P|240:172|172:136,1,110,0|0,0:0|0:0,0:0:0:0:
76,72,94504,1,0,0:0:0:0:
20,180,94987,1,0,0:0:0:0:
8,300,95471,2,0,B|72:300|108:260|108:260|164:276|228:252,1,220,0|0,0:0|0:0,0:0:0:0:
28,12,110955,6,0,L|52:356,1,330,0|0,0:0|2:0,0:0:0:0:
144,260,112891,6,2,P|192:256|260:272,1,110,2|2,2:1|2:1,2:2:0:0:
328,364,113858,1,2,2:1:0:0:
396,264,114342,1,2,2:1:0:0:
504,212,114826,1,2,2:0:0:0:
404,144,115310,2,2,L|396:32,2,110,2|2|2,2:1|2:1|2:1,2:2:0:0:
308,216,116762,6,0,P|288:176|292:96,1,110,4|0,1:1|0:0,0:0:0:0:
192,36,117729,2,0,L|116:24,2,55,0|0|0,0:0|0:0|0:0,0:0:0:0:
152,152,118697,2,0,P|112:156|40:132,2,110,0|0|0,0:0|0:0|0:0,0:0:0:0:
268,116,120149,1,0,0:0:0:0:
248,236,120633,6,0,L|216:296,2,55,0|0|0,0:0|0:0|0:0,0:0:0:0:
348,164,121600,2,0,P|364:208|368:276,1,110,0|0,0:0|0:0,0:0:0:0:
300,368,122568,2,0,L|240:360,2,55,0|0|0,0:0|0:0|0:0,0:0:0:0:
420,372,123536,1,0,0:0:0:0:
504,284,124020,1,0,0:0:0:0:
436,184,124504,6,0,P|424:128|428:68,1,110,0|0,0:0|0:0,0:0:0:0:
324,12,125471,2,0,P|292:24|212:32,1,110,0|0,0:0|0:0,0:0:0:0:
96,20,126439,1,0,0:0:0:0:
20,120,126923,2,0,L|28:184,2,55,0|0|0,2:0|0:0|2:0,2:2:0:0:
136,148,127891,2,0,L|168:200,1,55,0|0,2:0|2:0,2:2:0:0:
168,120,136117,6,0,P|148:112|108:104,2,55,0|0|8,0:0|0:0|0:0,0:0:0:0:
208,236,137084,1,0,0:0:0:0:
304,164,137568,1,8,0:0:0:0:
424,152,138052,2,0,B|428:208|387:253|387:253|420:296|408:368,1,220,0|0,0:0|0:0,0:0:0:0:
292,328,139504,1,8,0:0:0:0:
200,252,139987,6,0,L|92:236,2,110,0|8|0,0:0|0:0|0:0,0:0:0:0:
276,160,141439,1,8,0:0:0:0:
180,88,141923,2,0,P|148:96|72:76,2,110,0|8|0,0:0|0:0|0:0,0:0:0:0:
272,12,143375,1,8,0:0:0:0:
376,76,143858,6,0,P|380:116|376:144,2,55,0|0|8,0:0|0:0|0:0,0:0:0:0:
268,132,144826,2,0,P|266:159|270:186,2,55,0|0|8,0:0|0:0|0:0,0:0:0:0:
172,60,145794,2,0,P|136:84|48:96,1,110,0|8,0:0|0:0,0:0:0:0:
36,212,146762,2,0,P|72:244|112:300,1,110,0|8,0:0|0:0,0:0:0:0:
200,372,147729,6,0,B|312:356|312:356|376:268|376:268|488:252,1,330,0|0,0:0|0:0,0:0:0:0:
482,131,149665,2,0,B|376:116|376:116|312:28|312:28|200:12,1,330,0|0,0:0|0:0,0:0:0:0:
84,48,151600,5,0,0:0:0:0:
180,220,152568,1,0,0:0:0:0:
120,296,153052,1,0,0:0:0:0:
208,344,153536,2,0,L|436:328,1,220,0|0,0:0|0:0,0:0:0:0:
504,148,155471,5,0,0:0:0:0:
336,40,156439,1,0,0:0:0:0:
152,112,157407,2,0,P|120:100|64:40,2,110,0|0|0,0:0|0:0|0:0,0:0:0:0:
224,44,158858,1,0,2:0:0:0:
296,112,159342,5,0,0:0:0:0:
155,252,160310,1,0,0:0:0:0:
353,252,161278,1,0,0:0:0:0:
493,111,162246,1,0,0:0:0:0:
256,192,163213,12,0,167084,0:0:0:0:
80,344,169020,6,0,B|44:292|0:116|152:64|152:64|180:184|296:244|408:212,1,660,0|0,0:0|0:0,0:0:0:0:
340,24,172891,5,0,0:0:0:0:
296,216,173858,1,0,0:0:0:0:
156,356,174826,2,0,P|132:352|56:308,1,110,0|0,0:0|0:0,0:0:0:0:
64,212,175794,2,0,P|104:188|144:112,1,110,0|0,0:0|0:0,0:0:0:0:
256,192,176762,12,0,180633,0:0:0:0:
44,204,182568,6,0,P|36:256|48:316,2,110,0|0|0,0:0|0:0|0:0,0:0:0:0:
120,108,184020,1,0,0:0:0:0:
200,200,184504,2,0,L|444:220,1,220,0|0,0:0|0:0,0:0:0:0:
508,148,185955,1,0,0:0:0:0:
416,72,186439,6,0,P|368:76|304:116,1,110,0|0,0:0|0:0,0:0:0:0:
204,152,187407,2,0,L|87:145,1,110,0|0,0:0|0:0,0:0:0:0:
0,224,188375,1,0,0:0:0:0:
116,264,188858,2,0,P|124:296|132:376,2,110,0|0|0,0:0|0:0|0:0,0:0:0:0:
236,240,190310,6,0,P|276:216|336:48,1,220,0|0,0:0|0:0,0:0:0:0:
232,4,191762,1,0,0:0:0:0:
132,68,192246,2,0,P|124:116|132:184,2,110,0|0|0,0:0|0:0|0:0,0:0:0:0:
244,116,193697,1,0,0:0:0:0:
364,128,194181,6,0,P|372:80|364:12,2,110,0|0|0,0:0|0:0|0:0,0:0:0:0:
284,220,195633,1,0,0:0:0:0:
164,200,196117,2,0,P|144:160|136:136,2,55,0|0|0,0:0|0:0|0:0,0:0:0:0:
128,316,197084,2,0,P|104:340|72:360,2,55,0|0|0,0:0|0:0|0:0,0:0:0:0:
248,316,198052,6,0,P|264:352|272:384,2,55,0|0|8,0:0|0:0|0:0,0:0:0:0:
300,208,199020,1,0,0:0:0:0:
400,276,199504,1,8,0:0:0:0:
500,208,199987,2,0,L|492:80,1,110,0|8,0:0|0:0,0:0:0:0:
384,48,200955,2,0,L|392:172,1,110,0|8,0:0|0:0,0:0:0:0:
292,228,201923,6,0,P|264:200|232:68,2,165,0|0|8,0:0|0:0|0:0,0:0:0:0:
396,164,203858,1,0,0:0:0:0:
460,268,204342,1,0,0:0:0:0:
372,352,204826,2,0,L|240:340,1,110,0|8,0:0|0:0,0:0:0:0:
144,360,205794,6,0,P|116:348|84:340,2,55,0|0|8,0:0|0:0|0:0,0:0:0:0:
172,240,206762,2,0,P|156:208|136:184,2,55,0|0|8,0:0|0:0|0:0,0:0:0:0:
292,264,207729,2,0,P|332:244|388:188,1,110,0|8,0:0|0:0,0:0:0:0:
372,80,208697,1,0,0:0:0:0:
260,28,209181,1,8,0:0:0:0:
156,88,209665,6,0,P|128:136|112:208,1,110,0|0,0:0|0:0,0:0:0:0:
192,280,210633,1,0,0:0:0:0:
304,324,211117,1,8,0:0:0:0:
416,276,211600,6,0,B|466:238|510:152|474:80|430:73|374:134|374:134|305:105|268:159|321:231,1,440,0|0,0:0|0:0,0:0:0:0:
