osu file format v14

[General]
AudioFilename: audio.mp3
AudioLeadIn: 0
PreviewTime: 48507
Countdown: 1
SampleSet: Soft
StackLeniency: 0.7
Mode: 0
LetterboxInBreaks: 0
WidescreenStoryboard: 0

[Editor]
Bookmarks: 58184,104636,137781
DistanceSpacing: 1
BeatDivisor: 8
GridSize: 8
TimelineZoom: 1

[Metadata]
Title:Lone Digger
TitleUnicode:Lone Digger
Artist:Caravan Palace
ArtistUnicode:Caravan Palace
Creator:Mister
Version:Lone Digger
Source:
Tags:
BeatmapID:2006099
BeatmapSetID:958123

[Difficulty]
HPDrainRate:5
CircleSize:4
OverallDifficulty:8
ApproachRate:9.3
SliderMultiplier:1
SliderTickRate:1

[Events]
//Background and Video events
Video,0,"video.mp4"
0,0,"bg.jpg",0,0
//Break Periods
2,112819,118598
//Storyboard Layer 0 (Background)
//Storyboard Layer 1 (Fail)
//Storyboard Layer 2 (Pass)
//Storyboard Layer 3 (Foreground)
//Storyboard Sound Samples

[TimingPoints]
120,483.870967741935,4,2,1,25,1,0
2055,-80,4,2,1,35,0,0
3265,-57.1428571428571,4,2,1,35,0,0
3628,-50,4,2,1,35,0,0
3990,-50,4,2,1,50,0,0
19474,-100,4,2,1,25,0,0
34958,-80,4,2,1,35,0,0
48507,-80,4,2,1,10,0,0
49474,-33.3333333333333,4,2,1,10,0,0
50442,-50,4,2,1,65,0,1
63990,-50,4,2,1,50,0,0
65926,-100,4,2,1,25,0,0
79474,-100,4,2,1,30,0,0
80442,-100,4,2,1,20,0,0
80926,-100,4,2,1,5,0,0
81410,-80,4,2,1,35,0,0
94958,-80,4,2,1,10,0,0
95926,-33.3333333333333,4,2,1,10,0,0
96894,-50,4,2,1,65,0,1
112378,-50,4,2,1,65,0,0
112378,-100,4,2,1,35,0,0
119152,-100,4,2,1,25,0,0
120119,-100,4,2,1,35,0,0
125684,-100,4,2,1,5,0,0
125926,-80,4,2,1,35,0,0
127136,-57.1428571428571,4,2,1,35,0,0
127499,-50,4,2,1,35,0,0
127861,-50,4,2,1,50,0,1
143345,-50,4,2,1,65,0,1
156652,-66.6666666666667,4,2,1,35,0,0
159071,-66.6666666666667,4,2,1,5,0,0

[Colours]
Combo1 : 218,103,215
Combo2 : 0,0,136
Combo3 : 118,9,130
Combo4 : 111,85,253

[HitObjects]
79,96,120,5,0,0:0:0:0:
79,96,240,1,0,0:0:0:0:
79,96,361,2,0,L|135:94,1,50
128,94,845,1,0,0:0:0:0:
207,189,1087,5,0,0:0:0:0:
207,189,1207,1,0,0:0:0:0:
207,188,1329,2,0,L|151:187,1,50
157,187,1813,1,0,0:0:0:0:
40,271,2055,6,0,P|67:277|99:276,1,46.875
86,290,2297,2,0,P|113:291|144:284,1,46.875
134,300,2539,2,0,P|161:296|191:284,1,46.875
183,301,2781,2,0,P|209:292|236:275,1,46.875
231,273,3023,6,0,P|258:276|288:288,1,46.875
280,272,3265,5,0,0:0:0:0:
280,272,3386,2,0,P|311:283|341:311,1,65.6250006258488
357,372,3628,6,2,L|354:226,1,125,0|2,0:0|0:0,0:0:0:0:
426,245,3990,6,0,L|365:239,1,50,0|0,3:0|0:0,0:0:0:0:
259,178,4232,2,0,L|320:172,1,50,8|0,0:0|0:0,0:0:0:0:
364,96,4474,1,8,3:3:0:0:
364,96,4716,5,8,0:0:0:0:
364,96,4837,1,0,0:0:0:0:
270,75,4958,5,0,3:0:0:0:
270,75,5079,1,0,0:0:0:0:
406,182,5321,1,0,0:0:0:0:
406,182,5442,1,8,3:3:0:0:
259,178,5684,6,2,L|161:169,1,75,8|0,0:0|0:0,0:0:0:0:
143,90,5926,6,0,P|147:125|156:148,1,50,0|0,3:0|0:0,0:0:0:0:
72,270,6168,2,0,P|79:246|80:221,1,50,8|0,0:0|0:0,0:0:0:0:
17,152,6410,1,8,3:3:0:0:
10,341,6652,5,8,0:0:0:0:
10,341,6773,1,0,0:0:0:0:
189,307,6894,5,0,3:0:0:0:
189,307,7015,1,0,0:0:0:0:
72,270,7257,1,0,0:0:0:0:
72,270,7378,1,8,3:3:0:0:
289,269,7619,6,2,L|363:262,1,75,8|0,0:0|0:0,0:0:0:0:
404,182,7861,6,0,L|392:253,1,50,0|0,3:0|3:0,3:0:0:0:
316,104,8103,2,0,L|328:175,1,50,8|0,0:0|0:0,0:0:0:0:
233,52,8345,1,8,3:3:0:0:
406,99,8587,5,8,0:0:0:0:
406,99,8708,1,0,0:0:0:0:
226,153,8829,5,0,3:0:0:0:
226,153,8950,1,0,0:0:0:0:
79,55,9192,1,0,0:0:0:0:
79,55,9313,1,8,3:3:0:0:
115,242,9555,6,0,L|120:159,1,75,8|0,0:0|0:0,0:0:0:0:
139,138,9797,6,0,L|134:221,1,75,0|0,3:0|0:0,0:0:0:0:
165,169,10039,5,8,0:0:0:0:
165,169,10160,1,0,0:0:0:0:
207,204,10281,6,0,P|203:244|202:278,1,75,8|0,3:3|0:0,0:0:0:0:
226,174,10523,6,0,L|221:257,1,75,8|0,0:0|0:0,0:0:0:0:
245,144,10765,6,0,L|240:227,1,75,0|0,3:0|0:0,0:0:0:0:
264,114,11007,6,0,L|259:197,1,75,8|0,0:0|0:0,0:0:0:0:
283,84,11249,6,0,L|278:167,2,75,8|0|0,3:3|0:0|0:0,0:0:0:0:
345,33,11732,6,0,P|374:30|404:35,1,50,0|0,3:0|0:0,0:0:0:0:
498,104,11974,2,0,P|469:101|439:106,1,50,8|0,0:0|0:0,0:0:0:0:
396,178,12216,1,8,3:3:0:0:
468,345,12458,5,8,0:0:0:0:
468,345,12579,1,0,0:0:0:0:
247,344,12700,5,0,3:0:0:0:
247,344,12821,1,0,0:0:0:0:
387,282,13063,1,0,0:0:0:0:
387,282,13184,1,8,3:3:0:0:
167,208,13426,6,2,L|177:292,1,75,8|0,0:0|0:0,0:0:0:0:
97,304,13668,6,0,P|126:307|160:302,1,50,0|0,3:0|0:0,0:0:0:0:
40,196,13910,2,0,P|63:213|95:225,1,50,8|0,0:0|0:0,0:0:0:0:
67,116,14152,1,8,3:3:0:0:
290,135,14394,5,8,0:0:0:0:
290,135,14515,1,0,0:0:0:0:
182,61,14636,5,0,3:0:0:0:
182,61,14757,1,0,0:0:0:0:
384,60,14999,1,0,0:0:0:0:
384,60,15119,1,8,3:3:0:0:
421,287,15361,6,2,L|429:212,1,75,8|0,0:0|0:0,0:0:0:0:
357,204,15603,6,0,L|418:194,1,50,0|0,3:0|0:0,0:0:0:0:
230,252,15845,2,0,L|279:260,1,50,8|0,0:0|0:0,0:0:0:0:
162,329,16087,1,8,3:3:0:0:
333,350,16329,5,8,0:0:0:0:
333,350,16450,1,0,0:0:0:0:
135,235,16571,5,0,3:0:0:0:
135,235,16692,2,0,L|133:175,1,50,0|8,0:0|0:0,0:0:0:0:
67,309,16934,1,0,0:0:0:0:
67,309,17055,1,8,3:3:0:0:
96,105,17297,1,8,0:0:0:0:
280,205,17539,6,0,P|284:238|279:268,1,50
307,143,17781,2,0,P|303:176|308:206,1,50
454,178,18023,6,0,L|371:170,1,75
483,212,18265,2,0,L|417:205,1,50
372,86,18628,5,0,0:0:0:0:
372,86,18749,2,0,L|446:93,1,75
490,85,18990,2,0,L|415:77,1,75
504,68,19232,5,8,0:0:0:0:
381,298,19474,5,0,3:0:0:0:
372,7,19958,1,8,3:3:0:0:
294,330,20442,5,0,0:0:0:0:
285,39,20926,1,8,3:3:0:0:
275,336,21410,5,0,0:0:0:0:
198,71,21894,1,8,3:3:0:0:
256,342,22378,5,0,0:0:0:0:
111,39,22861,1,8,3:3:0:0:
102,330,23345,5,0,3:0:0:0:
111,39,23829,1,8,3:3:0:0:
189,362,24313,5,0,0:0:0:0:
198,71,24797,1,8,3:3:0:0:
416,343,25281,5,2,0:0:0:0:
43,252,25765,1,8,3:3:0:0:
463,71,26249,5,0,0:0:0:0:
85,139,26732,1,8,3:3:0:0:
372,377,27216,5,0,3:0:0:0:
381,86,27700,1,8,3:3:0:0:
276,330,28184,5,0,0:0:0:0:
285,39,28668,1,8,3:3:0:0:
187,356,29152,5,0,0:0:0:0:
57,84,29636,1,8,3:3:0:0:
86,364,30119,5,0,0:0:0:0:
340,44,30603,1,8,3:3:0:0:
65,249,31087,5,0,3:0:0:0:
160,36,31571,1,8,3:3:0:0:
175,342,32055,5,0,0:0:0:0:
59,56,32539,1,8,3:3:0:0:
44,360,33023,5,2,0:0:0:0:
44,360,34958,6,0,L|49:304,1,46.875,0|0,3:0|0:0,0:0:0:0:
76,282,35200,2,0,L|81:226,1,46.875,8|0,0:0|0:0,0:0:0:0:
108,204,35442,1,8,3:3:0:0:
47,90,35684,1,8,0:0:0:0:
62,93,35804,1,0,0:0:0:0:
77,96,35926,1,0,3:0:0:0:
180,34,36168,1,8,0:0:0:0:
165,37,36288,1,0,0:0:0:0:
150,40,36410,1,8,3:3:0:0:
223,116,36652,1,8,0:0:0:0:
238,119,36772,1,0,0:0:0:0:
253,122,36894,5,0,3:0:0:0:
356,60,37136,1,8,0:0:0:0:
341,63,37256,1,0,0:0:0:0:
326,66,37378,1,8,3:3:0:0:
399,142,37620,1,8,0:0:0:0:
414,145,37740,1,0,0:0:0:0:
429,148,37862,1,0,3:0:0:0:
441,33,38103,1,8,0:0:0:0:
446,47,38225,1,0,0:0:0:0:
451,62,38345,1,8,3:3:0:0:
385,233,38587,1,8,0:0:0:0:
380,247,38709,1,0,0:0:0:0:
375,262,38829,6,0,P|360:284|342:300,1,46.875,0|0,3:0|0:0,0:0:0:0:
366,317,39071,2,0,P|342:328|318:333,1,46.875,8|0,0:0|0:0,0:0:0:0:
330,360,39313,1,8,3:3:0:0:
213,254,39555,1,8,0:0:0:0:
228,257,39675,1,0,0:0:0:0:
243,260,39797,1,0,3:0:0:0:
159,331,40039,1,8,0:0:0:0:
144,334,40159,1,0,0:0:0:0:
129,337,40281,1,8,3:3:0:0:
27,213,40523,1,8,0:0:0:0:
42,216,40643,1,0,0:0:0:0:
57,219,40765,5,0,3:0:0:0:
163,137,41007,1,8,0:0:0:0:
148,140,41127,1,0,0:0:0:0:
133,143,41249,1,8,3:3:0:0:
32,62,41490,1,8,0:0:0:0:
47,65,41610,1,0,0:0:0:0:
62,68,41732,1,0,3:0:0:0:
255,31,41974,1,8,0:0:0:0:
240,34,42094,1,0,0:0:0:0:
225,37,42216,1,8,3:3:0:0:
356,134,42458,1,8,0:0:0:0:
371,137,42578,1,0,0:0:0:0:
386,140,42700,6,0,L|382:81,1,46.875,0|0,3:0|0:0,0:0:0:0:
400,181,42942,2,0,L|410:122,1,46.875,8|0,0:0|0:0,0:0:0:0:
403,224,43184,1,8,3:3:0:0:
308,332,43426,1,8,0:0:0:0:
323,335,43546,1,0,0:0:0:0:
338,338,43668,1,0,3:0:0:0:
235,246,43910,1,8,0:0:0:0:
220,249,44030,1,0,0:0:0:0:
205,252,44152,1,8,3:3:0:0:
90,325,44394,1,8,0:0:0:0:
105,328,44514,1,0,0:0:0:0:
120,331,44636,5,0,3:0:0:0:
54,214,44878,1,8,0:0:0:0:
51,199,44998,1,0,0:0:0:0:
48,184,45120,1,8,3:3:0:0:
135,96,45361,1,8,0:0:0:0:
132,111,45483,1,0,0:0:0:0:
129,126,45603,1,0,3:0:0:0:
222,33,45845,1,8,0:0:0:0:
225,48,45967,1,0,0:0:0:0:
228,63,46087,1,8,3:3:0:0:
356,110,46329,1,8,0:0:0:0:
371,107,46451,1,0,0:0:0:0:
386,104,46571,6,0,P|409:89|428:68,1,46.875,0|0,3:0|0:0,0:0:0:0:
445,86,46813,2,0,P|468:101|487:122,1,46.875,8|0,0:0|0:0,0:0:0:0:
509,107,47055,1,8,3:3:0:0:
470,261,47297,1,8,0:0:0:0:
467,246,47417,1,0,0:0:0:0:
464,231,47539,1,0,3:0:0:0:
371,332,47781,1,8,0:0:0:0:
374,317,47901,1,0,0:0:0:0:
377,302,48023,1,8,3:3:0:0:
280,221,48265,1,8,0:0:0:0:
283,236,48387,1,0,0:0:0:0:
286,251,48507,6,0,P|255:325|173:241,1,234.375
155,241,49474,6,0,P|224:350|301:245,1,300.000011444092
302,251,50442,6,0,P|305:219|316:187,1,50,0|0,3:0|0:0,0:0:0:0:
392,79,50684,2,0,P|398:103|399:128,1,50,8|0,0:0|0:0,0:0:0:0:
270,47,50926,1,8,3:3:0:0:
463,249,51168,5,8,0:0:0:0:
463,249,51289,1,0,0:0:0:0:
219,336,51410,5,0,3:0:0:0:
219,336,51531,2,0,P|188:339|156:333,1,50,0|8,0:0|0:0,0:0:0:0:
452,154,51773,1,0,0:0:0:0:
452,154,51894,1,8,3:3:0:0:
377,291,52136,6,2,L|284:277,1,75,8|0,0:0|0:0,0:0:0:0:
225,246,52378,6,0,P|256:249|288:243,1,50,0|0,3:0|0:0,0:0:0:0:
94,191,52619,2,0,P|125:188|157:194,1,50,8|0,0:0|0:0,0:0:0:0:
6,265,52861,1,8,3:3:0:0:
77,94,53103,5,8,0:0:0:0:
77,94,53224,1,0,0:0:0:0:
139,362,53345,5,0,3:0:0:0:
139,362,53466,2,0,L|143:304,1,50,0|8,0:0|0:0,0:0:0:0:
161,33,53708,1,0,0:0:0:0:
161,33,53829,1,8,3:3:0:0:
412,97,54071,6,2,L|337:108,1,75,8|0,0:0|0:0,0:0:0:0:
316,186,54313,6,0,L|320:128,1,50,0|0,3:0|0:0,0:0:0:0:
467,235,54555,2,0,L|470:284,1,50,8|0,0:0|0:0,0:0:0:0:
326,351,54797,1,8,3:3:0:0:
209,194,55039,5,8,0:0:0:0:
209,194,55160,1,0,0:0:0:0:
339,270,55281,5,0,3:0:0:0:
339,270,55402,2,0,P|376:273|397:271,1,50,0|8,0:0|0:0,0:0:0:0:
106,97,55644,1,0,0:0:0:0:
106,97,55765,1,8,3:3:0:0:
217,326,56007,6,0,L|212:243,1,75,8|0,0:0|0:0,0:0:0:0:
193,222,56249,6,0,L|198:305,1,75,0|0,3:0|0:0,0:0:0:0:
167,253,56490,5,8,0:0:0:0:
167,253,56612,1,0,0:0:0:0:
125,288,56733,6,0,P|129:328|130:362,1,75,8|0,3:3|0:0,0:0:0:0:
106,258,56975,6,0,L|111:341,1,75,8|0,0:0|0:0,0:0:0:0:
87,228,57217,6,0,L|92:311,1,75,0|0,3:0|0:0,0:0:0:0:
68,198,57459,6,0,L|73:281,1,75,8|0,0:0|0:0,0:0:0:0:
49,168,57701,6,0,L|54:251,2,75,8|0|0,3:3|0:0|0:0,0:0:0:0:
98,89,58184,6,0,P|130:84|156:85,1,50,0|0,3:0|0:0,0:0:0:0:
333,33,58426,2,0,P|301:28|275:29,1,50,8|0,0:0|0:0,0:0:0:0:
427,141,58668,1,8,3:3:0:0:
430,31,58910,5,8,0:0:0:0:
430,31,59031,1,0,0:0:0:0:
274,271,59152,5,0,3:0:0:0:
274,271,59273,2,0,P|273:303|276:330,1,50,0|8,0:0|0:0,0:0:0:0:
493,88,59515,1,0,0:0:0:0:
493,88,59636,1,8,3:3:0:0:
443,229,59878,6,2,L|360:241,1,75,8|0,0:0|0:0,0:0:0:0:
341,164,60119,6,0,P|340:196|343:223,1,50,0|0,3:0|0:0,0:0:0:0:
476,356,60361,2,0,P|477:331|476:306,1,50,8|0,0:0|0:0,0:0:0:0:
286,350,60603,1,8,3:3:0:0:
443,229,60845,5,8,0:0:0:0:
443,229,60966,1,0,0:0:0:0:
145,349,61087,5,0,3:0:0:0:
145,349,61208,2,0,L|142:297,1,50,0|8,0:0|0:0,0:0:0:0:
228,63,61450,1,0,0:0:0:0:
228,63,61571,1,8,3:3:0:0:
262,199,61813,6,2,L|187:188,1,75,8|0,0:0|0:0,0:0:0:0:
155,115,62055,6,0,L|157:164,1,50,0|0,3:0|0:0,0:0:0:0:
46,305,62297,2,0,L|48:255,1,50,8|0,0:0|0:0,0:0:0:0:
12,135,62539,1,8,3:3:0:0:
166,273,62781,5,8,0:0:0:0:
166,273,62902,1,0,0:0:0:0:
303,122,63023,5,0,3:0:0:0:
303,122,63144,2,0,P|336:120|363:122,1,50,0|8,0:0|0:0,0:0:0:0:
76,232,63386,1,0,0:0:0:0:
76,232,63507,1,8,3:3:0:0:
430,186,63749,1,8,0:0:0:0:
279,225,63990,6,0,P|275:258|280:288,1,50,0|0,3:0|0:0,0:0:0:0:
252,163,64232,2,0,P|256:196|251:226,1,50
105,198,64474,6,0,L|188:190,1,75
76,232,64716,2,0,L|142:225,1,50
187,106,65079,5,0,0:0:0:0:
187,106,65200,2,0,L|113:113,1,75
69,105,65442,2,0,L|151:96,1,75
55,88,65683,5,0,0:0:0:0:
178,318,65925,5,0,0:0:0:0:
490,250,66410,1,8,3:3:0:0:
76,264,66894,5,0,0:0:0:0:
450,345,67379,1,8,3:3:0:0:
13,342,67861,5,0,0:0:0:0:
387,261,68346,1,8,3:3:0:0:
129,173,68829,5,0,0:0:0:0:
503,254,69314,1,8,3:3:0:0:
33,244,69797,5,0,0:0:0:0:
480,146,70282,1,8,3:3:0:0:
43,147,70765,5,0,0:0:0:0:
417,228,71250,1,8,3:3:0:0:
144,40,71732,5,2,0:0:0:0:
63,336,72216,1,8,3:3:0:0:
282,62,72700,5,0,0:0:0:0:
363,358,73184,1,8,3:3:0:0:
485,59,73668,5,0,0:0:0:0:
38,157,74153,1,8,3:3:0:0:
478,185,74636,5,0,0:0:0:0:
123,107,75121,1,8,3:3:0:0:
401,150,75603,5,0,0:0:0:0:
1,237,76088,1,8,3:3:0:0:
511,267,76571,5,0,0:0:0:0:
64,169,77055,1,8,3:3:0:0:
390,353,77539,5,0,0:0:0:0:
457,64,78023,1,8,3:3:0:0:
211,362,78507,5,0,0:0:0:0:
134,27,78991,1,8,3:3:0:0:
38,257,79474,6,2,B|20:223|35:183|76:168|116:182|133:218|120:254|120:254|146:313|225:316|251:284|253:245|244:225|229:215,1,387.5
228,210,81410,6,0,L|278:207,1,46.875,0|0,3:0|0:0,0:0:0:0:
313,228,81652,2,0,L|359:230,1,46.875,8|0,0:0|0:0,0:0:0:0:
393,217,81894,1,8,3:3:0:0:
452,349,82136,1,8,0:0:0:0:
456,334,82257,1,0,0:0:0:0:
460,318,82378,1,0,3:0:0:0:
331,116,82619,1,8,0:0:0:0:
335,132,82740,1,0,0:0:0:0:
339,147,82861,1,8,3:3:0:0:
262,349,83103,1,8,0:0:0:0:
266,334,83224,1,0,0:0:0:0:
270,318,83345,5,0,3:0:0:0:
125,278,83587,1,8,0:0:0:0:
109,282,83708,1,0,0:0:0:0:
94,286,83829,1,8,3:3:0:0:
232,181,84071,1,8,0:0:0:0:
248,185,84192,1,0,0:0:0:0:
263,189,84313,1,0,3:0:0:0:
49,150,84555,1,8,0:0:0:0:
33,154,84676,1,0,0:0:0:0:
18,158,84797,1,8,3:3:0:0:
282,53,85039,1,8,0:0:0:0:
298,57,85160,1,0,0:0:0:0:
313,61,85281,6,0,P|339:60|361:55,1,46.875,0|0,3:0|0:0,0:0:0:0:
442,70,85523,2,0,P|416:69|394:64,1,46.875,8|0,0:0|0:0,0:0:0:0:
467,57,85765,1,8,3:3:0:0:
458,230,86007,1,8,0:0:0:0:
454,213,86128,1,0,0:0:0:0:
450,199,86249,1,0,3:0:0:0:
337,341,86490,1,8,0:0:0:0:
341,324,86611,1,0,0:0:0:0:
345,310,86732,1,8,3:3:0:0:
157,320,86974,1,8,0:0:0:0:
172,316,87095,1,0,0:0:0:0:
188,312,87216,5,0,3:0:0:0:
46,215,87458,1,8,0:0:0:0:
62,219,87579,1,0,0:0:0:0:
77,223,87700,1,8,3:3:0:0:
118,51,87942,1,8,0:0:0:0:
122,65,88063,1,0,0:0:0:0:
126,82,88184,1,0,3:0:0:0:
215,195,88426,1,8,0:0:0:0:
219,178,88547,1,0,0:0:0:0:
223,163,88668,1,8,3:3:0:0:
356,99,88910,1,8,0:0:0:0:
372,103,89031,1,0,0:0:0:0:
387,107,89152,6,0,L|388:157,1,46.875,0|0,3:0|0:0,0:0:0:0:
407,159,89394,2,0,L|408:209,1,46.875,8|0,0:0|0:0,0:0:0:0:
428,232,89636,1,8,3:3:0:0:
320,344,89878,1,8,0:0:0:0:
324,327,89999,1,0,0:0:0:0:
328,313,90120,1,0,3:0:0:0:
261,186,90361,1,8,0:0:0:0:
257,169,90482,1,0,0:0:0:0:
253,155,90603,1,8,3:3:0:0:
339,40,90845,1,8,0:0:0:0:
335,54,90966,1,0,0:0:0:0:
331,71,91087,5,0,3:0:0:0:
141,119,91329,1,8,0:0:0:0:
127,115,91450,1,0,0:0:0:0:
110,111,91571,1,8,3:3:0:0:
38,226,91813,1,8,0:0:0:0:
52,222,91934,1,0,0:0:0:0:
69,218,92055,1,0,3:0:0:0:
170,327,92297,1,8,0:0:0:0:
156,323,92418,1,0,0:0:0:0:
139,319,92539,1,8,3:3:0:0:
231,196,92781,1,8,0:0:0:0:
227,213,92902,1,0,0:0:0:0:
223,227,93023,6,0,P|249:232|274:227,1,46.875,0|0,3:0|0:0,0:0:0:0:
296,249,93265,2,0,P|318:244|341:247,1,46.875,8|0,0:0|0:0,0:0:0:0:
358,267,93507,1,8,3:3:0:0:
411,144,93749,1,8,0:0:0:0:
407,161,93870,1,0,0:0:0:0:
403,175,93991,1,0,3:0:0:0:
310,44,94232,1,8,0:0:0:0:
314,61,94353,1,0,0:0:0:0:
318,75,94474,1,8,3:3:0:0:
201,121,94716,1,8,0:0:0:0:
197,138,94837,1,0,0:0:0:0:
193,152,94958,6,0,B|27:141|27:141|89:193,1,234.375
84,197,95926,6,0,B|10:135|10:135|214:148,1,300.000011444092
213,147,96894,6,0,L|194:90,1,50,0|0,3:0|0:0,0:0:0:0:
344,172,97136,2,0,L|328:219,1,50,8|0,0:0|0:0,0:0:0:0:
450,107,97378,1,8,3:3:0:0:
359,44,97619,5,8,0:0:0:0:
359,44,97740,1,0,0:0:0:0:
435,286,97861,5,0,3:0:0:0:
435,286,97982,2,0,P|462:291|494:288,1,50,0|8,0:0|0:0,0:0:0:0:
225,241,98224,1,0,0:0:0:0:
225,241,98345,1,8,3:3:0:0:
108,357,98587,6,2,L|122:273,1,75,8|0,0:0|0:0,0:0:0:0:
95,256,98829,6,0,P|68:251|36:254,1,50,0|0,3:0|0:0,0:0:0:0:
162,147,99071,2,0,P|189:152|221:149,1,50,8|0,0:0|0:0,0:0:0:0:
62,67,99313,1,8,3:3:0:0:
290,92,99555,5,8,0:0:0:0:
290,92,99676,1,0,0:0:0:0:
32,169,99797,5,0,3:0:0:0:
32,169,99918,2,0,L|96:169,1,50,0|8,0:0|0:0,0:0:0:0:
376,133,100160,1,0,0:0:0:0:
376,133,100281,1,8,3:3:0:0:
473,305,100523,6,2,L|459:221,1,75,8|0,0:0|0:0,0:0:0:0:
386,215,100765,6,0,L|450:215,1,50,0|0,3:0|0:0,0:0:0:0:
250,278,101007,2,0,L|288:309,1,50,8|0,0:0|0:0,0:0:0:0:
105,244,101249,1,8,3:3:0:0:
155,350,101490,5,8,0:0:0:0:
155,350,101611,1,0,0:0:0:0:
141,93,101732,5,0,3:0:0:0:
141,93,101853,2,0,P|137:58|141:27,1,50,0|8,0:0|0:0,0:0:0:0:
51,338,102095,1,0,0:0:0:0:
51,338,102216,1,8,3:3:0:0:
175,179,102458,6,0,L|252:175,1,75,8|0,0:0|0:0,0:0:0:0:
291,194,102700,6,0,L|216:197,1,75,0|0,3:0|0:0,0:0:0:0:
311,219,102942,5,8,0:0:0:0:
311,219,103063,1,0,0:0:0:0:
386,264,103184,6,0,P|397:221|387:175,1,75,8|0,3:3|0:0,0:0:0:0:
425,202,103426,6,0,P|413:159|381:124,1,75,8|0,0:0|0:0,0:0:0:0:
427,128,103668,6,0,P|395:96|350:82,1,75,0|0,3:0|0:0,0:0:0:0:
392,63,103910,6,0,P|349:52|302:61,1,75,8|0,0:0|0:0,0:0:0:0:
329,24,104152,6,0,P|286:35|251:67,2,75,8|0|0,3:3|0:0|0:0,0:0:0:0:
176,47,104636,6,0,P|148:50|112:44,1,50,0|0,3:0|0:0,0:0:0:0:
31,171,104878,2,0,P|59:174|95:168,1,50,8|0,0:0|0:0,0:0:0:0:
173,279,105119,1,8,3:3:0:0:
49,317,105361,5,8,0:0:0:0:
49,317,105482,1,0,0:0:0:0:
358,261,105603,5,0,3:0:0:0:
358,261,105724,2,0,P|358:296|356:318,1,50,0|8,0:0|0:0,0:0:0:0:
432,74,105966,1,0,0:0:0:0:
432,74,106087,1,8,3:3:0:0:
489,197,106329,6,2,L|407:190,1,75,8|0,0:0|0:0,0:0:0:0:
388,158,106571,6,0,P|363:156|338:156,1,50,0|0,3:0|0:0,0:0:0:0:
164,203,106813,2,0,P|188:204|213:204,1,50,8|0,0:0|0:0,0:0:0:0:
296,55,107055,1,8,3:3:0:0:
309,248,107297,5,8,0:0:0:0:
309,248,107418,1,0,0:0:0:0:
131,47,107539,5,0,3:0:0:0:
131,47,107660,2,0,L|127:104,1,50,0|8,0:0|0:0,0:0:0:0:
144,334,107902,1,0,0:0:0:0:
144,334,108023,1,8,3:3:0:0:
26,257,108265,6,2,L|108:250,1,75,8|0,0:0|0:0,0:0:0:0:
108,180,108507,6,0,L|112:237,1,50
209,90,108749,2,0,L|205:147,1,50
413,139,109474,5,0,3:0:0:0:
413,139,109595,2,0,P|442:139|465:132,1,50,0|8,0:0|0:0,0:0:0:0:
79,87,109837,1,0,0:0:0:0:
79,87,109958,1,8,3:3:0:0:
388,257,110200,6,0,L|311:253,1,75,8|0,0:0|0:0,0:0:0:0:
272,272,110442,6,0,L|346:275,1,75,0|0,3:0|0:0,0:0:0:0:
252,297,110684,5,8,0:0:0:0:
252,297,110805,1,0,0:0:0:0:
177,342,110926,6,0,P|166:299|176:253,1,75,8|0,3:3|0:0,0:0:0:0:
138,280,111168,6,0,P|149:237|181:202,1,75,8|0,0:0|0:0,0:0:0:0:
136,206,111410,6,0,P|167:174|212:160,1,75,0|0,3:0|0:0,0:0:0:0:
171,141,111652,6,0,P|214:130|260:139,1,75,8|0,0:0|0:0,0:0:0:0:
234,102,111894,6,0,P|276:113|311:145,2,75,8|0|0,3:3|0:0|0:0,0:0:0:0:
91,134,112378,5,0,0:0:0:0:
91,134,112619,1,0,0:0:0:0:
446,283,119152,6,2,P|370:234|293:276,1,187.5
284,308,120119,5,0,0:0:0:0:
284,308,120361,1,0,0:0:0:0:
256,192,121087,12,0,125684,0:0:0:0:
481,135,125926,6,0,P|454:129|422:130,1,46.875
435,116,126168,2,0,P|408:115|377:122,1,46.875
387,106,126410,2,0,P|360:110|330:122,1,46.875
338,105,126652,2,0,P|312:114|285:131,1,46.875
290,133,126894,6,0,P|263:130|233:118,1,46.875
241,134,127136,5,0,0:0:0:0:
241,134,127257,2,0,P|215:123|183:92,1,65.6250006258488
140,30,127499,6,2,P|164:89|144:149,1,125
127,163,127861,5,0,3:0:0:0:
68,209,127982,5,0,0:0:0:0:
68,209,128103,2,0,P|114:204|158:214,1,75,8|0,0:0|0:0,0:0:0:0:
201,237,128345,2,0,P|155:232|111:242,1,75,8|0,3:3|0:0,0:0:0:0:
110,251,128587,1,8,0:0:0:0:
110,251,128708,1,0,0:0:0:0:
281,282,128829,5,0,3:0:0:0:
281,282,128950,2,0,P|312:283|338:278,1,50,0|8,0:0|0:0,0:0:0:0:
61,343,129192,1,0,0:0:0:0:
61,343,129313,1,8,3:3:0:0:
392,356,129555,1,8,0:0:0:0:
412,171,129797,6,0,L|415:262,1,75,0|0,3:0|0:0,0:0:0:0:
436,133,130039,2,0,L|439:224,1,75,8|0,0:0|0:0,0:0:0:0:
460,95,130281,6,0,L|463:186,1,75,8|0,3:3|0:0,0:0:0:0:
485,184,130523,1,8,0:0:0:0:
485,184,130644,1,0,0:0:0:0:
389,44,130765,5,0,3:0:0:0:
389,44,130886,2,0,L|325:47,1,50,0|8,0:0|0:0,0:0:0:0:
68,134,131128,1,0,0:0:0:0:
68,134,131249,1,8,3:3:0:0:
123,318,131490,6,2,L|125:243,1,75,8|0,0:0|0:0,0:0:0:0:
149,232,131732,5,0,3:0:0:0:
208,298,131853,5,0,0:0:0:0:
208,298,131974,2,0,L|282:300,1,75,8|0,0:0|0:0,0:0:0:0:
350,272,132216,2,0,L|275:274,1,75,8|0,3:3|0:0,0:0:0:0:
258,230,132458,1,8,0:0:0:0:
258,230,132579,1,0,0:0:0:0:
433,62,132700,5,0,3:0:0:0:
433,62,132821,2,0,P|466:60|493:63,1,50,0|8,0:0|0:0,0:0:0:0:
200,163,133063,1,0,0:0:0:0:
200,163,133184,1,8,3:3:0:0:
117,34,133426,6,0,L|119:108,1,75,8|0,0:0|0:0,0:0:0:0:
96,89,133668,6,0,L|94:163,1,75,0|0,3:0|0:0,0:0:0:0:
65,177,133910,5,8,0:0:0:0:
65,177,134031,1,0,0:0:0:0:
122,243,134152,6,0,L|207:239,1,75,8|0,3:3|0:0,0:0:0:0:
271,263,134394,6,0,L|186:259,1,75,8|0,0:0|0:0,0:0:0:0:
344,234,134636,6,0,P|320:265|282:284,1,75,0|0,3:0|0:0,0:0:0:0:
396,183,134878,6,0,P|390:221|367:257,1,75,8|0,0:0|0:0,0:0:0:0:
449,115,135119,6,0,P|414:99|366:103,2,75,8|0|0,3:3|0:0|0:0,0:0:0:0:
482,193,135603,5,0,3:0:0:0:
317,155,135724,5,0,0:0:0:0:
317,155,135845,2,0,L|230:154,1,75,8|0,0:0|0:0,0:0:0:0:
159,177,136087,2,0,L|246:176,1,75,8|0,3:3|0:0,0:0:0:0:
249,206,136329,1,8,0:0:0:0:
249,206,136450,1,0,0:0:0:0:
188,39,136571,5,0,3:0:0:0:
188,39,136692,2,0,L|185:94,1,50,0|8,0:0|0:0,0:0:0:0:
54,312,136934,1,0,0:0:0:0:
54,312,137055,1,8,3:3:0:0:
41,90,137297,1,8,0:0:0:0:
206,281,137539,6,0,P|244:290|282:284,1,75,0|0,3:0|0:0,0:0:0:0:
295,305,137781,2,0,P|333:314|371:308,1,75,8|0,0:0|0:0,0:0:0:0:
452,322,138023,6,0,P|414:331|376:325,1,75,8|0,3:3|0:0,0:0:0:0:
467,298,138265,1,8,0:0:0:0:
467,298,138386,1,0,0:0:0:0:
381,100,138507,5,0,3:0:0:0:
381,100,138628,2,0,P|385:68|382:40,1,50,0|8,0:0|0:0,0:0:0:0:
248,366,138869,1,0,0:0:0:0:
248,366,138990,1,8,3:3:0:0:
82,310,139232,6,2,L|170:311,1,75,10|2,0:0|0:0,0:0:0:0:
182,289,139474,5,0,3:0:0:0:
118,228,139595,5,0,0:0:0:0:
118,228,139716,2,0,P|114:184|120:147,1,75,8|0,0:0|0:0,0:0:0:0:
212,143,139958,2,0,L|133:144,1,75,8|0,3:3|0:0,0:0:0:0:
240,125,140200,1,8,0:0:0:0:
240,125,140321,1,0,0:0:0:0:
82,310,140442,5,0,3:0:0:0:
82,310,140563,2,0,L|84:249,1,50,0|8,0:0|0:0,0:0:0:0:
200,35,140805,1,0,0:0:0:0:
200,35,140926,1,8,3:3:0:0:
394,85,141168,6,0,L|392:159,1,75,8|0,0:0|0:0,0:0:0:0:
415,140,141410,6,0,L|417:214,1,75,0|0,3:0|0:0,0:0:0:0:
446,228,141652,5,8,0:0:0:0:
446,228,141773,1,0,0:0:0:0:
389,294,141894,6,0,L|304:290,1,75,8|0,3:3|0:0,0:0:0:0:
240,314,142136,6,0,L|325:310,1,75,8|0,0:0|0:0,0:0:0:0:
167,285,142378,6,0,P|191:316|229:335,1,75,0|0,3:0|0:0,0:0:0:0:
115,234,142620,6,0,P|120:272|143:308,1,75,8|0,0:0|0:0,0:0:0:0:
62,166,142861,6,0,P|97:150|145:154,2,75,8|0|0,3:3|0:0|0:0,0:0:0:0:
116,71,143345,6,0,P|153:75|178:84,1,50,0|0,3:0|0:0,0:0:0:0:
315,34,143587,2,0,P|290:40|265:41,1,50,8|0,0:0|0:0,0:0:0:0:
401,132,143829,1,8,3:3:0:0:
431,41,144071,5,8,0:0:0:0:
431,41,144192,1,0,0:0:0:0:
406,284,144313,5,0,3:0:0:0:
406,284,144434,2,0,P|436:287|464:285,1,50,0|8,0:0|0:0,0:0:0:0:
109,237,144676,1,0,0:0:0:0:
109,237,144797,1,8,3:3:0:0:
193,358,145039,6,2,L|190:266,1,75,8|0,0:0|0:0,0:0:0:0:
219,270,145281,6,0,P|249:273|277:271,1,50,0|0,3:0|0:0,0:0:0:0:
137,158,145523,2,0,P|107:155|79:157,1,50,8|0,0:0|0:0,0:0:0:0:
268,85,145765,1,8,3:3:0:0:
167,45,146007,5,8,0:0:0:0:
167,45,146128,1,0,0:0:0:0:
459,129,146249,5,0,3:0:0:0:
459,129,146369,2,0,L|399:131,1,50,0|8,0:0|0:0,0:0:0:0:
99,321,146611,1,0,0:0:0:0:
99,321,146732,1,8,3:3:0:0:
399,336,146974,6,2,L|402:244,1,75,8|0,0:0|0:0,0:0:0:0:
327,236,147216,6,0,L|387:238,1,50,0|0,3:0|0:0,0:0:0:0:
200,176,147458,2,0,L|249:174,1,50,8|0,0:0|0:0,0:0:0:0:
375,77,147700,1,8,3:3:0:0:
309,316,147942,5,8,0:0:0:0:
309,316,148063,1,0,0:0:0:0:
177,94,148184,5,0,3:0:0:0:
177,94,148305,2,0,P|172:57|176:31,1,50,0|8,0:0|0:0,0:0:0:0:
83,306,148547,1,0,0:0:0:0:
83,306,148668,1,8,3:3:0:0:
309,316,148910,6,0,L|314:233,1,75,8|0,0:0|0:0,0:0:0:0:
333,212,149152,6,0,L|328:295,1,75,0|0,3:0|0:0,0:0:0:0:
359,243,149394,5,8,0:0:0:0:
359,243,149515,1,0,0:0:0:0:
401,278,149636,6,0,P|397:318|396:352,1,75,8|0,3:3|0:0,0:0:0:0:
420,248,149878,6,0,L|415:331,1,75,8|0,0:0|0:0,0:0:0:0:
439,218,150120,6,0,L|434:301,1,75,0|0,3:0|0:0,0:0:0:0:
458,188,150362,6,0,L|453:271,1,75,8|0,0:0|0:0,0:0:0:0:
477,158,150604,6,0,L|472:241,2,75,8|0|0,3:3|0:0|0:0,0:0:0:0:
421,76,151087,6,0,P|395:71|359:76,1,50,0|0,3:0|0:0,0:0:0:0:
200,127,151329,2,0,P|226:122|262:127,1,50,8|0,0:0|0:0,0:0:0:0:
359,243,151571,1,8,3:3:0:0:
287,37,151813,5,8,0:0:0:0:
287,37,151934,1,0,0:0:0:0:
156,313,152055,5,0,3:0:0:0:
156,313,152176,2,0,P|122:317|91:314,1,50,0|8,0:0|0:0,0:0:0:0:
464,255,152418,1,0,0:0:0:0:
464,255,152539,1,8,3:3:0:0:
35,223,152781,6,2,L|128:211,1,75,8|0,0:0|0:0,0:0:0:0:
171,178,153023,6,0,P|137:182|106:179,1,50,0|0,3:0|0:0,0:0:0:0:
79,37,153265,2,0,P|96:54|116:69,1,50,8|0,0:0|0:0,0:0:0:0:
259,40,153507,1,8,3:3:0:0:
37,121,153749,5,8,0:0:0:0:
37,121,153869,1,0,0:0:0:0:
341,95,153990,5,0,3:0:0:0:
341,95,154111,2,0,L|344:157,1,50,0|8,0:0|0:0,0:0:0:0:
443,335,154353,1,0,0:0:0:0:
443,335,154474,1,8,3:3:0:0:
368,271,154716,6,2,L|275:259,1,75,8|0,0:0|0:0,0:0:0:0:
260,286,154958,6,0,L|263:348,1,50,0|0,3:0|0:0,0:0:0:0:
144,314,155200,2,0,L|141:376,1,50,8|0,0:0|0:0,0:0:0:0:
44,205,155442,1,8,3:3:0:0:
26,312,155684,5,8,0:0:0:0:
26,312,155805,1,0,0:0:0:0:
114,74,155926,5,0,3:0:0:0:
114,74,156047,2,0,P|83:69|58:69,1,50,0|8,0:0|0:0,0:0:0:0:
388,51,156289,1,0,0:0:0:0:
388,51,156410,1,8,3:3:0:0:
439,186,156652,6,0,L|436:136,1,37.5000014305115,8|0,0:0|0:0,0:0:0:0:
425,229,156894,6,0,L|422:179,1,37.5000014305115
411,272,157136,6,0,L|408:222,1,37.5000014305115
397,315,157378,6,0,L|394:265,1,37.5000014305115
291,238,157619,6,0,P|317:236|340:239,1,37.5000014305115
307,333,157861,6,0,P|281:335|258:332,1,37.5000014305115
162,270,158103,6,0,P|188:268|211:271,1,37.5000014305115
97,343,158345,5,0,0:0:0:0:
97,343,158466,2,0,L|71:345,2,18.7500007152558
16,289,158708,5,0,0:0:0:0:
186,346,158829,6,0,B|211:352|237:346|237:346|226:336|213:332,1,75.0000028610231
