osu file format v14

[General]
AudioFilename: audio.mp3
AudioLeadIn: 0
PreviewTime: -1
Countdown: 1
SampleSet: None
StackLeniency: 0.7
Mode: 0
LetterboxInBreaks: 0
WidescreenStoryboard: 0

[Editor]
DistanceSpacing: 1.5
BeatDivisor: 4
GridSize: 16
TimelineZoom: 1

[Metadata]
Title:Lone Digger
TitleUnicode:Lone Digger
Artist:Caravan Palace
ArtistUnicode:Caravan Palace
Creator:[Itsuka-Isuze]
Version:Ready Set Go (Insane)
Source:
Tags:
BeatmapID:1193000
BeatmapSetID:564279

[Difficulty]
HPDrainRate:6
CircleSize:4
OverallDifficulty:4
ApproachRate:9
SliderMultiplier:3
SliderTickRate:1

[Events]
//Background and Video events
0,0,"lonedigger.jpg",0,0
//Break Periods
2,112140,119446
//Storyboard Layer 0 (Background)
//Storyboard Layer 1 (Fail)
//Storyboard Layer 2 (Pass)
//Storyboard Layer 3 (Foreground)
//Storyboard Sound Samples

[TimingPoints]
42,483.890476190479,4,1,0,100,1,0

[HitObjects]
96,64,1977,6,0,L|176:80,1,75
416,64,2219,2,0,L|320:80,1,75
80,176,2461,2,0,L|176:208,1,75
416,176,2703,2,0,L|320:208,1,75
64,256,2945,2,0,L|192:288,1,75
432,272,3187,2,0,L|352:304,1,75
256,304,3550,2,0,L|256:208,1,75
256,48,3913,2,0,L|256:208,1,150
144,256,4397,1,0,0:0:0:0:
112,160,4638,1,0,0:0:0:0:
144,64,4880,2,0,P|192:32|224:32,1,75
256,48,5243,1,0,0:0:0:0:
160,160,5606,1,0,0:0:0:0:
240,112,5848,1,0,0:0:0:0:
320,112,6090,1,0,0:0:0:0:
304,32,6574,1,0,0:0:0:0:
384,64,6816,2,0,P|400:128|368:160,1,75
368,176,7179,1,0,0:0:0:0:
80,160,7542,2,0,L|192:48,2,150
16,144,8510,1,0,0:0:0:0:
64,256,8752,2,0,P|112:224|144:224,1,75
176,240,9115,1,0,0:0:0:0:
176,128,9719,1,0,0:0:0:0:
96,176,9961,1,0,0:0:0:0:
96,256,10203,2,0,P|192:320|256:336,1,150
400,128,10687,2,0,P|272:48|240:48,1,150
224,208,11171,2,0,P|128:160|96:160,1,75
208,80,11655,1,0,0:0:0:0:
304,80,11897,1,0,0:0:0:0:
352,304,12381,1,0,0:0:0:0:
192,192,12623,2,0,P|240:160|272:160,1,75
304,176,12986,1,0,0:0:0:0:
96,208,13348,1,0,0:0:0:0:
176,128,13590,2,0,P|256:160|304:128,1,150
384,192,14074,1,0,0:0:0:0:
208,256,14315,1,0,0:0:0:0:
144,192,14557,2,0,P|144:144|176:112,1,75
224,80,14920,1,0,0:0:0:0:
288,160,15284,1,0,0:0:0:0:
400,208,15526,2,0,P|384:288|304:336,1,150
192,288,16010,1,0,0:0:0:0:
128,160,16251,1,0,0:0:0:0:
144,64,16493,2,0,P|192:32|224:32,1,75
256,64,16856,1,0,0:0:0:0:
80,96,17462,2,0,P|128:160|144:160,1,75
176,96,17704,2,0,P|224:144|224:176,1,75
176,208,17945,2,0,P|224:240|256:240,1,75
288,192,18187,2,0,P|336:240|336:272,1,75
160,240,18550,2,0,L|240:192,1,75
288,192,18913,2,0,L|368:256,1,75
256,192,19276,1,0,0:0:0:0:
256,192,19397,1,0,0:0:0:0:
96,160,19881,1,0,0:0:0:0:
176,96,20123,1,0,0:0:0:0:
272,80,20365,1,0,0:0:0:0:
368,112,20607,1,0,0:0:0:0:
384,224,20849,1,0,0:0:0:0:
304,304,21091,1,0,0:0:0:0:
224,256,21575,2,0,P|128:256|112:176,2,150
256,208,22300,1,0,0:0:0:0:
240,128,22542,2,0,P|320:144|400:128,1,150
400,224,23026,1,0,0:0:0:0:
336,256,23268,1,0,0:0:0:0:
192,256,23752,2,0,P|128:240|80:192,1,75
96,128,24115,1,0,0:0:0:0:
144,256,24478,2,0,P|240:304|320:272,2,150
336,112,25204,1,0,0:0:0:0:
224,112,25446,1,0,0:0:0:0:
112,160,25688,1,0,0:0:0:0:
128,304,26051,2,0,L|208:256,1,75
144,160,26414,2,0,P|240:96|320:128,2,150
256,192,27139,1,0,0:0:0:0:
80,240,27623,2,0,L|112:160,1,75
160,80,27986,1,0,0:0:0:0:
368,112,28349,1,0,0:0:0:0:
384,224,28591,1,0,0:0:0:0:
304,304,28833,1,0,0:0:0:0:
224,256,29317,2,0,P|144:272|96:208,1,150
112,144,29922,2,0,L|192:96,1,75
256,128,30285,1,0,0:0:0:0:
400,224,30768,1,0,0:0:0:0:
192,112,31252,2,0,P|272:64|336:112,1,150
336,192,31857,2,0,L|272:256,2,75
240,240,32220,1,0,0:0:0:0:
160,176,32462,1,0,0:0:0:0:
160,80,32704,1,0,0:0:0:0:
336,112,32946,1,0,0:0:0:0:
224,112,33188,1,0,0:0:0:0:
112,160,33430,1,0,0:0:0:0:
128,304,33793,2,0,L|208:256,1,75
144,160,34156,2,0,P|240:96|320:128,2,150
256,192,34882,1,0,0:0:0:0:
96,160,35366,1,0,0:0:0:0:
176,96,35608,1,0,0:0:0:0:
272,80,35850,1,0,0:0:0:0:
368,112,36092,1,0,0:0:0:0:
384,224,36334,1,0,0:0:0:0:
304,304,36576,1,0,0:0:0:0:
224,256,37060,2,0,P|128:256|112:176,2,150
256,208,37785,1,0,0:0:0:0:
240,128,38027,2,0,P|320:144|400:128,1,150
400,224,38511,1,0,0:0:0:0:
336,256,38753,1,0,0:0:0:0:
160,256,38995,2,0,P|64:208|48:128,2,150
160,160,39721,1,0,0:0:0:0:
144,256,39963,2,0,P|240:304|320:272,2,150
336,112,40689,1,0,0:0:0:0:
224,112,40931,1,0,0:0:0:0:
112,160,41173,1,0,0:0:0:0:
128,304,41536,2,0,L|208:256,1,75
144,160,41899,2,0,P|240:96|320:128,2,150
256,192,42624,1,0,0:0:0:0:
80,240,42866,2,0,L|144:96,1,150
224,128,43350,1,0,0:0:0:0:
160,256,43592,2,0,P|256:304|320:272,2,150
336,112,44317,1,0,0:0:0:0:
320,224,44559,1,0,0:0:0:0:
224,256,44802,2,0,P|144:272|96:208,1,150
112,144,45285,2,0,L|240:64,1,150
256,128,45770,1,0,0:0:0:0:
384,96,46011,1,0,0:0:0:0:
400,224,46253,1,0,0:0:0:0:
192,112,46737,2,0,P|272:64|336:112,1,150
272,192,47221,1,0,0:0:0:0:
224,144,47705,1,0,0:0:0:0:
176,160,47826,1,0,0:0:0:0:
144,192,47947,1,0,0:0:0:0:
96,272,48189,1,0,0:0:0:0:
16,304,48431,2,0,B|16:144|80:48|160:16|288:0|416:32|480:192|448:352,1,750
320,256,49882,6,0,L|208:208,1,75
384,224,50124,2,0,L|320:272,1,75
144,288,50366,2,0,L|96:224,1,75
320,48,50608,2,0,L|400:32,1,75
448,208,50850,2,0,L|400:272,1,75
128,64,51092,2,0,L|208:48,1,75
304,208,51334,2,0,L|256:288,1,75
112,96,51576,2,0,P|192:96|208:96,1,75
160,288,51818,2,0,L|240:320,1,75
416,224,52060,2,0,L|416:144,1,75
304,96,52302,2,0,L|224:80,1,75
192,304,52544,2,0,L|272:320,1,75
416,160,52786,2,0,L|368:96,1,75
112,96,53028,2,0,L|64:160,1,75
256,176,53269,2,0,L|320:128,1,75
224,304,53511,2,0,L|144:272,1,75
320,48,53753,2,0,L|384:96,1,75
352,288,53995,2,0,L|272:256,1,75
112,112,54237,6,0,L|192:64,1,75
384,224,54479,2,0,L|320:272,1,75
144,288,54721,2,0,L|96:224,1,75
320,48,54963,2,0,L|400:32,1,75
448,208,55205,2,0,L|400:272,1,75
128,64,55447,2,0,L|208:48,1,75
304,208,55689,2,0,L|256:288,1,75
112,96,55931,2,0,P|192:96|208:96,1,75
190,88,56173,1,0,0:0:0:0:
336,96,56415,1,0,0:0:0:0:
336,256,56657,1,0,0:0:0:0:
192,256,56899,1,0,0:0:0:0:
256,96,57141,1,0,0:0:0:0:
352,192,57383,1,0,0:0:0:0:
256,288,57624,1,0,0:0:0:0:
160,192,57866,1,0,0:0:0:0:
112,112,58108,6,0,L|192:64,1,75
384,224,58350,2,0,L|320:272,1,75
144,288,58592,2,0,L|96:224,1,75
320,48,58834,2,0,L|400:32,1,75
448,208,59076,2,0,L|400:272,1,75
128,64,59318,2,0,L|208:48,1,75
304,208,59560,2,0,L|256:288,1,75
112,96,59802,2,0,P|192:96|208:96,1,75
160,288,60044,2,0,L|240:320,1,75
416,224,60286,2,0,L|416:144,1,75
304,96,60528,2,0,L|224:80,1,75
192,304,60770,2,0,L|272:320,1,75
416,160,61012,2,0,L|368:96,1,75
112,96,61254,2,0,L|64:160,1,75
256,176,61495,2,0,L|320:128,1,75
224,304,61737,2,0,L|144:272,1,75
320,48,61979,2,0,L|384:96,1,75
352,288,62221,2,0,L|272:256,1,75
112,112,62463,6,0,L|192:64,1,75
384,224,62705,2,0,L|320:272,1,75
112,272,62947,1,0,0:0:0:0:
128,176,63068,1,0,0:0:0:0:
192,112,63189,1,0,0:0:0:0:
288,96,63431,1,0,0:0:0:0:
384,144,63673,2,0,B|432:208|416:304|400:320|368:320,1,150
336,320,64036,2,0,L|272:272,1,75
320,224,64278,2,0,L|384:272,1,75
416,208,64520,2,0,L|352:160,1,75
288,128,64762,2,0,L|224:192,1,75
160,128,65004,2,0,L|80:192,1,75
240,288,65367,2,0,L|304:224,1,75
64,160,65851,2,0,B|112:96|192:80|272:64|384:80|448:144|480:208|480:304|448:336,1,525
464,304,66818,2,0,B|400:352|288:352|192:320|144:256|112:176|96:96|112:16|112:32,1,525
109,60,67786,2,0,B|48:128|48:208|80:288|144:320|240:336|336:336|400:320,1,525
448,304,68754,2,0,B|480:224|480:144|448:64|368:32|272:16|192:16|112:64,1,525
112,64,69722,2,0,B|192:80|256:128|288:192|288:272|256:336|192:368|112:368|48:336,1,525
48,272,70690,2,0,B|48:192|80:128|144:80|240:48|368:48|448:112|496:160,1,525
464,144,71657,1,0,0:0:0:0:
224,112,71899,1,0,0:0:0:0:
112,160,72141,1,0,0:0:0:0:
128,304,72504,2,0,L|208:256,1,75
144,160,72867,2,0,P|240:96|320:128,2,150
480,128,73593,2,0,B|416:80|352:48|272:32|192:32|112:32|32:80|-16:128,1,525
0,272,74561,2,0,B|80:320|176:336|272:352|352:352|448:336|496:304|528:256,1,525
496,272,75528,2,0,B|480:192|416:128|352:112|240:96|144:128|96:192|96:256,1,525
96,245,76496,2,0,B|128:320|208:352|288:352|368:352|432:304|496:224|512:144,1,525
480,112,77464,2,0,B|432:192|368:240|288:256|192:240|112:176|80:128|64:64,1,525
64,48,78432,2,0,B|144:32|224:64|256:144|272:240|256:304|192:368|80:368|32:352,1,525
32,240,79521,2,0,B|32:160|96:96|160:64|240:48|336:48|400:112|448:224|432:320|336:352|160:368|48:320|48:144|96:32|160:-16|160:0,1,975
256,192,81335,1,0,0:0:0:0:
96,160,81819,1,0,0:0:0:0:
176,96,82061,1,0,0:0:0:0:
272,80,82303,1,0,0:0:0:0:
368,112,82545,1,0,0:0:0:0:
384,224,82787,1,0,0:0:0:0:
304,304,83029,1,0,0:0:0:0:
224,256,83513,2,0,P|128:256|112:176,2,150
256,208,84238,1,0,0:0:0:0:
240,128,84480,2,0,P|320:144|400:128,1,150
400,224,84964,1,0,0:0:0:0:
336,256,85206,1,0,0:0:0:0:
192,256,85448,2,0,P|128:240|64:176,1,150
224,64,85932,1,0,0:0:0:0:
112,128,86174,1,0,0:0:0:0:
144,256,86416,2,0,P|240:304|320:272,2,150
336,112,87142,1,0,0:0:0:0:
224,112,87384,1,0,0:0:0:0:
112,160,87626,1,0,0:0:0:0:
128,304,87989,2,0,L|208:256,1,75
144,160,88352,2,0,P|240:96|320:128,2,150
256,192,89077,1,0,0:0:0:0:
80,240,89319,2,0,L|144:96,1,150
224,128,89803,1,0,0:0:0:0:
160,256,90045,2,0,P|256:304|320:272,2,150
336,112,90770,1,0,0:0:0:0:
320,224,91012,1,0,0:0:0:0:
224,256,91255,2,0,P|144:272|96:208,1,150
112,144,91738,2,0,L|240:64,1,150
256,128,92223,1,0,0:0:0:0:
384,96,92464,1,0,0:0:0:0:
400,224,92706,1,0,0:0:0:0:
192,112,93190,2,0,P|272:64|336:112,1,150
256,208,93674,1,0,0:0:0:0:
96,288,94158,2,0,L|32:208,2,75
224,304,94642,1,0,0:0:0:0:
16,304,94884,6,0,B|16:144|80:48|160:16|288:0|416:32|480:192|448:352,1,750
320,256,96335,6,0,L|208:208,1,75
384,224,96577,2,0,L|320:272,1,75
144,288,96819,2,0,L|96:224,1,75
320,48,97061,2,0,L|400:32,1,75
448,208,97303,2,0,L|400:272,1,75
128,64,97545,2,0,L|208:48,1,75
304,208,97787,2,0,L|256:288,1,75
112,96,98029,2,0,P|192:96|208:96,1,75
160,288,98271,2,0,L|240:320,1,75
416,224,98513,2,0,L|416:144,1,75
304,96,98755,2,0,L|224:80,1,75
192,304,98997,2,0,L|272:320,1,75
416,160,99239,2,0,L|368:96,1,75
112,96,99481,2,0,L|64:160,1,75
256,176,99722,2,0,L|320:128,1,75
224,304,99964,2,0,L|144:272,1,75
320,48,100206,2,0,L|384:96,1,75
352,288,100448,2,0,L|272:256,1,75
112,112,100690,6,0,L|192:64,1,75
384,224,100932,2,0,L|320:272,1,75
144,288,101174,2,0,L|96:224,1,75
320,48,101416,2,0,L|400:32,1,75
448,208,101658,2,0,L|400:272,1,75
128,64,101900,2,0,L|208:48,1,75
304,208,102142,2,0,L|256:288,1,75
112,96,102384,2,0,P|192:96|208:96,1,75
190,88,102626,1,0,0:0:0:0:
336,96,102868,1,0,0:0:0:0:
336,256,103110,1,0,0:0:0:0:
192,256,103352,1,0,0:0:0:0:
256,96,103594,1,0,0:0:0:0:
352,192,103836,1,0,0:0:0:0:
256,288,104077,1,0,0:0:0:0:
160,192,104319,1,0,0:0:0:0:
112,112,104561,6,0,L|192:64,1,75
384,224,104803,2,0,L|320:272,1,75
144,288,105045,2,0,L|96:224,1,75
320,48,105287,2,0,L|400:32,1,75
448,208,105529,2,0,L|400:272,1,75
128,64,105771,2,0,L|208:48,1,75
304,208,106013,2,0,L|256:288,1,75
112,96,106255,2,0,P|192:96|208:96,1,75
160,288,106497,2,0,L|240:320,1,75
416,224,106739,2,0,L|416:144,1,75
304,96,106981,2,0,L|224:80,1,75
192,304,107223,2,0,L|272:320,1,75
416,160,107465,2,0,L|368:96,1,75
112,96,107707,2,0,L|64:160,1,75
256,176,107948,2,0,L|320:128,1,75
224,304,108190,2,0,L|144:272,1,75
320,48,108432,2,0,L|384:96,1,75
352,288,108674,2,0,L|272:256,1,75
112,112,108916,6,0,L|192:64,1,75
384,224,109158,2,0,L|320:272,1,75
112,272,109400,1,0,0:0:0:0:
128,176,109521,1,0,0:0:0:0:
192,112,109642,1,0,0:0:0:0:
288,96,109884,1,0,0:0:0:0:
384,144,110126,2,0,B|432:208|416:304|400:320|368:320,1,150
336,320,110489,2,0,L|272:272,1,75
320,224,110731,2,0,L|384:272,1,75
416,208,110973,2,0,L|352:160,1,75
288,128,111215,2,0,L|224:192,1,75
160,128,111457,2,0,L|80:192,1,75
240,288,111820,2,0,L|304:224,1,75
256,192,120046,12,0,125611,0:0:0:0:
96,64,125853,6,0,L|176:80,1,75
416,64,126095,2,0,L|320:80,1,75
80,176,126337,2,0,L|176:208,1,75
416,176,126579,2,0,L|320:208,1,75
64,256,126821,2,0,L|192:288,1,75
432,272,127063,2,0,L|352:304,1,75
256,304,127426,2,0,L|256:208,1,75
80,128,127910,2,0,L|144:176,1,75
208,208,128272,1,0,0:0:0:0:
336,208,128514,2,0,L|384:144,1,75
240,64,128877,2,0,L|224:144,1,75
288,224,129240,1,0,0:0:0:0:
48,320,129845,2,0,L|32:240,1,75
96,128,130207,1,0,0:0:0:0:
256,288,130449,2,0,L|304:224,1,75
464,64,130812,2,0,L|448:144,1,75
432,288,131175,1,0,0:0:0:0:
96,32,131781,2,0,L|160:80,1,75
96,192,132143,1,0,0:0:0:0:
176,336,132385,2,0,L|224:272,1,75
368,160,132748,2,0,L|224:144,1,75
208,64,133111,1,0,0:0:0:0:
176,128,133595,1,0,0:0:0:0:
96,176,133837,1,0,0:0:0:0:
96,256,134079,2,0,P|192:320|256:336,1,150
400,128,134563,2,0,P|272:48|240:48,1,150
224,208,135047,2,0,P|128:160|96:160,1,75
256,64,135652,2,0,L|320:112,1,75
160,192,136014,1,0,0:0:0:0:
256,320,136256,2,0,L|304:256,1,75
112,48,136619,2,0,L|96:128,1,75
352,176,136982,1,0,0:0:0:0:
448,160,137587,2,0,L|320:208,1,75
208,208,137949,1,0,0:0:0:0:
288,336,138191,2,0,L|336:272,1,75
112,48,138554,2,0,L|96:128,1,75
288,80,138917,1,0,0:0:0:0:
128,80,139523,2,0,L|192:128,1,75
272,160,139885,1,0,0:0:0:0:
416,96,140127,2,0,L|464:32,1,75
192,64,140490,2,0,L|176:144,1,75
144,288,140853,1,0,0:0:0:0:
176,128,141338,1,0,0:0:0:0:
96,176,141580,1,0,0:0:0:0:
96,256,141822,2,0,P|192:320|256:336,1,150
400,128,142306,2,0,P|272:48|240:48,1,150
160,128,142789,6,0,L|48:80,1,75
384,224,143031,2,0,L|320:272,1,75
144,288,143273,2,0,L|96:224,1,75
320,48,143515,2,0,L|400:32,1,75
448,208,143757,2,0,L|400:272,1,75
128,64,143999,2,0,L|208:48,1,75
304,208,144241,2,0,L|256:288,1,75
112,96,144483,2,0,P|192:96|208:96,1,75
160,288,144725,2,0,L|240:320,1,75
416,224,144967,2,0,L|416:144,1,75
304,96,145209,2,0,L|224:80,1,75
192,304,145451,2,0,L|272:320,1,75
416,160,145693,2,0,L|368:96,1,75
112,96,145935,2,0,L|64:160,1,75
256,176,146176,2,0,L|320:128,1,75
224,304,146418,2,0,L|144:272,1,75
320,48,146660,2,0,L|384:96,1,75
352,288,146902,2,0,L|272:256,1,75
112,112,147144,6,0,L|192:64,1,75
384,224,147386,2,0,L|320:272,1,75
144,288,147628,2,0,L|96:224,1,75
320,48,147870,2,0,L|400:32,1,75
448,208,148112,2,0,L|400:272,1,75
128,64,148354,2,0,L|208:48,1,75
304,208,148596,2,0,L|256:288,1,75
112,96,148838,2,0,P|192:96|208:96,1,75
190,88,149080,1,0,0:0:0:0:
336,96,149322,1,0,0:0:0:0:
336,256,149564,1,0,0:0:0:0:
192,256,149806,1,0,0:0:0:0:
256,96,150048,1,0,0:0:0:0:
352,192,150290,1,0,0:0:0:0:
256,288,150531,1,0,0:0:0:0:
160,192,150773,1,0,0:0:0:0:
112,112,151015,6,0,L|192:64,1,75
384,224,151257,2,0,L|320:272,1,75
144,288,151499,2,0,L|96:224,1,75
320,48,151741,2,0,L|400:32,1,75
448,208,151983,2,0,L|400:272,1,75
128,64,152225,2,0,L|208:48,1,75
304,208,152467,2,0,L|256:288,1,75
112,96,152709,2,0,P|192:96|208:96,1,75
160,288,152951,2,0,L|240:320,1,75
416,224,153193,2,0,L|416:144,1,75
304,96,153435,2,0,L|224:80,1,75
192,304,153677,2,0,L|272:320,1,75
416,160,153919,2,0,L|368:96,1,75
112,96,154161,2,0,L|64:160,1,75
256,176,154402,2,0,L|320:128,1,75
224,304,154644,2,0,L|144:272,1,75
320,48,154886,2,0,L|384:96,1,75
352,288,155128,2,0,L|272:256,1,75
112,112,155370,6,0,L|192:64,1,75
384,224,155612,2,0,L|320:272,1,75
112,272,155854,1,0,0:0:0:0:
128,176,155975,1,0,0:0:0:0:
192,112,156096,1,0,0:0:0:0:
288,96,156338,1,0,0:0:0:0:
384,144,156580,2,0,B|432:208|416:304|400:320|368:320,1,150
336,320,156943,2,0,L|272:272,1,75
320,224,157185,2,0,L|384:272,1,75
416,208,157427,2,0,L|352:160,1,75
288,128,157669,2,0,L|224:192,1,75
160,128,157911,2,0,L|80:192,1,75
224,176,158153,1,0,0:0:0:0:
240,288,158274,2,0,L|304:224,1,75
