osu file format v14

[General]
AudioFilename: audio.mp3
AudioLeadIn: 0
PreviewTime: 27032
Countdown: 0
SampleSet: Soft
StackLeniency: 0.7
Mode: 2
LetterboxInBreaks: 0
WidescreenStoryboard: 0

[Editor]
DistanceSpacing: 1
BeatDivisor: 12
GridSize: 4
TimelineZoom: 1.7

[Metadata]
Title:Dragons
TitleUnicode:Dragons
Artist:Caravan Palace
ArtistUnicode:Caravan Palace
Creator:Spectator
Version:Overdose
Source:
Tags:deif electronic instrumental electro electro-swing swing cwc2021 osu!catch world cup 2021 semi finals sf no mod nm1
BeatmapID:3007191
BeatmapSetID:1464027

[Difficulty]
HPDrainRate:6
CircleSize:4.4
OverallDifficulty:9.3
ApproachRate:9.3
SliderMultiplier:3.2
SliderTickRate:1

[Events]
//Background and Video events
0,0,"dragons.jpg",0,0
//Break Periods
2,43280,45655
2,140054,141236
//Storyboard Layer 0 (Background)
//Storyboard Layer 1 (Fail)
//Storyboard Layer 2 (Pass)
//Storyboard Layer 3 (Foreground)
//Storyboard Layer 4 (Overlay)
//Storyboard Sound Samples

[TimingPoints]
500,483.870967741935,4,2,1,40,1,0
500,-45.4545454545455,4,2,1,40,0,0
12112,-45.4545454545455,4,2,1,40,0,0
18887,-45.4545454545455,4,2,1,50,0,0
19854,-45.4545454545455,4,2,1,40,0,0
25661,-45.4545454545455,4,2,1,35,0,0
27354,-25,4,2,1,45,0,0
27596,-43.1034482758621,4,2,1,60,0,0
34370,-25,4,2,1,60,0,0
34854,-43.1034482758621,4,2,1,60,0,0
35096,-25,4,2,1,60,0,0
35338,-43.1034482758621,4,2,1,60,0,0
42838,-25,4,2,1,60,0,0
43080,-43.1034482758621,4,2,1,60,0,0
62435,-43.1034482758621,4,2,1,50,0,0
70177,-43.1034482758621,4,2,1,60,0,0
76951,-26.5957446808511,4,2,1,60,0,0
77193,-43.1034482758621,4,2,1,60,0,0
77677,-25,4,2,1,60,0,0
77919,-43.1034482758621,4,2,1,60,0,0
85661,-43.1034482758621,4,2,1,70,0,0
87596,-45.4545454545455,4,2,1,70,0,0
88806,-43.1034482758621,4,2,1,70,0,0
89129,-45.4545454545455,4,2,1,70,0,0
89532,-43.1034482758621,4,2,1,70,0,0
91225,-27.4725274725275,4,2,1,70,0,0
91467,-43.1034482758621,4,2,1,70,0,0
92435,-25.7731958762887,4,2,1,70,0,0
92677,-43.1034482758621,4,2,1,70,0,0
93161,-25,4,2,1,70,0,0
93403,-43.1034482758621,4,2,1,70,0,0
100177,-25,4,2,1,70,0,0
100419,-43.1034482758621,4,2,1,70,0,0
100903,-43.1034482758621,4,2,1,70,0,1
100983,-43.1034482758621,4,2,1,70,0,0
101145,-43.1034482758621,4,2,1,50,0,0
105016,-45.4545454545455,4,2,1,55,0,0
112758,-43.1034482758621,4,2,1,60,0,0
120499,-43.1034482758621,4,2,1,65,0,0
123887,-25,4,2,1,65,0,0
124370,-43.1034482758621,4,2,1,70,0,0
127758,-25,4,2,1,70,0,0
128241,-43.1034482758621,4,2,1,70,0,0
131629,-25,4,2,1,70,0,0
132112,-43.1034482758621,4,2,1,70,0,0
135499,-25,4,2,1,80,0,0
135983,-43.1034482758621,4,2,1,80,0,0
136467,-25,4,2,1,80,0,0
136951,-43.1034482758621,4,2,1,80,0,0
137435,-25,4,2,1,80,0,0
137919,-21.7391304347826,4,2,1,80,0,0
138120,-21.7391304347826,4,2,1,35,0,0
138161,-21.7391304347826,4,2,1,80,0,0
138362,-21.7391304347826,4,2,1,35,0,0
138403,-21.7391304347826,4,2,1,80,0,0
138604,-21.7391304347826,4,2,1,35,0,0
138645,-21.7391304347826,4,2,1,80,0,0
138846,-21.7391304347826,4,2,1,35,0,0
138887,-21.7391304347826,4,2,1,80,0,0
139088,-21.7391304347826,4,2,1,35,0,0
139129,-21.7391304347826,4,2,1,80,0,0
139330,-21.7391304347826,4,2,1,35,0,0
139371,-21.7391304347826,4,2,1,80,0,0
139572,-21.7391304347826,4,2,1,35,0,0
139613,-21.7391304347826,4,2,1,80,0,0
139814,-21.7391304347826,4,2,1,35,0,0
139855,-21.7391304347826,4,2,1,80,0,0
141790,-45.4545454545455,4,2,1,50,0,0
142879,-43.1034482758621,4,2,1,60,0,0
143241,-43.1034482758621,4,2,1,65,0,0
145177,-26.5957446808511,4,2,1,70,0,0
145419,-43.1034482758621,4,2,1,70,0,0
146629,-40.983606557377,4,2,1,70,0,0
147596,-43.1034482758621,4,2,1,70,0,0
149048,-26.5957446808511,4,2,1,70,0,0
149532,-43.1034482758621,4,2,1,70,0,0
150499,-40.983606557377,4,2,1,70,0,0
151467,-43.1034482758621,4,2,1,70,0,0
152919,-26.5957446808511,4,2,1,70,0,0
153403,-43.1034482758621,4,2,1,70,0,0
154370,-40.983606557377,4,2,1,70,0,0
155338,-43.1034482758621,4,2,1,70,0,0
156790,-26.5957446808511,4,2,1,70,0,0
157032,-43.1034482758621,4,2,1,70,0,0
157274,-43.1034482758621,4,2,1,55,0,0
158725,-43.1034482758621,4,2,1,65,0,0
159209,-43.1034482758621,4,2,1,70,0,0
162596,-26.5957446808511,4,2,1,70,0,0
162959,-43.1034482758621,4,2,1,70,0,0
166709,-26.5957446808511,4,2,1,70,0,0
166951,-43.1034482758621,4,2,1,70,0,0
173725,-26.5957446808511,4,2,1,70,0,0
174209,-43.1034482758621,4,2,1,70,0,0
174451,-26.5957446808511,4,2,1,70,0,0
174693,-43.1034482758621,4,2,1,55,0,0
175661,-45.4545454545455,4,2,1,55,0,0
190177,-43.1034482758621,4,2,1,70,0,0
197677,-26.5957446808511,4,2,1,70,0,0
197919,-43.1034482758621,4,2,1,70,0,0

[Colours]
Combo1 : 201,149,78
Combo2 : 205,92,96

[HitObjects]
179,283,12112,6,0,B|157:355|157:355|123:288|123:288|93:219|93:219|73:93|73:93,1,352,0|2,0:0|0:0,0:0:0:0:
153,178,12475,1,0,0:0:0:0:
338,127,12596,2,0,L|259:284|259:284,1,176
174,127,12838,2,0,L|253:284|253:284,1,176,2|0,0:0|0:0,0:0:0:0:
432,207,13080,2,0,B|451:279|451:279|468:352|468:352|477:278|477:278|431:159|431:159,1,352,0|2,0:0|0:0,0:0:0:0:
349,122,13443,1,0,0:0:0:0:
220,158,13564,2,0,B|188:226|188:226|182:301|182:301|180:376|180:376|221:256|221:256,1,352,0|2,0:0|0:0,0:0:0:0:
37,272,14048,6,0,L|80:333|80:333|107:263|107:263|126:190|126:190|195:83|195:83,1,352,0|2,0:0|0:0,0:0:0:0:
314,155,14411,2,0,L|277:220|277:220|254:291|254:291|209:351|209:351|156:235|156:235,1,352
390,212,14774,1,2,0:0:0:0:
205,238,15016,6,0,B|227:309|227:309|236:383|236:383|240:308|240:308|311:202|311:202,1,352,0|2,0:0|0:0,0:0:0:0:
389,315,15379,1,0,0:0:0:0:
200,151,15499,2,0,L|280:308|280:308,1,176
365,150,15741,2,0,L|285:307|285:307,1,176,2|0,0:0|0:0,0:0:0:0:
72,62,15983,2,0,L|152:219|152:219,1,176
72,62,16225,1,2,0:0:0:0:
224,250,16467,6,0,L|221:74|221:74,1,176
329,206,16709,2,0,L|409:363|409:363,1,176,2|0,0:0|0:0,0:0:0:0:
219,344,16951,2,0,L|171:287|171:287|140:219|140:219|123:146|123:146|59:36|59:36,1,352,0|2,0:0|0:0,0:0:0:0:
139,324,17314,1,0,0:0:0:0:
271,265,17435,2,0,B|314:326|314:326|305:252|305:252|317:178|317:178|270:60|270:60,1,352,0|2,0:0|0:0,0:0:0:0:
445,178,17919,6,0,L|408:243|408:243|390:316|390:316|347:377|347:377|287:265|287:265,1,352,0|2,0:0|0:0,0:0:0:0:
168,61,18282,2,0,L|202:128|202:128|223:200|223:200|281:248|281:248|326:367|326:367,1,352
92,118,18645,1,2,0:0:0:0:
287,151,18887,1,0,0:0:0:0:
91,222,19008,1,0,0:0:0:0:
287,151,19129,2,0,L|208:308|208:308,1,176,2|0,0:0|0:0,0:0:0:0:
107,221,19370,2,0,L|186:378|186:378,1,176,2|0,0:0|0:0,0:0:0:0:
469,84,19612,2,0,L|443:171|443:171|363:290|363:290,1,234.666666666667,2|0,0:0|0:0,0:0:0:0:
220,312,19854,6,0,B|201:384|201:384|153:326|153:326|141:252|141:252|179:131|179:131,1,352,0|2,0:0|0:0,0:0:0:0:
260,184,20217,1,0,0:0:0:0:
441,86,20338,2,0,L|362:243|362:243,1,176
276,86,20580,2,0,L|355:243|355:243,1,176,2|0,0:0|0:0,0:0:0:0:
138,77,20822,2,0,B|119:149|119:149|120:224|120:224|129:298|129:298|179:181|179:181,1,352,0|2,0:0|0:0,0:0:0:0:
259,192,21185,1,0,0:0:0:0:
400,176,21306,2,0,L|350:232|350:232|337:306|337:306|294:367|294:367|241:251|241:251,1,352,0|2,0:0|0:0,0:0:0:0:
39,275,21790,6,0,B|61:347|61:347|77:274|77:274|73:199|73:199|39:76|39:76,1,352,0|2,0:0|0:0,0:0:0:0:
160,167,22153,2,0,B|180:239|180:239|198:312|198:312|201:237|201:237|160:116|160:116,1,352
347,42,22516,1,2,0:0:0:0:
466,149,22758,2,0,L|386:306|386:306,1,176
277,176,22999,2,0,L|197:333|197:333,1,176,2|0,0:0|0:0,0:0:0:0:
385,144,23241,2,0,L|305:301|305:301,1,176
385,144,23483,1,2,0:0:0:0:
53,283,23725,6,0,B|54:358|54:358|30:287|30:287|45:214|45:214|53:87|53:87,1,352,0|2,0:0|0:0,0:0:0:0:
132,115,24088,1,0,0:0:0:0:
313,56,24209,2,0,L|393:213|393:213,1,176
304,55,24451,2,0,L|224:212|224:212,1,176,2|0,0:0|0:0,0:0:0:0:
459,283,24693,6,0,B|484:354|484:354|462:282|462:282|483:210|483:210|459:85|459:85,1,352,0|2,0:0|0:0,0:0:0:0:
380,115,25056,1,0,0:0:0:0:
247,149,25177,1,0,0:0:0:0:
195,133,25258,1,0,0:0:0:0:
247,149,25338,1,0,0:0:0:0:
391,114,25419,2,0,L|377:204|377:204|391:347|391:347,1,234.666666666667,2|0,0:0|0:0,0:0:0:0:
193,232,25661,5,2,0:0:0:0:
104,253,25782,1,0,0:0:0:0:
193,232,25903,1,2,0:0:0:0:
104,253,26024,1,0,0:0:0:0:
315,308,26145,1,2,0:0:0:0:
247,331,26266,1,0,0:0:0:0:
315,308,26387,1,2,0:0:0:0:
247,331,26508,1,0,0:0:0:0:
22,214,26629,5,2,0:0:0:0:
129,159,27112,2,0,L|167:242|167:242|235:369|235:369,1,234.666666666667,2|0,0:0|0:0,0:0:0:0:
392,208,27354,2,0,L|297:343|297:343|127:145|127:145,1,426.666666666667,2|0,0:0|0:0,0:0:0:0:
269,314,27596,6,0,B|305:384|305:384|348:318|348:318|367:241|367:241|390:109|390:109,1,371.200011328126,0|0,1:0|0:0,0:0:0:0:
303,195,27959,1,0,0:0:0:0:
100,114,28080,2,0,L|96:300|96:300,1,185.600005664063,8|0,1:1|0:2,0:2:0:0:
282,65,28322,2,0,L|194:228|194:228,1,185.600005664063
381,114,28564,2,0,B|427:179|427:179|441:257|441:257|419:333|419:333|382:204|382:204,1,371.200011328126,4|0,1:3|0:0,0:0:0:0:
295,231,28927,1,0,0:0:0:0:
58,180,29048,2,0,L|146:343|146:343,1,185.600005664063,8|0,1:1|0:0,0:0:0:0:
347,127,29290,1,2,0:0:0:0:
106,261,29532,6,0,L|154:324|154:324|197:258|197:258|222:183|222:183|282:63|282:63,1,371.200011328126,4|0,1:3|0:0,0:0:0:0:
146,312,29895,2,0,L|192:376|192:376|214:300|214:300|259:235|259:235|322:116|322:116,1,371.200011328126,2|0,0:0|0:0,0:0:0:0:
187,202,30258,2,0,L|275:365|275:365,1,185.600005664063
471,193,30499,2,0,B|455:270|455:270|469:348|469:348|426:282|426:282|371:160|371:160,1,371.200011328126,4|0,1:3|0:0,0:0:0:0:
283,84,30862,1,0,0:0:0:0:
43,195,30983,2,0,L|64:271|64:271|109:336|109:336|146:266|146:266|218:153|218:153,1,371.200011328126,8|2,1:0|0:0,0:0:0:0:
418,241,31346,1,2,0:0:0:0:
218,175,31467,1,4,1:3:0:0:
418,145,31588,1,2,0:0:0:0:
214,299,31709,6,0,L|126:136|126:136,1,185.600005664063,2|0,0:0|0:0,0:0:0:0:
224,300,31951,2,0,L|231:115|231:115,1,185.600005664063,8|0,1:1|0:0,0:0:0:0:
36,127,32193,2,0,L|124:290|124:290,1,185.600005664063
332,92,32435,2,0,L|291:160|291:160|251:228|251:228|206:293|206:293|156:168|156:168,1,371.200011328126,4|0,1:3|0:0,0:0:0:0:
245,92,32798,1,0,0:0:0:0:
448,191,32919,2,0,L|360:354|360:354,1,185.600005664063,8|0,1:0|0:0,0:0:0:0:
113,187,33161,1,2,0:0:0:0:
361,340,33403,6,0,B|407:276|407:276|416:198|416:198|418:119|418:119|359:239|359:239,1,371.200011328126,4|0,1:3|0:0,0:0:0:0:
226,233,33766,2,0,B|187:302|187:302|165:378|165:378|173:299|173:299|228:177|228:177,1,371.200011328126,2|0,0:0|2:0,0:0:0:0:
35,48,34129,2,0,L|34:234|34:234,1,185.600005664063,0|0,2:0|2:0,0:0:0:0:
435,138,34370,2,0,L|358:250|358:250|272:356|272:356|174:262|174:262|35:77|35:77,1,640,4|0,1:3|3:0,0:0:0:0:
122,137,34733,1,0,3:0:0:0:
303,244,34854,2,0,L|303:58|303:58,1,185.600005664063,0|0,1:0|0:0,0:0:0:0:
36,133,35096,2,0,L|128:271|128:271|303:77|303:77,1,426.666666666667,4|0,0:0|0:0,0:0:0:0:
487,151,35338,6,0,B|480:230|480:230|463:307|463:307|448:385|448:385|393:262|393:262,1,371.200011328126,4|0,1:0|0:0,0:0:0:0:
300,279,35701,1,0,0:0:0:0:
86,210,35822,2,0,L|174:373|174:373,1,185.600005664063,8|0,1:0|0:0,0:0:0:0:
391,125,36064,2,0,L|303:288|303:288,1,185.600005664063
119,279,36306,2,0,B|99:355|99:355|68:282|68:282|31:212|31:212|25:78|25:78,1,371.200011328126,4|0,1:3|0:0,0:0:0:0:
114,151,36669,1,0,0:0:0:0:
328,76,36790,2,0,L|240:239|240:239,1,185.600005664063,8|0,1:0|0:0,0:0:0:0:
24,71,37032,1,2,0:0:0:0:
239,77,37274,6,0,L|270:150|270:150|319:212|319:212|349:285|349:285|415:168|415:168,1,371.200011328126,4|0,1:3|0:0,0:0:0:0:
288,160,37637,2,0,L|251:230|251:230|199:289|199:289|189:367|189:367|112:257|112:257,1,371.200011328126,2|0,0:0|0:0,0:0:0:0:
239,77,37999,2,0,L|327:240|327:240,1,185.600005664063
106,294,38241,2,0,B|64:361|64:361|72:282|72:282|54:205|54:205|107:82|107:82,1,371.200011328126,4|0,1:3|0:0,0:0:0:0:
194,181,38604,1,0,0:0:0:0:
395,121,38725,2,0,L|307:284|307:284,1,185.600005664063,8|0,1:0|0:0,0:0:0:0:
492,120,38967,5,2,0:0:0:0:
308,119,39088,1,2,0:0:0:0:
124,115,39209,1,4,1:3:0:0:
308,119,39330,1,2,0:0:0:0:
124,115,39451,2,0,L|36:278|36:278,1,185.600005664063,2|0,0:0|0:0,0:0:0:0:
255,289,39693,2,0,L|259:103|259:103,1,185.600005664063,8|0,1:0|0:0,0:0:0:0:
480,124,39935,2,0,L|392:287|392:287,1,185.600005664063
168,352,40177,6,0,B|122:288|122:288|105:211|105:211|78:137|78:137|58:4|58:4,1,371.200011328126,4|0,1:3|0:0,0:0:0:0:
144,221,40540,1,0,0:0:0:0:
393,269,40661,2,0,L|392:83|392:83,1,185.600005664063,8|0,1:0|0:0,0:0:0:0:
144,221,40903,1,2,0:0:0:0:
311,238,41145,6,0,B|346:309|346:309|362:232|362:232|374:154|374:154|310:36|310:36,1,371.200011328126,4|0,1:3|0:0,0:0:0:0:
223,144,41508,1,0,0:0:0:0:
118,100,41629,2,0,L|157:188|157:188|235:318|235:318,1,247.466674218751,8|0,1:0|3:0,0:0:0:0:
429,80,41870,1,0,3:0:0:0:
293,110,42112,5,4,1:3:0:0:
478,167,42233,1,2,0:0:0:0:
293,201,42354,1,2,0:0:0:0:
385,233,42475,1,2,0:0:0:0:
195,163,42596,2,0,L|185:259|185:259|192:108|192:108,1,247.466674218751,8|0,1:0|0:0,0:0:0:0:
49,323,42838,2,0,L|158:198|158:198|313:408|313:408,1,426.666666666667,2|0,0:0|0:0,0:0:0:0:
481,294,43080,1,2,0:0:0:0:
332,367,46225,5,0,3:0:0:0:
141,342,46467,2,0,L|135:246|135:246|135:95|135:95,1,247.466674218751,0|0,3:0|3:0,3:0:0:0:
192,228,46709,2,0,L|136:306|136:306|75:168|75:168,1,247.466674218751,0|0,3:0|3:0,3:0:0:0:
300,200,46951,6,0,B|340:268|340:268|369:341|369:341|405:271|405:271|409:137|409:137,1,371.200011328126,4|0,1:0|0:0,0:0:0:0:
322,72,47314,1,0,0:0:0:0:
98,138,47435,2,0,L|186:301|186:301,1,185.600005664063,8|0,1:0|0:0,0:0:0:0:
414,138,47677,2,0,L|326:301|326:301,1,185.600005664063
97,318,47919,2,0,B|61:247|61:247|30:174|30:174|52:98|52:98|98:224|98:224,1,371.200011328126,4|0,1:3|0:0,0:0:0:0:
335,253,48282,2,0,L|298:323|298:323|275:247|275:247|234:179|234:179|160:67|160:67,1,371.200011328126,2|0,0:0|0:0,0:0:0:0:
381,184,48645,2,0,L|468:348|468:348,1,185.600005664063,2|0,0:0|0:0,0:0:0:0:
160,357,48887,6,0,B|162:278|162:278|163:199|163:199|193:126|193:126|262:11|262:11,1,371.200011328126,0|2,1:0|0:0,0:0:0:0:
349,253,49249,1,0,0:0:0:0:
91,111,49370,2,0,L|178:275|178:275,1,185.600005664063,8|0,1:0|0:0,0:0:0:0:
91,111,49612,2,0,L|178:275|178:275,1,185.600005664063,2|0,0:0|0:0,0:0:0:0:
363,181,49854,1,0,1:0:0:0:
179,100,49975,2,0,B|137:167|137:167|129:246|129:246|117:324|117:324|180:205|180:205,1,371.200011328126,2|2,0:0|0:0,0:0:0:0:
397,100,50338,1,8,1:0:0:0:
308,81,50459,1,2,0:0:0:0:
397,100,50580,1,2,0:0:0:0:
127,111,50701,2,2,L|103:186|103:186,2,61.8666685546876
257,189,50822,6,0,L|301:255|301:255|319:332|319:332|379:384|379:384|432:260|432:260,1,371.200011328126,4|0,1:3|0:0,0:0:0:0:
344,199,51185,1,0,0:0:0:0:
131,221,51306,2,0,L|128:35|128:35,1,185.600005664063,8|0,1:0|0:0,0:0:0:0:
343,320,51548,2,0,L|430:156|430:156,1,185.600005664063,2|0,0:0|0:0,0:0:0:0:
130,242,51790,2,0,B|106:317|106:317|78:243|78:243|94:166|94:166|132:37|132:37,1,371.200011328126,0|2,1:0|0:0,0:0:0:0:
395,105,52153,2,0,L|344:166|344:166|330:244|330:244|284:308|284:308|220:190|220:190,1,371.200011328126,2|0,0:0|0:0,0:0:0:0:
27,219,52516,2,0,L|83:297|83:297|144:158|144:158,1,247.466674218751,2|2,0:0|0:0,0:0:0:0:
310,334,52758,6,0,L|316:238|316:238|314:87|314:87,1,247.466674218751,0|2,1:0|0:0,0:0:0:0:
371,218,52999,2,0,L|331:306|331:306|254:176|254:176,1,247.466674218751,2|2,0:0|0:0,0:0:0:0:
62,94,53241,2,0,L|114:175|114:175|179:312|179:312,1,247.466674218751,8|2,1:0|0:0,0:0:0:0:
368,109,53483,2,2,L|427:218|427:218|368:327|368:327,2,123.733337109375
176,188,53725,6,0,L|225:271|225:271|293:136|293:136,1,247.466674218751,4|2,1:3|0:0,0:0:0:0:
236,189,53967,2,2,L|238:285|238:285|233:134|233:134,1,247.466674218751
416,361,54209,2,0,L|359:284|359:284|299:145|299:145,1,247.466674218751,8|0,1:0|0:0,0:0:0:0:
128,254,54451,2,2,L|187:363|187:363|128:254|128:254,2,123.733337109375
331,186,54693,5,2,0:0:0:0:
333,78,54935,1,0,0:0:0:0:
27,92,55177,2,0,L|70:178|70:178|143:310|143:310,1,247.466674218751,4|0,1:2|0:0,0:0:0:0:
202,86,55419,1,2,0:0:0:0:
145,77,55499,1,2,0:0:0:0:
87,68,55580,1,2,0:0:0:0:
248,307,55661,2,0,L|259:212|259:212|252:61|252:61,1,247.466674218751,4|0,1:3|0:0,0:0:0:0:
194,186,55903,2,0,L|249:265|249:265|311:127|311:127,1,247.466674218751,2|0,0:0|0:0,0:0:0:0:
117,70,56145,2,0,L|127:166|127:166|113:317|113:317,1,247.466674218751,8|2,1:0|0:0,0:0:0:0:
300,106,56387,2,0,L|257:192|257:192|183:324|183:324,1,247.466674218751,2|0,0:0|0:0,0:0:0:0:
414,221,56629,6,0,B|447:293|447:293|487:361|487:361|467:285|467:285|414:162|414:162,1,371.200011328126,2|2,1:2|0:0,0:0:0:0:
246,163,57032,1,0,0:0:0:0:
413,123,57112,2,0,L|357:201|357:201|296:340|296:340,1,247.466674218751,8|0,1:0|0:0,0:0:0:0:
353,90,57354,2,0,L|356:186|356:186|358:337|358:337,1,247.466674218751,2|0,0:0|0:0,0:0:0:0:
179,270,57596,2,0,L|211:361|211:361|295:235|295:235,1,247.466674218751,4|0,1:3|0:0,0:0:0:0:
354,278,57838,2,0,L|316:366|316:366|237:237|237:237,1,247.466674218751,2|0,0:0|0:0,0:0:0:0:
69,226,58080,2,0,L|77:322|77:322|68:171|68:171,1,247.466674218751,8|0,1:0|0:0,0:0:0:0:
255,138,58322,2,0,L|221:228|221:228|138:355|138:355,1,247.466674218751,2|2,0:0|0:0,0:0:0:0:
354,204,58564,6,0,B|371:299|371:299|352:149|352:149,1,247.466674218751,2|0,1:2|0:0,0:0:0:0:
143,44,58806,2,0,L|89:124|89:124|26:262|26:262,1,247.466674218751,2|0,0:0|0:0,0:0:0:0:
220,255,59048,2,0,L|249:347|249:347|337:224|337:224,1,247.466674218751,8|2,1:1|0:0,0:0:0:0:
280,222,59290,2,0,L|292:317|292:317|275:167|275:167,1,247.466674218751,2|0,0:0|0:0,0:0:0:0:
421,351,59532,2,0,L|380:264|380:264|304:133|304:133,1,247.466674218751,0|2,1:0|0:0,0:0:0:0:
88,196,59774,2,0,L|82:292|82:292|85:141|85:141,1,247.466674218751,2|0,0:0|0:0,0:0:0:0:
286,145,60016,2,0,L|239:208|239:208|222:285|222:285|186:355|186:355|112:243|112:243,1,371.200011328126,8|2,1:0|0:0,0:0:0:0:
200,103,60379,1,2,0:0:0:0:
423,223,60499,6,0,L|393:314|393:314|306:190|306:190,1,247.466674218751,4|0,1:3|0:0,0:0:0:0:
89,223,60741,2,0,L|132:309|132:309|206:177|206:177,1,247.466674218751,2|0,0:0|0:0,0:0:0:0:
425,222,60983,2,0,L|438:317|438:317|431:166|431:166,1,247.466674218751,8|0,1:0|0:0,0:0:0:0:
369,107,61225,2,0,L|409:194|409:194|486:324|486:324,1,247.466674218751,2|0,0:0|0:0,0:0:0:0:
227,267,61467,2,0,L|261:357|261:357|344:230|344:230,1,247.466674218751,4|0,1:3|0:0,0:0:0:0:
286,262,61709,2,0,L|292:358|292:358|281:207|281:207,1,247.466674218751,2|0,0:0|0:0,0:0:0:0:
82,175,61951,2,0,L|133:257|133:257|199:121|199:121,1,247.466674218751,8|0,1:0|0:0,0:0:0:0:
395,211,62193,2,0,L|388:307|388:307|398:156|398:156,1,247.466674218751,2|0,0:0|0:0,0:0:0:0:
217,97,62435,5,0,3:0:0:0:
256,192,62677,12,0,67999,0:0:0:0:
344,188,68161,5,0,3:0:0:0:
152,256,68241,1,0,3:0:0:0:
154,131,68483,1,0,3:0:0:0:
393,82,68725,1,0,3:0:0:0:
395,207,68967,1,0,3:0:0:0:
170,148,69209,5,2,3:2:0:0:
424,206,69451,1,0,3:0:0:0:
170,148,69693,2,0,B|144:240|144:240|172:91|172:91,1,247.466674218751,2|0,3:2|3:0,3:0:0:0:
255,72,69935,2,0,L|294:160|294:160|372:290|372:290,1,247.466674218751,0|0,3:0|3:0,3:0:0:0:
169,284,70177,6,0,B|136:356|136:356|100:286|100:286|128:212|128:212|171:85|171:85,1,371.200011328126,4|0,1:2|0:0,0:0:0:0:
263,166,70540,1,0,0:0:0:0:
46,111,70661,2,0,L|134:275|134:275,1,185.600005664063,8|0,1:0|0:0,0:0:0:0:
355,263,70903,2,0,L|358:77|358:77,1,185.600005664063
134,101,71145,2,0,B|135:180|135:180|135:259|135:259|177:326|177:326|235:205|235:205,1,371.200011328126,4|0,1:3|0:0,0:0:0:0:
330,221,71508,1,0,0:0:0:0:
131,22,71629,2,0,L|219:185|219:185,1,185.600005664063,8|0,1:0|0:0,0:0:0:0:
443,26,71870,1,2,0:0:0:0:
206,334,72112,6,0,B|164:267|164:267|149:189|149:189|116:117|116:117|95:250|95:250,1,371.200011328126,4|0,1:3|0:0,0:0:0:0:
228,221,72475,2,0,B|258:294|258:294|315:349|315:349|335:273|335:273|339:139|339:139,1,371.200011328126,2|0,0:0|0:0,0:0:0:0:
476,66,72838,2,0,L|388:229|388:229,1,185.600005664063
161,147,73080,2,0,B|122:216|122:216|91:289|91:289|97:368|97:368|159:249|159:249,1,371.200011328126,4|0,1:3|0:0,0:0:0:0:
249,58,73443,1,0,0:0:0:0:
40,246,73564,2,0,L|128:83|128:83,1,185.600005664063,8|0,1:0|0:0,0:0:0:0:
312,333,73806,5,2,0:0:0:0:
128,246,73927,1,2,0:0:0:0:
312,333,74048,1,4,1:3:0:0:
493,245,74169,1,2,0:0:0:0:
312,333,74290,2,2,L|400:170|400:170,1,185.600005664063,2|0,0:0|0:0,0:0:0:0:
305,321,74532,2,0,L|298:136|298:136,1,185.600005664063,8|0,1:0|0:0,0:0:0:0:
94,126,74774,2,0,L|182:289|182:289,1,185.600005664063
387,198,75016,2,0,B|414:272|414:272|440:346|440:346|440:267|440:267|386:144|386:144,1,371.200011328126,4|0,1:3|0:0,0:0:0:0:
303,101,75379,1,0,0:0:0:0:
60,69,75499,2,0,L|148:232|148:232,1,185.600005664063,8|0,1:0|0:0,0:0:0:0:
387,73,75740,1,2,0:0:0:0:
168,160,75983,6,0,L|193:235|193:235|240:298|240:298|265:373|265:373|343:264|343:264,1,371.200011328126,4|0,1:3|0:0,0:0:0:0:
212,230,76346,2,0,L|245:302|245:302|292:366|292:366|310:289|310:289|387:179|387:179,1,371.200011328126,2|0,0:0|0:0,0:0:0:0:
168,158,76709,2,0,L|80:322|80:322,1,185.600005664063
388,216,76951,6,0,L|309:316|309:316|242:207|242:207|141:128|141:128|23:311|23:311,1,601.600011474609,4|2,1:3|0:0,0:0:0:0:
112,157,77314,1,2,0:0:0:0:
387,217,77435,2,0,L|326:291|326:291|271:150|271:150,1,247.466674218751,8|0,1:0|0:0,0:0:0:0:
21,169,77677,2,0,L|132:292|132:292|286:81|286:81,1,426.666666666667,2|2,0:0|0:0,0:0:0:0:
472,227,77919,6,0,B|463:306|463:306|473:384|473:384|424:322|424:322|380:195|380:195,1,371.200011328126,4|0,1:0|0:0,0:0:0:0:
291,104,78282,1,0,0:0:0:0:
65,241,78403,2,0,L|153:78|153:78,1,185.600005664063,8|0,1:0|0:0,0:0:0:0:
351,327,78645,2,0,L|263:164|263:164,1,185.600005664063
46,240,78887,2,0,B|34:318|34:318|66:246|66:246|71:167|71:167|138:51|138:51,1,371.200011328126,4|0,1:3|0:0,0:0:0:0:
227,113,79249,1,0,0:0:0:0:
462,229,79370,2,0,L|460:43|460:43,1,185.600005664063,8|0,1:0|0:0,0:0:0:0:
227,113,79612,1,2,0:0:0:0:
414,329,79854,6,0,L|363:269|363:269|323:201|323:201|294:128|294:128|239:6|239:6,1,371.200011328126,4|0,1:3|0:0,0:0:0:0:
116,328,80217,2,0,L|153:258|153:258|204:198|204:198|226:122|226:122|291:5|291:5,1,371.200011328126,2|0,0:0|0:0,0:0:0:0:
415,330,80580,1,0,0:0:0:0:
177,233,80822,2,0,B|184:312|184:312|207:236|207:236|227:160|227:160|281:37|281:37,1,371.200011328126,4|0,1:3|0:0,0:0:0:0:
192,115,81185,1,0,0:0:0:0:
410,62,81306,2,0,L|322:225|322:225,1,185.600005664063,8|0,1:0|0:0,0:0:0:0:
123,59,81548,5,2,0:0:0:0:
323,63,81669,1,2,0:0:0:0:
123,59,81790,1,4,1:3:0:0:
323,63,81911,1,2,0:0:0:0:
123,59,82032,2,0,L|35:222|35:222,1,185.600005664063,2|0,0:0|0:0,0:0:0:0:
256,321,82274,2,0,L|261:135|261:135,1,185.600005664063,8|0,1:0|0:0,0:0:0:0:
481,61,82516,2,0,L|393:224|393:224,1,185.600005664063
135,62,82758,6,0,B|131:141|131:141|139:220|139:220|180:287|180:287|233:164|233:164,1,371.200011328126,4|0,1:3|0:0,0:0:0:0:
321,184,83120,1,0,0:0:0:0:
123,288,83241,2,0,L|211:125|211:125,1,185.600005664063,8|0,1:0|0:0,0:0:0:0:
421,275,83483,1,2,0:0:0:0:
197,57,83725,6,0,B|149:120|149:120|150:199|150:199|153:278|153:278|193:150|193:150,1,371.200011328126,4|0,1:3|0:0,0:0:0:0:
281,157,84088,1,0,0:0:0:0:
461,246,84209,2,0,L|403:322|403:322|344:183|344:183,1,247.466674218751,8|0,1:0|0:0,0:0:0:0:
143,269,84451,1,0,0:0:0:0:
322,134,84693,6,0,L|410:298|410:298,1,185.600005664063,0|0,1:0|0:0,0:0:0:0:
171,367,84935,2,0,L|259:203|259:203,1,185.600005664063,2|2,0:0|0:0,0:0:0:0:
447,314,85177,2,0,L|506:205|506:205|447:96|447:96,2,123.733337109375,0|0|0,3:0|3:0|3:0,3:0:0:0:
300,216,85419,1,0,3:0:0:0:
359,216,85499,1,0,3:0:0:0:
418,216,85580,1,0,3:0:0:0:
236,120,85661,6,0,L|274:208|274:208|353:337|353:337,1,247.466674218751,4|0,3:2|3:0,3:0:0:0:
150,215,85903,2,0,L|103:299|103:299|33:165|33:165,1,247.466674218751,0|0,3:0|3:0,3:0:0:0:
236,344,86145,2,0,L|183:264|183:264|119:127|119:127,1,247.466674218751,8|0,3:1|3:0,3:0:0:0:
192,304,86387,2,0,L|195:208|195:208|197:57|197:57,1,247.466674218751,0|0,3:0|3:0,3:0:0:0:
373,157,86629,2,0,L|430:234|430:234|490:373|490:373,1,247.466674218751,4|0,3:0|3:0,3:0:0:0:
280,282,86870,2,0,L|250:373|250:373|163:249|163:249,1,247.466674218751,0|0,3:0|3:0,3:0:0:0:
361,218,87112,1,8,3:1:0:0:
453,211,87233,1,0,3:0:0:0:
361,218,87354,1,0,3:0:0:0:
453,211,87475,1,0,3:0:0:0:
258,89,87596,6,0,L|263:180|263:180|244:322|244:322,1,234.666666666667,4|0,3:3|3:0,3:0:0:0:
308,221,87838,2,0,L|275:306|275:306|202:183|202:183,1,234.666666666667,0|0,3:0|3:0,3:0:0:0:
433,199,88080,2,0,L|443:290|443:290|448:147|448:147,1,234.666666666667,8|0,3:1|3:0,3:0:0:0:
244,308,88322,2,0,L|286:227|286:227|350:99|350:99,1,234.666666666667,0|0,3:0|3:0,3:0:0:0:
169,220,88564,2,0,L|134:304|134:304|62:180|62:180,1,234.666666666667,4|0,3:0|3:0,3:0:0:0:
250,105,88806,2,0,L|308:214|308:214|250:323|250:323,2,123.733337109375,0|0|0,3:0|3:0|3:0,3:0:0:0:
49,46,89048,2,0,L|30:140|30:140|42:291|42:291,1,247.466674218751,8|0,3:1|3:0,3:0:0:0:
240,197,89290,2,0,L|285:276|285:276|346:146|346:146,1,234.666666666667,0|0,3:0|3:0,3:0:0:0:
111,285,89532,6,0,L|158:369|158:369|227:235|227:235,1,247.466674218751,4|0,0:3|0:3,0:3:0:0:
477,330,89774,2,0,L|419:253|419:253|361:113|361:113,1,247.466674218751,0|0,0:3|0:3,0:3:0:0:
121,208,90016,2,0,L|114:304|114:304|117:153|117:153,1,247.466674218751,8|0,0:1|0:3,0:3:0:0:
183,78,90258,2,0,L|124:154|124:154|67:294|67:294,1,247.466674218751,0|0,0:3|0:3,0:3:0:0:
324,211,90499,2,0,L|357:301|357:301|441:175|441:175,1,247.466674218751,4|0,0:3|0:3,0:3:0:0:
375,138,90741,2,0,L|425:220|425:220|492:356|492:356,1,247.466674218751,0|0,0:3|0:3,0:3:0:0:
294,114,90983,2,0,L|293:210|293:210|289:361|289:361,1,247.466674218751,8|0,0:1|0:3,0:3:0:0:
484,32,91225,2,0,L|382:143|382:143|250:340|250:340,1,388.266678515625,0|0,0:3|0:3,0:3:0:0:
51,109,91467,5,0,3:0:0:0:
41,230,91709,1,0,3:0:0:0:
158,214,91870,1,0,3:0:0:0:
335,221,91951,2,0,L|348:316|348:316|338:165|338:165,1,247.466674218751,0|0,3:0|0:0,0:0:0:0:
158,214,92193,2,0,L|214:292|214:292|275:154|275:154,1,247.466674218751,2|0,0:0|0:0,0:0:0:0:
480,132,92435,2,0,L|400:237|400:237|316:339|316:339|237:233|237:233|96:58|96:58,1,620.799981054688,2|2,0:0|0:0,0:0:0:0:
186,118,92798,1,2,0:0:0:0:
381,128,92919,2,0,L|293:291|293:291,1,185.600005664063,2|0,0:0|0:0,0:0:0:0:
37,187,93161,2,0,L|144:314|144:314|304:107|304:107,1,426.666666666667,2|2,0:0|0:0,0:0:0:0:
488,207,93403,5,4,3:2:0:0:
311,315,93645,2,0,L|306:219|306:219|304:68|304:68,1,247.466674218751,0|0,3:0|3:0,3:0:0:0:
227,191,93887,2,0,L|216:286|216:286|220:135|220:135,1,247.466674218751,8|0,3:1|3:0,3:0:0:0:
403,113,94129,2,0,B|362:200|362:200|295:336|295:336,1,247.466674218751,0|0,3:0|3:0,3:0:0:0:
105,148,94370,5,4,3:0:0:0:
289,229,94612,2,0,B|338:311|338:311|400:173|400:173,1,247.466674218751,0|0,3:0|3:0,3:0:0:0:
208,294,94854,1,8,3:1:0:0:
401,146,95096,2,0,B|352:229|352:229|291:368|291:368,1,247.466674218751,0|0,3:0|3:0,3:0:0:0:
88,73,95338,6,0,L|72:168|72:168|85:319|85:319,1,247.466674218751,4|0,3:0|3:0,3:0:0:0:
161,205,95580,2,0,L|109:286|109:286|44:149|44:149,1,247.466674218751,0|0,3:0|3:0,3:0:0:0:
126,282,95822,2,0,L|156:373|156:373|243:249|243:249,1,247.466674218751,8|0,3:1|3:0,3:0:0:0:
423,355,96064,2,0,L|390:265|390:265|306:139|306:139,1,247.466674218751,0|0,3:0|3:0,3:0:0:0:
134,171,96306,6,0,L|183:254|183:254|251:119|251:119,1,247.466674218751,4|0,3:0|3:0,3:0:0:0:
183,100,96548,2,0,L|218:189|218:189|300:316|300:316,1,247.466674218751,0|0,3:0|3:0,3:0:0:0:
84,42,96790,2,0,L|88:138|88:138|77:289|77:289,1,247.466674218751,8|0,3:1|3:0,3:0:0:0:
338,312,97032,2,0,L|277:386|277:386|221:245|221:245,1,247.466674218751,2|2,2:0|2:0,3:0:0:0:
30,263,97274,5,2,0:0:0:0:
215,281,97395,1,2,0:0:0:0:
303,272,97516,1,2,0:0:0:0:
215,281,97637,1,0,3:0:0:0:
461,329,97758,2,0,L|456:233|456:233|467:82|467:82,1,247.466674218751,8|0,3:1|3:0,0:0:0:0:
296,182,97999,2,0,L|331:272|331:272|411:144|411:144,1,247.466674218751,0|0,3:0|3:0,0:0:0:0:
167,68,98241,5,0,3:0:0:0:
158,198,98483,1,0,3:0:0:0:
386,331,98725,1,8,3:1:0:0:
272,309,98846,1,0,2:0:0:0:
158,283,98967,1,2,2:0:0:0:
44,248,99088,1,0,2:0:0:0:
285,195,99209,6,0,L|319:285|319:285|402:158|402:158,1,247.466674218751,2|2,0:0|0:0,0:0:0:0:
210,105,99451,2,0,L|181:197|181:197|93:320|93:320,1,247.466674218751,0|2,0:0|0:0,0:0:0:0:
281,344,99693,2,0,L|301:250|301:250|290:99|290:99,1,247.466674218751,0|2,0:0|0:0,0:0:0:0:
220,218,99935,2,0,L|272:299|272:299|337:162|337:162,1,247.466674218751,0|2,0:0|0:0,0:0:0:0:
128,180,100177,6,0,L|240:302|240:302|393:91|393:91,1,426.666666666667,0|2,0:0|0:0,0:0:0:0:
179,64,100419,2,0,L|132:148|132:148|62:282|62:282,1,247.466674218751,0|2,0:0|0:0,0:0:0:0:
299,55,100661,2,0,L|283:150|283:150|299:301|299:301,1,247.466674218751,2|4,0:0|3:0,0:0:0:0:
61,53,100903,1,4,3:2:0:0:
256,192,101145,12,0,104290,0:0:0:0:
61,344,104532,6,0,L|50:266|50:266|73:190|73:190|68:111|68:111|61:245|61:245,1,371.200011328126,2|0,0:0|0:0,0:0:0:0:
299,119,105016,6,0,L|342:180|342:180|365:251|365:251|414:308|414:308|458:189|458:189,1,352,0|0,3:0|0:0,0:0:0:0:
296,185,105499,2,0,B|261:251|261:251|235:321|235:321|267:254|267:254|295:130|295:130,1,352,0|0,3:0|0:0,0:0:0:0:
136,218,105903,1,0,3:0:0:0:
79,231,105983,2,0,B|48:299|48:299|29:371|29:371|20:297|20:297|78:184|78:184,1,352,0|0,3:0|0:0,0:0:0:0:
246,70,106467,2,0,L|206:133|206:133|176:202|176:202|144:270|144:270|87:384|87:384,1,352,0|0,3:0|0:0,0:0:0:0:
453,249,106951,6,0,L|420:316|420:316|380:379|380:379|361:306|361:306|295:197|295:197,1,352,0|0,3:0|0:0,0:0:0:0:
144,205,107354,1,0,3:0:0:0:
82,196,107435,2,0,L|120:261|120:261|135:334|135:334|185:278|185:278|240:163|240:163,1,352,0|0,3:0|2:0,2:0:0:0:
391,240,107838,1,0,3:0:0:0:
451,243,107919,2,0,L|413:326|413:326|345:199|345:199,1,234.666666666667,0|0,3:0|0:0,0:0:0:0:
265,146,108161,2,0,L|314:223|314:223|371:355|371:355,1,234.666666666667,0|0,3:0|0:0,0:0:0:0:
223,150,108403,2,0,L|198:238|198:238|118:357|118:357,1,234.666666666667,2|0,3:2|0:0,0:0:0:0:
330,250,108645,2,0,L|276:324|276:324|225:190|225:190,1,234.666666666667,2|0,3:2|0:0,0:0:0:0:
465,261,108887,6,0,L|459:336|459:336|469:262|469:262|462:187|462:187|469:60|469:60,1,352,0|0,3:0|0:0,0:0:0:0:
287,78,109370,2,0,L|322:144|322:144|338:217|338:217|387:273|387:273|446:386|446:386,1,352,0|0,3:0|0:0,0:0:0:0:
284,222,109774,1,0,3:0:0:0:
227,235,109854,2,0,B|201:305|201:305|186:368|186:368|109:349|109:349|70:209|70:209,1,352.000010742188,0|0,3:0|0:0,0:0:0:0:
235,156,110338,2,0,L|203:224|203:224|166:289|166:289|137:358|137:358|76:247|76:247,1,352,0|0,3:0|0:0,0:0:0:0:
472,310,110822,6,0,L|471:385|471:385|467:310|467:310|482:237|482:237|480:110|480:110,1,352,0|0,3:0|0:0,0:0:0:0:
306,128,111306,2,0,L|342:193|342:193|388:252|388:252|408:324|408:324|465:210|465:210,1,352,0|0,3:0|0:0,0:0:0:0:
300,215,111709,1,0,3:0:0:0:
235,196,111789,2,0,L|218:286|218:286|225:143|225:143,1,234.666666666667,0|0,3:0|0:0,0:0:0:0:
291,317,112032,2,0,L|337:238|337:238|397:108|397:108,1,234.666666666667,0|0,3:0|0:0,0:0:0:0:
189,193,112274,2,0,L|133:265|133:265|83:131|83:131,1,234.666666666667,2|0,3:2|0:0,0:0:0:0:
296,79,112516,2,0,L|245:155|245:155|190:287|190:287,1,234.666666666667,0|0,3:0|0:0,0:0:0:0:
397,240,112758,6,0,B|426:313|426:313|441:235|441:235|438:156|438:156|399:27|399:27,1,371.200011328126,2|0,3:2|3:0,0:0:0:0:
238,169,113161,1,0,3:0:0:0:
383,293,113241,2,0,L|374:197|374:197|390:47|390:47,1,247.466674218751,0|0,3:0|3:0,3:0:0:0:
454,175,113483,2,0,L|419:264|419:264|337:137|337:137,1,247.466674218751,0|0,3:0|3:0,3:0:0:0:
158,95,113725,2,0,L|207:178|207:178|275:313|275:313,1,247.466674218751,0|0,3:0|3:0,3:0:0:0:
341,68,113967,2,0,L|306:157|306:157|224:284|224:284,1,247.466674218751,0|0,3:0|3:0,3:0:0:0:
43,199,114209,1,0,3:0:0:0:
220,167,114451,2,0,L|163:244|163:244|103:383|103:383,1,247.466674218751,0|0,3:0|3:0,3:0:0:0:
309,272,114693,6,0,B|354:337|354:337|351:258|351:258|363:180|363:180|309:57|309:57,1,371.200011328126,0|0,3:0|3:0,3:0:0:0:
156,122,115096,1,0,3:0:0:0:
312,92,115177,2,0,L|358:177|358:177|429:311|429:311,1,247.466674218751,0|0,3:0|3:0,3:0:0:0:
360,113,115419,2,0,L|396:202|396:202|477:330|477:330,1,247.466674218751,0|0,3:0|3:0,3:0:0:0:
304,184,115661,2,0,L|299:280|299:280|301:129|301:129,1,247.466674218751,0|0,3:0|3:0,3:0:0:0:
368,302,115903,2,0,L|317:384|317:384|251:248|251:248,1,247.466674218751,0|0,3:0|3:0,3:0:0:0:
86,214,116145,2,0,L|131:299|131:299|203:166|203:166,1,247.466674218751,2|0,3:2|3:0,3:0:0:0:
373,219,116387,2,0,L|409:308|409:308|490:180|490:180,1,247.466674218751,0|0,3:0|3:0,3:0:0:0:
265,199,116629,6,0,B|239:273|239:273|201:342|201:342|204:263|204:263|265:143|265:143,1,371.200011328126,2|0,3:2|3:0,3:0:0:0:
423,119,117032,1,0,3:0:0:0:
257,71,117112,2,0,L|252:167|252:167|251:318|251:318,1,247.466674218751,0|0,3:0|3:0,3:0:0:0:
318,204,117354,2,0,L|263:283|263:283|201:145|201:145,1,247.466674218751,0|0,3:0|3:0,3:0:0:0:
50,324,117596,2,0,L|100:242|100:242|167:106|167:106,1,247.466674218751,0|0,3:0|3:0,3:0:0:0:
106,309,117838,2,0,L|163:232|163:232|223:93|223:93,1,247.466674218751,0|0,3:0|3:0,3:0:0:0:
407,348,118080,1,0,3:0:0:0:
223,299,118322,2,0,L|173:381|173:381|106:245|106:245,1,247.466674218751,0|0,3:0|3:0,3:0:0:0:
284,238,118564,6,0,B|311:312|311:312|342:385|342:385|348:306|348:306|284:188|284:188,1,371.200011328126,0|0,3:0|3:0,3:0:0:0:
131,88,118967,1,0,3:0:0:0:
287,58,119048,2,0,L|344:136|344:136|404:275|404:275,1,247.466674218751,0|0,3:0|3:0,3:0:0:0:
341,74,119290,2,0,L|302:162|302:162|224:292|224:292,1,247.466674218751,0|0,3:0|3:0,3:0:0:0:
412,171,119532,2,0,L|379:261|379:261|295:135|295:135,1,247.466674218751,0|0,3:0|3:0,3:0:0:0:
122,270,119774,2,0,L|132:366|132:366|117:215|117:215,1,247.466674218751,0|0,3:0|3:0,3:0:0:0:
312,220,120016,2,0,L|368:298|368:298|429:160|429:160,1,247.466674218751,2|0,3:2|3:0,3:0:0:0:
223,327,120258,2,0,L|262:239|262:239|340:109|340:109,1,247.466674218751,2|0,3:2|3:0,3:0:0:0:
150,124,120499,6,0,L|193:190|193:190|209:267|209:267|253:333|253:333|324:219|324:219,1,371.200011328126,4|0,3:0|0:0,0:0:0:0:
200,62,120903,1,0,0:0:0:0:
265,54,120983,2,0,L|221:120|221:120|204:197|204:197|142:246|142:246|91:370|91:370,1,371.200011328126,4|0,3:0|0:0,0:0:0:0:
265,137,121387,1,0,0:0:0:0:
430,118,121467,2,0,L|438:214|438:214|438:365|438:365,1,247.466674218751,4|0,3:0|3:0,0:0:0:0:
362,347,121709,2,0,L|347:252|347:252|354:101|354:101,1,247.466674218751,0|0,3:0|3:0,0:0:0:0:
165,307,121951,2,0,L|222:384|222:384|282:245|282:245,1,247.466674218751,0|0,3:0|3:0,0:0:0:0:
208,240,122193,2,0,L|218:336|218:336|216:185|216:185,1,247.466674218751,0|0,3:0|3:0,0:0:0:0:
26,196,122435,6,0,L|56:269|56:269|102:333|102:333|124:257|124:257|201:147|201:147,1,371.200011328126,4|0,3:0|0:0,0:0:0:0:
369,230,122838,1,0,3:0:0:0:
200,116,122919,2,0,L|160:203|160:203|83:333|83:333,1,247.466674218751,4|0,3:0|0:0,0:0:0:0:
146,139,123161,2,0,L|181:228|181:228|263:355|263:355,1,247.466674218751
85,344,123403,2,0,L|75:248|75:248|80:97|80:97,1,247.466674218751,4|0,3:0|3:0,0:0:0:0:
148,222,123645,2,0,L|103:307|103:307|31:174|31:174,1,247.466674218751,0|0,3:0|3:0,0:0:0:0:
201,297,123887,2,0,L|311:173|311:173|467:382|467:382,1,426.666666666667,2|0,3:2|3:0,3:0:0:0:
404,318,124129,2,0,L|289:199|289:199|138:412|138:412,1,426.666666666667,2|0,3:2|3:0,3:0:0:0:
339,206,124370,6,0,B|364:281|364:281|403:350|403:350|381:274|381:274|339:147|339:147,1,371.200011328126,4|0,3:0|0:0,0:0:0:0:
176,104,124774,1,0,0:0:0:0:
337,104,124854,2,0,L|305:195|305:195|220:320|220:320,1,247.466674218751,4|0,3:0|0:0,0:0:0:0:
287,89,125096,2,0,L|320:179|320:179|404:305|404:305,1,247.466674218751
239,346,125338,2,0,L|248:250|248:250|235:99|235:99,1,247.466674218751,4|0,3:0|3:0,0:0:0:0:
301,221,125580,2,0,L|252:304|252:304|184:169|184:169,1,247.466674218751,0|0,3:0|3:0,0:0:0:0:
431,110,125822,2,0,L|396:199|396:199|314:326|314:326,1,247.466674218751,0|0,3:0|0:0,0:0:0:0:
134,29,126064,2,0,L|175:116|175:116|251:247|251:247,1,247.466674218751,2|0,3:2|0:0,0:0:0:0:
441,235,126306,6,0,B|447:314|447:314|429:237|429:237|381:175|381:175|330:51|330:51,1,371.200011328126,4|0,3:0|0:0,0:0:0:0:
168,124,126709,1,0,0:0:0:0:
333,201,126790,2,0,L|368:290|368:290|450:163|450:163,1,247.466674218751,4|0,3:0|0:0,0:0:0:0:
302,299,127032,2,0,L|254:382|254:382|185:247|185:247,1,247.466674218751,0|0,3:0|0:0,0:0:0:0:
397,163,127274,2,0,L|402:259|402:259|405:108|405:108,1,247.466674218751,2|0,3:2|3:0,0:0:0:0:
337,284,127516,2,0,L|367:375|367:375|454:251|454:251,1,247.466674218751,0|0,3:0|3:0,3:0:0:0:
311,297,127758,2,0,L|206:169|206:169|45:374|45:374,1,426.666666666667,2|0,3:2|3:0,3:0:0:0:
108,318,128000,2,0,L|205:184|205:184|374:383|374:383,1,426.666666666667,2|0,3:2|3:0,3:0:0:0:
203,211,128241,6,0,L|143:286|143:286|86:146|86:146,1,247.466674218751,4|0,3:0|0:0,0:0:0:0:
288,79,128483,2,0,L|285:175|285:175|292:326|292:326,1,247.466674218751,0|0,3:0|0:0,0:0:0:0:
87,198,128725,1,4,3:0:0:0:
288,79,128967,2,0,L|284:175|284:175|292:326|292:326,1,247.466674218751,0|0,3:0|3:0,0:0:0:0:
80,238,129209,2,0,L|125:323|125:323|197:190|197:190,1,247.466674218751,4|0,3:0|3:0,0:0:0:0:
270,225,129451,2,0,L|237:315|237:315|153:189|153:189,1,247.466674218751,0|0,3:0|3:0,3:0:0:0:
340,360,129693,2,0,L|357:265|357:265|346:114|346:114,1,247.466674218751,4|0,3:0|3:0,3:0:0:0:
272,249,129935,2,0,L|301:341|301:341|389:218|389:218,1,247.466674218751,0|0,3:0|3:0,3:0:0:0:
222,157,130177,6,0,L|171:238|171:238|105:374|105:374,1,247.466674218751,4|0,3:0|3:0,3:0:0:0:
285,79,130419,2,0,L|320:168|320:168|402:295|402:295,1,247.466674218751,0|0,3:0|3:0,3:0:0:0:
222,157,130661,2,0,L|231:253|231:253|216:102|216:102,1,247.466674218751,4|0,3:0|3:0,3:0:0:0:
290,43,130903,2,0,L|240:125|240:125|173:261|173:261,1,247.466674218751,0|0,3:0|3:0,3:0:0:0:
383,209,131145,2,0,L|349:299|349:299|267:172|267:172,1,247.466674218751,4|0,3:0|3:0,3:0:0:0:
46,111,131387,2,0,L|91:196|91:196|162:329|162:329,1,247.466674218751,0|0,3:0|3:0,3:0:0:0:
383,209,131629,2,0,L|286:343|286:343|117:144|117:144,1,426.666666666667,2|0,3:2|3:0,3:0:0:0:
180,230,131870,2,0,L|295:349|295:349|446:136|446:136,1,426.666666666667,2|0,3:2|3:0,3:0:0:0:
262,300,132112,6,0,L|202:375|202:375|145:235|145:235,1,247.466674218751,4|0,3:0|3:0,3:0:0:0:
348,152,132354,2,0,L|290:228|290:228|231:367|231:367,1,247.466674218751,4|0,3:0|3:0,3:0:0:0:
31,139,132596,1,4,3:0:0:0:
248,175,132838,2,0,L|291:261|291:261|365:129|365:129,1,247.466674218751,0|0,3:0|3:0,0:0:0:0:
165,327,133080,2,0,L|152:232|152:232|160:81|160:81,1,247.466674218751,4|0,3:0|3:0,0:0:0:0:
409,282,133322,2,0,L|376:372|376:372|292:246|292:246,1,247.466674218751,0|0,3:0|3:0,3:0:0:0:
76,131,133564,2,0,L|129:211|129:211|193:348|193:348,1,247.466674218751,4|0,3:0|3:0,3:0:0:0:
270,109,133806,2,0,L|211:185|211:185|153:325|153:325,1,247.466674218751,0|0,3:0|3:0,3:0:0:0:
406,318,134048,6,0,L|396:222|396:222|412:71|412:71,1,247.466674218751,4|0,3:0|3:0,3:0:0:0:
205,208,134290,2,0,L|256:289|256:289|322:153|322:153,1,247.466674218751,0|0,3:0|3:0,3:0:0:0:
127,136,134532,2,0,L|165:224|165:224|244:353|244:353,1,247.466674218751,4|0,3:0|3:0,3:0:0:0:
173,128,134774,2,0,L|230:205|230:205|290:344|290:344,1,247.466674218751,0|0,3:0|3:0,3:0:0:0:
79,36,135016,2,0,L|126:120|126:120|195:255|195:255,1,247.466674218751,4|0,3:0|3:0,3:0:0:0:
359,19,135258,2,0,L|370:114|370:114|362:265|362:265,1,247.466674218751,2|0,3:2|3:0,3:0:0:0:
201,205,135499,2,0,L|298:339|298:339|467:140|467:140,1,426.666666666667,2|0,3:2|3:0,3:0:0:0:
295,244,135741,2,0,L|208:385|208:385|29:195|29:195,1,426.666666666667,2|0,3:2|3:0,3:0:0:0:
202,348,135983,6,0,L|262:273|262:273|319:133|319:133,1,247.466674218751,4|0,3:2|3:0,0:0:0:0:
472,254,136225,2,0,L|425:338|425:338|355:204|355:204,1,247.466674218751,2|0,3:2|3:0,0:0:0:0:
201,205,136467,2,0,L|308:332|308:332|467:125|467:125,1,426.666666666667,2|0,3:2|3:0,0:0:0:0:
295,244,136709,2,0,L|192:374|192:374|29:170|29:170,1,426.666666666667,0|0,3:2|3:0,0:0:0:0:
202,348,136951,6,0,L|258:270|258:270|319:131|319:131,1,247.466674218751,4|0,3:2|3:0,3:0:0:0:
472,254,137193,2,0,L|428:339|428:339|355:206|355:206,1,247.466674218751,2|0,3:2|3:0,3:0:0:0:
201,205,137435,2,0,L|311:329|311:329|467:119|467:119,1,426.666666666667,2|0,3:2|3:0,3:0:0:0:
295,244,137677,2,0,L|198:378|198:378|29:179|29:179,1,426.666666666667,0|0,3:2|3:0,3:0:0:0:
259,123,137919,5,4,1:2:0:0:
398,90,137999,1,0,0:0:0:0:
253,123,138161,1,4,1:2:0:0:
115,87,138241,1,0,0:0:0:0:
259,123,138403,1,4,1:2:0:0:
398,90,138483,1,0,0:0:0:0:
253,123,138645,1,4,1:2:0:0:
115,87,138725,1,0,0:0:0:0:
335,110,138887,5,4,1:2:0:0:
473,74,138967,1,0,0:0:0:0:
177,110,139129,1,4,1:2:0:0:
39,74,139209,1,0,0:0:0:0:
335,110,139370,1,4,1:2:0:0:
473,74,139450,1,0,0:0:0:0:
177,110,139612,1,4,1:2:0:0:
39,74,139692,1,0,0:0:0:0:
464,76,139854,1,4,1:2:0:0:
378,211,141790,6,0,L|454:370|454:370,1,176,2|0,0:0|0:0,0:0:0:0:
378,211,142032,1,0,0:0:0:0:
262,156,142153,2,0,L|337:315|337:315,1,176,2|0,0:0|0:0,0:0:0:0:
262,156,142395,1,0,0:0:0:0:
141,102,142516,2,0,L|217:261|217:261,1,176,2|0,0:0|0:0,0:0:0:0:
398,69,142758,6,0,L|341:140|341:140|292:275|292:275,1,234.666666666667,2|0,0:0|0:0,0:0:0:0:
119,223,142999,2,0,L|118:319|118:319|112:168|112:168,1,247.466674218751,2|0,0:0|0:0,0:0:0:0:
343,161,143241,2,0,L|300:247|300:247|226:379|226:379,1,247.466674218751,2|0,0:0|0:0,0:0:0:0:
463,290,143483,2,0,L|478:385|478:385|471:234|471:234,1,247.466674218751,2|0,0:0|0:0,0:0:0:0:
223,207,143725,6,0,L|196:281|196:281|145:341|145:341|117:267|117:267|48:152|48:152,1,371.200011328126,4|0,1:2|0:0,0:0:0:0:
136,197,144088,1,0,0:0:0:0:
328,268,144209,2,0,B|365:338|365:338|395:265|395:265|385:187|385:187|331:64|331:64,1,371.200011328126,8|0,1:0|0:0,0:0:0:0:
242,161,144572,1,0,0:0:0:0:
48,166,144693,1,4,1:3:0:0:
242,161,144814,1,0,0:0:0:0:
48,166,144935,2,0,L|136:329|136:329,1,185.600005664063,2|0,0:0|0:0,0:0:0:0:
417,226,145177,2,0,L|324:314|324:314|260:203|260:203|195:93|195:93|49:254|49:254,1,601.600011474609,8|0,1:0|0:0,0:0:0:0:
137,226,145540,1,0,0:0:0:0:
375,139,145661,6,0,L|287:302|287:302,1,185.600005664063,4|0,1:3|0:0,0:0:0:0:
382,139,145903,2,0,L|390:324|390:324,1,185.600005664063
206,50,146145,1,8,1:0:0:0:
24,48,146266,1,0,0:0:0:0:
206,50,146387,2,0,L|294:213|294:213,1,185.600005664063,2|0,0:0|0:0,0:0:0:0:
111,249,146629,6,0,B|50:330|50:330|28:172|28:172,1,260.266658723958,4|0,1:3|0:0,0:0:0:0:
267,126,146870,2,0,L|221:216|221:216|139:352|139:352,1,260.266658723958,2|0,0:0|0:0,0:0:0:0:
385,247,147112,2,0,B|436:334|436:334|468:178|468:178,1,260.266658723958,8|0,1:1|0:0,0:0:0:0:
245,126,147353,2,0,L|311:203|311:203|373:350|373:350,1,260.266658723958,2|0,0:0|0:0,0:0:0:0:
144,240,147596,6,0,L|232:77|232:77,1,185.600005664063,4|0,1:2|0:0,0:0:0:0:
451,321,147838,2,0,L|363:158|363:158,1,185.600005664063
144,324,148080,2,0,B|114:251|114:251|86:177|86:177|35:117|35:117|35:251|35:251,1,371.200011328126,8|0,1:0|0:0,0:0:0:0:
124,208,148443,1,0,0:0:0:0:
307,206,148564,1,4,1:3:0:0:
124,208,148685,1,0,0:0:0:0:
307,206,148806,2,0,L|395:369|395:369,1,185.600005664063,2|0,0:0|0:0,0:0:0:0:
117,117,149048,2,0,L|198:216|198:216|264:326|264:326|354:235|354:235|485:61|485:61,1,601.600011474609,8|0,1:0|0:0,0:0:0:0:
394,117,149411,1,2,0:0:0:0:
206,119,149532,6,0,L|201:305|201:305,1,185.600005664063,4|0,1:3|0:0,0:0:0:0:
296,209,149774,2,0,L|208:372|208:372,1,185.600005664063
26,205,150016,1,8,1:1:0:0:
209,210,150137,1,0,0:0:0:0:
393,215,150258,2,0,L|305:378|305:378,1,185.600005664063,2|0,0:0|0:0,0:0:0:0:
52,340,150499,6,0,L|45:239|45:239|41:80|41:80,1,260.266658723958,4|0,1:3|0:0,0:0:0:0:
272,116,150741,2,0,L|207:194|207:194|145:341|145:341,1,260.266658723958,2|0,0:0|0:0,0:0:0:0:
384,347,150983,2,0,L|346:253|346:253|257:121|257:121,1,260.266658723958,8|0,1:1|0:0,0:0:0:0:
489,200,151225,2,0,L|470:299|470:299|477:140|477:140,1,260.266658723958,2|0,0:0|0:0,0:0:0:0:
240,109,151468,6,0,L|152:272|152:272,1,185.600005664063,4|0,1:2|0:0,0:0:0:0:
483,259,151709,2,0,L|395:96|395:96,1,185.600005664063
189,258,151951,2,0,L|222:330|222:330|252:257|252:257|304:198|304:198|365:78|365:78,1,371.200011328126,8|0,1:0|0:0,0:0:0:0:
275,250,152314,1,0,0:0:0:0:
90,176,152435,1,4,1:3:0:0:
272,161,152556,1,0,0:0:0:0:
90,176,152677,2,0,L|178:339|178:339,1,185.600005664063,2|0,0:0|0:0,0:0:0:0:
466,278,152919,2,0,L|400:169|400:169|312:76|312:76|216:160|216:160|98:343|98:343,1,601.600011474609,8|0,1:0|0:0,0:0:0:0:
186,278,153282,1,0,0:0:0:0:
374,128,153403,6,0,L|286:291|286:291,1,185.600005664063,4|0,1:3|0:0,0:0:0:0:
192,127,153645,2,0,L|280:290|280:290,1,185.600005664063
463,128,153887,1,8,1:0:0:0:
280,127,154008,1,0,0:0:0:0:
98,127,154129,2,0,L|186:290|186:290,1,185.600005664063,2|0,0:0|0:0,0:0:0:0:
385,216,154370,6,0,L|323:296|323:296|258:151|258:151,1,260.266658723958,4|0,1:3|0:0,0:0:0:0:
457,157,154612,2,0,L|458:258|458:258|464:99|464:99,1,260.266658723958,2|0,0:0|0:0,0:0:0:0:
127,216,154854,2,0,L|182:301|182:301|254:159|254:159,1,260.266658723958,8|0,1:1|0:0,0:0:0:0:
55,157,155096,2,0,L|40:257|40:257|48:98|48:98,1,260.266658723958,2|0,0:0|0:0,0:0:0:0:
301,256,155338,6,0,L|389:93|389:93,1,185.600005664063,4|0,1:2|0:0,0:0:0:0:
143,149,155580,2,0,L|55:312|55:312,1,185.600005664063
303,333,155822,2,0,L|311:148|311:148,1,185.600005664063,8|0,1:0|0:0,0:0:0:0:
79,235,156064,2,0,L|167:72|167:72,1,185.600005664063
348,212,156306,1,4,1:3:0:0:
166,235,156427,1,0,0:0:0:0:
348,212,156548,2,0,L|260:375|260:375,1,185.600005664063,2|0,0:0|0:0,0:0:0:0:
39,111,156790,2,0,L|123:207|123:207|184:320|184:320|259:217|259:217|407:58|407:58,1,601.600011474609,8|0,1:0|0:0,0:0:0:0:
211,199,157274,5,0,3:0:0:0:
200,81,157516,1,0,3:0:0:0:
440,305,157758,1,0,3:0:0:0:
451,187,157999,1,0,3:0:0:0:
200,186,158241,2,0,L|212:281|212:281|194:131|194:131,1,247.466674218751,2|0,0:0|0:0,0:0:0:0:
31,108,158483,2,0,L|66:198|66:198|147:326|147:326,1,247.466674218751,2|0,0:0|0:0,0:0:0:0:
358,232,158725,2,0,B|377:309|377:309|424:372|424:372|404:296|404:296|356:171|356:171,1,371.200011328126,8|0,1:0|3:0,0:0:0:0:
191,108,159129,1,0,3:0:0:0:
362,328,159209,6,0,B|405:262|405:262|441:192|441:192|451:114|451:114|481:245|481:245,1,371.200011328126,4|0,1:2|0:0,0:0:0:0:
391,221,159572,1,0,0:0:0:0:
171,228,159693,2,0,L|170:42|170:42,1,185.600005664063,8|0,1:0|0:0,0:0:0:0:
380,116,159935,2,0,L|468:279|468:279,1,185.600005664063
245,143,160177,2,0,B|206:212|206:212|174:284|174:284|179:363|179:363|244:246|244:246,1,371.200011328126,4|0,1:3|0:0,0:0:0:0:
331,60,160540,1,0,0:0:0:0:
136,243,160661,2,0,L|224:80|224:80,1,185.600005664063,8|0,1:0|0:0,0:0:0:0:
440,249,160903,1,2,0:0:0:0:
229,263,161145,6,0,L|192:333|192:333|169:258|169:258|103:215|103:215|53:90|53:90,1,371.200011328126,4|0,1:3|0:0,0:0:0:0:
184,182,161508,2,0,L|210:257|210:257|246:327|246:327|299:386|299:386|360:266|360:266,1,371.200011328126,2|0,0:0|0:0,0:0:0:0:
489,108,161870,2,0,L|401:271|401:271,1,185.600005664063
301,135,162112,2,0,L|295:321|295:321,1,185.600005664063,4|0,1:3|0:0,0:0:0:0:
104,243,162354,2,0,L|192:80|192:80,1,185.600005664063,2|0,0:0|0:0,0:0:0:0:
458,260,162596,2,0,L|380:361|380:361|312:252|312:252|232:152|232:152|90:317|90:317,1,601.600011474609,8|0,1:0|2:0,0:0:0:0:
178,260,162959,1,2,2:0:0:0:
369,262,163080,5,4,1:2:0:0:
178,260,163201,2,0,B|126:319|126:319|129:240|129:240|135:161|135:161|179:34|179:34,1,371.200011328126,2|0,0:0|0:0,0:0:0:0:
368,161,163564,2,0,L|280:324|280:324,1,185.600005664063,8|0,1:0|0:0,0:0:0:0:
53,59,163806,2,0,L|141:222|141:222,1,185.600005664063
367,295,164048,2,0,B|357:373|357:373|342:295|342:295|327:217|327:217|260:100|260:100,1,371.200011328126,4|0,1:3|0:0,0:0:0:0:
172,163,164411,1,0,0:0:0:0:
361,97,164532,2,0,L|449:260|449:260,1,185.600005664063,8|0,1:0|0:0,0:0:0:0:
226,30,164774,1,2,0:0:0:0:
436,351,165016,6,0,B|473:281|473:281|486:203|486:203|497:125|497:125|434:6|434:6,1,371.200011328126,4|0,1:3|0:0,0:0:0:0:
302,257,165379,2,0,B|323:333|323:333|363:265|363:265|339:190|339:190|300:61|300:61,1,371.200011328126,2|0,0:0|0:0,0:0:0:0:
107,155,165741,2,0,L|195:318|195:318,1,185.600005664063
376,73,165983,2,0,L|323:132|323:132|295:206|295:206|255:274|255:274|200:152|200:152,1,371.200011328126,4|2,1:3|0:0,0:0:0:0:
288,71,166346,1,0,0:0:0:0:
69,258,166467,2,0,L|126:335|126:335|186:196|186:196,1,247.466674218751,8|0,1:0|0:0,0:0:0:0:
408,245,166709,2,0,L|314:370|314:370|163:177|163:177,1,401.066674316406,2|0,0:0|0:0,0:0:0:0:
379,352,166951,6,0,B|418:283|418:283|447:210|447:210|419:136|419:136|378:8|378:8,1,371.200011328126,4|0,1:2|0:0,0:0:0:0:
290,250,167314,1,0,0:0:0:0:
77,158,167435,2,0,L|165:321|165:321,1,185.600005664063,8|0,1:0|0:0,0:0:0:0:
380,76,167677,2,0,L|468:239|468:239,1,185.600005664063
176,330,167919,2,0,B|128:267|128:267|115:189|115:189|114:110|114:110|177:229|177:229,1,371.200011328126,4|0,1:3|0:0,0:0:0:0:
271,276,168282,1,0,0:0:0:0:
485,278,168403,2,0,L|484:92|484:92,1,185.600005664063,8|0,1:0|0:0,0:0:0:0:
266,182,168645,1,2,0:0:0:0:
72,182,168887,6,0,L|124:241|124:241|147:317|147:317|175:243|175:243|247:129|247:129,1,371.200011328126,4|0,1:3|0:0,0:0:0:0:
381,101,169249,2,0,L|339:168|339:168|300:237|300:237|259:305|259:305|206:181|206:181,1,371.200011328126,2|0,0:0|0:0,0:0:0:0:
343,51,169612,2,0,L|430:215|430:215,1,185.600005664063
205,78,169854,2,0,B|158:141|158:141|148:219|148:219|148:298|148:298|203:176|203:176,1,371.200011328126,4|0,1:3|0:0,0:0:0:0:
290,214,170217,1,0,0:0:0:0:
473,172,170338,1,8,1:0:0:0:
290,214,170459,1,0,0:0:0:0:
107,256,170580,2,0,L|146:344|146:344|223:213|223:213,1,247.466674218751,2|0,0:0|0:0,0:0:0:0:
405,192,170822,5,4,1:2:0:0:
216,184,170943,2,0,L|303:348|303:348,1,185.600005664063,2|0,0:0|0:0,0:0:0:0:
490,94,171185,1,0,0:0:0:0:
302,83,171306,2,0,L|215:247|215:247,1,185.600005664063,8|0,1:1|0:0,0:0:0:0:
26,200,171548,1,0,0:0:0:0:
218,167,171669,6,0,L|131:331|131:331,1,185.600005664063,2|4,0:0|1:3,0:0:0:0:
218,167,171911,1,0,0:0:0:0:
424,244,172032,2,0,L|337:80|337:80,1,185.600005664063,2|0,0:0|0:0,0:0:0:0:
126,330,172274,2,0,L|213:166|213:166,1,185.600005664063,8|0,1:0|0:0,0:0:0:0:
471,314,172516,1,2,0:0:0:0:
320,352,172758,6,0,B|341:276|341:276|356:198|356:198|362:119|362:119|317:246|317:246,1,371.200011328126,4|0,1:3|0:0,0:0:0:0:
229,227,173120,1,0,0:0:0:0:
46,226,173241,1,8,1:0:0:0:
229,227,173362,1,0,0:0:0:0:
46,226,173483,2,0,L|134:63|134:63,1,185.600005664063,2|0,0:0|0:0,0:0:0:0:
410,285,173725,6,0,L|332:184|332:184|262:77|262:77|161:155|161:155|42:337|42:337,1,601.600011474609,0|2,1:0|0:0,0:0:0:0:
132,276,174088,1,0,0:0:0:0:
329,195,174209,2,0,L|417:358|417:358,1,185.600005664063,8|0,1:0|0:0,0:0:0:0:
224,106,174451,2,0,L|324:225|324:225|469:27|469:27,1,401.066674316406
221,27,174693,6,0,L|133:190|133:190,1,185.600005664063,2|2,0:0|0:0,0:0:0:0:
26,100,174935,2,0,L|114:263|114:263,1,185.600005664063,0|2,0:0|0:0,0:0:0:0:
224,187,175177,2,0,L|136:350|136:350,1,185.600005664063,2|0,0:0|0:0,0:0:0:0:
28,230,175419,1,2,0:0:0:0:
352,246,175661,2,0,L|322:314|322:314|298:385|298:385|245:332|245:332|193:216|193:216,1,352,2|0,0:0|0:0,0:0:0:0:
95,219,176024,2,0,L|114:291|114:291|171:339|171:339|184:265|184:265|254:159|254:159,1,352,2|0,0:0|0:0,0:0:0:0:
443,260,176387,1,2,0:0:0:0:
371,199,176629,6,0,L|450:356|450:356,1,176,2|0,0:0|0:0,0:0:0:0:
371,199,176870,1,0,0:0:0:0:
235,141,176991,2,0,L|156:298|156:298,1,176,2|0,0:0|0:0,0:0:0:0:
235,141,177233,1,0,0:0:0:0:
370,118,177354,2,0,L|449:275|449:275,1,176,2|0,0:0|0:0,0:0:0:0:
235,240,177596,2,0,L|227:64|227:64,1,176,2|2,0:0|0:0,0:0:0:0:
114,173,177838,2,0,L|106:349|106:349,1,176,0|2,0:0|0:0,0:0:0:0:
228,160,178080,2,0,L|197:228|197:228|153:289|153:289|117:355|117:355|69:237|69:237,1,352,2|2,0:0|0:0,0:0:0:0:
383,270,178564,6,0,L|372:94|372:94,1,176,2|2,0:0|0:0,0:0:0:0:
258,192,178806,2,0,L|269:368|269:368,1,176,0|2,0:0|0:0,0:0:0:0:
154,105,179048,2,0,L|143:281|143:281,1,176,2|0,0:0|0:0,0:0:0:0:
264,36,179290,1,2,0:0:0:0:
474,190,179532,2,0,L|439:256|439:256|406:323|406:323|389:250|389:250|315:146|315:146,1,352,2|0,0:0|0:0,0:0:0:0:
217,163,179895,2,0,L|240:234|240:234|300:279|300:279|309:353|309:353|376:245|376:245,1,352,2|0,0:0|0:0,0:0:0:0:
140,152,180258,1,2,0:0:0:0:
367,206,180499,6,0,L|446:363|446:363,1,176,2|0,0:0|0:0,0:0:0:0:
367,206,180741,2,0,L|446:363|446:363,1,176,2|0,0:0|0:0,0:0:0:0:
200,261,180983,1,2,0:0:0:0:
303,277,181104,1,0,0:0:0:0:
200,261,181225,1,2,0:0:0:0:
303,277,181346,1,0,0:0:0:0:
51,232,181467,1,2,0:0:0:0:
240,268,181709,1,2,0:0:0:0:
424,264,181830,2,0,B|449:335|449:335|476:265|476:265|463:191|463:191|421:71|421:71,1,352,2|0,0:0|0:0,0:0:0:0:
329,178,182193,1,2,0:0:0:0:
114,324,182435,6,0,L|104:148|104:148,1,176,2|2,0:0|0:0,0:0:0:0:
211,233,182677,2,0,L|211:57|211:57,1,176,0|2,0:0|0:0,0:0:0:0:
318,151,182919,2,0,L|308:327|308:327,1,176,2|0,0:0|0:0,0:0:0:0:
192,64,183161,1,2,0:0:0:0:
399,234,183403,2,0,L|365:301|365:301|328:366|328:366|283:306|283:306|240:186|240:186,1,352,2|0,0:0|0:0,0:0:0:0:
335,208,183766,2,0,L|303:276|303:276|278:347|278:347|222:297|222:297|176:178|176:178,1,352,2|0,0:0|0:0,0:0:0:0:
398,128,184129,1,2,0:0:0:0:
184,91,184370,6,0,L|104:248|104:248,1,176,2|0,0:0|0:0,0:0:0:0:
184,91,184612,1,0,0:0:0:0:
308,149,184733,2,0,L|228:306|228:306,1,176,2|0,0:0|0:0,0:0:0:0:
308,149,184975,1,0,0:0:0:0:
432,212,185096,2,0,L|352:369|352:369,1,176,2|0,0:0|0:0,0:0:0:0:
160,345,185338,2,0,L|158:169|158:169,1,176,2|2,0:0|0:0,0:0:0:0:
264,203,185580,2,0,L|265:379|265:379,1,176,0|2,0:0|0:0,0:0:0:0:
154,134,185822,2,0,L|187:201|187:201|210:272|210:272|247:337|247:337|313:228|313:228,1,352,0|2,0:0|0:0,0:0:0:0:
97,277,186306,6,0,L|108:101|108:101,1,176,2|2,0:0|0:0,0:0:0:0:
221,202,186548,2,0,L|212:378|212:378,1,176,0|2,0:0|0:0,0:0:0:0:
323,116,186790,2,0,L|334:292|334:292,1,176,2|0,0:0|0:0,0:0:0:0:
442,31,187032,1,2,0:0:0:0:
227,162,187274,2,0,L|274:221|274:221|284:295|284:295|328:355|328:355|386:242|386:242,1,352,2|0,0:0|0:0,0:0:0:0:
292,144,187637,2,0,L|268:215|268:215|214:267|214:267|178:333|178:333|133:214|133:214,1,352,2|0,0:0|0:0,0:0:0:0:
344,73,187999,1,2,0:0:0:0:
217,267,188241,6,0,L|297:110|297:110,1,176,2|0,0:0|0:0,0:0:0:0:
217,267,188483,2,0,L|297:110|297:110,1,176,2|0,0:0|0:0,0:0:0:0:
55,201,188725,1,2,0:0:0:0:
159,183,188846,1,0,0:0:0:0:
55,201,188967,1,2,0:0:0:0:
159,183,189088,1,0,0:0:0:0:
439,152,189209,1,2,0:0:0:0:
439,152,189693,2,0,L|442:227|442:227|433:301|433:301|429:376|429:376|439:249|439:249,1,352,2|0,0:0|0:0,0:0:0:0:
283,198,190177,5,4,1:2:0:0:
79,240,190298,2,0,B|41:309|41:309|36:230|36:230|35:151|35:151|78:24|78:24,1,371.200011328126
302,111,190661,2,0,L|390:274|390:274,1,185.600005664063,8|0,1:0|0:0,0:0:0:0:
154,59,190903,2,0,L|66:222|66:222,1,185.600005664063
305,202,191145,2,0,L|276:275|276:275|237:344|237:344|185:285|185:285|129:163|129:163,1,371.200011328126,4|0,1:3|0:0,0:0:0:0:
379,293,191508,2,0,B|413:364|413:364|430:287|430:287|441:209|441:209|378:91|378:91,1,371.200011328126,2|0,0:0|0:0,0:0:0:0:
137,204,191870,2,0,L|225:367|225:367,1,185.600005664063
431,212,192112,5,4,1:3:0:0:
225,204,192233,2,0,L|137:367|137:367,1,185.600005664063
325,208,192475,2,0,L|330:22|330:22,1,185.600005664063,0|8,0:0|1:0,0:0:0:0:
143,117,192717,1,0,0:0:0:0:
339,123,192838,2,0,L|427:286|427:286,1,185.600005664063
212,286,193080,2,0,L|203:382|203:382|204:231|204:231,1,247.466674218751,4|0,1:3|0:0,0:0:0:0:
382,73,193322,2,0,L|328:152|328:152|265:289|265:289,1,247.466674218751,2|0,0:0|0:0,0:0:0:0:
99,290,193564,2,0,L|105:386|105:386|89:235|89:235,1,247.466674218751,8|0,1:0|0:0,0:0:0:0:
400,161,193806,2,0,L|343:239|343:239|283:378|283:378,1,247.466674218751,2|0,0:0|0:0,0:0:0:0:
51,291,194048,5,4,1:2:0:0:
232,307,194169,2,0,L|254:383|254:383|315:333|315:333|357:266|357:266|408:142|408:142,1,371.200011328126
207,211,194532,2,0,L|119:375|119:375,1,185.600005664063,8|0,1:0|0:0,0:0:0:0:
332,222,194774,2,0,L|335:36|335:36,1,185.600005664063
112,205,195016,2,0,B|71:272|71:272|60:350|60:350|74:272|74:272|117:145|117:145,1,371.200011328126,4|0,1:3|0:0,0:0:0:0:
206,84,195379,1,0,0:0:0:0:
405,182,195499,2,0,L|371:253|371:253|329:320|329:320|299:247|299:247|229:132|229:132,1,371.200011328126,8|0,1:0|0:0,0:0:0:0:
406,183,195983,5,4,1:3:0:0:
217,280,196104,2,0,L|305:117|305:117,1,185.600005664063
217,280,196346,1,0,0:0:0:0:
412,335,196467,2,0,L|420:150|420:150,1,185.600005664063,8|0,1:0|0:0,0:0:0:0:
226,243,196709,1,0,0:0:0:0:
429,225,196830,1,0,0:0:0:0:
226,243,196951,2,0,L|271:328|271:328|343:195|343:195,1,247.466674218751,4|0,1:3|0:0,0:0:0:0:
147,193,197193,2,0,B|112:282|112:282|72:136|72:136,1,247.466674218751,2|0,0:0|0:0,0:0:0:0:
326,82,197435,2,0,L|294:173|294:173|209:298|209:298,1,247.466674218751,8|0,1:1|0:0,0:0:0:0:
435,210,197677,2,0,L|338:332|338:332|194:134|194:134,1,401.066674316406,2|0,0:0|0:0,0:0:0:0:
38,217,197919,5,4,1:2:0:0:
293,188,198040,2,0,B|333:256|333:256|364:329|364:329|402:260|402:260|401:126|401:126,1,371.200011328126,2|0,0:0|0:0,0:0:0:0:
184,96,198403,2,0,L|272:259|272:259,1,185.600005664063,8|0,1:0|0:0,0:0:0:0:
466,130,198645,2,0,L|466:316|466:316,1,185.600005664063,2|0,0:0|0:0,0:0:0:0:
243,258,198887,2,0,L|278:329|278:329|328:268|328:268|342:190|342:190|419:80|419:80,1,371.200011328126,4|0,1:3|0:0,0:0:0:0:
218,347,199249,2,0,L|197:271|197:271|128:233|128:233|120:154|120:154|42:45|42:45,1,371.200011328126,2|0,0:0|0:0,0:0:0:0:
239,190,199612,2,0,L|327:353|327:353,1,185.600005664063
67,159,199854,5,4,1:3:0:0:
246,158,199975,2,0,L|334:321|334:321,1,185.600005664063
124,60,200217,2,0,L|118:245|118:245,1,185.600005664063,0|8,0:0|1:0,0:0:0:0:
307,159,200459,1,0,0:0:0:0:
117,148,200580,2,0,L|29:311|29:311,1,185.600005664063
216,230,200822,2,0,B|252:319|252:319|294:174|294:174,1,247.466674218751,4|0,1:3|0:0,0:0:0:0:
483,137,201064,2,0,B|453:228|453:228|413:374|413:374,1,247.466674218751,2|0,0:0|0:0,0:0:0:0:
212,49,201306,2,0,L|243:140|243:140|329:264|329:264,1,247.466674218751,8|0,1:0|0:0,0:0:0:0:
146,116,201548,2,0,L|112:206|112:206|29:332|29:332,1,247.466674218751,2|0,0:0|0:0,0:0:0:0:
212,49,201790,5,4,1:2:0:0:
395,91,201911,2,0,B|435:159|435:159|445:237|445:237|442:316|442:316|397:190|397:190,1,371.200011328126,2|0,0:0|0:0,0:0:0:0:
217,188,202274,2,0,L|305:351|305:351,1,185.600005664063,8|0,1:0|0:0,0:0:0:0:
122,285,202516,2,0,L|34:122|34:122,1,185.600005664063,2|0,0:0|0:0,0:0:0:0:
227,351,202758,2,0,B|249:275|249:275|283:204|283:204|335:145|335:145|338:11|338:11,1,371.200011328126,4|0,1:3|0:0,0:0:0:0:
250,222,203120,1,2,0:0:0:0:
45,175,203241,2,0,L|68:251|68:251|116:314|116:314|172:370|172:370|221:245|221:245,1,371.200011328126,8|2,1:0|0:0,0:0:0:0:
422,230,203725,5,4,1:3:0:0:
221,172,203846,2,0,L|133:335|133:335,1,185.600005664063,2|0,0:0|0:0,0:0:0:0:
221,172,204088,1,2,0:0:0:0:
410,113,204209,2,0,L|322:276|322:276,1,185.600005664063,8|0,1:0|0:0,0:0:0:0:
139,73,204451,1,2,0:0:0:0:
338,119,204572,1,0,0:0:0:0:
104,72,204693,5,0,3:0:0:0:
82,215,204935,1,0,3:0:0:0:
332,169,205177,1,0,3:0:0:0:
354,312,205419,1,0,3:0:0:0:
92,185,205661,6,0,L|180:349|180:349,1,185.600005664063,4|0,1:3|0:0,0:0:0:0:
92,185,205903,1,0,0:0:0:0:
348,258,206024,2,0,L|351:72|351:72,1,185.600005664063,2|8,0:0|1:0,0:0:0:0:
117,96,206266,2,0,L|155:165|155:165|192:235|192:235|222:308|222:308|293:194|293:194,1,371.200011328126,2|0,0:0|0:0,0:0:0:0:
53,303,206629,2,0,B|40:381|40:381|78:312|78:312|95:235|95:235|154:114|154:114,1,371.200011328126,4|0,1:3|0:0,0:0:0:0:
242,176,206991,1,2,0:0:0:0:
448,228,207112,2,0,L|409:297|409:297|379:370|379:370|338:302|338:302|272:185|272:185,1,371.200011328126,8|2,1:0|0:0,0:0:0:0:
416,324,207596,6,0,B|439:248|439:248|476:178|476:178|462:100|462:100|415:226|415:226,1,371.200011328126,4|0,1:3|0:0,0:0:0:0:
299,165,207999,1,2,0:0:0:0:
159,103,208080,2,0,L|218:179|218:179|276:319|276:319,1,247.466674218751,8|0,1:0|0:0,0:0:0:0:
72,105,208322,2,0,L|68:201|68:201|69:352|69:352,1,247.466674218751,2|0,0:0|0:0,0:0:0:0:
279,262,208564,2,0,L|225:341|225:341|163:203|163:203,1,247.466674218751,4|0,1:3|0:0,0:0:0:0:
407,323,208806,2,0,B|449:237|449:237|481:89|481:89,1,247.466674218751,2|0,0:0|0:0,0:0:0:0:
296,159,209048,2,0,B|256:247|256:247|222:100|222:100,1,247.466674218751,8|0,1:0|0:0,0:0:0:0:
30,245,209290,2,0,L|76:330|76:330|147:197|147:197,1,247.466674218751,2|0,0:0|0:0,0:0:0:0:
322,183,209532,6,0,L|234:347|234:347,1,185.600005664063,4|0,1:3|0:0,0:0:0:0:
322,183,209774,1,0,0:0:0:0:
97,255,209895,2,0,L|94:69|94:69,1,185.600005664063,2|8,0:0|1:0,0:0:0:0:
321,104,210137,2,0,B|368:168|368:168|365:247|365:247|371:326|371:326|320:202|320:202,1,371.200011328126,2|0,0:0|0:0,0:0:0:0:
104,91,210499,2,0,L|131:165|131:165|163:237|163:237|209:301|209:301|279:186|279:186,1,371.200011328126,4|0,1:3|0:0,0:0:0:0:
191,79,210862,1,2,0:0:0:0:
373,247,210983,2,0,B|411:316|411:316|425:238|425:238|432:159|432:159|372:39|372:39,1,371.200011328126,8|2,1:0|0:0,0:0:0:0:
283,120,211346,1,0,2:0:0:0:
60,117,211467,5,0,1:0:0:0:
202,119,211629,1,0,1:0:0:0:
60,117,211790,1,0,1:0:0:0:
424,243,211951,1,0,1:0:0:0:
282,245,212113,1,0,1:0:0:0:
424,243,212274,1,0,1:0:0:0:
198,204,212435,1,0,1:0:0:0:
361,137,212677,2,0,L|273:300|273:300,1,185.600005664063,2|0,0:0|0:0,0:0:0:0:
82,76,212919,2,0,L|80:262|80:262,1,185.600005664063,8|0,1:0|0:0,0:0:0:0:
259,174,213161,1,2,0:0:0:0:
438,182,213282,1,0,0:0:0:0:
137,264,213403,6,0,L|225:100|225:100,1,185.600005664063,4|0,1:3|0:0,0:0:0:0:
137,264,213645,1,0,0:0:0:0:
362,336,213766,2,0,L|365:150|365:150,1,185.600005664063,2|8,0:0|1:0,0:0:0:0:
131,174,214008,2,0,L|175:239|175:239|212:309|212:309|256:375|256:375|307:251|307:251,1,371.200011328126,2|0,0:0|0:0,0:0:0:0:
67,381,214370,2,0,B|80:303|80:303|79:224|79:224|116:154|116:154|168:30|168:30,1,371.200011328126,4|0,1:3|0:0,0:0:0:0:
256,254,214733,1,2,0:0:0:0:
450,355,214854,2,0,L|484:326|484:326|479:292|479:292|498:67|498:67|441:21|441:21,1,371.200011328125,8|2,1:0|0:0,0:0:0:0:
109,246,215338,6,0,B|57:306|57:306|40:383|40:383|70:310|70:310|115:183|115:183,1,371.200011328126,4|2,1:3|0:0,0:0:0:0:
278,136,215741,1,0,0:0:0:0:
104,128,215822,2,0,L|107:224|107:224|95:375|95:375,1,247.466674218751,8|0,1:0|0:0,0:0:0:0:
304,262,216064,2,0,L|254:344|254:344|187:208|187:208,1,247.466674218751,2|0,0:0|0:0,0:0:0:0:
418,266,216306,6,0,L|411:362|411:362|427:212|427:212,1,247.466674218751,4|0,1:3|0:0,0:0:0:0:
279,159,216548,2,0,B|269:255|269:255|206:118|206:118,1,247.466674218751,2|0,0:0|0:0,0:0:0:0:
27,133,216790,2,0,B|34:229|34:229|100:365|100:365,1,247.466674218751,8|0,1:0|0:0,0:0:0:0:
296,62,217032,2,0,L|341:147|341:147|413:280|413:280,1,247.466674218751,2|0,0:0|0:0,0:0:0:0:
116,256,217274,6,0,L|204:92|204:92,1,185.600005664063,4|0,1:3|0:0,0:0:0:0:
116,256,217516,1,0,0:0:0:0:
362,346,217637,2,0,B|407:281|407:281|415:202|415:202|427:124|427:124|362:7|362:7,1,371.200011328126,2|0,0:0|0:0,0:0:0:0:
133,167,217999,2,0,L|45:331|45:331,1,185.600005664063,2|0,0:0|0:0,0:0:0:0:
260,179,218241,2,0,B|292:251|292:251|328:321|328:321|313:243|313:243|260:120|260:120,1,371.200011328126,4|0,1:3|0:0,0:0:0:0:
118,46,218645,1,2,0:0:0:0:
279,298,218725,2,0,L|329:380|329:380|395:244|395:244,1,247.466674218751,8|0,1:0|2:0,0:0:0:0:
210,234,218967,2,0,L|215:330|215:330|208:179|208:179,1,247.466674218751,2|0,3:2|2:0,0:0:0:0:
421,217,219209,5,0,1:0:0:0:
276,219,219370,1,0,1:0:0:0:
421,217,219532,1,0,1:0:0:0:
85,98,219693,1,0,1:0:0:0:
229,95,219854,1,0,1:0:0:0:
85,98,220016,1,0,1:0:0:0:
468,98,220177,1,4,1:3:0:0:
