osu file format v14

[General]
AudioFilename: audio.mp3
AudioLeadIn: 0
PreviewTime: 27032
Countdown: 0
SampleSet: Soft
StackLeniency: 0.7
Mode: 2
LetterboxInBreaks: 0
WidescreenStoryboard: 1

[Editor]
Bookmarks: 12112,27596,43080,46951,62435,70177,85661,105016,120499,143725,159209,174693,190177,205661
DistanceSpacing: 1
BeatDivisor: 4
GridSize: 16
TimelineZoom: 1.3

[Metadata]
Title:Dragons
TitleUnicode:Dragons
Artist:Caravan Palace
ArtistUnicode:Caravan Palace
Creator:Spectator
Version:Deif's Rain
Source:
Tags:deif electronic instrumental electro electro-swing swing cwc2021 osu!catch world cup 2021 semi finals sf no mod nm1
BeatmapID:4441503
BeatmapSetID:1464027

[Difficulty]
HPDrainRate:5
CircleSize:3.8
OverallDifficulty:9
ApproachRate:9
SliderMultiplier:2.88
SliderTickRate:1

[Events]
//Background and Video events
0,0,"dragons.jpg",0,0
//Break Periods
2,43280,45625
//Storyboard Layer 0 (Background)
//Storyboard Layer 1 (Fail)
//Storyboard Layer 2 (Pass)
//Storyboard Layer 3 (Foreground)
//Storyboard Layer 4 (Overlay)
//Storyboard Sound Samples

[TimingPoints]
500,483.870967741935,4,2,1,40,1,0
18887,-100,4,2,1,50,0,0
19854,-100,4,2,1,40,0,0
25661,-100,4,2,1,35,0,0
27112,-45.045045045045,4,2,1,35,0,0
27354,-100,4,2,1,45,0,0
27596,-100,4,2,1,60,0,0
35096,-57.1428571428571,4,2,1,60,0,0
35338,-100,4,2,1,60,0,0
42838,-57.1428571428571,4,2,1,60,0,0
43080,-100,4,2,1,60,0,0
62435,-100,4,2,1,50,0,0
70177,-100,4,2,1,60,0,0
77677,-57.1428571428571,4,2,1,60,0,0
77919,-100,4,2,1,60,0,0
85419,-57.1428571428571,4,2,1,60,0,0
85661,-100,4,2,1,70,0,0
93161,-57.1428571428571,4,2,1,60,0,0
93403,-100,4,2,1,70,0,0
101145,-100,4,2,1,50,0,0
104532,-81.9672131147541,4,2,1,50,0,0
105016,-100,4,2,1,55,0,0
108403,-81.9672131147541,4,2,1,55,0,0
108887,-100,4,2,1,55,0,0
112274,-81.9672131147541,4,2,1,55,0,0
112758,-100,4,2,1,60,0,0
116145,-81.9672131147541,4,2,1,60,0,0
116629,-100,4,2,1,60,0,0
120016,-81.9672131147541,4,2,1,60,0,0
120499,-100,4,2,1,65,0,0
123887,-81.9672131147541,4,2,1,65,0,0
124370,-100,4,2,1,70,0,0
127758,-81.9672131147541,4,2,1,70,0,0
128241,-100,4,2,1,70,0,0
131629,-81.9672131147541,4,2,1,70,0,0
132112,-100,4,2,1,70,0,0
135499,-81.9672131147541,4,2,1,80,0,0
135983,-100,4,2,1,80,0,0
136467,-81.9672131147541,4,2,1,80,0,0
136951,-100,4,2,1,80,0,0
137435,-81.9672131147541,4,2,1,80,0,0
137919,-100,4,2,1,80,0,0
138120,-100,4,2,1,35,0,0
138161,-100,4,2,1,80,0,0
138362,-100,4,2,1,35,0,0
138403,-100,4,2,1,80,0,0
138604,-100,4,2,1,35,0,0
138645,-100,4,2,1,80,0,0
138846,-100,4,2,1,35,0,0
138887,-100,4,2,1,80,0,0
139088,-100,4,2,1,35,0,0
139129,-100,4,2,1,80,0,0
139330,-100,4,2,1,35,0,0
139371,-100,4,2,1,80,0,0
139572,-100,4,2,1,35,0,0
139613,-100,4,2,1,80,0,0
139814,-100,4,2,1,35,0,0
139855,-100,4,2,1,80,0,0
141790,-100,4,2,1,50,0,0
142879,-100,4,2,1,60,0,0
143241,-100,4,2,1,65,0,0
143725,-100,4,2,1,70,0,1
144693,-81.9672131147541,4,2,1,70,0,1
145661,-100,4,2,1,70,0,1
146629,-81.9672131147541,4,2,1,70,0,1
147596,-100,4,2,1,70,0,1
148564,-81.9672131147541,4,2,1,70,0,1
149532,-100,4,2,1,70,0,1
150499,-81.9672131147541,4,2,1,70,0,1
151467,-100,4,2,1,70,0,1
152435,-81.9672131147541,4,2,1,70,0,1
153403,-100,4,2,1,70,0,1
154370,-81.9672131147541,4,2,1,70,0,1
155338,-100,4,2,1,70,0,1
156306,-81.9672131147541,4,2,1,70,0,1
157274,-100,4,2,1,55,0,0
158725,-100,4,2,1,65,0,0
159209,-100,4,2,1,70,0,0
162596,-69.4444444444444,4,2,1,70,0,0
163080,-100,4,2,1,70,0,0
166467,-69.4444444444444,4,2,1,70,0,0
166709,-57.1428571428571,4,2,1,70,0,0
166951,-100,4,2,1,70,0,0
170338,-69.4444444444444,4,2,1,70,0,0
170822,-100,4,2,1,70,0,0
174209,-69.4444444444444,4,2,1,70,0,0
174451,-57.1428571428571,4,2,1,70,0,0
174693,-100,4,2,1,55,0,0
190177,-100,4,2,1,70,0,1
197677,-57.1428571428571,4,2,1,70,0,1
197919,-100,4,2,1,70,0,1
204693,-100,4,2,1,70,0,0
205661,-100,4,2,1,70,0,1
213161,-57.1428571428571,4,2,1,70,0,1
213403,-100,4,2,1,70,0,1
220177,-100,4,2,1,70,0,0

[Colours]
Combo1 : 201,149,78
Combo2 : 205,92,96

[HitObjects]
80,192,12112,6,0,P|56:156|80:64,1,144,0|2,0:0|0:0,0:0:0:0:
144,64,12475,1,0,0:0:0:0:
80,64,12596,1,0,0:0:0:0:
144,64,12717,1,0,0:0:0:0:
208,64,12838,1,2,0:0:0:0:
144,64,12959,1,0,0:0:0:0:
208,64,13080,2,0,P|232:100|208:192,1,144,0|2,0:0|0:0,0:0:0:0:
144,192,13443,1,0,0:0:0:0:
208,192,13564,2,0,L|64:192,1,144,0|2,0:0|0:0,0:0:0:0:
240,64,14048,6,0,P|264:100|240:192,1,144,0|2,0:0|0:0,0:0:0:0:
176,64,14411,2,0,P|152:100|176:192,1,144,0|0,0:0|0:0,0:0:0:0:
240,192,14774,1,2,0:0:0:0:
416,64,15016,2,0,P|440:100|416:192,1,144,0|2,0:0|0:0,0:0:0:0:
352,192,15379,1,0,0:0:0:0:
416,192,15499,2,0,L|272:192,1,144,0|2,0:0|0:0,0:0:0:0:
336,192,15862,1,0,0:0:0:0:
272,192,15983,5,0,0:0:0:0:
336,192,16104,1,0,0:0:0:0:
272,192,16225,1,2,0:0:0:0:
448,64,16467,1,0,0:0:0:0:
384,64,16588,1,0,0:0:0:0:
320,64,16709,1,2,0:0:0:0:
384,64,16830,1,0,0:0:0:0:
320,64,16951,2,0,P|296:100|320:192,1,144,0|2,0:0|0:0,0:0:0:0:
384,192,17314,1,0,0:0:0:0:
320,192,17435,2,0,L|464:192,1,144,0|2,0:0|0:0,0:0:0:0:
288,64,17919,6,0,P|264:100|288:192,1,144,0|2,0:0|0:0,0:0:0:0:
352,64,18282,2,0,P|376:100|352:192,1,144,0|0,0:0|0:0,0:0:0:0:
288,192,18645,1,2,0:0:0:0:
112,64,18887,1,0,0:0:0:0:
224,64,19008,1,0,0:0:0:0:
288,64,19129,1,2,0:0:0:0:
176,64,19249,1,0,0:0:0:0:
240,128,19370,2,0,L|384:128,1,144,2|2,0:0|0:0,0:0:0:0:
320,192,19733,1,0,0:0:0:0:
432,192,19854,6,0,P|456:156|432:64,1,144,0|2,0:0|0:0,0:0:0:0:
368,64,20217,1,0,0:0:0:0:
432,64,20338,1,0,0:0:0:0:
368,64,20459,1,0,0:0:0:0:
304,64,20580,1,2,0:0:0:0:
368,64,20701,1,0,0:0:0:0:
304,64,20822,2,0,P|280:100|304:192,1,144,0|2,0:0|0:0,0:0:0:0:
368,192,21185,1,0,0:0:0:0:
304,192,21306,2,0,L|448:192,1,144,0|2,0:0|0:0,0:0:0:0:
272,64,21790,6,0,P|248:100|272:192,1,144,0|2,0:0|0:0,0:0:0:0:
336,64,22153,2,0,P|360:100|336:192,1,144,0|0,0:0|0:0,0:0:0:0:
272,192,22516,1,2,0:0:0:0:
96,64,22758,1,0,0:0:0:0:
67,127,22879,1,0,0:0:0:0:
95,191,22999,1,2,0:0:0:0:
160,192,23120,1,0,0:0:0:0:
96,192,23241,1,0,0:0:0:0:
168,192,23362,1,0,0:0:0:0:
240,192,23483,1,2,0:0:0:0:
176,192,23604,1,0,0:0:0:0:
240,192,23725,6,0,P|268:128|239:64,1,144,0|2,0:0|0:0,0:0:0:0:
64,64,24209,1,0,0:0:0:0:
128,64,24330,1,0,0:0:0:0:
192,64,24451,1,2,0:0:0:0:
128,64,24572,1,0,0:0:0:0:
192,64,24693,2,0,P|216:100|192:192,1,144,0|2,0:0|0:0,0:0:0:0:
128,192,25056,1,0,0:0:0:0:
192,192,25177,2,0,L|48:192,1,144,0|2,0:0|0:0,0:0:0:0:
224,192,25661,6,0,L|208:112,1,72,2|0,0:0|0:0,0:0:0:0:
272,192,25903,2,0,L|288:112,1,72,2|0,0:0|0:0,0:0:0:0:
352,192,26145,2,0,L|336:112,1,72,2|0,0:0|0:0,0:0:0:0:
400,192,26387,2,0,L|416:112,1,72,2|0,0:0|0:0,0:0:0:0:
480,192,26629,1,2,0:0:0:0:
480,192,27112,2,0,L|160:192,1,319.680007804688,2|2,0:0|0:0,0:0:0:0:
480,192,27596,6,0,P|504:156|480:64,1,144,0|0,1:0|0:0,0:0:0:0:
400,64,27959,1,0,0:0:0:0:
192,64,28080,1,8,1:1:0:0:
112,64,28201,1,0,0:2:0:0:
192,64,28322,1,0,0:0:0:0:
272,64,28443,1,0,0:0:0:0:
64,64,28564,2,0,P|40:100|64:192,1,144,4|0,1:3|0:0,0:0:0:0:
144,192,28927,1,0,0:0:0:0:
352,192,29048,2,0,L|496:192,1,144,8|2,1:1|0:0,0:0:0:0:
176,192,29532,6,0,P|152:156|176:64,1,144,4|0,1:3|0:0,0:0:0:0:
384,192,29895,2,0,P|408:156|384:64,1,144,2|0,0:0|0:0,0:0:0:0:
304,64,30258,2,0,L|304:144,1,72,0|0,0:0|0:0,0:0:0:0:
96,192,30499,2,0,P|72:156|96:64,1,144,4|0,1:3|0:0,0:0:0:0:
176,64,30862,1,0,0:0:0:0:
384,64,30983,2,0,L|240:64,1,144,8|2,1:0|0:0,0:0:0:0:
160,64,31346,1,2,0:0:0:0:
368,192,31467,5,4,1:3:0:0:
448,192,31588,1,2,0:0:0:0:
368,192,31709,1,2,0:0:0:0:
192,64,31951,1,8,1:1:0:0:
112,64,32072,1,0,0:0:0:0:
192,64,32193,1,0,0:0:0:0:
272,64,32314,1,0,0:0:0:0:
480,64,32435,2,0,P|504:100|480:192,1,144,4|0,1:3|0:0,0:0:0:0:
400,192,32798,1,0,0:0:0:0:
192,192,32919,2,0,L|48:192,1,144,8|2,1:0|0:0,0:0:0:0:
368,192,33403,6,0,P|392:156|368:64,1,144,4|0,1:3|0:0,0:0:0:0:
160,192,33766,2,0,P|136:156|160:64,1,144,2|0,0:0|2:0,0:0:0:0:
240,64,34129,2,0,L|240:144,1,72,0|0,2:0|2:0,0:0:0:0:
32,192,34370,1,4,1:3:0:0:
112,192,34491,1,0,0:0:0:0:
320,192,34612,1,0,3:0:0:0:
240,192,34733,1,0,3:0:0:0:
32,192,34854,2,0,L|16:96,1,96,0|0,1:0|0:0,0:0:0:0:
32,96,35096,2,0,L|208:96,1,168.000001602173,4|0,0:0|0:0,0:0:0:0:
32,192,35338,6,0,P|8:156|32:64,1,144,4|0,1:0|0:0,0:0:0:0:
112,64,35701,1,0,0:0:0:0:
320,64,35822,1,8,1:0:0:0:
400,64,35943,1,0,0:0:0:0:
320,64,36064,1,0,0:0:0:0:
240,64,36185,1,0,0:0:0:0:
448,64,36306,2,0,P|472:100|448:192,1,144,4|0,1:3|0:0,0:0:0:0:
368,192,36669,1,0,0:0:0:0:
160,192,36790,2,0,L|16:192,1,144,8|2,1:0|0:0,0:0:0:0:
336,192,37274,6,0,P|360:156|336:64,1,144,4|0,1:3|0:0,0:0:0:0:
128,192,37637,2,0,P|104:156|128:64,1,144,2|0,0:0|0:0,0:0:0:0:
208,64,37999,2,0,L|208:144,1,72,0|0,0:0|0:0,0:0:0:0:
416,192,38241,2,0,P|440:156|416:64,1,144,4|0,1:3|0:0,0:0:0:0:
336,64,38604,1,0,0:0:0:0:
128,64,38725,2,0,L|272:64,1,144,8|2,1:0|0:0,0:0:0:0:
352,64,39088,1,2,0:0:0:0:
144,192,39209,5,4,1:3:0:0:
64,192,39330,1,2,0:0:0:0:
144,192,39451,1,2,0:0:0:0:
320,64,39693,1,8,1:0:0:0:
400,64,39814,1,0,0:0:0:0:
320,64,39935,1,0,0:0:0:0:
240,64,40056,1,0,0:0:0:0:
32,64,40177,2,0,P|8:100|32:192,1,144,4|0,1:3|0:0,0:0:0:0:
112,192,40540,1,0,0:0:0:0:
320,192,40661,2,0,L|464:192,1,144,8|2,1:0|0:0,0:0:0:0:
144,192,41145,6,0,P|120:156|144:64,1,144,4|0,1:3|0:0,0:0:0:0:
352,192,41508,2,0,P|376:156|352:64,1,144,0|0,0:0|0:0,0:0:0:0:
272,64,41870,2,0,L|272:144,1,72,0|0,3:0|0:0,0:0:0:0:
480,192,42112,1,4,1:3:0:0:
400,192,42233,1,2,0:0:0:0:
192,192,42354,1,2,0:0:0:0:
272,192,42475,1,2,0:0:0:0:
480,192,42596,2,0,L|496:96,1,96,8|0,1:0|0:0,0:0:0:0:
480,96,42838,2,0,L|304:96,1,168.000001602173,2|0,0:0|0:0,0:0:0:0:
256,96,43080,5,2,0:0:0:0:
256,192,46225,5,0,3:0:0:0:
256,192,46467,1,0,3:0:0:0:
368,192,46629,2,0,L|384:144,1,48,0|0,3:0|3:0,3:3:0:0:
256,144,46870,1,0,3:0:0:0:
416,192,46951,6,0,P|440:156|416:64,1,144,4|0,1:0|0:0,0:0:0:0:
336,64,47314,1,0,0:0:0:0:
208,64,47435,2,0,L|208:144,1,72,8|0,1:0|0:0,0:0:0:0:
288,192,47677,1,0,0:0:0:0:
208,256,47798,1,0,0:0:0:0:
80,256,47919,2,0,P|56:220|80:128,1,144,4|0,1:3|0:0,0:0:0:0:
208,128,48282,2,0,L|64:128,1,144,2|0,0:0|0:0,0:0:0:0:
64,128,48645,1,2,0:0:0:0:
144,128,48766,1,0,0:0:0:0:
352,256,48887,6,0,P|376:220|352:128,1,144,0|2,1:0|0:0,0:0:0:0:
272,128,49249,1,0,0:0:0:0:
400,128,49370,2,0,L|416:48,1,72,8|0,1:0|0:0,0:0:0:0:
336,128,49612,2,0,L|320:48,1,72,2|0,0:0|0:0,0:0:0:0:
192,48,49854,1,0,1:0:0:0:
112,48,49975,2,0,L|256:48,1,144,2|2,0:0|0:0,0:0:0:0:
384,255,50338,2,0,P|408:219|384:127,1,144,8|2,1:0|0:0,0:0:0:0:
304,127,50701,1,0,0:0:0:0:
96,192,50822,6,0,P|72:156|96:64,1,144,4|0,1:3|0:0,0:0:0:0:
176,64,51185,1,0,0:0:0:0:
304,64,51306,2,0,L|304:144,1,72,8|0,1:0|0:0,0:0:0:0:
224,192,51548,1,2,0:0:0:0:
304,256,51669,1,0,0:0:0:0:
432,256,51790,2,0,P|456:220|432:128,1,144,0|2,1:0|0:0,0:0:0:0:
304,128,52153,2,0,L|160:128,1,144,2|0,0:0|0:0,0:0:0:0:
240,128,52516,2,0,L|240:32,1,96,2|2,0:0|0:0,0:0:0:0:
96,32,52758,6,0,L|96:128,1,96,0|2,1:0|0:0,0:0:0:0:
192,192,52999,2,0,L|288:192,1,96,2|2,0:0|0:0,0:0:0:0:
192,192,53241,2,0,L|96:191,1,96,8|2,1:0|0:0,0:0:0:0:
32,192,53483,1,0,0:0:0:0:
32,256,53564,1,0,0:0:0:0:
96,256,53645,1,0,0:0:0:0:
192,256,53725,2,0,L|192:160,1,96,4|2,1:3|0:0,0:0:0:0:
128,256,53967,2,2,L|128:160,1,96,0|0,0:0|0:0,0:0:0:0:
224,256,54209,2,0,L|224:160,1,96,8|0,1:0|0:0,0:0:0:0:
160,256,54451,2,2,L|160:160,1,96,0|0,0:0|0:0,0:0:0:0:
384,192,54693,5,2,0:0:0:0:
384,192,54935,1,0,0:0:0:0:
64,192,55177,1,4,1:2:0:0:
240,192,55419,2,0,L|256:144,2,48,2|2|2,0:0|0:0|0:0,0:0:0:0:
144,192,55661,2,0,L|48:192,1,96,4|0,1:3|0:0,0:0:0:0:
144,192,55903,2,0,L|240:192,1,96,2|0,0:0|0:0,0:0:0:0:
48,192,56145,2,0,L|48:96,1,96,8|2,1:0|0:0,0:0:0:0:
48,96,56387,2,0,L|144:96,1,96,2|0,0:0|0:0,0:0:0:0:
304,96,56629,6,0,P|328:132|304:224,1,144,2|2,1:2|0:0,0:0:0:0:
80,224,57112,1,8,1:0:0:0:
256,224,57354,2,0,L|256:128,1,96,2|0,0:0|0:0,0:0:0:0:
160,64,57596,2,0,L|160:160,1,96,4|0,1:3|0:0,0:0:0:0:
256,64,57838,2,0,L|256:160,1,96,2|0,0:0|0:0,0:0:0:0:
160,64,58080,2,0,L|256:64,1,96,8|0,1:0|0:0,0:0:0:0:
352,64,58322,2,0,L|256:64,1,96,2|2,0:0|0:0,0:0:0:0:
96,192,58564,6,0,L|240:192,1,144,2|2,1:2|0:0,0:0:0:0:
416,192,59048,2,0,L|320:192,1,96,8|2,1:1|0:0,0:0:0:0:
384,192,59290,2,0,L|384:96,1,96,2|0,0:0|0:0,0:0:0:0:
288,96,59532,2,0,L|192:96,1,96,0|2,1:0|0:0,0:0:0:0:
288,96,59774,2,0,L|384:96,1,96,2|0,0:0|0:0,0:0:0:0:
288,96,60016,2,0,P|264:132|288:224,1,144,8|2,1:0|0:0,0:0:0:0:
352,224,60338,1,0,0:0:0:0:
128,224,60499,6,0,L|32:224,1,96,4|0,1:3|0:0,0:0:0:0:
128,224,60741,2,0,L|224:224,1,96,2|0,0:0|0:0,0:0:0:0:
64,192,60983,2,0,P|56:140|128:96,1,144,8|2,1:0|0:0,0:0:0:0:
240,192,61387,1,0,0:0:0:0:
400,192,61467,2,0,L|400:96,1,96,4|0,1:3|0:0,0:0:0:0:
304,96,61709,2,0,L|208:96,1,96,2|0,0:0|0:0,0:0:0:0:
368,96,61951,2,0,L|464:96,1,96,8|0,1:0|0:0,0:0:0:0:
368,96,62193,2,0,L|368:192,1,96,2|0,0:0|0:0,0:0:0:0:
464,192,62435,5,0,3:0:0:0:
256,192,62677,12,0,63887,0:0:0:0:
256,192,64370,5,0,0:0:0:0:
256,192,64612,12,0,65822,0:0:0:0:
48,192,66306,5,0,0:0:0:0:
256,192,66548,12,0,67758,0:0:0:0:
208,192,68120,5,0,0:0:0:0:
304,192,68241,1,0,3:0:0:0:
320,96,68483,1,0,3:0:0:0:
192,96,68725,1,0,3:0:0:0:
208,192,68967,1,0,3:0:0:0:
432,192,69209,1,2,3:2:0:0:
304,192,69451,1,0,3:0:0:0:
80,192,69693,2,0,L|64:96,1,96,2|0,3:2|3:0,3:3:0:0:
160,192,69935,2,0,L|176:96,1,96,0|0,3:0|3:0,3:3:0:0:
32,192,70177,6,0,P|8:156|32:64,1,144,4|0,1:2|0:0,0:0:0:0:
112,64,70540,1,0,0:0:0:0:
320,64,70661,1,8,1:0:0:0:
400,64,70782,1,0,0:0:0:0:
320,64,70903,1,0,0:0:0:0:
240,64,71024,1,0,0:0:0:0:
32,144,71145,2,0,P|8:180|32:272,1,144,4|0,1:3|0:0,0:0:0:0:
112,272,71508,1,0,0:0:0:0:
320,272,71629,2,0,L|176:272,1,144,8|2,1:0|0:0,0:0:0:0:
496,192,72112,6,0,P|520:156|496:64,1,144,4|0,1:3|0:0,0:0:0:0:
288,192,72475,2,0,P|264:156|288:64,1,144,2|0,0:0|0:0,0:0:0:0:
368,64,72838,2,0,L|368:144,1,72,0|0,0:0|0:0,0:0:0:0:
160,192,73080,2,0,P|136:156|160:64,1,144,4|0,1:3|0:0,0:0:0:0:
240,64,73443,1,0,0:0:0:0:
448,64,73564,2,0,L|304:64,1,144,8|2,1:0|0:0,0:0:0:0:
384,64,73927,1,2,0:0:0:0:
176,192,74048,5,4,1:3:0:0:
96,192,74169,1,2,0:0:0:0:
176,192,74290,1,2,0:0:0:0:
320,64,74532,1,8,1:0:0:0:
400,64,74653,1,0,0:0:0:0:
320,64,74774,1,0,0:0:0:0:
240,64,74895,1,0,0:0:0:0:
448,64,75016,2,0,P|472:100|448:192,1,144,4|0,1:3|0:0,0:0:0:0:
368,192,75379,1,0,0:0:0:0:
160,192,75499,2,0,L|16:192,1,144,8|2,1:0|0:0,0:0:0:0:
336,192,75983,6,0,P|360:156|336:64,1,144,4|0,1:3|0:0,0:0:0:0:
128,192,76346,2,0,P|104:156|128:64,1,144,2|0,0:0|0:0,0:0:0:0:
208,64,76709,2,0,L|208:144,1,72,0|0,0:0|0:0,0:0:0:0:
416,144,76951,1,4,1:3:0:0:
496,144,77072,1,0,0:0:0:0:
288,192,77193,1,2,0:0:0:0:
208,192,77314,1,2,0:0:0:0:
416,192,77435,2,0,L|512:192,1,96,8|0,1:0|0:0,0:0:0:0:
480,96,77677,2,0,L|304:96,1,168.000001602173,2|2,0:0|0:0,0:0:0:0:
480,192,77919,6,0,P|504:156|480:64,1,144,4|0,1:0|0:0,0:0:0:0:
400,64,78282,1,0,0:0:0:0:
192,64,78403,1,8,1:0:0:0:
112,64,78524,1,0,0:0:0:0:
192,64,78645,1,0,0:0:0:0:
272,64,78766,1,0,0:0:0:0:
480,144,78887,2,0,P|504:180|480:272,1,144,4|0,1:3|0:0,0:0:0:0:
400,272,79249,1,0,0:0:0:0:
192,272,79370,2,0,L|336:272,1,144,8|2,1:0|0:0,0:0:0:0:
16,192,79854,6,0,P|-8:156|16:64,1,144,4|0,1:3|0:0,0:0:0:0:
224,192,80217,2,0,P|248:156|224:64,1,144,2|0,0:0|0:0,0:0:0:0:
144,64,80580,2,0,L|144:144,1,72,0|0,0:0|0:0,0:0:0:0:
352,192,80822,2,0,P|376:156|352:64,1,144,4|0,1:3|0:0,0:0:0:0:
272,64,81185,1,0,0:0:0:0:
64,64,81306,2,0,L|208:64,1,144,8|2,1:0|0:0,0:0:0:0:
128,64,81669,1,2,0:0:0:0:
336,192,81790,5,4,1:3:0:0:
416,192,81911,1,2,0:0:0:0:
336,192,82032,1,2,0:0:0:0:
192,64,82274,1,8,1:0:0:0:
112,64,82395,1,0,0:0:0:0:
192,64,82516,1,0,0:0:0:0:
272,64,82637,1,0,0:0:0:0:
64,64,82758,2,0,P|40:100|64:192,1,144,4|0,1:3|0:0,0:0:0:0:
144,192,83120,1,0,0:0:0:0:
352,192,83241,2,0,L|496:192,1,144,8|2,1:0|0:0,0:0:0:0:
176,192,83725,6,0,P|152:156|176:64,1,144,4|0,1:3|0:0,0:0:0:0:
384,192,84088,2,0,P|408:156|384:64,1,144,0|0,0:0|0:0,0:0:0:0:
304,64,84451,2,0,L|304:144,1,72,0|0,0:0|0:0,0:0:0:0:
96,144,84693,1,0,1:0:0:0:
16,144,84814,1,0,0:0:0:0:
224,192,84935,1,2,0:0:0:0:
304,192,85056,1,2,0:0:0:0:
96,192,85177,2,0,L|0:192,1,96,0|0,3:0|3:0,3:3:0:0:
32,96,85419,2,0,L|208:96,1,168.000001602173,0|0,3:0|3:0,0:0:0:0:
32,192,85661,6,0,P|8:156|32:64,1,144,4|0,3:2|3:0,3:3:0:0:
144,64,86064,1,0,3:0:0:0:
240,64,86145,2,0,P|264:100|240:192,1,144,8|0,3:1|3:0,3:3:0:0:
128,192,86548,1,0,3:0:0:0:
32,192,86629,2,0,L|176:192,1,144,4|0,3:0|3:0,3:3:0:0:
400,192,87112,1,8,3:1:0:0:
480,192,87233,1,0,3:0:0:0:
352,192,87354,1,0,3:0:0:0:
272,192,87475,1,0,3:0:0:0:
480,192,87596,6,0,P|504:156|480:64,1,144,4|0,3:3|3:0,3:3:0:0:
368,64,87999,1,0,3:0:0:0:
272,64,88080,2,0,L|176:64,2,96,8|0|0,3:1|3:0|0:0,3:3:0:0:
432,192,88564,2,0,L|448:96,1,96,4|0,3:0|3:0,3:3:0:0:
352,96,88806,1,0,3:0:0:0:
272,96,88927,1,0,0:0:0:0:
400,192,89048,2,0,L|400:288,1,96,8|0,3:1|3:0,3:3:0:0:
288,288,89370,1,0,0:0:0:0:
48,192,89532,6,0,L|144:192,2,96,4|0|0,0:3|0:3|0:0,0:0:0:0:
208,192,90016,2,0,L|208:96,1,96,8|0,0:1|0:3,0:0:0:0:
96,96,90338,1,0,0:0:0:0:
256,192,90499,2,0,L|352:192,2,96,4|0|0,0:3|0:3|0:0,0:0:0:0:
416,192,90983,2,0,L|496:272,2,96,8|0|0,0:1|0:3|0:0,0:0:0:0:
160,192,91467,6,0,L|16:192,1,144,0|0,3:0|3:0,0:0:0:0:
128,192,91870,1,0,3:0:0:0:
224,192,91951,2,0,L|80:192,1,144,0|2,3:0|0:0,0:0:0:0:
400,192,92435,1,2,0:0:0:0:
480,192,92556,1,0,0:0:0:0:
272,192,92677,1,2,0:0:0:0:
192,192,92798,1,2,0:0:0:0:
400,192,92919,2,0,L|496:192,1,96,2|0,0:0|0:0,0:0:0:0:
464,96,93161,2,0,L|288:96,1,168.000001602173,2|2,0:0|0:0,0:0:0:0:
464,192,93403,6,0,P|488:156|464:64,1,144,4|0,3:2|3:0,3:3:0:0:
352,64,93806,1,0,3:0:0:0:
256,64,93887,2,0,P|232:100|256:192,1,144,8|0,3:1|3:0,3:3:0:0:
368,192,94290,1,0,3:0:0:0:
272,192,94370,2,0,P|248:228|272:320,1,144,4|0,3:0|3:0,3:3:0:0:
384,320,94774,1,0,3:0:0:0:
480,320,94854,2,0,P|504:284|480:192,1,144,8|0,3:1|3:0,3:3:0:0:
368,192,95258,1,0,3:0:0:0:
208,192,95338,6,0,L|64:192,1,144,4|0,3:0|3:0,3:3:0:0:
176,192,95741,1,0,3:0:0:0:
272,192,95822,2,0,L|128:192,1,144,8|0,3:1|3:0,3:3:0:0:
208,192,96185,1,0,0:0:0:0:
288,192,96306,2,0,L|288:112,1,72,4|0,3:0|0:0,3:3:0:0:
208,192,96548,2,0,L|208:112,1,72,0|0,3:0|0:0,3:3:0:0:
288,112,96790,1,8,3:1:0:0:
208,112,96911,1,0,0:0:0:0:
288,112,97032,1,2,2:0:0:0:
368,112,97153,1,0,0:0:0:0:
160,192,97274,5,2,0:0:0:0:
80,192,97395,1,2,0:0:0:0:
288,192,97516,1,2,0:0:0:0:
368,192,97637,1,0,3:0:0:0:
160,192,97758,2,0,P|136:156|160:64,1,144,8|0,3:1|3:0,0:0:0:0:
240,64,98120,1,0,0:0:0:0:
160,64,98241,1,0,3:0:0:0:
336,192,98483,1,0,3:0:0:0:
160,192,98725,1,8,3:1:0:0:
80,192,98846,1,0,2:0:0:0:
160,192,98967,1,2,2:0:0:0:
240,192,99088,1,0,2:0:0:0:
448,192,99209,5,2,0:0:0:0:
368,192,99330,1,0,0:0:0:0:
192,192,99572,1,0,0:0:0:0:
368,192,99814,1,0,0:0:0:0:
160,192,100056,1,0,0:0:0:0:
368,192,100177,2,0,L|400:128,2,72,0|0|0,0:0|0:0|0:0,0:0:0:0:
288,192,100540,1,0,0:0:0:0:
80,192,100661,2,0,L|80:96,1,96,2|4,0:0|3:0,0:0:0:0:
256,96,100903,5,4,3:2:0:0:
256,192,101145,12,0,104048,0:0:0:0:
256,48,104532,6,0,L|80:48,1,175.679992762207,2|0,0:0|0:0,0:0:0:0:
432,192,105016,6,0,L|432:48,1,144,0|0,3:0|0:0,0:0:0:0:
256,192,105499,2,0,L|256:48,1,144,0|0,3:0|0:0,0:0:0:0:
160,192,105903,1,0,3:0:0:0:
80,192,105983,2,0,L|80:48,1,144,0|0,3:0|0:0,0:0:0:0:
256,192,106467,2,0,L|256:48,1,144,0|0,3:0|0:0,0:0:0:0:
80,192,106951,6,0,L|80:48,1,144,0|0,3:0|0:0,0:0:0:0:
256,192,107435,2,0,L|256:48,1,144,0|0,3:0|2:0,2:2:0:0:
352,192,107838,1,0,3:0:0:0:
432,192,107919,2,0,L|432:48,1,144,0|0,3:0|3:0,0:0:0:0:
256,192,108403,2,0,L|432:192,1,175.679992762207,2|2,3:2|3:2,0:0:0:0:
80,192,108887,6,0,L|80:48,1,144,0|0,3:0|0:0,0:0:0:0:
256,192,109370,2,0,L|256:48,1,144,0|0,3:0|0:0,0:0:0:0:
352,192,109774,1,0,3:0:0:0:
432,192,109854,2,0,L|432:48,1,144,0|0,3:0|0:0,0:0:0:0:
256,192,110338,2,0,L|256:48,1,144,0|0,3:0|0:0,0:0:0:0:
432,192,110822,6,0,L|432:48,1,144,0|0,3:0|0:0,0:0:0:0:
256,192,111306,2,0,L|256:48,1,144,0|0,3:0|0:0,0:0:0:0:
160,192,111709,1,0,3:0:0:0:
80,192,111790,2,0,L|80:48,1,144,0|0,3:0|3:0,0:0:0:0:
256,192,112274,2,0,L|80:192,1,175.679992762207,2|0,3:2|3:0,0:0:0:0:
432,192,112758,6,0,L|432:48,1,144,2|0,3:2|3:0,0:0:0:0:
336,48,113161,1,0,3:0:0:0:
256,192,113241,2,0,L|256:48,1,144,0|0,3:0|3:0,3:3:0:0:
160,48,113645,1,0,3:0:0:0:
80,192,113725,2,0,L|64:48,1,144,0|0,3:0|3:0,3:3:0:0:
160,336,114129,1,0,3:0:0:0:
80,192,114209,2,0,L|64:336,1,144,0|0,3:0|3:0,3:3:0:0:
240,336,114693,6,0,L|256:192,1,144,0|0,3:0|3:0,3:3:0:0:
160,192,115096,1,0,3:0:0:0:
240,48,115177,2,0,L|256:192,1,144,0|0,3:0|3:0,3:3:0:0:
160,192,115580,1,0,3:0:0:0:
256,192,115661,2,0,L|256:96,1,96,0|0,3:0|3:0,3:3:0:0:
176,192,115903,2,0,L|176:96,1,96,0|0,3:0|3:0,3:3:0:0:
336,96,116145,2,0,L|448:64,1,117.119995174805,2|0,3:2|3:0,3:3:0:0:
384,320,116387,2,0,L|272:288,1,117.119995174805,0|0,3:0|3:0,3:3:0:0:
80,192,116629,6,0,L|80:48,1,144,2|0,3:2|3:0,3:3:0:0:
176,48,117032,1,0,3:0:0:0:
256,192,117112,2,0,L|256:48,1,144,0|0,3:0|3:0,3:3:0:0:
352,48,117516,1,0,3:0:0:0:
432,192,117596,2,0,L|448:48,1,144,0|0,3:0|3:0,3:3:0:0:
352,336,117999,1,0,3:0:0:0:
432,192,118080,2,0,L|448:336,1,144,0|0,3:0|3:0,3:3:0:0:
272,336,118564,6,0,L|256:192,1,144,0|0,3:0|3:0,3:3:0:0:
352,192,118967,1,0,3:0:0:0:
272,48,119048,2,0,L|256:192,1,144,0|0,3:0|3:0,3:3:0:0:
352,192,119451,1,0,3:0:0:0:
256,192,119532,2,0,L|256:96,1,96,0|0,3:0|3:0,3:3:0:0:
336,192,119774,2,0,L|336:96,1,96,0|0,3:0|3:0,3:3:0:0:
176,96,120016,2,0,L|64:64,1,117.119995174805,2|0,3:2|3:0,3:3:0:0:
128,320,120258,2,0,L|240:288,1,117.119995174805,2|0,3:2|3:0,3:3:0:0:
432,192,120499,6,0,L|448:48,1,144,4|0,3:0|0:0,0:0:0:0:
352,48,120903,1,0,0:0:0:0:
432,192,120983,2,0,L|448:336,1,144,4|0,3:0|0:0,0:0:0:0:
352,336,121387,1,0,0:0:0:0:
272,192,121467,2,0,L|256:96,1,96,4|0,3:0|3:0,0:0:0:0:
336,192,121709,2,0,L|352:96,1,96,0|0,3:0|3:0,0:0:0:0:
272,192,121951,2,0,L|256:96,1,96,0|0,3:0|3:0,0:0:0:0:
336,96,122193,2,0,L|432:96,1,96,0|0,3:0|3:0,0:0:0:0:
272,192,122435,6,0,L|128:192,1,144,4|0,3:0|0:0,0:0:0:0:
224,192,122838,1,0,3:0:0:0:
304,192,122919,2,0,L|448:192,1,144,4|0,3:0|0:0,0:0:0:0:
352,192,123322,1,0,0:0:0:0:
271,192,123403,2,0,L|272:96,1,96,4|0,3:0|3:0,0:0:0:0:
192,192,123645,2,0,L|192:96,1,96,0|0,3:0|3:0,0:0:0:0:
336,96,123887,2,0,L|448:64,1,117.119995174805,2|0,3:2|3:0,3:3:0:0:
384,320,124129,2,0,L|272:288,1,117.119995174805,2|0,3:2|3:0,3:3:0:0:
80,192,124370,6,0,L|64:48,1,144,4|0,3:0|0:0,0:0:0:0:
160,48,124774,1,0,0:0:0:0:
80,192,124854,2,0,L|64:336,1,144,4|0,3:0|0:0,0:0:0:0:
160,336,125258,1,0,0:0:0:0:
240,192,125338,2,0,L|256:96,1,96,4|0,3:0|3:0,0:0:0:0:
176,192,125580,2,0,L|160:96,1,96,0|0,3:0|3:0,0:0:0:0:
240,192,125822,2,0,L|256:96,1,96,0|0,3:0|0:0,0:0:0:0:
176,96,126064,2,0,L|80:96,1,96,2|0,3:2|0:0,0:0:0:0:
240,192,126306,6,0,L|384:192,1,144,4|0,3:0|0:0,0:0:0:0:
288,192,126709,1,0,0:0:0:0:
208,192,126790,2,0,L|64:192,1,144,4|0,3:0|3:0,0:0:0:0:
160,192,127193,1,0,0:0:0:0:
241,192,127274,2,0,L|240:96,1,96,2|0,3:2|3:0,0:0:0:0:
320,192,127516,2,0,L|320:96,1,96,0|0,3:0|3:0,3:3:0:0:
176,96,127758,2,0,L|64:64,1,117.119995174805,2|0,3:2|3:0,3:3:0:0:
128,320,127999,2,0,L|240:288,1,117.119995174805,2|0,3:2|3:0,3:3:0:0:
432,192,128241,6,0,L|448:96,1,96,4|0,3:0|0:0,0:0:0:0:
368,192,128483,2,0,L|352:96,1,96,0|0,3:0|0:0,0:0:0:0:
272,192,128725,2,0,L|288:96,1,96,4|0,3:0|0:0,0:0:0:0:
208,192,128967,2,0,L|192:96,1,96,0|0,3:0|3:0,0:0:0:0:
272,192,129209,2,0,L|256:288,1,96,4|0,3:0|3:0,0:0:0:0:
336,192,129451,2,0,L|352:288,1,96,0|0,3:0|3:0,3:3:0:0:
432,192,129693,2,0,L|416:288,1,96,4|0,3:0|3:0,3:3:0:0:
496,192,129935,2,0,L|400:192,1,96,0|0,3:0|3:0,3:3:0:0:
320,192,130177,6,0,L|336:96,1,96,4|0,3:0|3:0,3:3:0:0:
256,192,130419,2,0,L|240:96,1,96,0|0,3:0|3:0,3:3:0:0:
160,192,130661,2,0,L|176:96,1,96,4|0,3:0|3:0,3:3:0:0:
96,192,130903,2,0,L|80:96,1,96,0|0,3:0|3:0,3:3:0:0:
160,192,131145,2,0,L|256:192,1,96,4|0,3:0|3:0,3:3:0:0:
192,256,131387,2,0,L|176:160,1,96,0|0,3:0|3:0,3:3:0:0:
336,96,131629,2,0,L|448:64,1,117.119995174805,2|0,3:2|3:0,3:3:0:0:
384,320,131870,2,0,L|272:288,1,117.119995174805,2|0,3:2|3:0,3:3:0:0:
80,192,132112,6,0,L|64:96,1,96,4|0,3:0|3:0,3:3:0:0:
144,192,132354,2,0,L|160:96,1,96,4|0,3:0|3:0,3:3:0:0:
240,192,132596,2,0,L|224:96,1,96,4|0,3:0|0:0,0:0:0:0:
304,192,132838,2,0,L|320:96,1,96,0|0,3:0|3:0,0:0:0:0:
240,192,133080,2,0,L|256:288,1,96,4|0,3:0|3:0,0:0:0:0:
176,192,133322,2,0,L|80:192,1,96,0|0,3:0|3:0,3:3:0:0:
160,256,133564,2,0,L|176:352,1,96,4|0,3:0|3:0,3:3:0:0:
96,256,133806,2,0,L|192:256,1,96,0|0,3:0|3:0,3:3:0:0:
272,192,134048,6,0,L|256:96,1,96,4|0,3:0|3:0,3:3:0:0:
336,192,134290,2,0,L|352:96,1,96,0|0,3:0|3:0,3:3:0:0:
432,192,134532,2,0,L|416:96,1,96,4|0,3:0|3:0,3:3:0:0:
496,192,134774,2,0,L|512:96,1,96,0|0,3:0|3:0,3:3:0:0:
432,192,135016,2,0,L|416:96,1,96,4|0,3:0|3:0,3:3:0:0:
336,192,135258,2,0,L|240:192,1,96,2|0,3:2|3:0,3:3:0:0:
400,96,135499,2,0,L|512:64,1,117.119995174805,2|0,3:2|3:0,3:3:0:0:
448,320,135741,2,0,L|336:288,1,117.119995174805,2|0,3:2|3:0,3:3:0:0:
144,192,135983,6,0,L|128:96,1,96,4|0,3:2|3:0,0:0:0:0:
208,96,136225,2,0,L|304:96,1,96,2|0,3:2|3:0,0:0:0:0:
128,96,136467,2,0,L|16:64,1,117.119995174805,2|0,3:2|3:0,0:0:0:0:
80,320,136709,2,0,L|192:288,1,117.119995174805,0|0,3:2|3:0,0:0:0:0:
368,192,136951,2,0,L|384:96,1,96,4|0,3:2|3:0,3:3:0:0:
304,96,137193,2,0,L|208:96,1,96,2|0,3:2|3:0,3:3:0:0:
384,96,137435,2,0,L|496:64,1,117.119995174805,2|0,3:2|3:0,3:3:0:0:
432,320,137677,2,0,L|320:288,1,117.119995174805,0|0,3:2|3:0,3:3:0:0:
144,192,137919,6,0,L|96:192,1,48,4|0,1:2|0:0,0:0:0:0:
368,192,138161,2,0,L|416:192,1,48,4|0,1:2|0:0,0:0:0:0:
136,144,138403,2,0,L|88:144,1,48,4|0,1:2|0:0,0:0:0:0:
376,144,138645,2,0,L|424:144,1,48,4|0,1:2|0:0,0:0:0:0:
128,96,138887,2,0,L|80:96,1,48,4|0,1:2|0:0,0:0:0:0:
384,96,139129,2,0,L|432:96,1,48,4|0,1:2|0:0,0:0:0:0:
120,48,139370,2,0,L|72:48,1,48,4|0,1:2|0:0,0:0:0:0:
392,48,139612,2,0,L|440:48,1,48,4|0,1:2|0:0,0:0:0:0:
112,96,139854,5,4,1:2:0:0:
256,192,140096,12,0,141548,0:0:0:0:
208,192,141790,6,0,L|176:128,2,72,2|0|0,0:0|0:0|0:0,0:0:0:0:
304,192,142153,2,0,L|336:128,2,72,2|0|0,0:0|0:0|0:0,0:0:0:0:
208,192,142516,2,0,L|176:128,2,72,2|0|2,0:0|0:0|0:0,0:0:0:0:
304,192,142879,1,0,0:0:0:0:
384,192,142999,1,2,0:0:0:0:
304,192,143120,1,0,0:0:0:0:
96,48,143241,2,0,L|240:48,1,144,2|2,0:0|0:0,0:0:0:0:
128,48,143645,1,0,0:0:0:0:
336,48,143725,6,0,L|352:192,1,144,4|0,1:2|0:0,0:0:0:0:
240,192,144129,1,0,0:0:0:0:
144,192,144209,2,0,L|48:192,2,96,8|0|0,1:0|0:0|0:0,0:0:0:0:
384,96,144693,2,0,L|272:64,1,117.119995174805,4|0,1:3|0:0,0:0:0:0:
352,320,144935,2,0,L|464:288,1,117.119995174805,2|0,0:0|0:0,0:0:0:0:
304,96,145177,2,0,L|192:64,1,117.119995174805,8|0,1:0|0:0,0:0:0:0:
272,320,145419,2,0,L|304:208,1,117.119995174805,0|0,0:0|0:0,0:0:0:0:
144,48,145661,6,0,L|128:192,1,144,4|0,1:3|0:0,0:0:0:0:
240,192,146064,1,0,0:0:0:0:
336,192,146145,2,0,L|432:192,2,96,8|0|0,1:0|0:0|0:0,0:0:0:0:
96,96,146629,2,0,L|208:64,1,117.119995174805,4|0,1:3|0:0,0:0:0:0:
128,320,146870,2,0,L|16:288,1,117.119995174805,2|0,0:0|0:0,0:0:0:0:
176,96,147112,2,0,L|288:64,1,117.119995174805,8|0,1:1|0:0,0:0:0:0:
208,320,147354,2,0,L|96:288,1,117.119995174805,2|0,0:0|0:0,0:0:0:0:
256,272,147596,5,4,1:2:0:0:
336,272,147717,1,0,0:0:0:0:
416,272,147838,1,0,0:0:0:0:
304,192,147999,1,0,0:0:0:0:
208,192,148080,2,0,L|112:192,1,96,8|0,1:0|0:0,0:0:0:0:
112,192,148403,1,0,0:0:0:0:
352,96,148564,2,0,L|240:64,1,117.119995174805,4|0,1:3|0:0,0:0:0:0:
320,320,148806,2,0,L|432:288,1,117.119995174805,2|0,0:0|0:0,0:0:0:0:
272,96,149048,2,0,L|160:64,1,117.119995174805,8|0,1:0|0:0,0:0:0:0:
240,320,149290,2,0,L|272:208,1,117.119995174805,0|0,0:0|0:0,0:0:0:0:
112,320,149532,6,0,L|96:176,1,144,4|0,1:3|0:0,0:0:0:0:
208,192,149935,1,0,0:0:0:0:
304,128,150016,2,0,L|208:128,1,96,8|0,1:1|0:0,0:0:0:0:
112,128,150338,1,0,0:0:0:0:
336,96,150499,2,0,L|224:64,1,117.119995174805,4|0,1:3|0:0,0:0:0:0:
304,320,150741,2,0,L|416:288,1,117.119995174805,2|0,0:0|0:0,0:0:0:0:
256,96,150983,2,0,L|144:64,1,117.119995174805,8|0,1:1|0:0,0:0:0:0:
224,320,151225,2,0,L|336:288,1,117.119995174805,2|0,0:0|0:0,0:0:0:0:
176,48,151467,6,0,L|160:192,1,144,4|0,1:2|0:0,0:0:0:0:
272,192,151870,1,0,0:0:0:0:
368,192,151951,2,0,L|464:192,2,96,8|0|0,1:0|0:0|0:0,0:0:0:0:
128,96,152435,2,0,L|240:64,1,117.119995174805,4|0,1:3|0:0,0:0:0:0:
160,320,152677,2,0,L|48:288,1,117.119995174805,2|0,0:0|0:0,0:0:0:0:
208,96,152919,2,0,L|320:64,1,117.119995174805,8|0,1:0|0:0,0:0:0:0:
240,320,153161,2,0,L|208:208,1,117.119995174805,0|0,0:0|0:0,0:0:0:0:
368,48,153403,6,0,L|384:192,1,144,4|0,1:3|0:0,0:0:0:0:
272,192,153806,1,0,0:0:0:0:
176,192,153887,2,0,L|80:192,2,96,8|0|0,1:0|0:0|0:0,0:0:0:0:
416,96,154370,2,0,L|304:64,1,117.119995174805,4|0,1:3|0:0,0:0:0:0:
384,320,154612,2,0,L|496:288,1,117.119995174805,2|0,0:0|0:0,0:0:0:0:
336,96,154854,2,0,L|224:64,1,117.119995174805,8|0,1:1|0:0,0:0:0:0:
304,320,155096,2,0,L|416:288,1,117.119995174805,2|0,0:0|0:0,0:0:0:0:
256,272,155338,5,4,1:2:0:0:
176,272,155459,1,0,0:0:0:0:
96,272,155580,1,0,0:0:0:0:
208,192,155741,1,0,0:0:0:0:
304,192,155822,2,0,L|400:192,1,96,8|0,1:0|0:0,0:0:0:0:
400,192,156145,1,0,0:0:0:0:
160,96,156306,2,0,L|272:64,1,117.119995174805,4|0,1:3|0:0,0:0:0:0:
192,320,156548,2,0,L|80:288,1,117.119995174805,2|0,0:0|0:0,0:0:0:0:
240,96,156790,2,0,L|352:64,1,117.119995174805,8|0,1:0|0:0,0:0:0:0:
272,320,157032,2,0,L|240:208,1,117.119995174805,0|0,0:0|0:0,0:0:0:0:
400,320,157274,6,0,L|416:176,1,144,0|0,3:0|3:0,0:0:0:0:
240,176,157758,2,0,L|384:176,1,144,0|0,3:0|3:0,0:0:0:0:
32,96,158241,2,0,L|128:96,1,96,2|0,0:0|0:0,0:0:0:0:
224,192,158483,2,0,L|128:192,1,96,2|0,0:0|0:0,0:0:0:0:
288,192,158725,2,0,L|384:192,1,96,8|0,1:0|0:0,0:0:0:0:
288,96,158967,2,0,L|192:96,1,96,0|0,3:0|3:0,0:0:0:0:
480,192,159209,6,0,P|504:156|480:64,1,144,4|0,1:2|0:0,0:0:0:0:
400,64,159572,1,0,0:0:0:0:
192,64,159693,1,8,1:0:0:0:
112,64,159814,1,0,0:0:0:0:
192,64,159935,1,0,0:0:0:0:
272,64,160056,1,0,0:0:0:0:
64,64,160177,2,0,P|40:100|64:192,1,144,4|0,1:3|0:0,0:0:0:0:
144,192,160540,1,0,0:0:0:0:
352,192,160661,2,0,L|496:192,1,144,8|2,1:0|0:0,0:0:0:0:
176,192,161145,6,0,P|152:156|176:64,1,144,4|0,1:3|0:0,0:0:0:0:
384,192,161508,2,0,P|408:156|384:64,1,144,2|0,0:0|0:0,0:0:0:0:
304,64,161870,2,0,L|304:144,1,72,0|0,0:0|0:0,0:0:0:0:
96,192,162112,2,0,P|72:156|96:64,1,144,4|2,1:3|0:0,0:0:0:0:
176,64,162475,1,0,0:0:0:0:
384,64,162596,2,0,L|176:64,1,207.3600050625,8|0,1:0|2:0,0:0:0:0:
160,64,162959,1,2,2:0:0:0:
368,192,163080,5,4,1:2:0:0:
448,192,163201,1,2,0:0:0:0:
368,192,163322,1,0,0:0:0:0:
192,64,163564,1,8,1:0:0:0:
112,64,163685,1,0,0:0:0:0:
192,64,163806,1,0,0:0:0:0:
272,64,163927,1,0,0:0:0:0:
480,64,164048,2,0,P|504:100|480:192,1,144,4|0,1:3|0:0,0:0:0:0:
400,192,164411,1,0,0:0:0:0:
192,192,164532,2,0,L|48:192,1,144,8|2,1:0|0:0,0:0:0:0:
368,192,165016,6,0,P|392:156|368:64,1,144,4|0,1:3|0:0,0:0:0:0:
160,192,165379,2,0,P|136:156|160:64,1,144,2|0,0:0|0:0,0:0:0:0:
240,64,165741,2,0,L|240:144,1,72,0|0,0:0|0:0,0:0:0:0:
32,192,165983,1,4,1:3:0:0:
112,192,166104,1,0,0:0:0:0:
320,192,166225,1,2,0:0:0:0:
400,192,166346,1,0,0:0:0:0:
192,192,166467,2,0,L|48:192,1,138.240003375,8|0,1:0|0:0,0:0:0:0:
32,96,166709,2,0,L|208:96,1,168.000001602173,2|0,0:0|0:0,0:0:0:0:
32,192,166951,6,0,P|8:156|32:64,1,144,4|0,1:2|0:0,0:0:0:0:
112,64,167314,1,0,0:0:0:0:
320,64,167435,1,8,1:0:0:0:
400,64,167556,1,0,0:0:0:0:
320,64,167677,1,0,0:0:0:0:
240,64,167798,1,0,0:0:0:0:
448,64,167919,2,0,P|472:100|448:192,1,144,4|0,1:3|0:0,0:0:0:0:
368,192,168282,1,0,0:0:0:0:
160,192,168403,2,0,L|16:192,1,144,8|2,1:0|0:0,0:0:0:0:
336,192,168887,6,0,P|360:156|336:64,1,144,4|0,1:3|0:0,0:0:0:0:
128,192,169249,2,0,P|104:156|128:64,1,144,2|0,0:0|0:0,0:0:0:0:
208,64,169612,2,0,L|208:144,1,72,0|0,0:0|0:0,0:0:0:0:
416,192,169854,2,0,P|440:156|416:64,1,144,4|0,1:3|0:0,0:0:0:0:
336,64,170217,1,0,0:0:0:0:
128,64,170338,2,0,L|336:64,1,207.3600050625,8|2,1:0|0:0,0:0:0:0:
352,64,170701,1,0,0:0:0:0:
144,192,170822,5,4,1:2:0:0:
64,192,170943,1,2,0:0:0:0:
144,192,171064,1,0,0:0:0:0:
320,64,171306,1,8,1:1:0:0:
400,64,171427,1,0,0:0:0:0:
320,64,171548,1,0,0:0:0:0:
240,64,171669,1,2,0:0:0:0:
32,64,171790,2,0,P|8:100|32:192,1,144,4|2,1:3|0:0,0:0:0:0:
112,192,172153,1,0,0:0:0:0:
320,192,172274,2,0,L|464:192,1,144,8|2,1:0|0:0,0:0:0:0:
144,192,172758,6,0,P|120:156|144:64,1,144,4|0,1:3|0:0,0:0:0:0:
352,192,173120,2,0,P|376:156|352:64,1,144,0|0,0:0|0:0,0:0:0:0:
272,64,173483,2,0,L|272:144,1,72,2|0,0:0|0:0,0:0:0:0:
480,192,173725,1,0,1:0:0:0:
400,192,173846,1,0,0:0:0:0:
192,192,173967,1,2,0:0:0:0:
112,192,174088,1,0,0:0:0:0:
320,192,174209,2,0,L|464:192,1,138.240003375,8|0,1:0|0:0,0:0:0:0:
416,96,174451,2,0,L|240:96,1,168.000001602173
400,192,174693,5,2,0:0:0:0:
480,192,174814,1,2,0:0:0:0:
304,192,175056,1,2,0:0:0:0:
224,192,175177,1,2,0:0:0:0:
400,192,175419,1,2,0:0:0:0:
224,192,175661,2,0,L|448:192,2,216,2|2|2,0:0|0:0|0:0,0:0:0:0:
400,192,176629,5,2,0:0:0:0:
224,192,176870,1,0,0:0:0:0:
304,192,176991,1,2,0:0:0:0:
128,192,177233,1,0,0:0:0:0:
48,192,177354,1,2,0:0:0:0:
128,192,177475,1,0,0:0:0:0:
208,192,177596,2,0,L|224:112,1,72,2|2,0:0|0:0,0:0:0:0:
48,112,177959,1,2,0:0:0:0:
222,121,178201,2,0,L|208:192,1,72,0|2,0:0|0:0,0:0:0:0:
384,192,178564,5,2,0:0:0:0:
464,192,178685,1,2,0:0:0:0:
288,192,178927,1,2,0:0:0:0:
368,192,179048,1,2,0:0:0:0:
192,192,179290,1,2,0:0:0:0:
368,192,179532,2,0,L|144:192,2,216,2|2|2,0:0|0:0|0:0,0:0:0:0:
192,96,180499,5,2,0:0:0:0:
272,96,180620,1,0,0:0:0:0:
192,96,180741,1,2,0:0:0:0:
112,96,180862,1,0,0:0:0:0:
192,96,180983,1,2,0:0:0:0:
272,96,181104,1,0,0:0:0:0:
352,96,181225,1,2,0:0:0:0:
272,96,181346,1,0,0:0:0:0:
400,192,181467,1,2,0:0:0:0:
224,192,181709,1,2,0:0:0:0:
144,192,181830,2,0,L|112:128,1,72,2|0,0:0|0:0,0:0:0:0:
288,128,182193,1,2,0:0:0:0:
112,192,182435,5,2,0:0:0:0:
32,192,182556,1,2,0:0:0:0:
208,192,182798,1,2,0:0:0:0:
288,192,182919,1,2,0:0:0:0:
112,192,183161,1,2,0:0:0:0:
288,192,183403,2,0,L|64:192,2,216,2|2|2,0:0|0:0|0:0,0:0:0:0:
112,192,184370,5,2,0:0:0:0:
288,192,184612,1,0,0:0:0:0:
208,192,184733,1,2,0:0:0:0:
384,192,184975,1,0,0:0:0:0:
464,192,185096,1,2,0:0:0:0:
384,192,185217,1,0,0:0:0:0:
304,192,185338,2,0,L|288:112,1,72,2|2,0:0|0:0,0:0:0:0:
464,112,185701,1,2,0:0:0:0:
290,121,185943,2,0,L|304:192,1,72,0|2,0:0|0:0,0:0:0:0:
128,192,186306,5,2,0:0:0:0:
48,192,186427,1,2,0:0:0:0:
224,192,186669,1,2,0:0:0:0:
144,192,186790,1,2,0:0:0:0:
320,192,187032,1,2,0:0:0:0:
144,192,187274,2,0,L|368:192,2,216,2|2|2,0:0|0:0|0:0,0:0:0:0:
320,96,188241,5,2,0:0:0:0:
240,96,188362,1,0,0:0:0:0:
320,96,188483,1,2,0:0:0:0:
400,96,188604,1,0,0:0:0:0:
320,96,188725,1,2,0:0:0:0:
240,96,188846,1,0,0:0:0:0:
160,96,188967,1,2,0:0:0:0:
240,96,189088,1,0,0:0:0:0:
112,192,189209,1,2,0:0:0:0:
112,288,189693,2,0,L|112:64,1,216,2|0,0:0|0:0,0:0:0:0:
400,64,190177,5,4,1:2:0:0:
480,64,190298,1,0,0:0:0:0:
304,192,190540,1,0,0:0:0:0:
384,192,190661,1,8,1:0:0:0:
208,64,190903,2,0,L|208:144,1,72,0|0,0:0|0:0,0:0:0:0:
416,64,191145,2,0,L|272:64,1,144,4|0,1:3|0:0,0:0:0:0:
352,64,191508,1,2,0:0:0:0:
480,192,191629,2,0,L|336:192,1,144,0|0,0:0|0:0,0:0:0:0:
16,192,192112,6,0,L|160:192,1,144,4|0,1:3|0:0,0:0:0:0:
240,192,192475,1,0,0:0:0:0:
112,112,192596,2,0,L|256:112,1,144,8|0,1:0|0:0,0:0:0:0:
336,112,192959,1,0,0:0:0:0:
128,112,193080,2,0,L|128:192,1,72,4|0,1:3|0:0,0:0:0:0:
304,192,193443,1,0,0:0:0:0:
176,192,193564,1,8,1:0:0:0:
176,128,193685,1,0,0:0:0:0:
240,64,193806,1,2,0:0:0:0:
160,64,193927,1,0,0:0:0:0:
368,64,194048,5,4,1:2:0:0:
448,64,194169,1,0,0:0:0:0:
272,192,194411,1,0,0:0:0:0:
352,192,194532,1,8,1:0:0:0:
176,64,194774,2,0,L|176:144,1,72
384,64,195016,2,0,L|240:64,1,144,4|0,1:3|0:0,0:0:0:0:
320,64,195379,1,0,0:0:0:0:
192,192,195499,2,0,L|48:192,1,144,8|0,1:0|0:0,0:0:0:0:
400,192,195983,5,4,1:3:0:0:
320,192,196104,2,0,L|320:112,1,72,0|0,0:0|0:0,0:0:0:0:
400,112,196346,1,0,0:0:0:0:
272,112,196467,1,8,1:0:0:0:
192,112,196588,1,0,0:0:0:0:
320,112,196709,1,0,0:0:0:0:
400,112,196830,1,0,0:0:0:0:
192,192,196951,1,4,1:3:0:0:
368,192,197193,1,2,0:0:0:0:
288,192,197314,1,0,0:0:0:0:
80,192,197435,2,0,L|64:96,1,96,8|0,1:1|0:0,0:0:0:0:
96,96,197677,2,0,L|272:96,1,168.000001602173,2|0,0:0|0:0,0:0:0:0:
112,64,197919,5,4,1:2:0:0:
32,64,198040,1,2,0:0:0:0:
208,192,198282,1,0,0:0:0:0:
128,192,198403,1,8,1:0:0:0:
304,64,198645,2,0,L|304:144,1,72,2|0,0:0|0:0,0:0:0:0:
96,64,198887,2,0,L|240:64,1,144,4|0,1:3|0:0,0:0:0:0:
160,64,199249,1,2,0:0:0:0:
32,192,199370,2,0,L|176:192,1,144,0|0,0:0|0:0,0:0:0:0:
496,192,199854,6,0,L|352:192,1,144,4|0,1:3|0:0,0:0:0:0:
272,192,200217,1,0,0:0:0:0:
400,112,200338,2,0,L|256:112,1,144,8|0,1:0|0:0,0:0:0:0:
176,112,200701,1,0,0:0:0:0:
384,112,200822,2,0,L|384:192,1,72,4|0,1:3|0:0,0:0:0:0:
208,192,201185,1,0,0:0:0:0:
336,192,201306,1,8,1:0:0:0:
336,128,201427,1,0,0:0:0:0:
272,64,201548,1,2,0:0:0:0:
352,64,201669,1,0,0:0:0:0:
144,64,201790,5,4,1:2:0:0:
64,64,201911,1,2,0:0:0:0:
240,192,202153,1,0,0:0:0:0:
160,192,202274,1,8,1:0:0:0:
336,64,202516,2,0,L|336:144,1,72,2|0,0:0|0:0,0:0:0:0:
128,64,202758,2,0,L|272:64,1,144,4|0,1:3|0:0,0:0:0:0:
192,64,203120,1,2,0:0:0:0:
320,192,203241,2,0,L|464:192,1,144,8|2,1:0|0:0,0:0:0:0:
112,192,203725,5,4,1:3:0:0:
192,192,203846,2,0,L|192:112,1,72,2|0,0:0|0:0,0:0:0:0:
112,112,204088,1,2,0:0:0:0:
240,112,204209,1,8,1:0:0:0:
320,112,204330,1,0,0:0:0:0:
192,112,204451,1,2,0:0:0:0:
112,112,204572,1,0,0:0:0:0:
320,192,204693,1,0,3:0:0:0:
336,192,204935,1,0,3:0:0:0:
352,192,205177,1,0,3:0:0:0:
368,192,205419,1,0,3:0:0:0:
48,192,205661,6,0,L|48:112,1,72,4|0,1:3|0:0,0:0:0:0:
128,96,205903,1,0,0:0:0:0:
48,80,206024,1,2,0:0:0:0:
224,80,206266,1,2,0:0:0:0:
144,80,206387,2,0,L|144:160,1,72,0|0,0:0|0:0,0:0:0:0:
352,64,206629,2,0,L|208:64,1,144,4|0,1:3|0:0,0:0:0:0:
288,64,206991,1,2,0:0:0:0:
160,192,207112,2,0,L|16:192,1,144,8|2,1:0|0:0,0:0:0:0:
336,192,207596,6,0,L|192:192,1,144,4|0,1:3|0:0,0:0:0:0:
272,192,207959,1,0,0:0:0:0:
144,112,208080,2,0,L|288:112,1,144,8|2,1:0|0:0,0:0:0:0:
112,192,208564,1,4,1:3:0:0:
288,192,208806,1,2,0:0:0:0:
368,192,208927,1,0,0:0:0:0:
240,192,209048,1,8,1:0:0:0:
144,192,209169,1,0,0:0:0:0:
144,64,209290,1,2,0:0:0:0:
224,64,209411,1,0,0:0:0:0:
432,192,209532,6,0,L|432:112,1,72,4|0,1:3|0:0,0:0:0:0:
352,96,209774,1,0,0:0:0:0:
432,80,209895,1,2,0:0:0:0:
256,80,210137,1,2,0:0:0:0:
336,80,210258,2,0,L|336:160,1,72,0|0,0:0|0:0,0:0:0:0:
128,64,210499,2,0,L|272:64,1,144,4|0,1:3|0:0,0:0:0:0:
192,64,210862,1,2,0:0:0:0:
320,192,210983,2,0,L|464:192,1,144,8|2,1:0|0:0,0:0:0:0:
144,192,211467,6,0,L|48:192,2,96,0|0|0,1:0|1:0|1:0,0:0:0:0:
384,192,211951,2,0,L|288:192,2,96,0|0|0,1:0|1:0|1:0,0:0:0:0:
144,192,212435,1,0,1:0:0:0:
144,96,212677,1,2,0:0:0:0:
224,97,212798,1,0,0:0:0:0:
432,169,212919,2,0,L|495:97,1,96,8|0,1:0|0:0,0:0:0:0:
464,96,213161,2,0,L|288:96,1,168.000001602173,2|0,0:0|0:0,0:0:0:0:
464,192,213403,6,0,L|464:112,1,72,4|0,1:3|0:0,0:0:0:0:
384,96,213645,1,0,0:0:0:0:
464,80,213766,1,2,0:0:0:0:
288,80,214008,1,2,0:0:0:0:
368,80,214129,2,0,L|368:160,1,72,0|0,0:0|0:0,0:0:0:0:
160,64,214370,2,0,L|304:64,1,144,4|0,1:3|0:0,0:0:0:0:
224,64,214733,1,2,0:0:0:0:
352,192,214854,2,0,L|496:192,1,144,8|2,1:0|0:0,0:0:0:0:
176,192,215338,6,0,L|320:192,1,144,4|2,1:3|0:0,0:0:0:0:
240,192,215701,1,0,0:0:0:0:
368,112,215822,2,0,L|224:112,1,144,8|2,1:0|0:0,0:0:0:0:
400,192,216306,1,4,1:3:0:0:
224,192,216548,1,2,0:0:0:0:
144,192,216669,1,0,0:0:0:0:
272,192,216790,1,8,1:0:0:0:
368,192,216911,1,0,0:0:0:0:
368,64,217032,1,2,0:0:0:0:
288,64,217153,1,0,0:0:0:0:
80,192,217274,6,0,L|80:112,1,72,4|0,1:3|0:0,0:0:0:0:
160,96,217516,1,0,0:0:0:0:
80,80,217637,1,2,0:0:0:0:
256,80,217879,1,0,0:0:0:0:
176,80,217999,2,0,L|176:160,1,72,2|0,0:0|0:0,0:0:0:0:
384,64,218241,2,0,L|240:64,1,144,4|0,1:3|0:0,0:0:0:0:
320,64,218604,1,0,0:0:0:0:
192,192,218725,2,0,L|48:192,1,144,8|2,1:0|3:2,0:0:0:0:
368,192,219209,6,0,L|464:192,2,96,0|0|0,1:0|1:0|1:0,0:0:0:0:
128,192,219693,2,0,L|224:192,2,96,0|0|0,1:0|1:0|1:0,0:0:0:0:
368,192,220177,1,4,1:3:0:0:
