osu file format v14

[General]
AudioFilename: audio.mp3
AudioLeadIn: 0
PreviewTime: 41629
Countdown: 1
SampleSet: Soft
StackLeniency: 0.5
Mode: 0
LetterboxInBreaks: 0
WidescreenStoryboard: 1

[Editor]
Bookmarks: 5426,165800
DistanceSpacing: 1
BeatDivisor: 8
GridSize: 4
TimelineZoom: 2

[Metadata]
Title:Ooh Aah Just a Little Bit (Radio Mix)
TitleUnicode:Ooh Aah Just a Little Bit (Radio Mix)
Artist:Caramella Girls
ArtistUnicode:Caramella Girls
Creator:Gero
Version:A Little Bit More
Source:
Tags:Caramell Nightcore Speed Up Ver. Alternator
BeatmapID:1922373
BeatmapSetID:920530

[Difficulty]
HPDrainRate:8
CircleSize:4
OverallDifficulty:8
ApproachRate:9
SliderMultiplier:1.8
SliderTickRate:2

[Events]
//Background and Video events
0,0,"BG.jpg",0,0
//Break Periods
//Storyboard Layer 0 (Background)
//Storyboard Layer 1 (Fail)
//Storyboard Layer 2 (Pass)
//Storyboard Layer 3 (Foreground)
//Storyboard Layer 4 (Overlay)
//Storyboard Sound Samples

[TimingPoints]
239,432.276657060519,4,2,1,80,1,0
5426,-50,4,2,1,40,0,0
7155,-50,4,2,1,80,0,1
12342,-100,4,2,1,50,0,1
14071,-66.6666666666667,4,2,1,60,0,0
34821,-66.6666666666667,4,2,1,50,0,0
40873,-66.6666666666667,4,2,1,55,0,0
41737,-50,4,2,1,80,0,1
48599,-50,4,2,1,80,0,0
48653,-50,4,2,1,80,0,1
55570,-50,4,2,1,80,0,0
62486,-66.6666666666667,4,2,1,60,0,0
83236,-66.6666666666667,4,2,1,50,0,0
89287,-66.6666666666667,4,2,1,55,0,0
90152,-50,4,2,1,80,0,1
97014,-50,4,2,1,80,0,0
97068,-50,4,2,1,80,0,1
103985,-100,4,2,1,50,0,0
110901,-100,4,2,1,60,0,0
117818,-100,4,2,1,70,0,0
121276,-50,4,2,1,80,0,1
128138,-50,4,2,1,80,0,0
128192,-50,4,2,1,80,0,1
135055,-50,4,2,1,80,0,0
135109,-50,4,2,1,80,0,1
141971,-50,4,2,1,80,0,0
142025,-50,4,2,1,80,0,1
148888,-50,4,2,1,80,0,0
148942,-50,4,2,1,80,0,1
155804,-50,4,2,1,80,0,0
155858,-50,4,2,1,80,0,1
162775,-100,4,2,1,70,0,0
163207,-100,4,2,1,60,0,0
163639,-100,4,2,1,50,0,0
164071,-100,4,2,1,40,0,0
164504,-100,4,2,1,30,0,0
164936,-100,4,2,1,20,0,0
165368,-100,4,2,1,10,0,0
165800,-100,4,2,1,5,0,0

[Colours]
Combo1 : 181,58,211
Combo2 : 243,233,35
Combo3 : 222,46,77
Combo4 : 66,118,204
Combo5 : 179,121,83
Combo6 : 72,179,176
Combo7 : 136,136,136
Combo8 : 120,88,163
SliderBorder : 200,200,200

[HitObjects]
198,25,5426,5,0,3:0:0:0:
198,25,5534,2,0,L|243:102,1,90,0|0,3:0|0:0,0:0:0:0:
166,149,5750,2,0,L|120:71,1,90,0|0,3:0|0:0,0:0:0:0:
210,13,5966,2,0,L|255:90,1,90,0|0,3:0|0:0,0:0:0:0:
178,137,6182,2,0,L|132:59,1,90,0|0,3:0|0:0,0:0:0:0:
222,1,6398,2,0,L|267:78,1,90,0|0,3:0|0:0,0:0:0:0:
345,32,6615,5,0,3:0:0:0:
373,8,6723,1,0,3:0:0:0:
409,0,6831,1,0,3:0:0:0:
445,8,6939,1,0,3:0:0:0:
473,32,7047,1,0,3:0:0:0:
409,170,7155,6,0,B|396:127|396:127|409:84,1,90,4|0,1:2|0:0,0:0:0:0:
473,222,7371,2,0,B|486:265|486:265|473:308,1,90,2|0,0:0|0:0,0:0:0:0:
324,208,7587,2,0,B|311:165|311:165|324:122,1,90,8|0,1:2|0:0,0:0:0:0:
388,260,7803,2,0,B|401:303|401:303|388:346,1,90,2|0,0:0|0:0,0:0:0:0:
239,246,8019,6,0,B|193:218|157:242|153:246|149:250|113:274|67:246,1,180,0|2,1:0|0:0,0:0:0:0:
153,160,8344,1,0,0:0:0:0:
153,160,8452,2,0,P|164:203|153:246,1,90,8|0,1:2|0:0,0:0:0:0:
93,92,8668,1,2,0:0:0:0:
153,24,8776,1,0,0:0:0:0:
213,92,8884,6,0,B|236:92|236:92|256:101|256:101|276:92|276:92|299:92,1,90,0|0,1:0|0:0,0:0:0:0:
452,165,9100,2,0,B|429:165|429:165|409:156|409:156|389:165|389:165|366:165,1,90,2|0,0:0|0:0,0:0:0:0:
213,238,9316,2,0,B|236:238|236:238|256:247|256:247|276:238|276:238|299:238,1,90,8|0,1:2|0:0,0:0:0:0:
452,311,9532,2,0,B|429:311|429:311|409:302|409:302|389:311|389:311|366:311,1,90,2|0,0:0|0:0,0:0:0:0:
213,384,9749,6,0,B|158:329|158:329|155:321|155:321|150:326|150:326|147:318|147:318|92:263,1,180,0|2,1:0|0:0,0:0:0:0:
36,192,10073,1,0,0:0:0:0:
92,120,10181,2,0,B|147:65|147:65|150:57|150:57|155:62|155:62|158:54|158:54|213:0,1,180,8|2,1:2|0:0,0:0:0:0:
256,80,10505,1,0,0:0:0:0:
213,160,10613,6,0,P|202:203|213:246,1,90,0|0,1:0|0:0,0:0:0:0:
335,123,10829,2,0,P|346:80|335:37,1,90,2|0,0:0|0:0,0:0:0:0:
292,203,11045,2,0,P|281:246|292:289,1,90,8|0,1:2|0:0,0:0:0:0:
414,166,11262,2,0,P|425:123|414:80,1,90,2|0,0:0|0:0,0:0:0:0:
371,246,11478,6,0,B|212:332,1,180,0|2,1:2|0:0,0:0:0:0:
63,289,11802,1,0,0:0:0:0:
63,289,11910,2,0,B|78:289|78:289|86:293|86:293|86:285|86:285|94:289|94:289|102:289|102:289|110:293|110:293|110:285|110:285|118:289|118:289|133:289,1,90,8|0,1:2|0:0,0:0:0:0:
213,246,12126,1,2,0:0:0:0:
134,203,12234,1,0,0:0:0:0:
213,160,12342,6,0,P|256:148|299:160,1,90,12|2,0:0|0:0,0:0:0:0:
213,74,12775,2,0,P|170:86|127:74,1,90,8|2,0:0|0:0,0:0:0:0:
299,74,13207,2,0,P|342:86|385:74,1,90,8|2,0:0|0:0,0:0:0:0:
391,67,13531,1,0,0:0:0:0:
397,60,13639,1,8,0:0:0:0:
459,160,13855,1,2,0:0:0:0:
396,259,14071,6,0,B|364:260|364:260|332:260|300:288|300:326,1,135.000005149842,4|2,3:2|0:0,0:0:0:0:
256,248,14396,1,0,0:0:0:0:
211,326,14504,2,0,B|212:288|180:260|148:260|148:260|115:259,1,135.000005149842,8|2,3:2|0:0,0:0:0:0:
172,192,14828,1,0,0:0:0:0:
116,125,14936,2,0,B|166:75|166:75|230:75,1,135.000005149842,0|2,3:0|0:0,0:0:0:0:
300,24,15260,1,0,0:0:0:0:
370,75,15368,6,0,B|402:85|402:85|434:75,1,67.5000025749208,8|0,3:2|0:0,0:0:0:0:
498,162,15584,2,0,B|466:152|466:152|434:162,1,67.5000025749208,2|0,0:0|0:0,0:0:0:0:
370,249,15800,1,0,3:0:0:0:
370,249,15909,2,0,B|402:259|402:259|434:249,1,67.5000025749208,0|2,0:0|0:0,0:0:0:0:
498,336,16125,1,0,0:0:0:0:
498,336,16233,2,0,B|466:326|466:326|434:336,1,67.5000025749208,8|0,3:2|0:0,0:0:0:0:
360,380,16449,1,2,0:0:0:0:
287,337,16557,1,0,0:0:0:0:
214,380,16665,6,0,L|166:332,1,67.5000025749208,0|0,3:0|0:0,0:0:0:0:
93,380,16881,2,0,L|45:332,1,67.5000025749208,2|0,0:0|0:0,0:0:0:0:
106,268,17097,2,0,P|125:204|106:140,1,135.000005149842,8|2,3:2|0:0,0:0:0:0:
46,75,17421,1,0,0:0:0:0:
107,10,17530,6,0,B|134:32|137:70|137:70|202:70,1,135.000005149842,0|2,3:0|0:0,0:0:0:0:
256,140,17854,1,0,0:0:0:0:
202,210,17962,2,0,P|256:244|310:210,1,135.000005149842,8|2,3:2|0:0,0:0:0:0:
364,140,18286,1,0,0:0:0:0:
418,210,18394,6,0,P|427:242|418:274,1,67.5000025749208,0|0,3:0|0:0,0:0:0:0:
364,344,18610,2,0,B|332:344|332:344|306:369,1,67.5000025749208,2|0,0:0|0:0,0:0:0:0:
227,330,18826,2,0,B|168:330|168:330|160:334|160:334|152:338|152:338|93:338,1,135.000005149842,8|2,3:2|0:0,0:0:0:0:
31,274,19151,1,0,0:0:0:0:
94,210,19259,6,0,B|55:171|55:171|46:168|46:168|52:162|52:162|43:159|43:159|4:120,1,135.000005149842,0|0,3:0|0:0,0:0:0:0:
67,59,19583,1,0,0:0:0:0:
129,121,19691,2,0,P|161:130|193:121,1,67.5000025749208,8|0,3:2|0:0,0:0:0:0:
317,183,19907,6,0,P|285:174|253:183,1,67.5000025749208,2|0,0:0|0:0,0:0:0:0:
377,247,20123,2,0,B|398:183|398:183|377:119,1,135.000005149842,0|2,3:0|0:0,0:0:0:0:
317,55,20447,1,0,0:0:0:0:
388,256,20556,6,0,B|409:192|409:192|388:128,1,135.000005149842,8|2,3:2|0:0,0:0:0:0:
328,64,20880,1,0,0:0:0:0:
399,265,20988,6,0,B|420:201|420:201|399:137,1,135.000005149842,4|2,3:2|0:0,0:0:0:0:
339,73,21312,1,0,0:0:0:0:
398,9,21420,2,0,L|469:9,1,67.5000025749208,8|0,3:2|0:0,0:0:0:0:
339,73,21636,2,0,L|271:73,1,67.5000025749208,2|0,0:0|0:0,0:0:0:0:
213,137,21852,6,0,P|180:192|213:247,1,135.000005149842,0|2,3:0|0:0,0:0:0:0:
271,311,22177,1,0,0:0:0:0:
213,375,22285,2,0,B|193:367|193:367|169:367|169:367|149:375,1,67.5000025749208,8|0,3:2|0:0,0:0:0:0:
26,311,22501,2,0,B|46:319|46:319|70:319|70:319|90:311,1,67.5000025749208,2|0,0:0|0:0,0:0:0:0:
213,247,22717,6,0,B|193:239|193:239|169:239|169:239|149:247,1,67.5000025749208,0|0,3:0|0:0,0:0:0:0:
90,183,22933,1,2,0:0:0:0:
148,118,23041,1,0,0:0:0:0:
90,53,23149,2,0,P|148:23|206:53,1,135.000005149842,8|2,3:2|0:0,0:0:0:0:
264,118,23473,1,0,0:0:0:0:
322,53,23581,6,0,B|381:53|381:53|389:49|389:49|397:45|397:45|456:45,1,135.000005149842,0|2,3:2|0:0,0:0:0:0:
504,118,23906,1,0,0:0:0:0:
456,193,24014,2,0,B|422:193|422:193|398:216,1,67.5000025749208,8|0,3:2|0:0,0:0:0:0:
324,260,24230,1,2,0:0:0:0:
398,303,24338,1,0,0:0:0:0:
324,346,24446,6,0,L|188:346,1,135.000005149842,0|2,3:0|0:0,0:0:0:0:
114,303,24770,1,0,0:0:0:0:
188,260,24878,2,0,B|172:227|188:195|188:195|172:163|188:130,1,135.000005149842,8|2,3:2|0:0,0:0:0:0:
256,72,25202,1,0,0:0:0:0:
324,130,25311,6,0,P|356:139|388:130,1,67.5000025749208,0|0,3:0|0:0,0:0:0:0:
512,192,25527,2,0,P|480:183|448:192,1,67.5000025749208,2|0,0:0|0:0,0:0:0:0:
324,254,25743,1,8,3:2:0:0:
324,254,25851,2,0,P|356:245|388:254,1,67.5000025749208,0|2,0:0|0:0,0:0:0:0:
448,316,26067,1,0,0:0:0:0:
389,378,26175,1,0,3:0:0:0:
144,232,26391,5,2,0:0:0:0:
116,216,26499,1,2,0:0:0:0:
88,200,26607,1,8,0:0:0:0:
256,192,26824,5,2,0:0:0:0:
215,168,26932,1,2,0:0:0:0:
174,145,27040,1,0,0:0:0:0:
368,152,27256,5,2,0:0:0:0:
291,107,27364,1,2,0:0:0:0:
215,64,27472,5,8,3:2:0:0:
488,116,27688,1,2,0:0:0:0:
215,168,27904,6,0,B|182:152|154:164|150:169|146:172|122:184|85:168,1,135.000005149842,4|2,3:2|0:0,0:0:0:0:
22,229,28228,1,0,0:0:0:0:
84,290,28336,2,0,B|84:310|84:310|77:322|77:322|84:334|84:334|84:354,1,67.5000025749208,8|0,3:2|0:0,0:0:0:0:
166,322,28553,2,0,B|186:322|186:322|198:315|198:315|210:322|210:322|230:322,1,67.5000025749208,2|0,0:0|0:0,0:0:0:0:
312,290,28769,6,0,B|358:290|358:290|402:290|427:241,1,135.000005149842,0|2,3:0|0:0,0:0:0:0:
500,192,29093,1,0,0:0:0:0:
427,142,29201,2,0,L|451:79,1,67.5000025749208,8|0,3:2|0:0,0:0:0:0:
354,92,29417,2,0,L|378:29,1,67.5000025749208,2|0,0:0|0:0,0:0:0:0:
280,143,29633,6,0,L|304:205,1,67.5000025749208,0|0,3:0|0:0,0:0:0:0:
206,194,29849,1,2,0:0:0:0:
206,194,29958,1,0,0:0:0:0:
107,182,30066,2,0,L|155:307,1,135.000005149842,8|2,3:2|0:0,0:0:0:0:
93,369,30390,1,0,0:0:0:0:
31,308,30498,6,0,P|22:276|31:244,1,67.5000025749208,0|0,3:0|0:0,0:0:0:0:
107,117,30714,2,0,P|116:149|107:181,1,67.5000025749208,2|0,0:0|0:0,0:0:0:0:
16,300,30930,2,0,P|7:268|16:236,1,67.5000025749208,8|0,3:2|0:0,0:0:0:0:
92,109,31146,2,0,P|101:141|92:173,1,67.5000025749208,2|0,0:0|0:0,0:0:0:0:
17,47,31362,6,0,B|71:37|71:37|80:40|80:40|78:31|78:31|88:34|88:34|142:24,1,135.000005149842,0|2,3:0|0:0,0:0:0:0:
216,68,31687,1,0,0:0:0:0:
293,25,31795,2,0,B|329:32|340:68|340:68|329:104|293:111,1,135.000005149842,8|2,3:2|0:0,0:0:0:0:
216,154,32119,1,0,0:0:0:0:
293,197,32227,6,0,B|325:207|325:207|357:197,1,67.5000025749208,0|0,3:0|0:0,0:0:0:0:
483,258,32443,2,0,B|451:248|451:248|419:258,1,67.5000025749208,2|0,0:0|0:0,0:0:0:0:
357,319,32659,2,0,B|321:319|321:319|293:305|293:305|265:319|265:319|229:319,1,135.000005149842,8|2,3:2|0:0,0:0:0:0:
160,372,32983,1,0,0:0:0:0:
92,319,33092,6,0,P|73:255|92:191,1,135.000005149842,0|2,3:0|0:0,0:0:0:0:
160,138,33416,1,0,0:0:0:0:
91,84,33524,2,0,P|59:75|27:84,1,67.5000025749208,8|0,3:2|0:0,0:0:0:0:
160,30,33740,6,0,P|192:39|224:30,1,67.5000025749208,2|0,0:0|0:0,0:0:0:0:
413,84,33956,2,0,P|353:57|293:84,1,135.000005149842,0|2,3:0|0:0,0:0:0:0:
225,139,34280,1,0,0:0:0:0:
424,93,34388,6,0,P|364:66|304:93,1,135.000005149842,8|2,3:2|0:0,0:0:0:0:
236,148,34713,1,0,0:0:0:0:
435,102,34821,5,12,0:0:0:0:
256,224,35037,1,2,0:0:0:0:
77,102,35253,1,8,0:0:0:0:
256,236,35469,1,2,0:0:0:0:
435,102,35685,6,0,P|462:162|435:222,1,135.000005149842,8|2,0:0|0:0,0:0:0:0:
380,162,36009,2,0,P|353:102|380:42,1,135.000005149842,8|0,0:0|0:0,0:0:0:0:
502,102,36334,2,0,L|435:102,1,67.5000025749208,10|0,0:0|0:0,0:0:0:0:
77,102,36550,6,0,P|50:162|77:222,1,135.000005149842,8|2,0:0|0:0,0:0:0:0:
132,162,36874,2,0,P|159:102|132:42,1,135.000005149842,8|0,0:0|0:0,0:0:0:0:
9,102,37198,2,0,L|77:102,1,67.5000025749208,10|0,0:0|0:0,0:0:0:0:
380,162,37414,5,8,0:0:0:0:
132,162,37630,1,2,0:0:0:0:
316,282,37847,5,8,0:0:0:0:
288,302,37955,1,2,0:0:0:0:
256,310,38063,1,2,0:0:0:0:
224,302,38171,1,2,0:0:0:0:
196,282,38279,5,8,0:0:0:0:
256,42,38495,1,2,0:0:0:0:
316,282,38711,6,0,P|376:309|436:282,1,135.000005149842,8|2,0:0|0:0,0:0:0:0:
376,222,39035,2,0,B|316:191|316:191|256:222,1,135.000005149842,8|0,0:0|0:0,0:0:0:0:
376,222,39360,2,0,L|407:162,1,67.5000025749208,10|0,0:0|0:0,0:0:0:0:
132,42,39576,5,8,0:0:0:0:
380,42,39792,1,2,0:0:0:0:
196,282,40008,6,0,P|136:309|76:282,1,135.000005149842,8|2,0:0|0:0,0:0:0:0:
136,222,40332,2,0,B|196:191|196:191|256:222,1,135.000005149842,8|0,0:0|0:0,0:0:0:0:
136,222,40656,2,0,L|105:162,1,67.5000025749208,10|0,0:0|0:0,0:0:0:0:
380,42,40873,5,8,0:0:0:0:
105,162,41089,1,2,0:0:0:0:
407,162,41305,5,0,3:0:0:0:
132,42,41521,1,2,3:2:0:0:
256,305,41737,6,0,B|224:266|252:226|256:222|256:222|260:218|288:178|256:139,1,180,4|2,1:2|0:0,0:0:0:0:
256,42,42061,1,0,0:0:0:0:
343,91,42169,2,0,B|368:52|424:52|456:80|456:80|492:116,1,180,12|2,1:2|0:0,0:0:0:0:
428,192,42494,1,0,0:0:0:0:
493,267,42602,6,0,B|501:311|501:311|493:355,1,90,2|0,1:0|0:0,0:0:0:0:
363,267,42818,1,2,0:0:0:0:
363,267,42926,2,0,B|371:311|371:311|363:355,1,90,2|8,0:1|1:2,0:0:0:0:
233,267,43142,1,0,0:0:0:0:
233,267,43250,2,0,B|241:311|241:311|233:355,1,90,2|0,0:1|0:0,0:0:0:0:
103,267,43466,6,0,B|48:212|48:212|45:204|45:204|40:209|40:209|37:201|37:201|-18:145,1,180,4|2,1:2|0:0,0:0:0:0:
64,90,43790,1,0,0:0:0:0:
146,146,43898,2,0,L|210:82,2,90,12|0|2,1:2|0:0|0:0,0:0:0:0:
256,224,44223,5,2,0:1:0:0:
338,280,44331,1,2,1:0:0:0:
270,216,44439,1,0,0:0:0:0:
352,272,44547,2,0,B|379:272|379:272|395:280|395:280|411:272|411:272|438:272,1,90,2|0,0:1|0:0,0:0:0:0:
270,328,44763,2,0,B|207:328|207:328|183:340|183:340|159:352|159:352|96:352,1,180,8|2,1:2|0:0,0:0:0:0:
36,272,45087,1,0,0:0:0:0:
94,192,45195,6,0,B|137:171|144:122|144:122|188:99|192:51,1,180,4|2,1:2|0:0,0:0:0:0:
256,128,45519,1,0,0:0:0:0:
319,51,45628,2,0,B|323:99|367:122|367:122|374:171|418:192,1,180,12|2,1:2|0:0,0:0:0:0:
476,272,45952,1,0,0:0:0:0:
418,352,46060,6,0,P|375:364|332:352,1,90,2|0,1:0|0:0,0:0:0:0:
184,272,46276,1,2,0:0:0:0:
184,272,46384,2,0,P|227:260|270:272,1,90,2|8,0:1|1:2,0:0:0:0:
418,192,46600,1,0,0:0:0:0:
418,192,46708,2,0,P|375:204|332:192,1,90,2|0,0:1|0:0,0:0:0:0:
184,112,46924,5,2,1:0:0:0:
184,112,47032,2,0,B|175:68|175:68|184:24,1,90,2|2,0:1|0:0,0:0:0:0:
328,112,47249,2,0,B|337:68|337:68|328:24,1,90,2|8,0:1|1:2,0:0:0:0:
156,156,47465,6,0,B|147:112|147:112|156:68,1,90,2|2,0:1|0:0,0:0:0:0:
356,156,47681,2,0,B|365:112|365:112|356:68,1,90,2|0,0:1|1:0,0:0:0:0:
128,200,47897,6,0,B|119:156|119:156|128:112,1,90,2|2,0:1|0:0,0:0:0:0:
384,200,48113,1,2,0:1:0:0:
384,200,48221,2,0,L|328:271,1,90,10|2,1:2|0:0,0:0:0:0:
128,200,48437,2,0,L|184:271,1,90,2|2,0:0|0:0,0:0:0:0:
295,112,48653,6,0,B|264:76|256:32|256:32|248:76|217:112,1,180,4|2,1:2|0:0,0:0:0:0:
156,192,48978,1,0,0:0:0:0:
295,272,49086,2,0,B|264:236|256:192|256:192|248:236|217:272,1,180,12|2,1:2|0:0,0:0:0:0:
156,352,49410,1,0,0:0:0:0:
7,272,49518,6,0,P|51:264|95:272,1,90,2|0,1:0|0:0,0:0:0:0:
244,351,49734,1,2,0:0:0:0:
244,351,49842,2,0,P|200:343|156:351,1,90,2|8,0:1|1:2,0:0:0:0:
19,250,50058,1,0,0:0:0:0:
19,250,50166,2,0,P|63:242|107:250,1,90,2|0,0:1|0:0,0:0:0:0:
256,373,50383,6,0,B|294:401|338:377|342:373|346:369|390:345|428:373,1,180,4|2,1:2|0:0,0:0:0:0:
492,300,50707,1,0,0:0:0:0:
428,152,50815,2,0,P|410:192|428:232,2,90,12|0|2,1:2|0:0|0:0,0:0:0:0:
342,11,51139,5,2,0:1:0:0:
256,56,51247,1,2,1:0:0:0:
170,11,51355,1,0,0:0:0:0:
84,56,51463,2,0,L|63:143,1,90,2|0,0:1|0:0,0:0:0:0:
170,101,51679,2,0,L|127:275,1,180,8|2,1:2|0:0,0:0:0:0:
41,320,52004,1,0,0:0:0:0:
214,231,52112,6,0,B|295:231|295:231|303:235|303:235|311:239|311:239|392:239,1,180,4|2,1:2|0:0,0:0:0:0:
480,192,52436,1,0,0:0:0:0:
214,137,52544,2,0,B|295:137|295:137|303:141|303:141|311:145|311:145|392:145,1,180,4|2,1:2|0:0,0:0:0:0:
480,98,52868,1,0,0:0:0:0:
214,43,52976,6,0,B|295:43|295:43|303:47|303:47,1,90,2|0,1:0|0:0,0:0:0:0:
392,145,53192,1,2,0:0:0:0:
392,145,53300,2,0,B|311:145|311:145|303:141|303:141,1,90,2|8,0:1|1:2,0:0:0:0:
214,231,53517,1,0,0:0:0:0:
214,231,53625,2,0,B|295:231|295:231|303:235|303:235,1,90,2|0,0:1|0:0,0:0:0:0:
392,333,53841,5,2,1:0:0:0:
392,333,53949,2,0,B|368:364|336:364|336:364|312:364,1,90,2|2,0:1|0:0,0:0:0:0:
120,333,54165,2,0,B|144:364|176:364|176:364|199:364,1,90,2|8,0:1|1:2,0:0:0:0:
400,308,54381,6,0,B|376:339|344:339|344:339|320:339,1,90,2|2,0:1|0:0,0:0:0:0:
112,308,54597,2,0,B|136:339|168:339|168:339|191:339,1,90,2|0,0:1|1:0,0:0:0:0:
408,283,54813,6,0,B|384:314|352:314|352:314|328:314,1,90,2|2,0:1|0:0,0:0:0:0:
104,283,55030,1,2,0:1:0:0:
104,283,55138,2,0,P|90:241|104:199,1,90,10|2,0:0|0:0,0:0:0:0:
408,283,55354,2,0,P|422:241|408:199,1,90,2|2,0:0|0:0,0:0:0:0:
180,155,55570,6,0,B|171:199|171:199|180:243,1,90,4|0,1:2|0:0,0:0:0:0:
332,243,55786,2,0,B|341:199|341:199|332:155,1,90,2|0,0:0|0:0,0:0:0:0:
180,67,56002,2,0,B|171:111|171:111|180:155,1,90,8|0,1:2|0:0,0:0:0:0:
332,155,56218,2,0,B|341:111|341:111|332:67,1,90,2|0,0:0|0:0,0:0:0:0:
256,199,56434,6,0,B|228:245|252:281|256:285|260:289|284:325|256:371,1,180,0|2,1:0|0:0,0:0:0:0:
180,324,56759,1,0,0:0:0:0:
180,324,56867,2,0,P|137:313|94:324,1,90,8|0,1:2|0:0,0:0:0:0:
256,278,57083,1,2,0:0:0:0:
332,324,57191,1,0,0:0:0:0:
408,278,57299,6,0,B|429:285|441:307|441:307|453:285|474:278,1,90,0|0,1:0|0:0,0:0:0:0:
365,203,57515,2,0,B|344:196|332:174|332:174|320:196|299:203,1,90,2|0,0:0|0:0,0:0:0:0:
408,106,57731,2,0,B|429:113|441:135|441:135|453:113|474:106,1,90,8|0,1:2|0:0,0:0:0:0:
365,31,57947,2,0,B|344:24|332:2|332:2|320:24|299:31,1,90,2|0,0:0|0:0,0:0:0:0:
190,106,58164,6,0,B|190:155|223:187|223:187|256:155|256:106,1,180,0|2,1:0|0:0,0:0:0:0:
147,31,58488,1,0,0:0:0:0:
147,31,58596,2,0,B|92:85|92:85|89:93|89:93|84:88|84:88|81:96|81:96|26:151,1,180,8|2,1:2|0:0,0:0:0:0:
104,192,58920,1,0,0:0:0:0:
26,233,59028,6,0,P|15:276|26:319,1,90,0|0,1:0|0:0,0:0:0:0:
182,319,59244,2,0,P|193:276|182:233,1,90,2|0,0:0|0:0,0:0:0:0:
104,274,59460,2,0,P|93:317|104:360,1,90,8|0,1:2|0:0,0:0:0:0:
260,360,59676,2,0,P|271:317|260:274,1,90,2|0,0:0|0:0,0:0:0:0:
182,319,59893,6,0,B|362:319,1,180,0|2,1:2|0:0,0:0:0:0:
511,276,60217,1,0,0:0:0:0:
511,276,60325,2,0,B|496:276|496:276|488:280|488:280|488:272|488:272|480:276|480:276|472:276|472:276|464:280|464:280|464:272|464:272|456:276|456:276|441:276,1,90,8|0,1:2|0:0,0:0:0:0:
361,233,60541,1,2,0:0:0:0:
440,190,60649,1,0,0:0:0:0:
361,147,60757,6,0,B|361:124|361:124|352:104|352:104|361:84|361:84|361:61,1,90,0|0,1:0|0:0,0:0:0:0:
341,147,60973,2,0,B|341:124|341:124|332:104|332:104|341:84|341:84|341:61,1,90,2|0,0:0|0:0,0:0:0:0:
151,147,61190,6,0,B|151:124|151:124|160:104|160:104|151:84|151:84|151:61,1,90,8|0,1:2|0:0,0:0:0:0:
171,147,61406,2,0,B|171:124|171:124|180:104|180:104|171:84|171:84|171:61,1,90,2|0,0:0|0:0,0:0:0:0:
256,147,61622,6,0,B|284:193|260:229|256:233|252:237|228:273|256:319,1,180,0|2,1:0|0:0,0:0:0:0:
171,348,61946,1,0,0:0:0:0:
171,348,62054,2,0,L|143:262,1,90,10|2,0:0|0:0,0:0:0:0:
341,348,62270,2,0,L|368:262,1,90,2|2,0:0|0:0,0:0:0:0:
256,147,62486,5,4,0:0:0:0:
