osu file format v14

[General]
AudioFilename: audio.ogg
AudioLeadIn: 0
PreviewTime: 30021
Countdown: 0
SampleSet: Normal
StackLeniency: 0.7
Mode: 1
LetterboxInBreaks: 0
WidescreenStoryboard: 1

[Editor]
Bookmarks: 2506,7863,14720,16434,23291,26720,30148
DistanceSpacing: 1.2
BeatDivisor: 4
GridSize: 4
TimelineZoom: 0.9999999

[Metadata]
Title:Cheerleaders (Radio Mix) (Cut Ver.)
TitleUnicode:Cheerleaders (Radio Mix) (Cut Ver.)
Artist:Caramella Girls
ArtistUnicode:Caramella Girls
Creator:[-E S I A-]
Version:Muzukashii
Source:
Tags:Spinning Sweet Decade Electronic English Eurodance Techno Trance Nightcore Remix Short Version Teaser RemRec Remixed Records Nadine Mindy Vera Kristian Lagerström Kim Andre Arnesen E_S_I_A [-E_S_I_A-] ESIA [-ESIA-]
BeatmapID:3848999
BeatmapSetID:1870775

[Difficulty]
HPDrainRate:9
CircleSize:2
OverallDifficulty:4
ApproachRate:10
SliderMultiplier:1.4
SliderTickRate:1

[Events]
//Background and Video events
0,0,"up and down.jpg",0,95
//Break Periods
//Storyboard Layer 0 (Background)
//Storyboard Layer 1 (Fail)
//Storyboard Layer 2 (Pass)
//Storyboard Layer 3 (Foreground)
//Storyboard Layer 4 (Overlay)
//Storyboard Sound Samples

[TimingPoints]
986,428.571428571429,4,1,0,70,1,0
7736,-100,4,1,0,80,0,0
15878,-100,4,1,0,60,0,0
16307,-100,4,1,0,90,0,0
30128,-100,4,1,0,100,0,1
43843,-100,4,1,0,90,0,0
44057,-100,4,1,0,80,0,0
44700,-100,4,1,0,70,0,0
45557,-100,4,1,0,60,0,0
46414,-100,4,1,0,50,0,0
47271,-100,4,1,0,40,0,0
48128,-100,4,1,0,30,0,0
48986,-100,4,1,0,20,0,0

[HitObjects]
306,176,986,5,12,0:0:0:0:
262,335,1414,1,0,0:0:0:0:
306,176,1843,1,8,0:0:0:0:
306,176,2486,1,0,0:0:0:0:
282,232,2914,1,0,0:0:0:0:
469,137,3128,1,8,0:0:0:0:
239,184,3557,5,8,0:0:0:0:
268,199,4414,1,8,0:0:0:0:
268,199,4843,1,8,0:0:0:0:
428,149,5271,1,0,0:0:0:0:
265,106,5700,1,0,0:0:0:0:
331,145,5914,1,8,0:0:0:0:
232,236,6343,1,8,0:0:0:0:
276,203,6557,1,0,0:0:0:0:
167,303,6771,1,0,0:0:0:0:
324,156,6986,1,8,0:0:0:0:
449,312,7414,1,0,0:0:0:0:
300,232,7843,1,12,0:0:0:0:
262,223,8271,1,8,0:0:0:0:
261,160,8700,1,0,0:0:0:0:
273,214,9343,1,8,0:0:0:0:
441,165,9771,1,8,0:0:0:0:
499,96,9986,1,0,0:0:0:0:
433,221,10414,1,8,0:0:0:0:
277,234,11271,1,0,0:0:0:0:
277,234,11700,1,0,0:0:0:0:
359,218,12128,1,8,0:0:0:0:
359,218,12557,1,8,0:0:0:0:
359,218,12771,1,0,0:0:0:0:
359,218,13200,1,8,0:0:0:0:
212,201,13414,1,8,0:0:0:0:
191,270,13628,1,0,0:0:0:0:
389,139,13843,1,8,0:0:0:0:
271,171,14271,1,8,0:0:0:0:
225,175,14700,1,0,0:0:0:0:
329,200,15986,1,0,0:0:0:0:
427,64,16414,1,12,0:0:0:0:
385,179,16843,1,8,0:0:0:0:
278,261,17057,1,8,0:0:0:0:
416,359,17271,1,0,0:0:0:0:
367,179,17700,1,0,0:0:0:0:
294,222,17914,1,8,0:0:0:0:
366,289,18343,1,8,0:0:0:0:
89,73,18986,1,0,0:0:0:0:
366,289,19414,1,8,0:0:0:0:
366,289,19843,1,0,0:0:0:0:
366,289,20271,1,0,0:0:0:0:
452,156,20486,1,0,0:0:0:0:
366,289,20700,1,8,0:0:0:0:
366,289,21128,1,0,0:0:0:0:
366,289,21343,1,8,0:0:0:0:
266,184,22200,1,8,0:0:0:0:
366,289,22414,1,0,0:0:0:0:
366,289,22843,1,0,0:0:0:0:
366,289,23271,1,8,0:0:0:0:
352,121,23700,1,0,0:0:0:0:
352,121,23914,1,8,0:0:0:0:
352,121,24128,1,0,0:0:0:0:
352,121,24557,1,8,0:0:0:0:
272,147,24771,1,8,0:0:0:0:
352,121,24986,1,0,0:0:0:0:
352,288,25200,1,8,0:0:0:0:
352,204,25628,1,0,0:0:0:0:
352,121,25843,1,8,0:0:0:0:
218,201,26271,1,0,0:0:0:0:
218,201,26486,1,0,0:0:0:0:
266,212,26700,1,8,0:0:0:0:
343,231,27128,1,8,0:0:0:0:
343,231,27343,1,8,0:0:0:0:
343,231,27557,1,0,0:0:0:0:
343,231,27771,1,0,0:0:0:0:
343,231,27986,1,8,0:0:0:0:
318,150,28414,1,0,0:0:0:0:
318,150,28628,1,8,0:0:0:0:
318,150,28736,1,8,0:0:0:0:
318,150,28843,1,8,0:0:0:0:
318,150,29057,1,0,0:0:0:0:
318,150,29164,1,0,0:0:0:0:
318,150,29271,1,0,0:0:0:0:
318,150,29486,1,0,0:0:0:0:
318,150,29700,1,12,0:0:0:0:
480,191,30128,1,4,0:0:0:0:
312,180,30557,1,8,0:0:0:0:
346,202,30986,1,0,0:0:0:0:
312,180,31414,1,8,0:0:0:0:
288,260,31628,1,0,0:0:0:0:
247,256,31736,1,0,0:0:0:0:
221,186,31843,1,0,0:0:0:0:
276,184,32057,1,0,0:0:0:0:
312,180,32271,1,8,0:0:0:0:
356,208,32700,1,8,0:0:0:0:
443,173,33557,1,8,0:0:0:0:
276,184,33986,1,8,0:0:0:0:
359,182,34414,1,0,0:0:0:0:
276,184,34843,1,0,0:0:0:0:
276,202,35057,1,8,0:0:0:0:
275,172,35486,1,8,0:0:0:0:
275,211,35700,1,0,0:0:0:0:
333,194,35914,1,8,0:0:0:0:
281,211,36021,1,8,0:0:0:0:
249,185,36128,1,8,0:0:0:0:
314,237,36343,1,0,0:0:0:0:
249,185,36557,1,8,0:0:0:0:
282,160,36771,1,0,0:0:0:0:
332,193,36986,1,12,0:0:0:0:
312,180,37414,1,8,0:0:0:0:
346,202,37843,1,0,0:0:0:0:
312,180,38271,1,0,0:0:0:0:
212,218,38486,1,8,0:0:0:0:
212,218,38593,1,8,0:0:0:0:
212,218,38700,1,8,0:0:0:0:
162,238,38914,1,0,0:0:0:0:
312,180,39128,1,8,0:0:0:0:
411,284,39557,1,8,0:0:0:0:
443,173,40414,1,8,0:0:0:0:
359,182,40843,1,8,0:0:0:0:
276,184,41057,1,0,0:0:0:0:
193,211,41486,1,0,0:0:0:0:
276,184,41700,1,8,0:0:0:0:
276,202,41914,1,8,0:0:0:0:
359,182,42128,1,0,0:0:0:0:
209,180,42343,1,8,0:0:0:0:
208,181,42450,1,8,0:0:0:0:
275,211,42557,1,8,0:0:0:0:
249,185,42986,1,0,0:0:0:0:
332,193,43200,1,8,0:0:0:0:
368,171,43414,1,0,0:0:0:0:
333,194,43521,1,0,0:0:0:0:
196,291,43628,1,0,0:0:0:0:
332,193,43843,1,12,0:0:0:0:
256,192,44057,12,0,48986,0:0:0:0:
