osu file format v14

[General]
AudioFilename: audio.mp3
AudioLeadIn: 0
PreviewTime: 60209
Countdown: 0
SampleSet: Drum
StackLeniency: 0.4
Mode: 0
LetterboxInBreaks: 0
WidescreenStoryboard: 1

[Editor]
Bookmarks: 17612,28220,40154,50761,61369,71977,82584,93192,105126,115734,126341,136949,147557,160817,171424,187336,197944,212529,223137,233745,244352,256286
DistanceSpacing: 0.5
BeatDivisor: 4
GridSize: 8
TimelineZoom: 1.8

[Metadata]
Title:Caramelldansen (Ryu* Remix)
TitleUnicode:ウッーウッーウマウマ(゜∀゜) (Ryu☆ Remix)
Artist:Caramell
ArtistUnicode:Caramell
Creator:AJT
Version:Collab Insane
Source:
Tags:exit trance swedish electronic yokespai u-u-umauma u-u-uma uma the caramell dance caramella girls supergott virtual group euro dance pop eurodance caramelldancing dancing ウマウマ
BeatmapID:3626543
BeatmapSetID:1770758

[Difficulty]
HPDrainRate:5
CircleSize:3.8
OverallDifficulty:8
ApproachRate:8.5
SliderMultiplier:1.6
SliderTickRate:1

[Events]
//Background and Video events
0,0,"bg.jpg",0,0
//Break Periods
2,158199,159132
2,187336,197254
2,208667,211508
//Storyboard Layer 0 (Background)
//Storyboard Layer 1 (Fail)
//Storyboard Layer 2 (Pass)
//Storyboard Layer 3 (Foreground)
//Storyboard Layer 4 (Overlay)
//Storyboard Sound Samples

[TimingPoints]
210,331.491712707182,4,3,0,60,1,0
210,-125,4,3,0,60,0,0
1701,331.491712707182,4,3,0,60,1,0
4021,-166.666666666667,4,3,0,60,0,0
4352,-100,4,3,0,60,0,0
12350,-100,4,3,1,50,0,0
12391,-100,4,3,0,40,0,0
12433,-100,4,3,1,30,0,0
12474,-100,4,3,0,20,0,0
12515,-100,4,3,1,10,0,0
12557,-100,4,3,0,5,0,0
12640,-125,4,3,0,60,0,0
14297,-166.666666666667,4,3,0,60,0,0
14463,-100,4,3,0,60,0,0
17612,-76.9230769230769,4,3,0,75,0,0
30540,-62.5,4,3,0,75,0,0
30872,-76.9230769230769,4,3,0,75,0,0
33026,-62.5,4,3,0,75,0,0
33524,-76.9230769230769,4,3,0,75,0,0
35844,-62.5,4,3,0,75,0,0
36176,-76.9230769230769,4,3,0,75,0,0
40154,-86.9565217391304,4,3,0,65,0,0
60209,-200,4,3,0,40,0,0
61369,-86.9565217391304,4,3,0,75,0,0
71645,-71.4285714285714,4,3,0,75,0,0
71977,-86.9565217391304,4,3,0,75,0,0
77281,-76.9230769230769,4,3,0,75,0,0
78607,-76.9230769230769,4,3,0,75,0,0
82253,-50,4,3,0,75,0,0
82584,-100,4,3,0,70,0,0
92861,-71.4285714285714,4,3,0,70,0,0
93192,-71.4285714285714,4,3,0,75,0,0
105126,-100,4,3,0,65,0,0
115899,-83.3333333333333,4,3,0,65,0,0
126341,-83.3333333333333,4,3,0,75,0,0
136618,-45.4545454545455,4,3,0,75,0,0
136949,-76.9230769230769,4,3,0,75,0,0
156839,-86.9565217391304,4,3,0,60,0,0
157833,-86.9565217391304,4,3,0,40,0,0
160817,-76.9230769230769,4,3,0,65,0,0
186010,-76.9230769230769,4,3,0,60,0,0
187004,-200,4,3,0,60,0,0
187336,-200,4,3,0,55,0,0
197944,-133.333333333333,4,3,0,55,0,0
207225,-133.333333333333,4,3,0,60,0,0
207308,-200,4,3,0,60,0,0
212529,-86.9565217391304,4,3,0,80,0,0
214850,-71.4285714285714,4,3,0,80,0,0
215181,-86.9565217391304,4,3,0,80,0,0
217502,-71.4285714285714,4,3,0,80,0,0
217833,-86.9565217391304,4,3,0,80,0,0
220154,-71.4285714285714,4,3,0,80,0,0
220485,-86.9565217391304,4,3,0,80,0,0
222805,-71.4285714285714,4,3,0,80,0,0
223137,-86.9565217391304,4,3,0,80,0,0
233413,-86.9565217391304,4,3,0,90,0,0
233745,-76.9230769230769,4,3,0,90,0,0
244352,-66.6666666666667,4,3,0,90,0,0
252308,-66.6666666666667,4,3,0,90,0,0
254877,-133.333333333333,4,3,0,90,0,0
255623,-259.74025974026,4,3,0,90,0,0
257612,-259.74025974026,4,3,1,45,0,0
258938,-259.74025974026,4,3,0,30,0,0
260264,-259.74025974026,4,3,1,15,0,0
261590,-259.74025974026,4,3,0,5,0,0

[Colours]
Combo1 : 0,255,255
Combo2 : 0,128,192
Combo3 : 255,0,255
Combo4 : 192,192,192

[HitObjects]
512,192,210,6,0,P|473:172|380:158,1,128
311,193,707,2,0,P|299:227|295:266,1,64
390,339,1038,1,0,0:0:0:0:
294,307,1204,1,0,0:0:0:0:
188,342,1370,1,0,0:0:0:0:
116,377,1535,1,0,0:0:0:0:
20,270,1701,6,0,P|14:251|-13:227,4,40,4|0|0|0|2,1:2|0:0|0:0|0:0|0:2,0:0:0:0:
112,256,2198,2,0,B|99:176|107:84,1,160,0|2,0:0|0:2,0:0:0:0:
0,64,2695,2,0,P|80:77|128:22,1,160,2|0,0:2|0:0,0:0:0:0:
207,106,3192,1,0,0:0:0:0:
207,106,3275,1,0,0:0:0:0:
207,106,3358,1,2,0:2:0:0:
512,192,3689,2,0,P|478:204|426:208,1,80,0|2,0:0|0:2,0:0:0:0:
356,267,4021,2,0,P|353:286|358:297,3,23.9999992675781,2|0|0|0,0:2|0:0|0:0|0:0,0:0:0:0:
402,338,4352,6,0,B|389:258|397:166,1,160,0|2,1:0|0:2,0:0:0:0:
464,120,4850,1,0,0:0:0:0:
464,120,4933,2,0,P|479:75|405:79,1,120,2|2,0:2|0:0,0:0:0:0:
304,96,5347,1,2,0:0:0:0:
221,5,5513,6,0,B|141:-8|49:0,1,160,2|0,0:2|0:0,0:0:0:0:
12,81,6010,2,0,P|-3:126|71:122,1,120,2|0,0:2|0:0,0:0:0:0:
96,167,6341,2,0,P|93:202|82:248,1,80,2|0,0:2|0:0,0:0:0:0:
0,384,6673,1,2,0:2:0:0:
100,299,6839,1,0,0:0:0:0:
216,384,7004,1,4,1:2:0:0:
216,384,7087,1,0,0:0:0:0:
216,384,7170,1,0,0:0:0:0:
305,348,7336,6,0,P|303:340|294:327,8,20
400,384,7833,1,2,0:0:0:0:
424,373,7999,1,2,0:0:0:0:
454,301,8165,1,2,0:0:0:0:
487,208,8330,2,0,P|498:161|513:34,2,160,0|0|2,1:0|0:0|0:2,0:0:0:0:
414,276,9159,2,0,P|376:267|318:259,1,80,2|0,0:2|0:0,0:0:0:0:
293,173,9491,6,0,B|220:129|202:210|121:168,1,160,2|0,0:2|0:0,0:0:0:0:
48,144,9988,2,0,P|18:179|7:232,1,80,2|0,0:2|0:0,0:0:0:0:
36,302,10319,2,0,P|71:332|124:343,1,80,2|0,0:2|0:0,0:0:0:0:
191,383,10651,2,0,P|197:364|199:345,3,40
235,313,10982,2,0,P|281:301|409:287,2,160,0|2|0,1:0|0:2|0:0,0:0:0:0:
179,233,11811,1,2,0:2:0:0:
193,187,11894,1,0,0:0:0:0:
167,146,11977,2,0,L|159:57,1,80,2|0,0:2|0:0,0:0:0:0:
74,22,12308,5,0,1:0:0:0:
256,192,12474,12,0,14629,1:0:0:0:
0,296,14960,5,0,1:0:0:0:
0,296,15292,1,0,1:0:0:0:
0,296,15623,5,0,1:0:0:0:
128,256,15789,1,2,1:2:0:0:
22,304,15955,5,0,1:0:0:0:
150,264,16121,1,2,1:2:0:0:
41,321,16286,5,0,1:0:0:0:
169,281,16452,1,2,1:2:0:0:
63,329,16618,5,0,1:0:0:0:
191,289,16784,1,2,1:2:0:0:
256,384,16949,1,0,1:0:0:0:
512,192,17612,5,4,3:2:0:0:
464,264,17778,2,0,L|347:286,1,103.999995239258,0|0,0:0|1:0,0:0:0:0:
339,380,18109,2,0,P|273:338|113:332,2,207.999990478516,2|2|2,0:0|0:0|0:0,0:0:0:0:
279,323,18938,1,8,0:0:0:0:
323,248,19104,2,0,P|289:236|173:218,1,103.999995239258,2|0,0:2|1:0,0:0:0:0:
141,240,19435,2,0,P|79:249|15:273,1,103.999995239258,2|8,0:0|0:0,0:0:0:0:
13,370,19767,1,2,0:0:0:0:
30,272,19933,1,0,1:0:0:0:
0,189,20098,1,2,1:3:0:0:
59,137,20264,6,0,P|112:132|162:145,1,103.999995239258,8|0,0:0|0:0,0:0:0:0:
98,13,20596,2,0,P|50:31|5:57,1,103.999995239258,0|0,1:0|0:0,0:0:0:0:
173,56,20927,2,0,P|229:70|290:97,1,103.999995239258,8|0,0:0|0:0,0:0:0:0:
380,157,21259,2,0,P|328:161|252:201,1,103.999995239258,0|8,1:0|0:0,0:0:0:0:
274,194,21507,1,8,0:0:0:0:
276,209,21590,5,12,0:0:0:0:
373,240,21756,1,4,0:2:0:0:
387,148,21921,1,4,1:2:0:0:
460,0,22253,5,8,0:0:0:0:
383,245,22419,1,4,0:2:0:0:
397,149,22584,1,4,1:2:0:0:
475,130,22750,1,0,1:0:0:0:
489,212,22916,5,8,0:0:0:0:
489,212,23082,2,0,P|488:282|480:319,1,103.999995239258,0|0,0:0|1:0,0:0:0:0:
415,375,23413,2,0,P|389:327|316:314,1,103.999995239258,2|8,0:0|0:0,0:0:0:0:
275,360,23745,1,2,0:0:0:0:
298,239,23910,1,0,1:0:0:0:
282,371,24076,1,2,0:0:0:0:
223,265,24242,5,8,0:0:0:0:
223,265,24408,2,0,P|199:325|162:350,1,103.999995239258,2|0,0:2|1:0,0:0:0:0:
65,304,24739,2,0,L|75:195,1,103.999995239258,2|8,0:0|0:0,0:0:0:0:
43,94,25071,1,2,0:0:0:0:
154,173,25236,1,0,1:0:0:0:
236,158,25402,1,2,1:3:0:0:
280,73,25568,6,0,P|326:122|372:130,1,103.999995239258,8|0,0:0|0:0,0:0:0:0:
454,98,25899,2,0,P|388:113|358:149,1,103.999995239258,0|0,1:0|0:0,0:0:0:0:
345,236,26231,2,0,P|364:171|348:127,1,103.999995239258,8|0,0:0|0:0,0:0:0:0:
275,83,26562,1,0,1:0:0:0:
369,145,26728,1,8,0:0:0:0:
415,136,26811,1,8,0:0:0:0:
444,99,26894,6,0,B|447:75|447:75|420:0,1,103.999995239258,12|4,0:0|0:2,0:0:0:0:
270,93,27225,2,0,B|267:117|267:117|294:192,1,103.999995239258,4|4,1:2|0:0,0:0:0:0:
494,168,27723,5,4,0:0:0:0:
494,168,28054,5,4,0:0:0:0:
400,272,28220,2,0,P|442:206|448:46,2,207.999990478516,4|0|8,0:2|1:0|0:0,0:0:0:0:
408,360,29049,2,0,B|432:357|432:357|507:384,2,103.999995239258,2|0|2,0:0|1:0|0:0,0:0:0:0:
208,242,29546,5,8,0:0:0:0:
288,350,29712,1,2,0:2:0:0:
292,238,29877,5,0,1:0:0:0:
295,332,30043,1,2,0:2:0:0:
408,360,30209,2,0,B|393:341|393:341|373:264,1,103.999995239258,0|0,3:0|0:0,0:0:0:0:
512,184,30540,6,0,B|473:232|473:232|401:222,1,128,2|0,1:0|0:0,0:0:0:0:
376,99,30872,2,0,B|406:61|406:61|462:69,1,103.999995239258,8|0,0:0|0:0,0:0:0:0:
288,88,31203,2,0,B|250:57|250:57|258:1,1,103.999995239258,0|0,1:0|0:0,0:0:0:0:
264,176,31535,2,0,B|233:213|233:213|177:205,2,103.999995239258,8|0|0,0:0|0:0|1:0,0:0:0:0:
142,100,32032,1,8,0:0:0:0:
144,85,32115,1,8,0:0:0:0:
137,71,32198,6,0,P|89:51|38:48,1,103.999995239258,12|4,0:0|0:2,0:0:0:0:
0,258,32529,1,4,1:2:0:0:
99,280,32861,5,8,0:0:0:0:
137,71,33026,2,0,P|90:52|5:49,2,128,2|2|0,1:0|1:0|0:0,0:0:0:0:
99,280,33524,2,0,P|165:322|325:328,2,207.999990478516,4|0|8,0:2|1:0|0:0,0:0:0:0:
99,280,34353,2,0,P|136:249|198:256,1,103.999995239258,2|0,0:0|1:0,0:0:0:0:
184,384,34684,1,2,0:0:0:0:
294,245,34850,5,8,0:0:0:0:
282,216,35015,1,2,0:2:0:0:
205,166,35181,1,0,1:0:0:0:
245,74,35347,1,2,0:2:0:0:
160,0,35513,2,0,B|135:0|135:0|61:28,1,103.999995239258,8|0,0:0|0:0,0:0:0:0:
245,74,35844,6,0,B|284:26|284:26|356:36,1,128,2|0,1:0|0:0,0:0:0:0:
416,118,36176,2,0,B|454:88|454:88|446:32,1,103.999995239258,8|0,0:0|0:0,0:0:0:0:
427,206,36507,2,0,B|458:244|458:244|514:236,1,103.999995239258,0|0,1:0|0:0,0:0:0:0:
339,230,36839,2,0,B|302:261|302:261|310:317,3,103.999995239258,0|0|0|8,1:0|0:0|1:0|0:0,0:0:0:0:
234,369,37419,1,8,0:0:0:0:
227,355,37502,6,0,P|179:335|128:332,1,103.999995239258,12|4,0:0|0:2,0:0:0:0:
0,384,37833,1,4,1:2:0:0:
120,304,38000,1,4,0:0:0:0:
120,304,38330,1,4,0:0:0:0:
48,256,38496,6,0,P|29:209|26:157,1,103.999995239258,0|4,0:0|0:0,0:0:0:0:
62,0,38828,5,8,0:0:0:0:
77,148,38993,1,2,0:0:0:0:
151,20,39159,1,2,1:3:0:0:
16,80,39325,1,2,0:0:0:0:
161,111,39491,1,10,0:0:0:0:
161,111,39822,2,0,P|180:158|183:210,1,103.999995239258,0|0,1:0|0:0,0:0:0:0:
126,273,40154,5,4,0:2:0:0:
42,259,40319,1,0,0:0:0:0:
28,343,40485,1,0,1:0:0:0:
112,357,40651,1,2,0:2:0:0:
126,273,40817,2,0,P|222:271|316:302,1,184.000003509522,8|0,0:0|1:0,0:0:0:0:
338,373,41314,1,2,0:2:0:0:
372,242,41480,5,8,0:0:0:0:
461,355,41645,2,0,L|455:249,1,92.0000017547608,2|0,0:2|1:0,0:0:0:0:
364,232,41977,2,0,L|370:126,1,92.0000017547608,0|8,0:0|0:0,0:0:0:0:
478,80,42308,1,2,0:0:0:0:
398,61,42474,1,0,1:0:0:0:
318,42,42640,1,2,0:0:0:0:
199,9,42805,6,0,P|231:60|239:189,1,184.000003509522,8|0,0:0|1:0,0:0:0:0:
158,140,43303,1,2,0:2:0:0:
235,189,43468,2,0,P|239:280|284:359,1,184.000003509522,8|0,0:0|1:0,0:0:0:0:
333,280,43966,5,8,0:0:0:0:
346,284,44049,1,8,0:0:0:0:
358,288,44131,1,8,0:0:0:0:
192,384,44297,1,4,0:2:0:0:
333,280,44629,5,8,0:0:0:0:
346,284,44712,1,8,0:0:0:0:
358,288,44794,1,12,0:0:0:0:
321,370,44960,1,4,0:2:0:0:
192,384,45126,1,4,1:2:0:0:
136,314,45292,1,0,1:0:0:0:
38,384,45457,6,0,P|53:302|51:161,1,184.000003509522,8|0,0:0|1:0,0:0:0:0:
5,105,45955,2,0,P|71:119|125:125,1,92.0000017547608,2|8,0:2|0:0,0:0:0:0:
43,26,46286,2,0,P|110:22|164:14,1,92.0000017547608,0|0,0:0|1:0,0:0:0:0:
181,111,46618,2,0,P|247:125|301:131,1,92.0000017547608,0|8,0:0|0:0,0:0:0:0:
219,32,46949,2,0,P|286:28|340:20,1,92.0000017547608,0|0,0:0|1:0,0:0:0:0:
436,30,47281,2,0,P|395:64|354:199,1,184.000003509522,2|0,0:2|0:0,0:0:0:0:
445,167,47778,1,0,1:0:0:0:
356,193,47944,1,2,1:2:0:0:
512,242,48109,6,0,P|431:256|331:292,1,184.000003509522,8|0,0:0|1:0,0:0:0:0:
403,355,48607,2,0,P|369:309|326:298,1,92.0000017547608,0|8,0:0|0:0,0:0:0:0:
242,364,48938,2,0,L|255:264,1,92.0000017547608,2|0,0:2|1:0,0:0:0:0:
189,212,49270,1,0,1:0:0:0:
321,199,49435,5,2,0:0:0:0:
320,185,49518,1,2,0:0:0:0:
319,171,49601,1,2,0:0:0:0:
197,130,49767,1,4,0:2:0:0:
311,89,49933,1,4,0:2:0:0:
189,212,50098,5,10,0:0:0:0:
188,226,50181,1,10,0:0:0:0:
187,240,50264,1,10,0:0:0:0:
329,281,50430,1,4,0:2:0:0:
180,323,50596,1,4,0:2:0:0:
328,384,50761,5,8,0:0:0:0:
180,323,50927,2,0,B|184:304|184:304|153:230,2,92.0000017547608,2|0|2,0:0|1:0|0:0,0:0:0:0:
256,384,51424,1,8,0:0:0:0:
329,281,51590,2,0,B|325:262|325:262|356:188,1,92.0000017547608,0|0,0:0|1:0,0:0:0:0:
512,144,51921,1,2,0:0:0:0:
353,195,52087,5,8,0:0:0:0:
416,120,52253,2,0,B|420:101|420:101|389:27,1,92.0000017547608,2|0,0:0|1:0,0:0:0:0:
353,195,52584,2,0,B|361:213|361:213|336:280,1,92.0000017547608,2|8,0:0|0:0,0:0:0:0:
256,384,52915,5,4,0:2:0:0:
392,350,53081,1,4,0:2:0:0:
256,264,53247,1,2,0:2:0:0:
120,350,53412,6,0,P|88:299|82:259,1,92.0000017547608,8|0,0:0|0:0,0:0:0:0:
24,376,53745,1,0,1:0:0:0:
152,232,53910,1,0,0:0:0:0:
96,176,54075,2,0,P|100:85|145:6,1,184.000003509522,8|0,0:0|1:0,0:0:0:0:
0,0,54573,5,8,0:0:0:0:
13,4,54656,1,8,0:0:0:0:
25,8,54738,1,12,0:0:0:0:
120,96,54904,1,4,0:2:0:0:
400,71,55236,5,2,0:2:0:0:
396,84,55319,1,2,0:2:0:0:
392,96,55401,1,8,0:3:0:0:
355,238,55568,1,2,0:1:0:0:
217,186,55734,2,0,B|145:172|164:134|96:126,1,138.000002632141,2|0,1:0|0:0,0:0:0:0:
56,152,56064,6,0,P|41:234|43:375,1,184.000003509522,8|0,0:0|1:0,0:0:0:0:
160,384,56562,2,0,P|174:318|180:264,1,92.0000017547608,2|8,0:0|0:0,0:0:0:0:
352,384,56894,2,0,P|338:318|332:264,1,92.0000017547608,2|0,0:0|1:0,0:0:0:0:
256,192,57225,1,2,0:0:0:0:
456,152,57391,6,0,P|471:234|469:375,1,184.000003509522,12|0,0:0|1:0,0:0:0:0:
352,384,57888,2,0,P|338:318|332:264,1,92.0000017547608,2|8,0:0|0:0,0:0:0:0:
160,384,58220,2,0,P|174:318|180:264,1,92.0000017547608,2|0,0:0|1:0,0:0:0:0:
256,192,58551,1,2,1:3:0:0:
256,88,58717,5,8,0:0:0:0:
152,192,58882,1,2,0:1:0:0:
256,296,59048,1,0,1:0:0:0:
360,192,59214,1,2,0:1:0:0:
352,48,59380,5,2,1:0:0:0:
352,48,59463,1,0,1:0:0:0:
352,48,59546,1,2,1:0:0:0:
352,48,59629,1,0,1:0:0:0:
352,48,59712,6,0,L|336:0,1,46.0000008773804,2|0,1:0|1:0,0:0:0:0:
174,4,59877,2,0,L|160:48,1,46.0000008773804,2|0,1:0|1:0,0:0:0:0:
0,208,60209,6,0,L|48:192,1,40,2|10,2:0|2:0,0:0:0:0:
80,264,60540,2,0,L|117:276,1,40,2|10,2:0|2:0,0:0:0:0:
20,384,61038,2,0,L|33:346,1,40,10|2,2:0|2:0,0:0:0:0:
192,238,61369,6,0,P|250:317|340:335,1,184.000003509522,8|0,0:0|1:0,0:0:0:0:
385,272,61866,1,2,0:0:0:0:
406,374,62032,1,8,0:0:0:0:
465,309,62198,1,0,0:0:0:0:
475,314,62281,2,0,L|468:249,1,46.0000008773804,0|0,0:0|1:0,0:0:0:0:
308,174,62529,6,0,P|409:185|496:151,1,184.000003509522,2|2,0:0|0:0,0:0:0:0:
503,76,63026,1,0,1:0:0:0:
435,21,63192,1,2,0:0:0:0:
365,99,63358,2,0,P|348:40|300:17,1,92.0000017547608,8|2,0:0|0:2,0:0:0:0:
221,61,63689,2,0,L|232:182,1,92.0000017547608,2|0,1:0|1:0,0:0:0:0:
370,267,64021,6,0,P|269:239|164:247,1,184.000003509522,8|0,0:0|1:0,0:0:0:0:
107,259,64518,1,2,0:0:0:0:
243,365,64684,2,0,P|188:350|153:325,1,92.0000017547608,8|0,0:0|0:0,0:0:0:0:
106,247,65015,1,0,1:0:0:0:
34,319,65181,5,0,1:0:0:0:
37,338,65264,1,0,1:0:0:0:
40,357,65347,1,12,0:0:0:0:
148,335,65513,1,4,0:2:0:0:
107,259,65678,1,4,1:2:0:0:
25,231,65844,5,0,1:0:0:0:
28,212,65927,1,0,1:0:0:0:
31,193,66010,1,12,0:0:0:0:
109,158,66176,1,4,0:2:0:0:
45,34,66341,1,6,1:0:0:0:
9,108,66507,1,0,1:0:0:0:
148,81,66673,6,0,P|274:76|353:86,1,184.000003509522,8|0,0:0|1:0,0:0:0:0:
395,18,67170,1,2,0:2:0:0:
463,75,67336,1,8,0:0:0:0:
461,94,67418,1,0,0:0:0:0:
460,114,67501,1,2,0:2:0:0:
459,134,67584,1,0,0:0:0:0:
458,154,67667,1,0,1:0:0:0:
317,181,67833,6,0,P|393:216|430:249,1,92.0000017547608,2|8,0:0|0:0,0:0:0:0:
374,304,68165,1,2,0:0:0:0:
480,238,68330,1,0,1:0:0:0:
376,318,68496,1,2,0:0:0:0:
512,315,68662,1,8,0:0:0:0:
242,380,68993,6,0,P|285:307|270:229,1,138.000002632141,2|0,1:0|0:0,0:0:0:0:
269,252,69325,2,0,L|262:157,1,92.0000017547608,8|0,0:0|0:0,0:0:0:0:
192,113,69656,1,0,1:0:0:0:
342,145,69822,1,2,0:0:0:0:
254,38,69988,2,0,P|191:24|125:23,1,92.0000017547608,8|2,0:0|0:2,0:0:0:0:
14,48,70319,1,0,1:0:0:0:
98,129,70485,5,0,1:0:0:0:
99,105,70568,1,0,1:0:0:0:
96,82,70651,1,12,0:0:0:0:
13,153,70817,1,4,0:2:0:0:
141,205,70982,1,4,1:2:0:0:
169,340,71148,1,0,1:0:0:0:
40,288,71313,1,0,1:0:0:0:
0,363,71645,6,0,P|60:309|178:301,1,167.999994873047,2|0,1:0|0:0,0:0:0:0:
242,384,71977,6,0,P|200:318|194:281,1,92.0000017547608,8|0,0:0|0:0,0:0:0:0:
176,200,72308,2,0,P|194:123|216:93,1,92.0000017547608,0|0,1:0|0:0,0:0:0:0:
112,0,72640,5,8,0:0:0:0:
202,99,72806,1,2,0:0:0:0:
92,81,72971,5,0,1:0:0:0:
183,102,73137,1,2,0:0:0:0:
64,224,73303,6,0,P|130:182|167:176,1,92.0000017547608,8|2,0:0|0:2,0:0:0:0:
248,158,73634,2,0,P|324:176|354:198,1,92.0000017547608,0|2,1:0|0:2,0:0:0:0:
368,312,73966,5,8,0:0:0:0:
452,298,74132,1,2,0:1:0:0:
438,214,74298,1,2,1:0:0:0:
354,228,74463,1,2,1:2:0:0:
288,384,74629,6,0,P|241:369|193:358,1,92.0000017547608,8|0,0:0|0:0,0:0:0:0:
0,304,74960,2,0,P|47:289|95:278,1,92.0000017547608,0|0,1:0|0:0,0:0:0:0:
288,336,75292,2,0,P|241:321|193:310,1,92.0000017547608,8|2,0:0|0:0,0:0:0:0:
0,256,75623,2,0,P|47:241|95:230,1,92.0000017547608,0|2,1:0|1:3,0:0:0:0:
170,181,75872,1,0,1:0:0:0:
163,167,75955,5,12,0:0:0:0:
50,109,76120,1,4,0:2:0:0:
144,0,76286,1,4,0:2:0:0:
163,167,76618,5,12,0:0:0:0:
50,109,76783,1,4,0:2:0:0:
144,0,76949,1,4,1:2:0:0:
144,0,77115,1,4,0:2:0:0:
163,167,77281,6,0,P|229:125|363:94,2,207.999990478516,8|0|8,0:0|1:0|0:0,0:0:0:0:
119,240,78110,2,0,P|123:292|153:344,1,103.999995239258,2|0,0:0|1:0,0:0:0:0:
216,384,78441,1,2,0:0:0:0:
0,280,78607,6,0,P|66:322|103:328,1,103.999995239258,0|2,3:0|0:2,0:0:0:0:
184,346,78938,2,0,P|260:328|290:306,1,103.999995239258,0|2,1:0|0:2,0:0:0:0:
304,192,79270,5,8,0:0:0:0:
374,290,79436,1,2,0:1:0:0:
388,206,79602,1,2,1:0:0:0:
290,276,79767,1,2,1:2:0:0:
478,173,79933,6,0,B|451:125|451:125|391:117,1,103.999995239258,8|0,0:0|0:0,0:0:0:0:
356,0,80264,2,0,B|308:27|308:27|300:87,1,103.999995239258,0|0,1:0|0:0,0:0:0:0:
232,184,80596,2,0,B|184:157|184:157|176:97,3,103.999995239258,8|2|0|2,0:0|0:0|1:0|1:3,0:0:0:0:
163,20,81176,1,0,1:0:0:0:
147,15,81259,6,0,P|100:37|63:73,1,103.999995239258,12|6,0:0|0:0,0:0:0:0:
17,203,81590,1,8,0:0:0:0:
38,61,81757,1,6,0:0:0:0:
0,336,82087,1,6,1:0:0:0:
64,384,82253,6,0,B|166:406|153:274|286:274,1,240,2|0,1:0|0:0,0:0:0:0:
319,345,82584,5,4,0:2:0:0:
331,214,82750,1,2,0:0:0:0:
331,214,83082,1,2,0:0:0:0:
331,214,83413,1,2,0:0:0:0:
388,284,83579,1,0,0:0:0:0:
469,262,83744,1,2,0:0:0:0:
512,358,83910,5,8,0:0:0:0:
479,179,84076,1,10,0:0:0:0:
479,179,84408,1,2,0:0:0:0:
479,179,84739,1,2,0:0:0:0:
393,287,84905,1,8,0:0:0:0:
397,148,85071,1,10,0:0:0:0:
401,65,85236,6,0,P|438:25|488:18,1,80,4|2,0:2|0:0,0:0:0:0:
321,90,85568,2,0,P|306:54|310:15,1,80,0|2,0:0|0:0,0:0:0:0:
230,118,85899,2,0,P|225:78|201:46,1,80,0|2,0:0|0:0,0:0:0:0:
150,139,86231,2,0,P|97:122|51:141,1,80,0|2,0:0|0:0,0:0:0:0:
21,61,86562,5,12,0:0:0:0:
12,186,86728,1,4,0:2:0:0:
3,311,86894,1,4,0:2:0:0:
21,61,87225,5,12,0:0:0:0:
12,186,87391,1,4,0:2:0:0:
3,311,87557,1,4,0:2:0:0:
21,61,87888,5,8,0:0:0:0:
94,9,88054,2,0,P|153:14|264:50,2,160,2|2|2,0:0|0:0|0:0,0:0:0:0:
137,96,88883,1,0,0:0:0:0:
237,49,89049,1,2,0:0:0:0:
280,184,89214,5,8,0:0:0:0:
321,4,89380,2,0,P|330:70|377:168,2,160,10|10|10,0:0|0:0|0:0,0:0:0:0:
414,42,90209,1,8,0:0:0:0:
378,160,90375,1,10,0:0:0:0:
450,212,90540,6,0,P|470:264|468:313,1,80,8|10,0:0|0:0,0:0:0:0:
329,326,90872,2,0,P|384:334|425:360,1,80,8|10,0:0|0:0,0:0:0:0:
201,335,91203,2,0,P|236:291|279:268,1,80,8|10,0:0|0:0,0:0:0:0:
118,368,91535,2,0,P|98:316|100:267,1,80,8|10,0:0|0:0,0:0:0:0:
140,217,91866,5,12,0:0:0:0:
15,283,92032,1,4,0:2:0:0:
0,372,92198,1,4,0:2:0:0:
0,372,92363,1,4,0:2:0:0:
140,217,92695,5,2,0:1:0:0:
10,183,92861,2,0,P|0:126|15:10,1,167.999994873047,2|0,1:0|0:0,0:0:0:0:
32,33,93192,6,0,P|48:86|81:131,1,111.999996582031,4|0,0:2|0:0,0:0:0:0:
88,312,93524,2,0,P|121:267|137:213,1,111.999996582031,0|0,1:0|0:0,0:0:0:0:
193,116,93855,5,8,0:0:0:0:
304,124,94021,1,2,0:0:0:0:
373,179,94186,1,0,1:0:0:0:
386,244,94352,1,2,0:0:0:0:
296,384,94518,5,8,0:0:0:0:
380,370,94684,1,2,0:2:0:0:
366,286,94850,1,0,1:0:0:0:
282,300,95015,1,2,0:2:0:0:
208,384,95181,6,0,P|226:315|254:132,1,223.999993164063,0|2,3:0|1:0,0:0:0:0:
251,164,95678,1,0,0:0:0:0:
400,112,95844,5,8,0:0:0:0:
256,32,96010,1,0,0:0:0:0:
112,112,96175,2,0,P|127:159|141:221,1,111.999996582031,0|0,1:0|0:0,0:0:0:0:
296,352,96507,2,0,P|249:337|185:317,1,111.999996582031,8|0,0:0|0:0,0:0:0:0:
0,280,96838,2,0,P|47:265|110:248,1,111.999996582031,0|8,1:0|0:0,0:0:0:0:
121,272,97087,1,8,0:0:0:0:
114,286,97170,5,12,0:0:0:0:
191,384,97335,1,4,0:2:0:0:
352,304,97501,1,4,1:2:0:0:
114,286,97833,5,8,0:0:0:0:
191,384,97998,1,2,1:0:0:0:
352,304,98164,1,2,1:0:0:0:
352,304,98330,1,0,0:0:0:0:
440,384,98496,6,0,P|398:318|361:164,2,223.999993164063,4|0|8,0:2|1:0|0:0,0:0:0:0:
461,380,99325,2,0,P|465:328|495:276,1,111.999996582031,2|0,0:0|1:0,0:0:0:0:
512,144,99656,2,0,P|460:140|408:110,1,111.999996582031,2|8,0:0|0:0,0:0:0:0:
424,0,99988,5,2,0:2:0:0:
419,14,100319,5,2,0:2:0:0:
321,84,100485,1,8,0:0:0:0:
405,98,100651,1,0,0:0:0:0:
335,0,100816,1,0,1:0:0:0:
256,192,100982,5,2,0:1:0:0:
256,192,101148,5,8,0:0:0:0:
182,114,101314,1,0,0:0:0:0:
84,160,101480,1,0,1:0:0:0:
96,268,101645,1,0,0:0:0:0:
203,288,101811,5,0,1:0:0:0:
256,192,101977,1,0,0:0:0:0:
182,114,102143,1,0,1:0:0:0:
84,160,102308,1,8,0:0:0:0:
65,217,102391,1,8,0:0:0:0:
96,268,102474,5,12,0:0:0:0:
182,114,102640,1,4,0:2:0:0:
203,288,102805,1,4,1:2:0:0:
84,160,102971,1,4,0:0:0:0:
256,192,103303,1,4,0:0:0:0:
256,192,103634,1,4,0:0:0:0:
82,280,103800,5,8,0:0:0:0:
185,95,103966,1,2,0:0:0:0:
210,304,104131,1,2,1:3:0:0:
67,151,104297,1,2,0:0:0:0:
274,189,104463,1,10,0:0:0:0:
274,189,104794,6,0,B|263:237|326:231|326:294,1,111.999996582031,0|0,1:0|0:0,0:0:0:0:
319,380,105126,6,0,P|363:360|412:350,1,80,4|0,0:2|0:0,0:0:0:0:
409,350,105375,1,0,0:0:0:0:
424,351,105457,1,0,1:0:0:0:
506,376,105623,1,2,0:2:0:0:
485,290,105789,1,8,0:0:0:0:
487,274,105872,1,0,0:0:0:0:
494,260,105955,1,0,0:0:0:0:
424,211,106120,1,0,1:0:0:0:
424,211,106286,1,2,0:2:0:0:
493,163,106452,5,8,0:0:0:0:
338,140,106618,2,0,P|400:121|436:99,1,80,2|0,0:2|1:0,0:0:0:0:
512,55,106949,2,0,P|491:50|446:31,2,40,0|0|8,0:0|0:0|0:0,0:0:0:0:
402,0,107281,1,2,0:0:0:0:
402,0,107446,1,0,1:0:0:0:
331,49,107612,1,2,0:0:0:0:
203,33,107778,6,0,P|247:82|258:117,1,80,8|0,0:0|0:0,0:0:0:0:
323,152,108109,2,0,P|279:201|268:236,1,80,0|2,1:0|0:2,0:0:0:0:
351,337,108441,1,8,0:0:0:0:
277,298,108607,1,0,0:0:0:0:
261,295,108689,1,0,0:0:0:0:
245,297,108772,1,0,1:0:0:0:
174,340,108938,5,8,0:0:0:0:
139,320,109021,1,8,0:0:0:0:
133,280,109104,1,8,0:0:0:0:
39,384,109270,1,4,0:2:0:0:
174,340,109601,5,8,0:0:0:0:
139,320,109684,1,8,0:0:0:0:
133,280,109767,1,12,0:0:0:0:
41,368,109933,1,4,0:2:0:0:
59,234,110098,1,4,1:2:0:0:
33,377,110264,1,0,1:0:0:0:
143,288,110430,6,0,P|148:226|133:123,1,160,8|0,0:0|1:0,0:0:0:0:
0,54,110927,2,0,P|60:62|97:60,1,80,2|8,0:2|0:0,0:0:0:0:
212,95,111259,1,0,0:0:0:0:
227,94,111341,1,0,0:0:0:0:
241,100,111424,1,0,1:0:0:0:
151,17,111590,1,0,0:0:0:0:
250,11,111756,1,8,0:0:0:0:
250,11,111921,2,0,P|305:34|337:54,1,80,0|0,0:0|1:0,0:0:0:0:
425,1,112253,2,0,P|402:84|399:191,1,160,2|0,0:2|0:0,0:0:0:0:
505,259,112750,2,0,P|439:239|411:242,1,80,0|2,1:0|1:2,0:0:0:0:
350,275,113082,6,0,P|323:227|326:186,1,80,8|0,0:0|0:0,0:0:0:0:
250,115,113413,1,0,1:0:0:0:
258,128,113496,1,0,0:0:0:0:
259,143,113579,1,0,0:0:0:0:
192,194,113745,1,8,0:0:0:0:
184,207,113828,1,0,0:0:0:0:
172,215,113911,1,2,0:2:0:0:
94,183,114076,1,0,1:0:0:0:
79,182,114159,1,0,0:0:0:0:
66,176,114242,1,0,1:0:0:0:
66,176,114573,5,0,1:0:0:0:
4,230,114739,1,4,1:2:0:0:
20,335,114905,1,4,1:2:0:0:
134,359,115071,1,4,1:2:0:0:
4,230,115402,5,4,1:2:0:0:
20,335,115568,1,0,1:0:0:0:
134,359,115734,1,8,0:0:0:0:
66,176,115899,6,0,B|87:66,1,95.9999970703126,2|0,0:0|1:0,0:0:0:0:
256,0,116231,2,0,B|277:110,1,95.9999970703126,2|8,0:0|0:0,0:0:0:0:
16,128,116562,6,0,B|37:18,1,95.9999970703126,0|0,0:0|1:0,0:0:0:0:
34,33,116893,1,2,0:0:0:0:
176,192,117059,5,8,0:0:0:0:
348,130,117225,2,0,B|358:110|358:110|341:27,1,95.9999970703126,2|0,0:0|1:0,0:0:0:0:
176,192,117557,2,0,B|156:182|156:182|73:199,1,95.9999970703126,2|8,0:0|0:0,0:0:0:0:
112,328,117887,5,4,0:2:0:0:
256,384,118053,1,4,0:2:0:0:
400,328,118219,1,2,0:2:0:0:
400,327,118386,6,0,P|397:271|369:221,2,95.9999970703126,8|0|0,0:0|0:0|1:0,0:0:0:0:
256,384,118882,1,0,0:0:0:0:
111,328,119049,2,0,P|116:230|164:146,1,191.999994140625,8|0,0:0|1:0,0:0:0:0:
152,248,119545,5,8,0:0:0:0:
139,244,119629,1,8,0:0:0:0:
127,240,119712,1,12,0:0:0:0:
0,304,119876,1,4,0:2:0:0:
360,248,120209,5,2,0:2:0:0:
373,244,120292,1,2,0:2:0:0:
385,240,120374,1,8,0:3:0:0:
512,304,120540,1,2,0:1:0:0:
393,316,120706,5,2,1:0:0:0:
397,329,120789,1,0,0:0:0:0:
401,342,120872,2,0,L|338:333,1,47.9999985351563
296,384,121038,6,0,P|311:302|309:161,1,191.999994140625,8|0,0:0|1:0,0:0:0:0:
352,120,121534,2,0,P|366:54|372:0,1,95.9999970703126,2|8,0:0|0:0,0:0:0:0:
142,25,121866,2,0,P|149:73|160:120,1,95.9999970703126,2|0,0:0|1:0,0:0:0:0:
256,280,122197,1,2,0:0:0:0:
216,384,122363,6,0,P|201:302|203:161,1,191.999994140625,12|0,0:0|1:0,0:0:0:0:
142,25,122861,2,0,P|149:73|160:120,1,95.9999970703126,2|8,0:0|0:0,0:0:0:0:
351,119,123193,2,0,P|362:73|369:25,1,95.9999970703126,2|0,0:0|1:0,0:0:0:0:
256,192,123523,1,2,1:3:0:0:
352,264,123689,5,8,0:0:0:0:
369,355,123854,1,2,0:1:0:0:
160,264,124020,5,0,1:0:0:0:
142,355,124186,1,2,0:1:0:0:
256,192,124352,5,2,1:0:0:0:
256,160,124435,1,0,1:0:0:0:
256,128,124518,1,2,1:0:0:0:
256,96,124601,1,0,1:0:0:0:
256,64,124684,6,0,L|256:16,4,47.9999985351563,2|0|2|0|0,1:0|1:0|1:0|1:0|2:0,0:0:0:0:
256,192,125347,5,2,0:2:0:0:
256,192,125678,1,2,0:2:0:0:
256,192,126010,1,2,0:2:0:0:
256,192,126341,6,0,P|333:243|447:228,1,191.999994140625,8|0,0:0|1:0,0:0:0:0:
480,166,126839,1,2,0:0:0:0:
413,110,127004,1,8,0:0:0:0:
473,12,127170,1,0,0:0:0:0:
482,18,127253,2,0,L|488:79,1,47.9999985351563,0|0,0:0|1:0,0:0:0:0:
336,68,127502,6,0,P|286:15|168:17,1,191.999994140625,2|2,0:0|0:0,0:0:0:0:
150,157,127999,1,0,1:0:0:0:
116,79,128165,1,2,0:0:0:0:
0,168,128330,2,0,P|52:212|93:209,1,95.9999970703126,8|2,0:0|0:2,0:0:0:0:
232,103,128662,2,0,L|239:218,1,95.9999970703126,2|0,1:0|1:0,0:0:0:0:
351,209,128993,6,0,P|293:206|150:233,1,191.999994140625,8|0,0:0|1:0,0:0:0:0:
105,291,129491,1,2,0:0:0:0:
24,289,129656,1,8,0:0:0:0:
158,359,129822,1,0,0:0:0:0:
226,309,129988,1,0,1:0:0:0:
315,368,130154,5,0,1:0:0:0:
320,335,130236,1,0,1:0:0:0:
310,302,130319,1,12,0:0:0:0:
219,226,130485,1,4,0:2:0:0:
226,309,130651,1,4,1:2:0:0:
302,219,130817,5,0,1:0:0:0:
297,186,130899,1,0,1:0:0:0:
307,153,130982,1,12,0:0:0:0:
398,77,131148,1,4,0:2:0:0:
386,233,131314,1,6,1:0:0:0:
386,233,131480,1,0,1:0:0:0:
508,283,131645,6,0,P|451:300|330:368,1,191.999994140625,8|0,0:0|1:0,0:0:0:0:
275,297,132142,1,2,0:2:0:0:
186,375,132308,1,8,0:0:0:0:
189,351,132390,1,0,0:0:0:0:
191,327,132473,1,2,0:2:0:0:
191,303,132556,1,0,0:0:0:0:
189,279,132639,1,0,1:0:0:0:
143,182,132805,6,0,P|105:242|105:277,1,95.9999970703126,2|8,0:0|0:0,0:0:0:0:
57,334,133137,1,2,0:0:0:0:
5,261,133303,1,0,1:0:0:0:
56,152,133468,1,2,0:0:0:0:
15,24,133634,2,0,P|80:47|145:47,1,95.9999970703126,8|0,0:0|0:0,0:0:0:0:
186,106,133966,2,0,P|212:41|282:25,1,143.999995605469,2|0,1:0|0:0,0:0:0:0:
292,31,134297,6,0,L|301:163,1,95.9999970703126,8|0,0:0|0:0,0:0:0:0:
381,161,134629,1,0,1:0:0:0:
378,42,134794,1,2,0:0:0:0:
462,179,134960,2,0,P|464:239|460:310,1,95.9999970703126,8|2,0:0|0:2,0:0:0:0:
383,304,135292,1,0,1:0:0:0:
512,384,135457,5,0,1:0:0:0:
482,367,135540,1,0,1:0:0:0:
448,367,135623,1,12,0:0:0:0:
383,304,135789,1,4,0:2:0:0:
274,378,135955,1,4,1:2:0:0:
200,269,136120,1,0,1:0:0:0:
309,195,136286,1,0,1:0:0:0:
309,195,136618,6,0,P|220:257|117:237,1,176.000005371094,2|0,1:0|0:0,0:0:0:0:
24,384,136949,6,0,P|53:343|68:283,1,103.999995239258,4|2,0:2|0:2,0:0:0:0:
77,197,137281,2,0,P|60:149|18:103,1,103.999995239258,2|2,1:3|0:2,0:0:0:0:
258,245,137612,6,0,P|208:239|148:256,1,103.999995239258,10|2,0:0|0:2,0:0:0:0:
68,292,137944,2,0,P|35:329|16:389,1,103.999995239258,2|2,1:3|0:0,0:0:0:0:
25,109,138275,1,10,0:0:0:0:
77,197,138441,5,2,0:0:0:0:
258,245,138607,1,2,1:3:0:0:
156,252,138772,5,0,0:0:0:0:
17,380,138938,1,10,0:3:0:0:
68,292,139103,5,2,0:1:0:0:
156,252,139270,1,2,1:0:0:0:
77,197,139436,1,0,0:0:0:0:
148,346,139601,6,0,P|211:325|238:286,1,103.999995239258,10|2,0:0|0:2,0:0:0:0:
244,199,139932,2,0,P|229:265|249:307,1,103.999995239258,2|2,1:3|0:2,0:0:0:0:
322,356,140264,2,0,P|271:311|224:307,1,103.999995239258,10|2,0:0|0:2,0:0:0:0:
154,355,140595,1,2,1:3:0:0:
250,295,140761,1,8,3:0:0:0:
261,250,140844,1,8,3:0:0:0:
240,208,140927,6,0,B|219:195|219:195|140:187,1,103.999995239258,12|4,0:0|0:2,0:0:0:0:
161,364,141258,2,0,B|181:376|181:376|260:384,1,103.999995239258,4|2,1:2|0:2,0:0:0:0:
371,196,141590,6,0,B|292:188|292:188|272:176,1,103.999995239258,12|6,0:0|0:1,0:0:0:0:
351,20,141921,2,0,B|330:7|330:7|251:0,1,103.999995239258,6|2,1:0|0:0,0:0:0:0:
24,0,142253,6,0,P|53:41|68:101,1,103.999995239258,10|2,0:0|0:2,0:0:0:0:
77,187,142585,2,0,P|60:235|18:281,1,103.999995239258,2|2,1:3|0:2,0:0:0:0:
258,139,142916,6,0,P|208:145|148:128,1,103.999995239258,10|2,0:0|0:2,0:0:0:0:
68,92,143248,2,0,P|35:55|16:-5,1,103.999995239258,2|2,1:3|0:2,0:0:0:0:
25,275,143579,5,6,0:2:0:0:
77,187,143745,5,2,0:3:0:0:
156,132,143911,1,2,1:3:0:0:
68,92,144076,1,2,0:2:0:0:
258,139,144242,5,10,0:0:0:0:
68,92,144407,5,2,0:3:0:0:
156,132,144574,1,2,1:3:0:0:
77,187,144740,1,2,1:2:0:0:
148,38,144905,5,10,0:0:0:0:
233,87,145070,1,2,0:2:0:0:
244,185,145236,1,2,1:3:0:0:
241,87,145401,1,2,0:2:0:0:
322,28,145568,1,2,0:0:0:0:
237,78,145733,1,2,0:2:0:0:
154,29,145899,1,2,1:3:0:0:
250,89,146065,5,8,0:0:0:0:
261,134,146148,1,8,0:0:0:0:
240,176,146231,6,0,B|219:189|219:189|140:197,1,103.999995239258,14|2,0:0|0:3,0:0:0:0:
161,20,146562,2,0,B|181:8|181:8|260:0,1,103.999995239258,2|2,1:3|0:2,0:0:0:0:
371,188,146894,5,10,0:0:0:0:
270,208,147059,1,2,0:1:0:0:
251,383,147225,1,2,1:0:0:0:
351,364,147390,1,2,0:2:0:0:
264,215,147557,6,0,P|190:192|123:209,1,103.999995239258,4|2,0:2|0:2,0:0:0:0:
82,220,147888,2,0,P|25:272|6:339,1,103.999995239258,2|2,1:3|0:2,0:0:0:0:
69,39,148220,6,0,P|86:114|134:164,1,103.999995239258,10|2,0:0|0:2,0:0:0:0:
164,194,148551,2,0,P|238:217|305:200,1,103.999995239258,2|2,1:3|0:0,0:0:0:0:
14,295,148883,1,10,0:0:0:0:
82,220,149049,5,2,0:0:0:0:
69,39,149214,1,2,1:3:0:0:
100,135,149380,5,0,0:0:0:0:
264,213,149546,1,10,0:3:0:0:
164,194,149712,5,2,0:1:0:0:
100,135,149877,1,2,1:0:0:0:
82,220,150043,1,0,0:0:0:0:
182,107,150209,6,0,P|148:60|104:48,1,103.999995239258,10|2,0:0|0:2,0:0:0:0:
189,117,150540,2,0,P|246:111|279:78,1,103.999995239258,2|2,1:3|0:2,0:0:0:0:
176,118,150872,2,0,P|152:170|163:215,1,103.999995239258,10|2,0:0|0:2,0:0:0:0:
182,107,151203,1,2,1:3:0:0:
105,48,151369,1,8,3:0:0:0:
129,96,151452,1,8,3:0:0:0:
182,107,151535,6,0,B|195:99|195:99|186:1,1,103.999995239258,12|4,0:0|0:2,0:0:0:0:
18,108,151866,2,0,B|5:116|5:116|14:214,1,103.999995239258,4|2,1:2|0:2,0:0:0:0:
200,208,152198,6,0,B|187:200|187:200|196:102,1,103.999995239258,12|6,0:0|0:1,0:0:0:0:
371,222,152529,2,0,B|384:230|384:230|375:328,1,103.999995239258,6|2,1:0|0:0,0:0:0:0:
181,203,152861,6,0,P|255:180|322:197,1,103.999995239258,10|2,0:0|0:2,0:0:0:0:
363,208,153192,2,0,P|419:260|438:327,1,103.999995239258,2|2,1:3|0:2,0:0:0:0:
376,27,153524,6,0,P|358:102|310:152,1,103.999995239258,10|2,0:0|0:2,0:0:0:0:
281,182,153855,2,0,P|206:205|139:188,1,103.999995239258,2|2,1:3|0:2,0:0:0:0:
431,283,154187,5,6,0:2:0:0:
281,182,154352,5,2,0:3:0:0:
345,123,154517,1,2,1:3:0:0:
363,208,154683,1,2,0:2:0:0:
376,27,154850,5,10,0:0:0:0:
363,208,155015,5,2,0:3:0:0:
345,123,155181,1,2,1:3:0:0:
281,182,155347,1,2,1:2:0:0:
299,267,155513,5,4,1:0:0:0:
290,291,155595,1,0,0:0:0:0:
276,313,155678,1,2,0:0:0:0:
257,330,155761,1,0,0:0:0:0:
234,342,155844,2,0,L|138:336,3,51.999997619629,0|0|2|0,1:0|0:0|0:0|0:0,0:0:0:0:
83,384,156176,5,0,1:0:0:0:
92,359,156258,1,0,1:0:0:0:
99,334,156341,1,2,1:3:0:0:
103,309,156424,1,0,1:0:0:0:
106,283,156507,1,0,1:0:0:0:
105,257,156590,1,0,1:0:0:0:
102,231,156673,1,2,1:3:0:0:
97,205,156756,1,0,1:0:0:0:
90,181,156839,6,0,P|71:148|56:72,3,92.0000017547608,2|2|2|2,0:2|0:2|0:2|0:2,0:0:0:0:
200,48,157502,2,0,P|219:81|234:157,3,92.0000017547608,2|2|2|2,0:2|0:2|0:2|0:2,0:0:0:0:
256,192,159822,5,8,0:2:0:0:
256,192,160154,1,8,0:2:0:0:
256,192,160485,1,8,0:2:0:0:
352,288,160817,6,0,B|386:330|386:330|378:379,2,103.999995239258,8|0|0,0:0|0:0|1:0,0:0:0:0:
160,288,161480,6,0,B|126:330|126:330|134:379,2,103.999995239258,8|0|0,0:0|0:0|1:0,0:0:0:0:
352,288,162142,6,0,B|386:330|386:330|378:379,2,103.999995239258,8|0|0,0:0|0:0|1:0,0:0:0:0:
256,192,162805,5,8,0:0:0:0:
256,192,163137,1,0,1:0:0:0:
256,192,163303,1,0,1:0:0:0:
160,288,163468,6,0,B|126:330|126:330|134:379,2,103.999995239258,8|0|0,0:0|0:0|1:0,0:0:0:0:
352,288,164131,6,0,B|386:330|386:330|378:379,2,103.999995239258,0|0|0,3:0|0:0|1:0,0:0:0:0:
160,288,164629,5,8,0:0:0:0:
160,288,164712,1,8,0:0:0:0:
160,288,164793,2,0,B|126:330|126:330|134:379,2,103.999995239258,12|4|4,0:0|0:2|1:2,0:0:0:0:
256,192,165292,5,4,0:2:0:0:
352,288,165457,6,0,B|386:330|386:330|378:379,2,103.999995239258,4|0|0,0:2|0:0|1:0,0:0:0:0:
256,192,165955,5,0,0:0:0:0:
160,96,166120,5,8,0:0:0:0:
127,55,166286,1,0,0:0:0:0:
134,4,166452,1,0,1:0:0:0:
352,96,166783,5,8,0:0:0:0:
384,55,166949,1,0,0:0:0:0:
377,4,167115,1,0,1:0:0:0:
160,96,167446,5,8,0:0:0:0:
127,55,167612,1,0,0:0:0:0:
134,4,167778,1,0,1:0:0:0:
256,192,168109,5,8,0:0:0:0:
256,192,168441,1,0,1:0:0:0:
256,192,168607,1,0,1:0:0:0:
352,96,168772,5,8,0:0:0:0:
384,55,168938,1,0,0:0:0:0:
377,4,169104,1,0,1:0:0:0:
160,96,169435,5,0,3:0:0:0:
127,55,169601,1,0,0:0:0:0:
134,4,169767,1,0,1:0:0:0:
352,96,169933,5,8,0:0:0:0:
352,96,170015,1,8,0:0:0:0:
352,96,170098,5,12,0:0:0:0:
384,55,170264,1,4,0:2:0:0:
377,4,170430,1,4,1:2:0:0:
256,24,170596,5,4,0:2:0:0:
160,96,170761,5,4,0:2:0:0:
128,55,170927,1,0,0:0:0:0:
135,4,171093,1,2,1:0:0:0:
189,205,171424,5,8,0:0:0:0:
145,233,171590,1,0,0:0:0:0:
98,208,171756,1,0,1:0:0:0:
95,155,171921,1,0,0:0:0:0:
323,205,172087,5,8,0:0:0:0:
367,233,172253,1,0,0:0:0:0:
414,208,172419,1,0,1:0:0:0:
417,155,172584,1,0,0:0:0:0:
256,256,172750,5,8,0:0:0:0:
256,128,172916,1,0,0:0:0:0:
304,328,173082,2,0,P|369:339|415:329,1,103.999995239258,0|0,1:0|0:0,0:0:0:0:
208,328,173413,2,0,P|143:339|97:329,1,103.999995239258,8|0,0:0|0:0,0:0:0:0:
256,192,173745,1,0,1:0:0:0:
256,192,173910,1,0,1:0:0:0:
417,155,174076,5,8,0:0:0:0:
414,102,174241,1,0,0:0:0:0:
367,77,174407,1,0,1:0:0:0:
323,105,174573,1,0,0:0:0:0:
95,155,174739,5,0,3:0:0:0:
98,102,174904,1,0,0:0:0:0:
145,77,175070,1,0,1:0:0:0:
189,105,175236,5,8,0:0:0:0:
189,105,175319,1,8,0:0:0:0:
189,105,175402,1,12,0:0:0:0:
323,105,175568,1,4,0:2:0:0:
144,192,175734,1,4,1:2:0:0:
368,192,176065,5,12,0:0:0:0:
144,192,176231,1,4,1:2:0:0:
256,312,176397,1,4,0:2:0:0:
368,192,176562,1,8,0:0:0:0:
368,192,176645,1,8,0:0:0:0:
368,192,176728,6,0,P|384:96|376:48,1,103.999995239258,8|0,0:0|1:0,0:0:0:0:
144,192,177060,2,0,P|128:96|136:48,1,103.999995239258,8|0,0:0|1:0,0:0:0:0:
394,148,177391,2,0,P|384:51|364:6,1,103.999995239258,8|0,0:0|1:0,0:0:0:0:
118,148,177723,2,0,P|127:51|147:6,1,103.999995239258,8|0,0:0|1:0,0:0:0:0:
256,0,178054,5,0,3:0:0:0:
216,48,178220,1,0,1:0:0:0:
256,96,178386,1,8,0:0:0:0:
296,144,178551,1,0,1:0:0:0:
256,192,178717,1,8,0:0:0:0:
216,240,178883,1,0,1:0:0:0:
256,288,179049,1,8,0:0:0:0:
296,336,179214,1,0,1:0:0:0:
256,384,179380,5,2,1:3:0:0:
236,360,179463,1,0,1:0:0:0:
216,336,179546,2,0,L|182:296,1,51.999997619629,2|0,1:0|1:0,0:0:0:0:
256,288,179711,1,2,1:3:0:0:
276,264,179794,1,0,1:0:0:0:
296,240,179877,2,0,L|329:200,1,51.999997619629,2|0,1:0|1:0,1:0:0:0:
256,192,180043,1,2,1:3:0:0:
236,168,180126,1,0,1:0:0:0:
216,144,180209,2,0,L|182:104,1,51.999997619629,2|0,1:0|1:0,0:0:0:0:
256,96,180374,1,2,1:3:0:0:
276,72,180457,1,0,1:0:0:0:
296,48,180540,2,0,L|329:8,1,51.999997619629,2|0,1:0|1:0,1:0:0:0:
256,0,180706,6,0,L|190:12,3,51.999997619629,2|0|2|0,1:3|1:0|1:0|1:0,0:0:0:0:
233,87,181038,2,0,L|167:99,3,51.999997619629,2|0|2|0,1:3|1:0|1:0|1:0,0:0:0:0:
256,170,181369,2,0,L|322:182,3,51.999997619629,2|0|2|0,1:3|1:0|1:0|1:0,0:0:0:0:
279,257,181701,2,0,L|345:269,3,51.999997619629,2|0|0|0,1:0|1:0|1:0|1:0,0:0:0:0:
300,357,182032,5,2,0:0:0:0:
324,347,182115,1,0,0:0:0:0:
350,346,182198,2,0,P|395:354|422:368,1,51.999997619629,2|0,0:1|0:0,0:0:0:0:
212,357,182363,1,2,0:0:0:0:
188,347,182446,1,0,0:0:0:0:
162,346,182529,2,0,P|136:348|111:356,1,51.999997619629,2|0,0:1|0:0,0:0:0:0:
307,267,182695,5,2,0:0:0:0:
310,241,182778,1,0,0:0:0:0:
322,218,182861,2,0,P|351:183|377:166,1,51.999997619629,2|0,0:1|0:0,0:0:0:0:
205,267,183026,1,2,0:0:0:0:
202,241,183109,1,0,0:0:0:0:
190,218,183192,2,0,P|160:183|134:166,1,51.999997619629,2|0,0:1|0:0,0:0:0:0:
256,161,183358,5,2,1:3:0:0:
256,155,183441,1,0,1:0:0:0:
256,149,183524,1,2,1:0:0:0:
256,143,183607,1,0,1:0:0:0:
256,137,183689,1,2,1:3:0:0:
256,131,183772,1,0,1:0:0:0:
256,125,183855,1,2,1:0:0:0:
256,119,183938,1,0,1:0:0:0:
256,113,184021,1,2,1:3:0:0:
256,107,184104,1,0,1:0:0:0:
256,101,184187,1,2,1:0:0:0:
256,95,184270,1,0,1:0:0:0:
256,89,184352,1,2,1:3:0:0:
256,83,184435,1,0,1:0:0:0:
256,77,184518,1,2,1:0:0:0:
256,71,184601,1,0,1:0:0:0:
256,65,184684,2,0,L|256:26,32,25.9999988098145,0|0|0|0|0|0|0|0|0|0|0|0|0|0|0|0|0|0|0|0|0|0|0|0|0|0|0|0|0|0|0|0|8,0:0|0:0|0:0|0:0|0:0|0:0|0:0|0:0|0:0|0:0|0:0|0:0|0:0|0:0|0:0|0:0|0:0|0:0|0:0|0:0|0:0|0:0|0:0|0:0|0:0|0:0|0:0|0:0|0:0|0:0|0:0|0:0|0:2,0:0:0:0:
256,39,186341,5,8,0:2:0:0:
256,39,186673,1,8,0:2:0:0:
256,39,187004,1,8,0:2:0:0:
336,192,197944,6,0,L|384:192,14,30.0000011444092,2|0|2|0|0|2|0|0|2|0|0|2|0|0|2,0:2|0:0|0:2|0:0|0:0|0:2|0:0|0:0|0:2|0:0|0:0|0:2|0:0|0:0|0:2,0:0:0:0:
176,192,199270,6,0,L|128:192,14,30.0000011444092,2|0|2|0|0|2|0|0|2|0|0|2|0|0|2,0:2|0:0|0:2|0:0|0:0|0:2|0:0|0:0|0:2|0:0|0:0|0:2|0:0|0:0|0:2,0:0:0:0:
256,256,200596,5,2,0:2:0:0:
256,272,200678,1,0,0:0:0:0:
256,288,200761,2,0,L|256:320,12,30.0000011444092,2|0|0|2|0|0|2|0|0|2|0|0|2,0:2|0:0|0:0|0:2|0:0|0:0|0:2|0:0|0:0|0:2|0:0|0:0|0:2,0:0:0:0:
256,128,201921,5,2,0:2:0:0:
256,112,202003,1,0,0:0:0:0:
256,96,202086,2,0,L|256:64,12,30.0000011444092,2|0|0|2|0|0|2|0|0|2|0|0|2,0:2|0:0|0:0|0:2|0:0|0:0|0:2|0:0|0:0|0:2|0:0|0:0|0:2,0:0:0:0:
192,192,203248,5,2,0:2:0:0:
176,192,203330,1,2,0:2:0:0:
160,192,203413,2,0,L|128:192,2,30.0000011444092,2|0|0,0:2|0:0|0:0,0:0:0:0:
144,224,203662,2,0,L|112:224,2,30.0000011444092,2|0|0,0:2|0:0|0:0,0:0:0:0:
128,256,203910,2,0,L|96:256,2,30.0000011444092,2|0|0,0:2|0:0|0:0,0:0:0:0:
112,288,204159,2,0,L|80:288,2,30.0000011444092,2|0|0,0:2|0:0|0:0,0:0:0:0:
96,320,204408,2,0,L|64:320,2,30.0000011444092,2|0|2,0:2|0:0|0:2,0:0:0:0:
352,192,204739,6,0,L|384:192,2,30.0000011444092,2|0|0,0:2|0:0|0:0,0:0:0:0:
368,224,204988,2,0,L|400:224,2,30.0000011444092,2|0|0,0:2|0:0|0:0,0:0:0:0:
384,256,205236,2,0,L|416:256,2,30.0000011444092,2|0|0,0:2|0:0|0:0,0:0:0:0:
400,288,205485,2,0,L|432:288,2,30.0000011444092,2|0|0,0:2|0:0|0:0,0:0:0:0:
416,320,205734,2,0,L|448:320,3,30.0000011444092,2|0|2|0,0:2|0:0|0:2|0:0,0:0:0:0:
484,361,206065,5,2,0:2:0:0:
452,353,206148,1,0,0:0:0:0:
420,345,206231,1,0,0:0:0:0:
388,337,206315,1,2,0:2:0:0:
356,329,206397,1,0,0:0:0:0:
324,321,206480,1,0,0:0:0:0:
292,313,206562,1,2,0:2:0:0:
64,352,206728,5,0,0:0:0:0:
96,344,206811,1,2,0:2:0:0:
128,336,206894,1,0,0:0:0:0:
160,328,206978,1,0,0:0:0:0:
192,320,207060,2,0,L|237:308,1,30.0000011444092,2|0,0:2|0:0,0:0:0:0:
288,240,207225,5,2,0:2:0:0:
288,224,207307,1,0,0:0:0:0:
288,208,207390,2,0,L|288:176,1,20,2|0,0:2|0:0,0:0:0:0:
208,208,207557,5,2,0:2:0:0:
208,192,207639,1,0,0:0:0:0:
208,176,207722,2,0,L|208:144,1,20,2|0,0:2|0:0,0:0:0:0:
288,112,207888,5,2,0:2:0:0:
288,96,207970,1,0,0:0:0:0:
288,80,208053,2,0,L|288:48,1,20,2|0,0:2|0:0,0:0:0:0:
208,80,208220,5,2,0:2:0:0:
208,64,208302,1,0,0:0:0:0:
208,48,208385,2,0,L|208:16,1,20,2|0,0:2|0:0,0:0:0:0:
256,192,212198,5,2,0:1:0:0:
256,192,212529,6,0,P|195:239|69:224,1,184.000003509522,8|0,0:0|1:0,0:0:0:0:
40,166,213026,1,2,0:0:0:0:
88,247,213192,1,8,0:0:0:0:
22,352,213358,1,0,0:0:0:0:
12,345,213441,2,0,L|18:290,1,46.0000008773804,0|0,0:0|1:0,0:0:0:0:
104,382,213689,6,0,P|129:338|260:302,1,184.000003509522,2|2,0:0|0:0,0:0:0:0:
312,360,214187,1,0,1:0:0:0:
388,317,214352,1,2,0:0:0:0:
301,231,214518,1,8,0:0:0:0:
490,0,214850,2,0,P|498:90|445:141,1,167.999994873047,2|0,1:0|0:0,0:0:0:0:
434,145,215181,6,0,P|403:120|312:118,1,92.0000017547608,8|0,0:0|0:0,0:0:0:0:
254,160,215513,1,0,1:0:0:0:
350,97,215678,1,2,0:0:0:0:
304,25,215844,1,8,0:0:0:0:
269,26,215926,1,0,0:0:0:0:
241,45,216009,1,0,0:0:0:0:
211,60,216092,1,0,0:0:0:0:
177,56,216175,1,0,1:0:0:0:
100,4,216341,5,0,1:0:0:0:
97,17,216424,1,0,1:0:0:0:
94,30,216507,1,12,0:0:0:0:
16,67,216673,1,4,0:2:0:0:
133,129,216839,1,4,1:2:0:0:
48,147,217004,5,0,1:0:0:0:
51,160,217087,1,0,1:0:0:0:
54,173,217170,1,12,0:0:0:0:
132,210,217336,1,4,0:2:0:0:
15,272,217502,2,0,P|77:280|154:323,1,111.999996582031,6|0,1:0|1:0,0:0:0:0:
0,384,217833,6,0,P|95:318|193:317,1,184.000003509522,8|0,0:0|1:0,0:0:0:0:
234,351,218330,1,2,0:2:0:0:
299,251,218496,2,0,L|302:308,1,46.0000008773804,8|0,0:0|0:0,0:0:0:0:
380,365,218662,1,2,0:2:0:0:
376,351,218745,1,0,0:0:0:0:
378,337,218828,1,0,1:0:0:0:
470,286,218993,6,0,P|419:260|355:144,1,184.000003509522,2|2,0:0|0:0,0:0:0:0:
430,108,219491,1,0,1:0:0:0:
484,41,219656,1,2,0:0:0:0:
375,8,219822,1,8,0:0:0:0:
321,75,219987,1,0,0:0:0:0:
235,4,220154,1,2,1:0:0:0:
235,4,220319,1,0,0:0:0:0:
286,154,220485,6,0,L|281:272,1,92.0000017547608,8|0,0:0|0:0,0:0:0:0:
207,290,220817,1,0,1:0:0:0:
170,197,220982,1,2,0:0:0:0:
290,216,221148,2,0,L|295:334,1,92.0000017547608,8|2,0:0|0:2,0:0:0:0:
237,371,221480,1,0,1:0:0:0:
124,321,221645,5,0,1:0:0:0:
117,298,221728,1,0,1:0:0:0:
121,275,221811,1,12,0:0:0:0:
207,290,221977,1,4,0:2:0:0:
170,197,222142,1,4,1:2:0:0:
38,266,222308,1,0,1:0:0:0:
68,384,222474,5,0,1:0:0:0:
68,384,222805,6,0,P|53:243|36:138,1,223.999993164063,2|8,1:0|0:0,0:0:0:0:
192,0,223303,6,0,P|232:27|291:63,1,92.0000017547608,0|0,0:0|1:0,0:0:0:0:
64,176,223634,2,0,P|104:203|163:239,1,92.0000017547608,2|8,0:0|0:0,0:0:0:0:
269,50,223966,6,0,P|309:77|368:113,1,92.0000017547608,0|0,0:0|1:0,0:0:0:0:
141,226,224297,2,0,P|181:253|240:289,1,92.0000017547608,2|8,0:0|0:0,0:0:0:0:
346,100,224629,6,0,P|386:127|445:163,1,92.0000017547608,2|0,0:0|1:0,0:0:0:0:
218,276,224960,2,0,P|258:303|317:339,2,92.0000017547608,2|8|0,0:0|0:0|0:0,0:0:0:0:
46,341,225457,5,2,1:0:0:0:
46,341,225789,1,8,0:0:0:0:
198,374,225955,6,0,P|238:347|297:311,1,92.0000017547608,0|0,0:0|1:0,0:0:0:0:
70,198,226286,2,0,P|110:171|169:135,1,92.0000017547608,2|8,0:0|0:0,0:0:0:0:
275,324,226618,6,0,P|315:297|374:261,1,92.0000017547608,0|0,0:0|1:0,0:0:0:0:
147,148,226949,5,0,1:0:0:0:
185,122,227031,1,0,1:0:0:0:
224,97,227114,1,12,0:0:0:0:
352,273,227281,6,0,P|392:246|451:210,1,92.0000017547608,4|4,0:2|1:2,0:0:0:0:
224,97,227612,5,0,1:0:0:0:
262,71,227694,1,0,1:0:0:0:
301,46,227777,1,12,0:0:0:0:
192,0,227944,5,4,0:2:0:0:
256,192,228109,1,6,1:0:0:0:
256,192,228275,1,0,1:0:0:0:
198,258,228441,6,0,P|171:221|171:176,1,92.0000017547608,8|2,0:0|0:2,0:0:0:0:
26,35,228772,2,0,P|0:72|0:117,1,92.0000017547608,0|2,1:0|0:2,0:0:0:0:
63,235,229104,5,8,0:0:0:0:
69,209,229186,1,0,0:0:0:0:
76,184,229269,1,2,0:2:0:0:
83,157,229352,1,0,0:0:0:0:
88,131,229435,1,0,1:0:0:0:
89,337,229601,6,0,P|7:319|-36:296,2,92.0000017547608,2|8|2,0:0|0:0|0:0,0:0:0:0:
230,359,230098,1,0,1:0:0:0:
334,279,230264,1,2,0:0:0:0:
198,258,230430,1,8,0:0:0:0:
341,328,230596,5,0,0:0:0:0:
456,240,230761,2,0,P|455:172|416:116,1,138.000002632141,2|0,1:0|0:0,0:0:0:0:
416,116,231093,1,8,0:0:0:0:
478,58,231259,6,0,P|434:29|378:42,1,92.0000017547608,0|0,0:0|1:0,0:0:0:0:
304,144,231590,2,0,P|256:167|240:222,1,92.0000017547608,2|8,0:0|0:0,0:0:0:0:
279,333,231921,2,0,P|310:375|367:380,2,92.0000017547608,2|0|0,0:2|1:0|1:0,0:0:0:0:
264,318,232336,1,0,1:0:0:0:
241,318,232419,5,12,0:0:0:0:
149,201,232585,1,4,0:2:0:0:
265,110,232750,1,4,1:2:0:0:
357,226,232916,1,0,1:0:0:0:
241,318,233081,1,0,1:0:0:0:
241,318,233413,6,0,P|173:305|90:298,1,138.000002632141,2|0,1:0|0:0,0:0:0:0:
92,300,233745,6,0,P|148:247|167:180,1,103.999995239258,4|2,0:2|0:2,0:0:0:0:
178,139,234076,2,0,P|161:63|112:13,1,103.999995239258,2|2,1:3|0:2,0:0:0:0:
341,219,234408,6,0,P|267:196|200:212,1,103.999995239258,10|2,0:0|0:2,0:0:0:0:
160,223,234739,2,0,P|103:275|84:342,1,103.999995239258,2|2,1:3|0:0,0:0:0:0:
147,44,235071,1,10,0:0:0:0:
178,139,235237,5,2,0:0:0:0:
341,219,235402,1,2,1:3:0:0:
243,197,235568,5,0,0:0:0:0:
93,301,235734,1,10,0:3:0:0:
160,223,235900,5,2,0:1:0:0:
243,197,236065,1,2,1:0:0:0:
178,139,236231,1,0,0:0:0:0:
99,166,236397,6,0,P|89:115|112:70,1,103.999995239258,10|2,0:0|0:2,0:0:0:0:
215,32,236729,2,0,P|176:66|125:69,1,103.999995239258,2|2,1:3|0:2,0:0:0:0:
42,0,237060,2,0,P|90:16|118:59,1,103.999995239258,10|2,0:0|0:2,0:0:0:0:
99,166,237391,1,2,1:3:0:0:
125,69,237557,1,8,3:0:0:0:
163,35,237639,1,8,3:0:0:0:
214,31,237723,6,0,B|227:39|227:39|218:137,1,103.999995239258,12|4,0:0|0:2,0:0:0:0:
18,108,238054,2,0,B|5:116|5:116|14:214,1,103.999995239258,4|2,1:2|0:2,0:0:0:0:
185,298,238386,6,0,B|172:290|172:290|181:192,1,103.999995239258,12|6,0:0|0:1,0:0:0:0:
381,221,238717,2,0,B|394:213|394:213|385:115,1,103.999995239258,6|2,1:0|0:0,0:0:0:0:
144,35,239049,6,0,P|200:87|219:154,1,103.999995239258,10|2,0:0|0:2,0:0:0:0:
230,196,239380,2,0,P|213:271|164:321,1,103.999995239258,2|2,1:3|0:2,0:0:0:0:
393,116,239712,6,0,P|319:138|252:122,1,103.999995239258,10|2,0:0|0:2,0:0:0:0:
212,112,240043,2,0,P|155:59|136:-7,1,103.999995239258,2|2,1:3|0:2,0:0:0:0:
199,291,240375,5,6,0:2:0:0:
230,196,240541,5,2,0:3:0:0:
295,138,240706,1,2,1:3:0:0:
212,112,240872,1,2,0:2:0:0:
145,34,241037,5,10,0:0:0:0:
212,112,241203,5,2,0:3:0:0:
295,138,241369,1,2,1:3:0:0:
230,196,241535,1,2,1:2:0:0:
151,169,241700,5,10,0:0:0:0:
164,264,241866,1,2,0:2:0:0:
267,303,242032,1,2,1:3:0:0:
177,265,242198,1,2,0:2:0:0:
94,335,242363,1,2,0:0:0:0:
170,275,242529,1,2,0:2:0:0:
151,169,242695,1,2,1:3:0:0:
177,266,242861,1,8,0:0:0:0:
215,300,242943,1,8,0:0:0:0:
266,304,243027,6,0,B|279:296|279:296|270:198,1,103.999995239258,14|2,0:0|0:3,0:0:0:0:
70,227,243358,2,0,B|57:219|57:219|66:121,1,103.999995239258,2|2,1:3|0:2,0:0:0:0:
237,37,243689,5,10,0:0:0:0:
232,133,243855,1,2,0:1:0:0:
357,120,244021,1,2,1:0:0:0:
361,216,244187,1,2,0:2:0:0:
336,384,244352,6,0,P|380:273|471:198,2,240.000009155274,4|2|10,0:2|1:3|0:0,0:0:0:0:
195,273,245181,2,0,B|246:277|326:304,2,120.000004577637,2|2|2,0:2|1:3|0:0,0:0:0:0:
181,134,245678,5,10,0:0:0:0:
185,246,245844,1,2,0:0:0:0:
81,139,246009,5,2,1:3:0:0:
176,268,246175,1,0,0:0:0:0:
38,172,246341,5,10,0:3:0:0:
167,267,246507,1,2,0:1:0:0:
33,272,246672,5,2,1:0:0:0:
145,276,246838,1,0,0:0:0:0:
160,384,247004,6,0,B|164:333|191:253,1,120.000004577637,10|2,0:0|0:2,0:0:0:0:
256,192,247336,5,2,1:3:0:0:
229,75,247501,1,2,0:2:0:0:
160,0,247667,6,0,B|164:51|191:131,1,120.000004577637,10|2,0:0|0:2,0:0:0:0:
256,192,247999,5,2,1:3:0:0:
229,308,248164,1,8,3:0:0:0:
229,308,248247,1,8,3:0:0:0:
229,308,248330,5,12,0:0:0:0:
368,384,248495,1,4,0:2:0:0:
448,320,248662,2,0,P|389:301|255:270,1,180.000006866455,4|0,1:2|0:0,0:0:0:0:
229,308,248993,5,12,0:0:0:0:
368,384,249158,1,6,0:1:0:0:
468,302,249324,1,6,1:0:0:0:
387,221,249491,1,2,0:0:0:0:
387,221,249573,1,0,0:0:0:0:
387,221,249656,6,0,L|414:82,1,120.000004577637,10|2,0:0|0:2,0:0:0:0:
256,0,249988,1,2,1:3:0:0:
292,129,250154,1,2,0:2:0:0:
387,221,250319,6,0,L|414:82,1,120.000004577637,10|2,0:0|0:2,0:0:0:0:
256,0,250651,1,2,1:3:0:0:
292,129,250817,1,2,0:2:0:0:
125,221,250982,6,0,L|98:82,1,120.000004577637,6|2,0:2|0:3,0:0:0:0:
256,0,251314,2,0,L|229:139,1,120.000004577637,2|2,1:3|0:2,0:0:0:0:
125,221,251645,5,10,0:0:0:0:
96,96,251811,1,2,0:3:0:0:
256,0,251977,5,2,1:3:0:0:
220,129,252143,1,2,1:2:0:0:
46,34,252308,5,4,1:0:0:0:
46,34,252390,1,0,0:0:0:0:
46,34,252473,1,2,0:0:0:0:
46,34,252556,1,0,0:0:0:0:
46,34,252639,2,0,P|22:58|16:86,1,60.0000022888184,0|0,1:0|0:0,0:0:0:0:
10,111,252805,2,0,P|10:146|28:173,1,60.0000022888184,2|0,0:0|0:0,0:0:0:0:
125,221,252971,5,0,1:0:0:0:
149,230,253053,1,0,1:0:0:0:
171,244,253136,1,2,1:3:0:0:
188,263,253219,1,0,1:0:0:0:
200,286,253302,2,0,P|212:318|207:346,3,60.0000022888184,0|0|2|0,1:0|1:0|1:3|1:0,0:0:0:0:
160,384,253634,5,0,1:0:0:0:
175,380,253717,1,0,1:0:0:0:
192,377,253800,1,2,1:3:0:0:
209,374,253883,1,0,1:0:0:0:
225,371,253965,1,0,1:0:0:0:
242,368,254048,1,0,1:0:0:0:
259,364,254131,1,2,1:3:0:0:
274,361,254214,1,0,1:0:0:0:
291,358,254297,1,0,1:0:0:0:
308,355,254380,1,0,1:0:0:0:
324,352,254463,1,2,1:3:0:0:
341,348,254546,1,0,1:0:0:0:
358,345,254628,1,0,1:0:0:0:
373,342,254711,1,0,1:0:0:0:
390,339,254794,1,2,1:3:0:0:
405,336,254877,1,0,1:0:0:0:
418,333,254960,6,0,L|428:269,1,60.0000022888184,0|4,0:0|0:2,0:0:0:0:
304,144,255292,1,4,0:2:0:0:
448,256,255457,1,4,0:2:0:0:
479,63,255623,6,0,L|491:-8,1,61.5999987780762,8|0,0:0|1:0,0:0:0:0:
256,192,256286,12,0,261590,2:0:0:0:
