osu file format v14

[General]
AudioFilename: audio.mp3
AudioLeadIn: 0
PreviewTime: 92608
Countdown: 0
SampleSet: Soft
StackLeniency: 0.7
Mode: 0
LetterboxInBreaks: 0
WidescreenStoryboard: 0

[Editor]
Bookmarks: 97,16946,33788,50630,75893,92735,109577,126419,151683,168525,185380,202209,219051,235921,261184,276959,288735,337355
DistanceSpacing: 0.8
BeatDivisor: 4
GridSize: 16
TimelineZoom: 2.5

[Metadata]
Title:Cute Thing
TitleUnicode:Cute Thing
Artist:Car Seat Headrest
ArtistUnicode:Car Seat Headrest
Creator:jazzberry
Version:Rock Dog
Source:
Tags:rock english csh indie will toledo alternative twin fantasy queer pride jaune
BeatmapID:4534774
BeatmapSetID:2152275

[Difficulty]
HPDrainRate:4
CircleSize:4
OverallDifficulty:8.6
ApproachRate:9.5
SliderMultiplier:2
SliderTickRate:1

[Events]
//Background and Video events
0,0,"csh.jpg",0,0
//Break Periods
2,34561,35937
2,76098,83794
2,151899,159595
2,261369,276434
//Storyboard Layer 0 (Background)
//Storyboard Layer 1 (Fail)
//Storyboard Layer 2 (Pass)
//Storyboard Layer 3 (Foreground)
//Storyboard Layer 4 (Overlay)
//Storyboard Sound Samples

[TimingPoints]
97,528.63436123348,4,2,1,40,1,0
97,-142.857142857143,4,2,1,40,0,0
889,-142.857142857143,4,2,1,5,0,0
1154,-142.857142857143,4,2,1,40,0,0
1947,-142.857142857143,4,2,1,5,0,0
2211,-166.666666666667,4,2,1,40,0,0
4326,-142.857142857143,4,2,1,40,0,0
5119,-166.666666666667,4,2,1,5,0,0
5383,-142.857142857143,4,2,1,40,0,0
6176,-166.666666666667,4,2,1,5,0,0
6440,-166.666666666667,4,2,1,40,0,0
8026,-166.666666666667,4,2,1,5,0,0
8158,-142.857142857143,4,2,1,40,0,0
9348,-142.857142857143,4,2,1,5,0,0
9612,-142.857142857143,4,2,1,40,0,0
10405,-142.857142857143,4,2,1,5,0,0
10669,-166.666666666667,4,2,1,40,0,0
12771,526.315789473684,4,2,1,50,1,0
13823,508.474576271186,4,2,1,50,1,0
14859,526.315789473684,4,2,1,70,1,0
15104,-333.333333333333,4,2,1,70,0,0
15888,526.315789473684,4,2,1,70,1,0
16964,526.315789473684,4,2,1,70,1,0
16964,-25,4,2,1,80,0,1
17472,-66.6666666666667,4,2,1,80,0,1
18525,-43.4782608695652,4,2,1,80,0,1
21156,-50,4,2,1,80,0,1
21683,-66.6666666666667,4,2,1,80,0,1
25385,-33.3333333333333,4,2,1,80,0,1
25893,-50,4,2,1,70,0,1
26306,-50,4,2,1,80,0,1
26964,-33.3333333333333,4,2,1,80,0,1
28806,-66.6666666666667,4,2,1,80,0,1
29049,526.315789473684,4,2,1,80,1,1
29575,526.315789473684,4,2,1,80,1,1
29575,-33.3333333333333,4,2,1,80,0,1
30129,526.315789473684,4,2,1,80,1,1
30129,-50,4,2,1,80,0,1
31680,-31.25,4,2,1,80,0,1
32471,526.315789473684,4,2,1,80,1,1
33785,576.923076923077,4,2,1,80,1,1
33785,-250,4,1,1,70,0,0
34884,526.315789473684,4,2,1,60,1,0
35936,526.315789473684,4,2,1,60,1,0
36462,-50,4,2,1,60,0,0
38238,-166.666666666667,4,2,1,60,0,0
41199,-50,4,2,1,60,0,0
42449,-112.359550561798,4,2,1,60,0,0
43172,-66.6666666666667,4,2,1,60,0,0
43501,-117.647058823529,4,2,1,60,0,0
44883,-66.6666666666667,4,2,1,60,0,0
45672,-100,4,2,1,60,0,0
46199,-66.6666666666667,4,2,1,60,0,0
50014,431.654676258993,4,2,1,60,1,0
50357,521.739130434783,4,2,1,60,1,0
50656,526.315789473684,4,2,1,70,1,0
51708,-250,4,2,1,70,0,0
53813,521.739130434783,4,2,1,70,1,0
53813,-250,4,2,1,70,0,0
55899,526.315789473684,4,2,1,70,1,0
55899,-250,4,2,1,70,0,0
56951,526.315789473684,4,2,1,70,1,0
56951,-250,4,2,1,70,0,0
84319,-100,4,2,1,70,0,0
86424,-66.6666666666667,4,2,1,70,0,0
90898,-333.333333333333,4,2,1,70,0,0
92740,-28.5714285714286,4,2,1,80,0,1
93266,-50,4,2,1,80,0,1
94319,-33.3333333333333,4,2,1,80,0,1
96950,-40,4,2,1,80,0,1
97477,-55.5555555555556,4,2,1,80,0,1
98003,-76.9230769230769,4,2,1,80,0,1
98529,-100,4,2,1,80,0,1
98793,-66.6666666666667,4,2,1,80,0,1
100108,521.739130434782,4,2,1,80,1,1
101172,526.315789473684,4,2,1,80,1,1
101172,-40,4,2,1,80,0,1
101698,-33.3333333333333,4,2,1,70,0,1
102093,-33.3333333333333,4,2,1,80,0,1
105908,-55.5555555555556,4,2,1,80,0,1
106434,-76.9230769230769,4,2,1,80,0,1
106960,-100,4,2,1,80,0,1
107487,521.739130434782,4,2,1,80,1,1
109600,526.315789473684,4,2,1,70,1,0
120108,526.315789473684,4,2,1,70,1,0
122213,-100,4,2,1,70,0,0
125371,-50,4,2,1,70,0,0
126160,-66.6666666666667,4,2,1,70,0,0
134318,-250,4,2,1,70,0,0
134857,526.315789473684,4,2,1,70,1,0
142751,-250,4,2,1,70,0,0
147488,521.739130434783,4,2,1,80,1,0
150646,526.315789473684,4,2,1,80,1,0
160120,-250,4,2,1,30,0,0
164857,-250,4,2,1,40,0,0
165383,-250,4,2,1,50,0,0
165909,-250,4,2,1,60,0,0
166435,-250,4,2,1,70,0,0
166962,-250,4,2,1,80,0,0
167739,487.80487804878,4,2,1,80,1,0
168486,526.315789473684,4,2,1,80,1,0
168486,-66.6666666666667,4,2,1,80,0,1
170093,526.315789473684,4,2,1,70,1,1
170093,-66.6666666666667,4,2,1,80,0,1
170619,-50,4,2,1,80,0,1
171170,526.315789473684,4,2,1,70,1,1
171170,-50,4,2,1,80,0,1
173012,-40,4,2,1,80,0,1
173801,-50,4,2,1,80,0,1
175380,-66.6666666666667,4,2,1,80,0,1
175882,526.315789473684,4,2,1,70,1,1
175882,-83.3333333333333,4,2,1,80,0,1
176433,526.315789473684,4,2,1,70,1,1
176433,-58.8235294117647,4,2,1,80,0,1
176959,-50,4,2,1,80,0,1
178275,-33.3333333333333,4,2,1,80,0,1
179064,-50,4,2,1,80,0,1
180643,-40,4,2,1,80,0,1
181433,-33.3333333333333,4,2,1,80,0,1
182485,-25,4,2,1,80,0,1
183538,-26.3157894736842,4,2,1,80,0,1
185643,-50,4,2,1,80,0,1
185906,-41.6666666666667,4,2,1,80,0,1
186433,-50,4,2,1,80,0,1
187485,-250,4,2,1,60,0,0
189590,-43.4782608695652,4,2,1,80,0,1
190117,-50,4,2,1,80,0,1
191696,-250,4,2,1,60,0,0
193011,-50,4,2,1,60,0,0
193275,-250,4,2,1,60,0,0
193801,-50,4,2,1,80,0,1
195906,-250,4,2,1,60,0,0
197222,-100,4,2,1,60,0,0
197748,-250,4,2,1,60,0,0
198011,-43.4782608695652,4,2,1,80,0,1
200117,-27.0270270270271,4,2,1,80,0,1
200906,500,4,2,1,70,1,1
201406,508.474576271186,4,2,1,70,1,1
201937,526.315789473684,4,2,1,70,1,1
202222,526.315789473684,4,2,1,70,1,0
204327,-200,4,2,1,30,0,0
212748,-100,4,2,1,30,0,0
214064,-50,4,2,1,60,0,0
215248,-200,4,2,1,30,0,0
218274,-33.3333333333333,4,2,1,50,0,0
219064,-100,4,2,1,50,0,0
222508,526.315789473684,4,2,1,50,1,0
223274,526.315789473684,4,2,1,50,1,0
227485,-200,4,2,1,50,0,0
228011,-125,4,2,1,50,0,0
228537,-83.3333333333333,4,2,1,50,0,0
231695,-250,4,2,1,50,0,0
232222,-142.857142857143,4,2,1,50,0,0
232748,-100,4,2,1,50,0,0
233274,-43.4782608695652,4,2,1,50,0,0
233800,-43.4782608695652,4,2,1,70,0,0
235906,-66.6666666666667,4,2,1,70,0,0
237748,-250,4,2,1,70,0,0
240116,-50,4,2,1,70,0,0
243011,-58.8235294117647,4,2,1,70,0,0
244034,500,4,2,1,70,1,0
244284,526.315789473684,4,2,1,70,1,0
244284,-250,4,2,1,70,0,0
244855,526.315789473684,4,2,1,70,1,0
246170,-58.8235294117647,4,2,1,70,0,0
246433,526.315789473684,4,2,1,70,1,0
246696,-58.8235294117647,4,2,1,70,0,0
251420,526.315789473684,4,2,1,70,1,0
251420,-58.8235294117647,4,2,1,70,0,0
251696,526.315789473684,4,2,1,70,1,0
251696,-58.8235294117647,4,2,1,70,0,0
253801,-250,4,2,1,70,0,0
255117,-50,4,2,1,70,0,0
255906,-58.8235294117647,4,2,1,70,0,0
256959,-50,4,2,1,70,0,0
261169,504.201680672269,4,2,1,70,1,0
263185,491.803278688525,4,2,1,70,1,0
265152,487.804878048781,4,2,1,70,1,0
267103,483.870967741936,4,2,1,70,1,0
268070,504.201680672269,4,2,1,70,1,0
272059,476.190476190477,4,2,1,70,1,0
273019,500,4,2,1,70,1,0
274519,461.538461538462,4,2,1,70,1,0
275470,431.654676258993,4,2,1,70,1,0
275957,512.820512820512,4,2,1,70,1,0
276959,508.474576271186,4,2,1,70,1,0
276959,-250,4,2,1,40,0,0
278989,483.870967741935,4,2,1,40,1,0
278989,-250,4,2,1,40,0,0
280924,491.803278688524,4,2,1,40,1,0
280924,-250,4,2,1,40,0,0
284858,480,4,2,1,40,1,0
286778,487.80487804878,4,2,1,40,1,0
288735,495.867768595042,4,2,1,60,1,0
290718,495.867768595041,4,2,1,60,1,0
291709,483.870967741935,4,2,1,60,1,0
292676,495.867768595041,4,2,1,60,1,0
294659,468.75,4,2,1,60,1,0
295641,491.803278688524,4,2,1,60,1,0
296624,487.80487804878,4,2,1,60,1,0
297599,517.241379310345,4,2,1,60,1,0
298601,476.190476190476,4,2,1,60,1,0
300267,-100,4,2,1,5,0,0
300344,476.190476190476,4,2,1,60,1,0
300553,491.803278688524,4,2,1,60,1,0
301536,480,4,2,1,60,1,0
302514,495.867768595041,4,2,1,60,1,0
303505,476.190476190476,4,2,1,60,1,0
304490,489.795918367346,4,2,1,60,1,0
307428,480,4,2,1,60,1,0
309387,491.803278688524,4,2,1,60,1,0
312361,487.80487804878,4,2,1,60,1,0
314312,500,4,2,1,60,1,0
315303,487.80487804878,4,2,1,60,1,0
316323,480,4,2,1,60,1,0
318243,495.867768595041,4,2,1,60,1,0
318243,-50,4,2,1,60,0,0
320251,487.80487804878,4,2,1,60,1,0
322190,483.870967741935,4,2,1,60,1,0
323139,504.201680672269,4,2,1,60,1,0
323643,-66.6666666666667,4,2,1,60,0,0
324147,-100,4,2,1,60,0,0
325155,468.75,4,2,1,60,1,0
326092,504.201680672269,4,2,1,60,1,0
328108,480,4,2,1,60,1,0
330028,500,4,2,1,60,1,0
331028,487.804878048781,4,2,1,60,1,0
332038,468.75,4,2,1,60,1,0

[Colours]
Combo1 : 17,254,176
Combo2 : 173,255,95
Combo3 : 255,121,131
Combo4 : 255,131,100

[HitObjects]
52,203,97,6,0,P|98:150|132:14,1,209.999993591309,2|0,0:0|0:0,0:0:0:0:
110,269,1154,2,0,P|173:238|255:124,1,209.999993591309,2|0,0:0|0:0,0:0:0:0:
24,79,2211,2,0,B|35:119|35:119|164:131|230:235|230:235|223:268|223:268|247:314,1,359.999989013672,2|0,0:0|0:0,0:0:0:0:
203,376,4326,6,0,P|256:330|392:296,1,209.999993591309,2|0,0:0|0:0,0:0:0:0:
137,318,5383,2,0,P|168:255|282:173,1,209.999993591309,2|0,0:0|0:0,0:0:0:0:
469,254,6440,2,0,B|456:214|456:214|339:208|262:121|262:121|289:120|317:107|317:107|308:86|314:59,1,359.999989013672,2|0,0:0|0:0,0:0:0:0:
312,68,8555,6,0,P|259:114|123:148,1,209.999993591309,2|0,0:0|0:0,0:0:0:0:
378,133,9612,2,0,P|347:196|233:278,1,209.999993591309,2|0,0:0|0:0,0:0:0:0:
28,332,10669,6,0,P|57:344|80:366,1,59.9999981689454,2|2,0:0|0:0,0:0:0:0:
174,327,11198,1,2,0:0:0:0:
174,327,11462,2,0,P|145:315|122:293,1,59.9999981689454,2|2,0:0|0:0,0:0:0:0:
77,363,11859,2,0,P|103:298|114:216,1,149.999995422363,2|2,0:0|0:0,0:0:0:0:
247,26,12771,5,0,0:0:0:0:
250,29,13297,1,0,0:0:0:0:
250,359,13823,5,0,0:0:0:0:
253,362,14331,1,0,0:0:0:0:
51,50,14859,5,8,0:0:0:0:
330,343,15122,2,0,L|338:304,1,29.9999990844727,8|0,3:0|0:0,0:0:0:0:
92,132,15516,5,8,0:0:0:0:
267,273,15648,2,0,L|261:247,1,14.9999995422363,8|0,3:0|0:0,0:0:0:0:
52,211,15888,5,8,0:0:0:0:
424,175,16151,1,8,0:0:0:0:
103,283,16414,5,8,0:0:0:0:
295,130,16545,1,8,0:0:0:0:
58,354,16677,1,8,3:0:0:0:
452,140,16964,6,0,B|459:70|478:1|478:1|362:75|218:154,1,400,4|0,3:2|0:0,0:0:0:0:
169,71,17359,1,0,0:0:0:0:
298,133,17490,2,0,L|277:230,1,75.0000028610231,10|0,0:0|0:0,0:0:0:0:
331,269,17753,1,0,0:0:0:0:
184,178,17885,1,8,0:0:0:0:
340,354,18016,5,2,3:2:0:0:
76,316,18280,1,0,3:2:0:0:
111,65,18543,2,0,B|130:21|146:-19|146:-19|190:64|223:112,1,230.000004386902,8|0,0:0|0:0,0:0:0:0:
343,303,18937,1,0,0:0:0:0:
304,378,19069,5,8,0:0:0:0:
102,37,19332,1,8,0:0:0:0:
453,196,19595,1,8,0:0:0:0:
66,282,19858,1,8,0:0:0:0:
326,0,20122,1,8,0:0:0:0:
147,199,20385,5,10,0:0:0:0:
342,251,20516,1,8,0:0:0:0:
217,94,20648,1,10,0:0:0:0:
226,295,20780,1,8,0:0:0:0:
336,127,20911,1,10,0:0:0:0:
147,199,21043,1,8,0:0:0:0:
233,378,21174,6,1,B|275:369|302:333|302:333|339:337|364:358|364:358|407:342|432:353,1,200,4|2,3:2|0:0,0:0:0:0:
491,370,21569,1,0,0:0:0:0:
383,261,21701,2,0,L|413:175,1,75.0000028610231,8|0,0:0|0:0,0:0:0:0:
323,88,21964,2,0,L|318:178,1,75.0000028610231,0|8,0:0|0:0,0:0:0:0:
491,370,22227,1,2,3:2:0:0:
491,370,22490,1,0,3:2:0:0:
222,139,22753,2,0,L|248:223,1,75.0000028610231,8|0,0:0|0:0,0:0:0:0:
406,62,23016,2,0,L|357:-13,1,75.0000028610231
129,355,23280,5,10,0:0:0:0:
80,50,23543,1,8,0:0:0:0:
385,1,23806,1,8,0:0:0:0:
445,302,24069,1,8,3:0:0:0:
508,261,24201,1,8,3:0:0:0:
478,193,24332,5,8,0:0:0:0:
423,226,24464,1,8,0:0:0:0:
344,195,24595,1,8,3:0:0:0:
285,254,24727,1,8,3:0:0:0:
381,119,24858,5,8,0:0:0:0:
329,324,24990,1,8,0:0:0:0:
183,66,25122,1,8,0:0:0:0:
131,270,25254,1,8,0:0:0:0:
280,45,25385,6,0,B|250:94|250:94|130:81|49:143|49:143|50:166|38:190,1,300.000011444092,4|0,3:2|0:0,0:0:0:0:
24,64,25780,1,0,0:0:0:0:
118,189,25911,2,2,L|139:218,8,25,10|2|2|2|2|2|2|2|2,0:0|0:0|0:0|0:0|0:0|0:0|0:0|0:0|0:0,0:0:0:0:
54,253,26306,1,0,0:0:0:0:
147,71,26437,5,2,3:2:0:0:
201,340,26701,1,0,3:2:0:0:
444,291,26964,2,0,B|454:202|498:97|498:97|436:143|377:147,1,300.000011444092,8|0,0:0|0:0,0:0:0:0:
233,267,27358,1,0,0:0:0:0:
275,372,27490,5,8,0:0:0:0:
337,13,27753,1,8,0:0:0:0:
76,267,28016,1,8,0:0:0:0:
436,215,28280,1,8,0:0:0:0:
115,47,28543,1,8,0:0:0:0:
439,218,28806,6,8,L|487:231,3,37.5000014305115,10|8|8|8,0:0|0:0|0:0|0:0,0:0:0:0:
362,252,29049,5,8,0:0:0:0:
314,75,29181,1,8,0:0:0:0:
185,299,29313,1,10,0:0:0:0:
137,123,29443,1,8,0:0:0:0:
308,320,29575,6,0,B|270:360|270:360|192:306|76:308|76:308|64:265,1,300.000011444092,4|2,3:2|0:0,0:0:0:0:
120,347,29969,1,0,0:0:0:0:
70,182,30129,2,0,B|27:178|27:178|-3:231,1,100,8|0,0:0|0:0,0:0:0:0:
140,126,30392,1,0,0:0:0:0:
32,314,30523,1,8,0:0:0:0:
221,105,30655,5,2,3:2:0:0:
303,365,30918,1,0,3:2:0:0:
512,295,31181,1,8,0:0:0:0:
430,35,31444,2,8,L|375:55,2,50
323,346,31707,6,0,B|356:237|384:150|384:150|327:132|274:112,1,320,6|0,3:2|3:2,0:0:0:0:
73,42,32234,1,8,0:0:0:0:
2,79,32471,5,0,0:0:0:0:
196,67,32603,1,0,3:2:0:0:
323,203,32734,1,8,0:0:0:0:
5,82,32997,5,2,0:0:0:0:
202,152,33129,1,0,3:2:0:0:
365,282,33260,1,10,0:0:0:0:
11,88,33524,5,10,0:0:0:0:
498,307,33785,6,2,B|446:317|477:326|427:341,1,80,4|0,3:2|2:0,0:0:0:0:
76,45,36462,6,0,B|147:101|98:108|166:172,1,150,2|0,0:0|0:0,0:0:0:0:
223,56,36725,2,0,B|186:101|182:70|141:113,1,100,2|0,0:0|0:0,0:0:0:0:
3,97,36988,2,0,P|149:144|285:224,2,300,2|2|2,0:0|0:0|0:0,0:0:0:0:
503,50,38238,6,1,B|467:63|430:49|430:49|404:70|396:98|396:98|356:107|343:127,1,194.999994049072,2|0,0:0|0:0,0:0:0:0:
358,82,39225,1,0,0:0:0:0:
358,82,39357,1,0,0:0:0:0:
364,102,39620,1,8,0:0:0:0:
362,115,39751,1,0,0:0:0:0:
362,124,39883,1,0,0:0:0:0:
358,134,40014,1,0,0:0:0:0:
395,208,40146,5,0,0:0:0:0:
347,271,40409,1,0,0:0:0:0:
389,337,40672,1,8,0:0:0:0:
465,320,40936,1,0,0:0:0:0:
248,293,41199,5,0,0:0:0:0:
201,315,41330,1,0,0:0:0:0:
136,282,41462,1,0,0:0:0:0:
73,323,41593,1,0,0:0:0:0:
21,254,41725,5,8,0:0:0:0:
298,354,41988,1,0,0:0:0:0:
228,74,42449,6,0,B|154:95|109:198|234:251|229:146,1,200,2|0,0:0|0:0,0:0:0:0:
91,63,43238,2,0,P|130:69|148:99,1,75.0000028610231,2|0,0:0|0:0,0:0:0:0:
293,158,43501,2,0,P|176:177|54:283,1,276.250005269051,2|0,0:0|0:0,0:0:0:0:
58,276,44883,6,0,P|96:285|139:301,1,75.0000028610231,10|0,0:0|0:0,0:0:0:0:
201,260,45146,2,0,P|239:251|282:235,1,75.0000028610231,2|0,0:0|0:0,0:0:0:0:
324,341,45409,2,0,P|362:360|396:381,1,75.0000028610231,2|0,0:0|0:0,0:0:0:0:
449,261,45672,2,0,P|506:177|519:116,1,150,2|0,0:0|0:0,0:0:0:0:
477,187,46199,1,2,0:0:0:0:
453,93,46330,1,0,0:0:0:0:
392,20,46462,1,0,0:0:0:0:
395,23,46988,6,0,B|199:168|260:18|48:159,1,375.000014305115,10|0,0:0|0:0,0:0:0:0:
53,155,47778,1,2,0:0:0:0:
135,172,47909,1,0,0:0:0:0:
150,244,48041,2,0,P|187:254|229:270,1,75.0000028610231,10|0,0:0|0:0,0:0:0:0:
123,358,48304,2,0,P|177:283|285:187,1,225.000008583069,2|0,0:0|0:0,0:0:0:0:
21,33,48830,2,0,P|43:61|62:98,1,75.0000028610231,2|0,0:0|0:0,0:0:0:0:
146,93,49093,2,0,P|142:128|130:168,1,75.0000028610231,10|0,0:0|0:0,0:0:0:0:
301,10,49357,2,0,P|261:88|204:156,1,150.000005722046,2|8,0:0|3:0,0:0:0:0:
17,241,49751,5,8,0:0:0:0:
6,228,49817,1,8,0:0:0:0:
0,208,49883,1,8,0:0:0:0:
1,192,49949,1,8,0:0:0:0:
8,176,50014,1,8,0:0:0:0:
88,288,50121,2,0,L|141:298,1,50,8|8,0:0|0:0,0:0:0:0:
204,338,50357,2,0,L|260:316,1,50,8|8,3:0|3:0,0:0:0:0:
502,70,50656,5,6,3:2:0:0:
425,47,50787,1,2,0:0:0:0:
361,96,50919,1,2,0:0:0:0:
378,173,51050,1,2,0:0:0:0:
449,215,51182,5,10,0:0:0:0:
459,199,51313,1,2,0:0:0:0:
462,178,51445,1,2,0:0:0:0:
458,158,51577,1,2,0:0:0:0:
275,107,51708,6,0,L|279:142,1,20,2|2,3:2|0:0,0:0:0:0:
391,297,51971,2,0,L|399:271,1,20,10|2,0:0|0:0,0:0:0:0:
278,110,52234,5,2,3:2:0:0:
171,277,52366,1,2,0:0:0:0:
320,363,52498,2,0,L|304:287,1,60,2|0,3:2|0:0,0:0:0:0:
85,152,53024,5,2,3:2:0:0:
104,156,53156,1,2,0:0:0:0:
121,167,53287,1,10,0:0:0:0:
133,186,53419,1,2,0:0:0:0:
60,356,53550,6,0,L|66:322,1,20,2|2,0:0|0:0,0:0:0:0:
72,234,53813,5,2,3:2:0:0:
143,208,53943,1,2,0:0:0:0:
219,220,54073,1,10,0:0:0:0:
274,266,54204,1,2,0:0:0:0:
309,336,54334,5,2,3:2:0:0:
332,300,54465,1,2,0:0:0:0:
377,288,54595,1,2,3:2:0:0:
422,303,54726,1,2,0:0:0:0:
489,201,54856,6,0,L|480:234,1,20,2|2,0:0|0:0,0:0:0:0:
352,153,55117,1,2,3:2:0:0:
431,138,55248,1,2,0:0:0:0:
370,77,55378,1,10,0:0:0:0:
431,138,55509,1,2,0:0:0:0:
446,58,55639,1,2,0:0:0:0:
431,138,55769,1,2,0:0:0:0:
483,220,55899,6,0,L|489:201,1,20,2|2,3:2|0:0,0:0:0:0:
320,281,56162,2,0,L|317:254,1,20,10|2,0:0|0:0,0:0:0:0:
137,379,56425,5,2,3:2:0:0:
77,361,56556,1,2,0:0:0:0:
51,304,56688,1,2,3:2:0:0:
76,247,56820,1,2,0:0:0:0:
161,243,56951,5,2,0:0:0:0:
164,258,57082,1,2,0:0:0:0:
158,275,57214,1,2,3:2:0:0:
149,283,57345,1,2,0:0:0:0:
14,197,57477,5,10,0:0:0:0:
39,140,57608,1,2,0:0:0:0:
98,122,57740,1,2,0:0:0:0:
150,155,57872,1,2,0:0:0:0:
242,230,58003,6,0,L|246:209,1,20,10|2,3:0|0:0,0:0:0:0:
391,328,58266,2,0,L|406:304,1,20,6|2,3:0|0:0,0:0:0:0:
373,49,58529,5,10,0:0:0:0:
373,49,58661,1,2,0:0:0:0:
373,49,58793,1,10,3:0:0:0:
373,49,58924,1,2,0:0:0:0:
276,250,59056,5,6,3:2:0:0:
254,173,59187,1,2,0:0:0:0:
303,109,59319,1,2,0:0:0:0:
380,126,59451,1,2,0:0:0:0:
422,197,59582,5,10,0:0:0:0:
406,207,59714,1,2,0:0:0:0:
385,210,59845,1,2,0:0:0:0:
365,206,59977,1,2,0:0:0:0:
205,66,60108,6,0,L|200:99,1,20,2|2,3:2|0:0,0:0:0:0:
54,293,60372,2,0,L|43:262,1,20,10|2,0:0|0:0,0:0:0:0:
104,67,60635,5,2,3:2:0:0:
0,207,60766,1,2,0:0:0:0:
152,305,60898,2,0,L|163:233,1,60,2|0,3:2|0:0,0:0:0:0:
107,70,61424,5,2,3:2:0:0:
138,103,61556,1,2,0:0:0:0:
182,114,61687,1,10,0:0:0:0:
223,94,61819,1,2,0:0:0:0:
93,199,61951,6,0,L|88:169,1,20,2|2,0:0|0:0,0:0:0:0:
231,17,62214,5,2,3:2:0:0:
260,86,62345,1,2,0:0:0:0:
333,117,62477,1,10,0:0:0:0:
412,103,62608,1,2,0:0:0:0:
457,39,62740,5,2,3:2:0:0:
478,43,62872,1,2,0:0:0:0:
495,37,63003,1,2,3:2:0:0:
508,18,63135,1,2,0:0:0:0:
390,191,63266,6,0,L|396:224,1,20,2|2,0:0|0:0,0:0:0:0:
402,368,63529,1,2,3:2:0:0:
432,293,63661,1,2,0:0:0:0:
480,364,63793,1,10,0:0:0:0:
432,293,63924,1,2,0:0:0:0:
512,293,64056,1,2,0:0:0:0:
432,293,64187,1,2,0:0:0:0:
393,210,64319,6,0,L|390:191,1,20,2|2,3:2|0:0,0:0:0:0:
212,335,64582,2,0,L|221:306,1,20,10|2,0:0|0:0,0:0:0:0:
327,52,64845,5,2,3:2:0:0:
266,34,64977,1,2,0:0:0:0:
214,68,65108,1,2,3:2:0:0:
203,129,65240,1,2,0:0:0:0:
273,179,65372,5,2,0:0:0:0:
283,168,65503,1,2,0:0:0:0:
287,150,65635,1,2,3:2:0:0:
284,139,65766,1,2,0:0:0:0:
124,137,65898,5,10,0:0:0:0:
114,199,66029,1,2,0:0:0:0:
154,246,66161,1,2,0:0:0:0:
215,246,66293,1,2,0:0:0:0:
80,310,66424,6,0,L|83:291,1,20,2|2,3:2|0:0,0:0:0:0:
270,369,66687,2,0,L|264:338,1,20,10|2,0:3|0:0,0:0:0:0:
209,26,66951,5,10,0:0:0:0:
209,26,67082,1,2,0:0:0:0:
209,26,67214,1,10,3:0:0:0:
209,26,67345,1,2,0:0:0:0:
287,166,67477,5,6,3:2:0:0:
256,93,67608,1,2,0:0:0:0:
297,29,67740,1,2,0:0:0:0:
376,29,67872,1,2,0:0:0:0:
471,118,68003,5,10,0:0:0:0:
454,120,68135,1,2,0:0:0:0:
439,114,68266,1,2,0:0:0:0:
430,100,68398,1,2,0:0:0:0:
290,169,68529,5,2,3:2:0:0:
349,116,68661,1,2,0:0:0:0:
422,135,68793,1,10,0:0:0:0:
447,210,68924,1,2,0:0:0:0:
512,163,69056,5,2,3:2:0:0:
512,163,69187,1,2,0:0:0:0:
396,270,69319,5,2,3:2:0:0:
414,287,69451,1,2,0:0:0:0:
379,285,69582,1,2,0:0:0:0:
389,307,69714,1,2,0:0:0:0:
359,291,69845,1,2,3:2:0:0:
361,316,69977,1,2,0:0:0:0:
336,284,70108,1,10,0:0:0:0:
327,306,70240,1,2,0:0:0:0:
255,270,70372,5,2,0:0:0:0:
255,270,70503,1,2,0:0:0:0:
192,217,70635,5,2,3:2:0:0:
119,204,70766,1,2,0:0:0:0:
64,259,70898,1,10,0:0:0:0:
81,330,71029,1,2,0:0:0:0:
255,270,71161,5,2,3:2:0:0:
255,270,71293,1,2,0:0:0:0:
232,352,71424,5,2,3:2:0:0:
232,352,71556,1,2,0:0:0:0:
273,189,71687,5,2,0:0:0:0:
305,205,71819,1,2,0:0:0:0:
281,159,71951,1,2,3:2:0:0:
314,161,72082,1,2,0:0:0:0:
275,132,72214,1,10,0:0:0:0:
307,124,72345,1,2,0:0:0:0:
259,108,72477,1,2,0:0:0:0:
284,90,72608,1,2,0:0:0:0:
244,21,72740,5,2,3:2:0:0:
228,95,72872,1,2,0:0:0:0:
158,124,73003,1,10,0:0:0:0:
86,98,73135,1,2,0:0:0:0:
10,209,73266,5,2,3:2:0:0:
10,209,73398,1,2,0:0:0:0:
87,235,73529,5,2,3:2:0:0:
93,195,73661,1,2,0:0:0:0:
115,247,73793,1,2,0:0:0:0:
136,218,73924,1,2,0:0:0:0:
132,271,74056,1,2,3:2:0:0:
161,249,74187,1,2,0:0:0:0:
142,301,74319,1,10,0:0:0:0:
173,292,74451,1,2,0:0:0:0:
92,370,74582,5,10,3:0:0:0:
92,370,74714,1,2,0:0:0:0:
284,353,74845,5,6,3:0:0:0:
251,285,74977,1,2,0:0:0:0:
259,209,75108,1,2,3:2:0:0:
307,150,75240,1,2,0:0:0:0:
384,108,75372,5,10,0:0:0:0:
391,90,75503,1,2,0:0:0:0:
385,72,75635,1,6,3:0:0:0:
373,60,75766,1,2,0:0:0:0:
257,15,75898,5,6,3:2:0:0:
33,167,84319,6,0,B|153:194|93:225|206:267,1,200,2|2,0:0|0:0,0:0:0:0:
46,303,85108,1,2,0:0:0:0:
184,345,85372,2,0,B|247:239|258:305|333:211,1,200,2|2,0:0|0:0,0:0:0:0:
319,367,86161,1,0,0:0:0:0:
401,248,86424,6,0,B|341:180|390:187|341:113,2,150.000005722046,2|2|2,0:0|0:0|0:0,0:0:0:0:
443,171,87214,2,0,B|360:206|381:162|297:185,1,150.000005722046,2|0,0:0|0:0,0:0:0:0:
388,111,87740,1,2,0:0:0:0:
388,111,88003,2,0,B|396:200|360:166|357:254,1,150.000005722046,2|2,0:0|0:0,0:0:0:0:
511,208,88529,6,0,P|374:264|286:384,1,300.000011444092,2|0,0:0|0:0,0:0:0:0:
338,349,89319,1,0,0:0:0:0:
1,176,89582,6,0,P|137:119|225:0,1,300.000011444092,2|2,0:0|0:0,0:0:0:0:
179,17,90372,1,2,0:0:0:0:
321,277,90635,6,8,L|324:258,1,18.7500007152558
181,19,90898,2,0,L|187:48,1,29.9999990844727,4|0,2:3|0:0,0:0:0:0:
420,230,91293,5,8,0:0:0:0:
83,76,91424,2,0,L|107:88,1,14.9999995422363,4|0,2:3|0:0,0:0:0:0:
454,109,91687,5,8,0:0:0:0:
53,208,91951,1,8,0:0:0:0:
312,6,92214,5,8,3:2:0:0:
194,352,92345,1,8,3:2:0:0:
238,56,92477,1,8,0:0:0:0:
431,373,92740,6,0,B|250:231|250:231|374:205,1,350.00000333786,4|0,3:2|0:0,0:0:0:0:
301,370,93135,1,0,0:0:0:0:
448,258,93266,2,0,B|467:220|467:220|435:171,1,100,10|0,0:0|0:0,0:0:0:0:
510,134,93529,1,0,0:0:0:0:
318,18,93661,1,8,0:0:0:0:
197,205,93793,5,2,3:2:0:0:
471,8,94056,1,0,3:2:0:0:
127,271,94319,2,0,B|106:183|79:84|79:84|136:107|179:120,1,300.000011444092,10|0,0:0|0:0,0:0:0:0:
266,312,94714,1,0,0:0:0:0:
241,384,94845,5,10,0:0:0:0:
219,0,95108,1,8,0:0:0:0:
416,286,95372,1,8,0:0:0:0:
42,96,95635,1,8,0:0:0:0:
404,76,95898,1,8,0:0:0:0:
54,306,96161,1,10,0:0:0:0:
325,129,96293,5,8,0:0:0:0:
134,254,96424,1,10,0:0:0:0:
332,243,96556,1,8,0:0:0:0:
127,140,96687,1,10,0:0:0:0:
236,306,96819,1,8,0:0:0:0:
221,63,96950,6,1,B|268:73|299:113|299:113|340:109|369:85|369:85|417:103|446:91,1,250,4|2,3:2|0:0,0:0:0:0:
321,151,97345,1,0,0:0:0:0:
501,30,97477,2,0,L|475:174,1,89.9999972534181,8|0,0:0|0:0,0:0:0:0:
249,201,97740,5,0,0:0:0:0:
249,201,97872,1,10,0:0:0:0:
411,150,98003,2,0,L|429:212,1,64.9999970245363,2|0,3:2|0:0,0:0:0:0:
258,333,98266,5,0,3:2:0:0:
258,333,98398,1,0,0:0:0:0:
365,261,98529,2,0,L|411:335,1,50,8|0,0:0|0:0,0:0:0:0:
512,278,98793,5,0,0:0:0:0:
345,105,98924,1,0,0:0:0:0:
410,379,99056,5,10,0:0:0:0:
453,67,99319,1,8,0:0:0:0:
124,30,99582,1,8,0:0:0:0:
85,340,99845,1,8,0:0:0:0:
62,261,99977,1,8,0:0:0:0:
112,211,100108,5,8,0:0:0:0:
160,258,100238,1,8,3:0:0:0:
249,244,100368,1,8,0:0:0:0:
288,323,100499,1,8,0:0:0:0:
365,276,100629,5,8,0:0:0:0:
344,61,100760,1,8,0:0:0:0:
148,300,100890,1,8,0:0:0:0:
127,85,101021,1,8,0:0:0:0:
307,201,101172,6,0,B|317:230|317:230|415:250|470:309|470:309|461:332|470:357,1,250,4|0,3:2|0:0,0:0:0:0:
509,122,101566,1,0,0:0:0:0:
365,276,101698,2,2,B|345:299|345:299|314:298,6,50.0000019073487
441,357,102093,1,8,0:0:0:0:
208,295,102224,5,2,3:2:0:0:
289,12,102487,1,0,3:2:0:0:
92,328,102750,2,0,B|147:345|192:364|192:364|160:253|144:177,1,300.000011444092,10|0,0:0|0:0,0:0:0:0:
142,57,103145,1,0,0:0:0:0:
64,16,103277,5,10,0:0:0:0:
480,140,103540,1,8,0:0:0:0:
92,328,103803,1,8,0:0:0:0:
443,2,104066,5,8,0:0:0:0:
44,170,104329,1,8,0:0:0:0:
441,364,104592,1,10,0:0:0:0:
441,364,104658,1,8,0:0:0:0:
441,364,104724,2,8,B|431:332|431:332|438:322|438:322|428:281,1,75.0000028610231
152,122,104856,5,10,0:0:0:0:
374,239,104987,1,8,0:0:0:0:
140,344,105119,1,10,0:0:0:0:
454,186,105250,1,8,0:0:0:0:
258,179,105382,6,0,B|248:90|204:-15|204:-15|266:31|325:35,1,300.000011444092,4|2,3:2|0:0,0:0:0:0:
280,259,105777,1,0,0:0:0:0:
130,210,105908,2,0,L|154:115,1,89.9999972534181,8|0,0:0|0:0,0:0:0:0:
93,345,106172,5,0,0:0:0:0:
93,345,106303,1,8,0:0:0:0:
9,204,106435,2,0,L|63:168,1,64.9999970245363,2|0,3:2|0:0,0:0:0:0:
40,281,106698,5,0,3:2:0:0:
40,281,106829,1,0,0:0:0:0:
25,120,106961,2,0,L|88:114,1,50,8|0,0:0|0:0,0:0:0:0:
9,204,107224,5,0,0:0:0:0:
9,204,107356,1,0,0:0:0:0:
223,377,107487,1,2,3:2:0:0:
398,163,107747,1,0,3:2:0:0:
184,0,108008,1,8,0:0:0:0:
506,139,108269,5,0,0:0:0:0:
307,153,108400,1,0,3:2:0:0:
180,296,108530,1,8,0:0:0:0:
509,142,108791,5,0,0:0:0:0:
234,195,108921,1,0,3:2:0:0:
35,359,109052,1,8,0:0:0:0:
512,145,109313,5,8,0:0:0:0:
29,43,109600,5,6,3:2:0:0:
235,88,109863,1,0,3:2:0:0:
69,129,110126,1,8,0:0:0:0:
276,175,110389,1,0,0:0:0:0:
291,177,110520,1,8,0:0:0:0:
306,181,110652,1,0,0:0:0:0:
322,185,110783,1,8,0:0:0:0:
337,188,110915,1,0,0:0:0:0:
110,215,111178,1,8,0:0:0:0:
316,261,111442,1,0,0:0:0:0:
330,264,111573,1,8,0:0:0:0:
430,308,111705,5,0,3:2:0:0:
385,102,111968,1,0,3:2:0:0:
344,268,112231,1,10,0:0:0:0:
298,61,112494,1,2,0:0:0:0:
296,46,112625,1,8,0:0:0:0:
292,31,112757,1,2,0:0:0:0:
288,15,112888,1,8,0:0:0:0:
285,0,113020,1,2,0:0:0:0:
258,227,113283,1,10,0:0:0:0:
212,21,113547,1,2,0:0:0:0:
209,7,113678,1,8,0:0:0:0:
468,45,113810,5,4,3:2:0:0:
262,90,114073,1,0,3:2:0:0:
428,131,114336,1,8,0:0:0:0:
221,177,114599,1,0,0:0:0:0:
206,179,114730,1,8,0:0:0:0:
191,183,114862,1,0,0:0:0:0:
175,187,114993,1,8,0:0:0:0:
160,190,115125,1,0,0:0:0:0:
387,217,115388,1,8,0:0:0:0:
181,263,115652,1,0,0:0:0:0:
167,266,115783,1,8,0:0:0:0:
70,311,115915,5,0,3:2:0:0:
115,105,116178,1,0,3:2:0:0:
156,271,116441,1,10,0:0:0:0:
202,64,116704,1,2,0:0:0:0:
204,49,116835,1,8,0:0:0:0:
208,34,116967,1,2,0:0:0:0:
212,18,117100,1,8,0:0:0:0:
215,3,117230,1,2,0:0:0:0:
242,230,117493,1,10,0:0:0:0:
288,24,117757,1,2,0:0:0:0:
291,10,117888,1,10,0:0:0:0:
44,45,118021,5,6,3:2:0:0:
159,68,118196,1,2,0:0:0:0:
136,183,118371,1,2,0:0:0:0:
21,160,118547,1,8,0:0:0:0:
230,125,118810,1,0,0:0:0:0:
245,122,118941,1,8,0:0:0:0:
260,120,119073,1,0,0:0:0:0:
276,117,119204,1,8,0:0:0:0:
291,115,119336,1,0,0:0:0:0:
91,225,119599,1,8,0:0:0:0:
299,190,119863,1,0,0:0:0:0:
313,188,119994,1,8,0:0:0:0:
497,147,120108,5,2,3:2:0:0:
299,190,120371,1,2,3:2:0:0:
457,233,120634,1,8,0:0:0:0:
250,279,120897,1,2,0:0:0:0:
235,281,121028,1,8,0:0:0:0:
220,285,121160,1,2,0:0:0:0:
204,289,121291,1,8,0:0:0:0:
189,292,121423,1,2,0:0:0:0:
416,319,121686,1,8,0:0:0:0:
210,365,121950,1,2,0:0:0:0:
196,368,122081,1,8,0:0:0:0:
257,93,122213,5,4,3:2:0:0:
260,96,122739,1,10,0:0:0:0:
297,268,123002,1,2,0:0:0:0:
309,321,123134,1,8,0:0:0:0:
326,372,123265,1,2,0:0:0:0:
334,14,123529,1,2,0:0:0:0:
359,134,123792,1,10,0:0:0:0:
207,264,124055,1,2,0:0:0:0:
219,317,124187,1,8,0:0:0:0:
236,368,124318,1,0,0:0:0:0:
431,53,124581,1,2,0:0:0:0:
456,173,124844,1,10,0:0:0:0:
117,254,125108,1,0,0:0:0:0:
129,307,125240,1,8,0:0:0:0:
146,358,125371,2,8,L|214:337,2,66.6666666666667,10|8|8,0:0|0:0|0:0,0:0:0:0:
241,266,125634,5,8,0:0:0:0:
292,280,125722,1,8,0:0:0:0:
342,294,125809,1,8,0:0:0:0:
393,310,125897,2,0,L|424:210,1,100,8|8,0:3|0:3,0:0:0:0:
508,211,126160,2,0,L|489:134,1,75.0000028610231,4|4,0:3|0:3,0:0:0:0:
188,265,126424,5,6,0:0:0:0:
124,337,126556,1,2,0:0:0:0:
46,292,126687,1,2,0:0:0:0:
53,214,126819,1,2,0:0:0:0:
127,184,126950,1,10,0:0:0:0:
165,113,127082,1,2,0:0:0:0:
127,41,127214,1,2,0:0:0:0:
50,41,127345,1,2,0:0:0:0:
18,109,127477,1,2,0:0:0:0:
50,166,127608,1,2,0:0:0:0:
100,173,127740,1,10,0:0:0:0:
132,148,127872,1,2,0:0:0:0:
141,120,128003,1,2,0:0:0:0:
132,107,128135,1,2,0:0:0:0:
119,108,128266,5,2,0:0:0:0:
159,194,128398,1,2,0:0:0:0:
246,182,128529,1,2,0:0:0:0:
273,99,128661,1,2,0:0:0:0:
225,37,128793,1,2,0:0:0:0:
148,54,128924,1,2,0:0:0:0:
133,130,129056,1,10,0:0:0:0:
185,191,129187,1,2,0:0:0:0:
176,272,129319,1,2,0:0:0:0:
105,308,129450,1,2,0:0:0:0:
44,262,129582,1,2,0:0:0:0:
51,198,129714,1,2,0:0:0:0:
93,173,129845,1,10,0:0:0:0:
128,180,129977,1,2,0:0:0:0:
146,200,130108,1,2,0:0:0:0:
148,218,130240,1,2,0:0:0:0:
143,231,130372,1,2,0:0:0:0:
135,235,130503,1,2,0:0:0:0:
241,359,130634,5,2,0:0:0:0:
248,364,130765,1,2,0:0:0:0:
256,366,130897,1,2,0:0:0:0:
265,366,131028,1,2,0:0:0:0:
273,362,131160,1,10,0:0:0:0:
280,356,131291,1,2,0:0:0:0:
284,348,131423,1,2,0:0:0:0:
285,340,131555,1,2,0:0:0:0:
283,331,131686,1,2,0:0:0:0:
278,323,131818,1,2,0:0:0:0:
271,318,131949,1,10,0:0:0:0:
262,316,132081,1,2,0:0:0:0:
253,316,132212,1,2,0:0:0:0:
245,320,132344,1,2,0:0:0:0:
239,326,132476,1,2,0:0:0:0:
235,334,132607,1,2,0:0:0:0:
234,343,132739,1,2,0:0:0:0:
237,351,132871,1,2,0:0:0:0:
241,359,133003,1,2,0:0:0:0:
248,364,133134,1,2,0:0:0:0:
256,366,133266,1,10,0:0:0:0:
265,366,133397,1,2,0:0:0:0:
273,362,133529,1,2,0:0:0:0:
280,356,133660,1,2,0:0:0:0:
284,348,133792,1,10,3:0:0:0:
285,340,133924,1,2,0:0:0:0:
283,331,134055,1,6,3:0:0:0:
278,323,134187,1,2,0:0:0:0:
390,364,134318,6,0,L|397:314,1,40,8|8,0:0|3:0,0:0:0:0:
463,289,134714,1,4,3:0:0:0:
302,46,134857,5,6,0:0:0:0:
390,12,134988,1,2,0:0:0:0:
454,84,135120,1,2,0:0:0:0:
433,167,135251,1,2,0:0:0:0:
355,183,135383,1,10,0:0:0:0:
288,143,135514,1,2,0:0:0:0:
207,143,135646,1,2,0:0:0:0:
151,200,135778,1,2,0:0:0:0:
160,273,135909,1,2,0:0:0:0:
211,310,136041,1,2,0:0:0:0:
257,306,136172,1,10,0:0:0:0:
283,283,136304,1,2,0:0:0:0:
290,254,136435,1,2,0:0:0:0:
284,242,136567,1,2,0:0:0:0:
165,84,136699,5,2,0:0:0:0:
225,18,136830,1,2,0:0:0:0:
309,28,136962,1,2,0:0:0:0:
338,103,137093,1,2,0:0:0:0:
299,173,137225,1,2,0:0:0:0:
220,187,137357,1,2,0:0:0:0:
168,247,137488,1,10,0:0:0:0:
178,326,137620,1,2,0:0:0:0:
244,369,137751,1,2,0:0:0:0:
319,341,137883,1,2,0:0:0:0:
351,268,138014,1,2,0:0:0:0:
322,202,138146,1,2,0:0:0:0:
329,135,138278,1,10,0:0:0:0:
370,102,138409,1,2,0:0:0:0:
400,104,138541,1,2,0:0:0:0:
416,117,138672,1,2,0:0:0:0:
420,280,138804,5,2,0:0:0:0:
455,190,138935,1,2,0:0:0:0:
452,305,139067,5,2,0:0:0:0:
433,227,139199,1,2,0:0:0:0:
368,181,139330,1,2,0:0:0:0:
287,185,139462,1,2,0:0:0:0:
234,244,139593,1,10,0:0:0:0:
194,313,139725,1,2,0:0:0:0:
115,328,139857,1,2,0:0:0:0:
50,280,139988,1,2,0:0:0:0:
44,200,140120,1,2,0:0:0:0:
90,137,140251,1,2,0:0:0:0:
170,133,140383,1,10,0:0:0:0:
228,186,140514,1,2,0:0:0:0:
219,265,140646,1,2,0:0:0:0:
155,311,140778,1,2,0:0:0:0:
88,297,140909,1,2,0:0:0:0:
49,240,141041,1,2,0:0:0:0:
59,180,141172,1,2,0:0:0:0:
95,150,141304,1,2,0:0:0:0:
141,144,141435,1,2,0:0:0:0:
175,160,141567,1,2,0:0:0:0:
184,189,141699,1,10,0:0:0:0:
177,215,141830,1,2,0:0:0:0:
163,234,141962,1,2,0:0:0:0:
147,239,142093,1,2,0:0:0:0:
131,237,142225,1,10,3:0:0:0:
122,234,142357,1,2,0:0:0:0:
115,227,142488,1,6,3:0:0:0:
114,220,142620,1,2,0:0:0:0:
75,384,142751,6,0,L|68:339,1,40,8|8,0:0|3:0,0:0:0:0:
2,309,143146,1,4,3:0:0:0:
106,106,143278,5,6,0:0:0:0:
92,103,143409,1,2,0:0:0:0:
84,111,143541,1,2,0:0:0:0:
80,135,143672,1,2,0:0:0:0:
93,170,143804,1,10,0:0:0:0:
137,196,143935,1,2,0:0:0:0:
197,184,144067,1,2,0:0:0:0:
233,125,144199,1,2,0:0:0:0:
215,50,144330,1,2,0:0:0:0:
146,21,144462,1,2,0:0:0:0:
79,59,144593,1,10,0:0:0:0:
66,133,144725,1,2,0:0:0:0:
116,193,144857,1,2,0:0:0:0:
195,192,144988,1,2,0:0:0:0:
389,81,145120,5,2,0:0:0:0:
401,71,145251,1,2,0:0:0:0:
400,53,145383,1,2,0:0:0:0:
391,37,145514,1,2,0:0:0:0:
362,24,145646,1,2,0:0:0:0:
311,32,145778,1,2,0:0:0:0:
276,82,145909,1,10,0:0:0:0:
284,152,146041,1,2,0:0:0:0:
360,182,146172,1,2,0:0:0:0:
431,143,146304,1,2,0:0:0:0:
441,63,146435,1,2,0:0:0:0:
375,1,146567,1,2,0:0:0:0:
278,17,146699,1,10,0:0:0:0:
247,108,146830,1,2,0:0:0:0:
253,227,146962,6,0,L|262:271,1,40,0|0,3:0|3:0,0:0:0:0:
3,275,147489,5,2,0:0:0:0:
8,286,147618,1,2,0:0:0:0:
78,241,147748,1,2,0:0:0:0:
85,266,147879,1,2,0:0:0:0:
158,214,148009,1,10,0:0:0:0:
161,260,148140,1,2,0:0:0:0:
248,208,148270,1,2,0:0:0:0:
239,266,148401,1,2,0:0:0:0:
329,217,148531,1,2,0:0:0:0:
311,287,148661,1,2,0:0:0:0:
423,234,148792,1,10,0:0:0:0:
383,316,148922,1,2,0:0:0:0:
512,260,149053,1,2,0:0:0:0:
450,359,149183,1,2,0:0:0:0:
472,173,149314,5,2,0:0:0:0:
493,265,149444,1,2,0:0:0:0:
389,163,149574,1,2,0:0:0:0:
400,274,149705,1,2,0:0:0:0:
297,149,149835,1,2,0:0:0:0:
300,288,149966,1,2,0:0:0:0:
205,125,150096,1,10,0:0:0:0:
198,299,150227,1,2,0:0:0:0:
118,88,150357,1,2,0:0:0:0:
87,305,150488,1,2,0:0:0:0:
35,55,150646,5,10,3:0:0:0:
87,384,150909,1,6,3:0:0:0:
484,328,151172,1,10,0:0:0:0:
433,4,151435,1,6,3:0:0:0:
257,183,151699,1,6,3:2:0:0:
256,192,160120,12,0,164067,0:0:0:0:
172,373,164330,5,10,0:0:0:0:
340,348,164593,1,10,0:0:0:0:
118,310,164857,1,10,0:0:0:0:
404,282,165120,1,10,0:0:0:0:
75,224,165383,1,10,0:0:0:0:
453,199,165646,1,10,0:0:0:0:
48,132,165909,1,10,0:0:0:0:
480,99,166172,1,10,0:0:0:0:
32,11,166435,5,10,0:0:0:0:
483,102,166699,1,10,0:0:0:0:
17,165,166962,1,10,0:0:0:0:
500,278,167225,1,10,0:0:0:0:
13,372,167488,1,10,0:0:0:0:
276,7,167739,5,8,3:0:0:0:
228,67,167860,1,8,3:0:0:0:
279,122,167982,1,8,0:0:0:0:
231,183,168104,1,8,0:0:0:0:
261,248,168226,1,8,0:0:0:0:
232,316,168348,1,8,0:0:0:0:
265,383,168486,6,0,L|301:306,1,75.0000028610231,6|0,3:2|0:0,0:0:0:0:
113,117,168749,2,0,L|145:199,1,75.0000028610231,2|0,0:0|0:0,0:0:0:0:
385,329,169012,2,0,L|365:257,1,75.0000028610231,10|0,0:0|0:0,0:0:0:0:
73,257,169275,2,0,L|165:279,1,75.0000028610231,2|0,0:0|0:0,0:0:0:0:
400,181,169538,6,0,B|428:173|428:173|437:164|437:164|490:173,1,75.0000028610231,2|0,3:2|0:0,0:0:0:0:
138,358,169801,2,0,B|98:366|98:366|91:362|91:362|46:380,1,75.0000028610231,2|0,3:2|0:0,0:0:0:0:
277,104,170093,2,0,B|271:145|271:145|265:143|265:143|259:192,1,75.0000028610231,10|0,0:0|0:0,0:0:0:0:
276,281,170356,5,2,0:0:0:0:
178,124,170487,1,0,0:0:0:0:
348,25,170619,2,0,P|360:62|498:66,1,200,2|0,3:2|0:0,0:0:0:0:
374,102,171014,1,0,0:0:0:0:
181,127,171170,2,0,P|134:194|30:168,1,200,10|0,0:0|0:0,0:0:0:0:
247,30,171564,1,2,0:0:0:0:
156,217,171696,5,2,3:2:0:0:
282,106,171827,1,2,0:0:0:0:
142,303,171959,1,2,3:2:0:0:
310,192,172091,1,2,0:0:0:0:
73,353,172222,1,10,0:0:0:0:
288,293,172354,2,0,B|436:320|436:320|444:344|474:358,1,200,2|0,0:0|0:0,0:0:0:0:
237,219,172748,5,2,3:2:0:0:
237,219,172880,1,2,0:0:0:0:
460,369,173012,2,0,B|447:358|429:352|429:352|394:47|394:47|319:142|319:142|295:142|280:150,1,500,2|2,0:0|0:0,0:0:0:0:
446,213,173670,1,10,0:0:0:0:
291,40,173801,6,0,L|187:21,1,100,2|0,3:2|0:0,0:0:0:0:
512,101,174064,2,0,L|404:118,1,100,2|0,3:2|0:0,0:0:0:0:
236,267,174327,2,0,L|355:246,1,100,10|0,0:0|0:0,0:0:0:0:
100,341,174591,2,0,L|209:361,1,100,2|0,0:0|0:0,0:0:0:0:
98,117,174854,6,0,L|-19:135,1,100,2|0,3:2|0:0,0:0:0:0:
409,277,175117,2,0,L|526:259,1,100,2|0,3:2|0:0,0:0:0:0:
205,104,175380,2,0,L|147:201,1,75.0000028610231,10|0,0:0|0:0,0:0:0:0:
307,294,175643,2,0,L|365:197,1,75.0000028610231,2|8,0:0|0:0,0:0:0:0:
270,0,175882,6,0,L|280:81,1,59.9999981689454,2|0,3:2|0:0,0:0:0:0:
237,383,176145,2,0,L|227:302,1,59.9999981689454,2|0,3:2|0:0,0:0:0:0:
362,67,176433,2,0,L|428:130,1,85.0000016212464,10|0,2:0|2:0,2:0:0:0:
150,317,176696,2,0,L|84:254,1,85.0000016212464,2|0,3:2|2:0,2:0:0:0:
273,3,176959,6,0,B|244:91|244:91|257:123|257:123|236:221,2,200,2|2|8,3:2|0:0|0:0,0:0:0:0:
88,258,177748,1,2,0:0:0:0:
267,159,177880,1,8,0:0:0:0:
150,135,178011,2,0,L|171:238,1,100,0|0,3:2|0:0,0:0:0:0:
321,350,178275,6,0,P|467:342|441:209,1,300.000011444092,2|10,3:2|0:0,0:0:0:0:
451,293,178669,1,0,0:0:0:0:
494,142,178801,1,2,0:0:0:0:
228,381,179064,6,0,B|204:227|204:227|221:219|233:188,2,200,2|2|10,3:2|0:0|0:0,0:0:0:0:
384,74,179854,1,2,0:0:0:0:
231,192,179986,1,8,0:0:0:0:
335,251,180117,2,0,B|325:206|325:206|319:209|319:209|308:156,1,100,2|0,3:2|0:0,0:0:0:0:
99,374,180380,2,0,B|108:326|108:326|114:329|114:329|124:285,1,100,2|0,3:2|0:0,0:0:0:0:
404,198,180643,2,0,B|440:207|440:207|470:201|470:201|520:246,1,125,10|0,0:0|0:0,0:0:0:0:
122,70,180906,2,0,B|78:78|78:78|47:67|47:67|0:74,1,125,2|0,3:2|0:0,0:0:0:0:
512,132,181169,5,6,3:2:0:0:
235,0,181433,2,0,B|256:9|272:26|272:26|308:77|300:136|300:136|283:155|274:180|274:180|300:221|299:290,2,300.000011444092,2|10|2,3:2|0:0|0:0,0:0:0:0:
461,77,182090,5,8,0:0:0:0:
461,77,182156,1,8,0:0:0:0:
461,77,182222,1,2,3:0:0:0:
0,212,182485,2,0,B|42:223|82:211|82:211|100:270|149:313|149:313|193:300|234:310|234:310|248:366|326:392,2,400,2|10|2,3:2|0:0|0:0,0:0:0:0:
388,16,183275,5,2,3:2:0:0:
0,373,183538,2,0,B|25:351|25:351|91:378|91:378|210:338,1,189.999994926453,2|0,3:2|0:0,0:0:0:0:
505,200,183801,2,0,B|496:107|496:107|398:208,1,189.999994926453,10|0,3:2|0:0,0:0:0:0:
260,379,184064,5,2,3:2:0:0:
335,166,184196,1,8,0:0:0:0:
440,274,184327,1,2,3:2:0:0:
402,53,184459,1,8,0:0:0:0:
266,291,184590,1,10,3:2:0:0:
266,291,184656,1,8,0:0:0:0:
266,291,184722,2,0,B|260:250|260:250|254:252|254:252|248:203,1,94.9999974632264,10|0,0:0|0:0,0:0:0:0:
433,146,184854,1,10,0:0:0:0:
159,58,184986,1,10,0:0:0:0:
350,224,185117,1,10,0:0:0:0:
74,276,185248,1,10,1:2:0:0:
229,119,185380,5,14,0:3:0:0:
174,279,185511,1,8,0:3:0:0:
17,216,185643,2,0,B|30:176|30:176|39:170|39:170|46:121,1,100,10|0,0:3|0:0,0:0:0:0:
346,117,185906,2,0,B|253:78|253:78|281:228,1,239.999992675781,8|2,0:0|0:0,0:0:0:0:
198,361,186301,1,10,0:0:0:0:
418,277,186433,6,0,B|447:283|447:283|470:277|470:277|513:296,1,100,2|0,3:2|0:0,0:0:0:0:
424,135,186696,1,2,3:2:0:0:
288,306,186827,1,0,0:0:0:0:
253,78,186959,2,0,B|221:82|221:82|195:74|195:74|169:104|169:104|54:118,1,200,10|0,0:0|0:0,0:0:0:0:
90,370,187485,5,2,0:0:0:0:
436,320,187748,5,2,0:0:0:0:
71,218,188011,5,2,0:0:0:0:
441,175,188275,5,2,0:0:0:0:
67,77,188538,5,2,0:0:0:0:
452,24,188801,5,2,3:2:0:0:
255,384,189064,6,0,L|247:345,1,40,10|2,0:0|3:2,0:0:0:0:
340,151,189590,6,0,B|412:163|480:178|480:178|454:133|437:94,1,230.000004386902,6|0,3:2|0:0,0:0:0:0:
279,271,189985,1,0,0:0:0:0:
130,206,190117,2,0,B|114:169|114:169|120:130|120:130|90:98|101:11,1,200,10|0,0:0|0:2,0:2:0:0:
28,265,190511,1,2,0:0:0:0:
246,344,190643,6,0,B|275:350|275:350|298:344|298:344|341:363,1,100,2|0,3:2|0:0,0:0:0:0:
141,116,190906,2,0,B|103:122|103:122|77:113|77:113|43:118,1,100,2|0,3:2|0:0,0:0:0:0:
385,298,191169,2,0,B|434:285|479:280|479:280|469:230|463:173,1,200,10|2,0:0|0:0,0:0:0:0:
417,3,191696,5,2,0:0:0:0:
105,55,191959,5,2,0:0:0:0:
407,153,192222,5,2,0:0:0:0:
108,196,192486,5,2,0:0:0:0:
403,297,192749,5,2,0:0:0:0:
124,348,193012,5,10,0:0:0:0:
244,384,193099,2,0,B|238:347|238:347|233:348|233:348|227:304,1,66.6666666666667,10|4,3:0|3:0,0:0:0:0:
293,3,193275,6,0,L|282:51,1,40,2|10,3:2|0:0,0:0:0:0:
182,254,193801,6,0,B|105:272|105:272|86:307|86:307|4:350,1,200,6|0,3:2|0:0,0:0:0:0:
265,130,194196,1,0,0:0:0:0:
401,355,194327,2,0,B|445:218|445:218|383:194,1,200,10|0,0:0|0:0,0:0:0:0:
217,335,194722,1,0,0:0:0:0:
103,150,194854,2,0,B|85:165|85:165|-14:135,1,100,2|0,3:2|0:0,0:0:0:0:
293,3,195117,2,0,B|299:32|299:32|293:55|293:55|312:98,1,100,0|0,3:2|0:0,0:0:0:0:
512,275,195380,2,0,B|532:199|532:199|373:246,1,200,10|0,0:0|0:0,0:0:0:0:
45,384,195906,5,2,0:0:0:0:
479,345,196169,5,2,0:0:0:0:
21,266,196432,5,2,0:0:0:0:
484,233,196696,5,2,0:0:0:0:
15,157,196959,5,2,0:0:0:0:
505,109,197222,5,2,3:2:0:0:
505,109,197354,1,0,3:2:0:0:
246,1,197485,1,10,0:0:0:0:
255,381,197748,6,0,L|261:344,1,30,2|0,3:2|0:0,0:0:0:0:
172,177,198011,6,0,B|124:189|60:197|60:197|77:259|82:312,1,230.000004386902,4|0,3:2|0:0,0:0:0:0:
258,384,198406,1,0,0:0:0:0:
414,195,198538,6,0,B|420:150|439:81,1,115.000002193451,10|0,0:0|0:0,0:0:0:0:
82,312,198801,2,0,P|70:235|58:177,1,115.000002193451,2|8,0:0|0:0,0:0:0:0:
411,384,199064,6,0,P|394:328|389:271,1,115.000002193451,2|0,3:2|0:0,0:0:0:0:
131,145,199327,2,0,P|126:95|111:31,1,115.000002193451,2|0,3:2|0:0,0:0:0:0:
479,296,199590,6,0,P|491:247|515:181,1,115.000002193451,10|0,0:0|0:0,0:0:0:0:
0,126,199854,2,0,P|21:64|33:15,1,115.000002193451,2|0,0:0|0:0,0:0:0:0:
502,384,200117,6,0,B|426:180|345:357|278:111,2,369.999998588562,2|2|10,3:2|3:2|0:0,0:0:0:0:
476,151,200906,5,0,0:0:0:0:
252,184,201031,1,0,3:2:0:0:
77,329,201156,1,8,0:0:0:0:
493,73,201406,5,0,0:0:0:0:
217,106,201533,1,0,3:2:0:0:
2,291,201660,1,8,0:0:0:0:
512,0,201937,5,8,0:0:0:0:
0,377,202222,1,6,3:2:0:0:
99,34,204327,6,0,B|77:47|89:66|89:66|59:81|27:78|27:78|136:108|184:158|184:158|182:184|205:206,1,333.333333333333,2|0,0:0|0:0,0:0:0:0:
495,345,206257,5,0,0:0:0:0:
483,347,206344,1,0,0:0:0:0:
478,356,206432,2,0,P|461:294|442:259,1,100,2|0,0:0|0:0,0:0:0:0:
373,214,207222,2,0,P|338:264|254:298,1,150,2|2,0:0|0:0,0:0:0:0:
257,297,208274,1,2,0:0:0:0:
46,366,208537,6,0,P|96:338|143:330,1,100,2|2,0:0|0:0,0:0:0:0:
185,258,209327,2,0,P|155:233|129:178,1,100,2|2,0:0|0:0,0:0:0:0:
63,243,209985,1,0,0:0:0:0:
63,243,210116,1,2,0:0:0:0:
118,71,210379,1,2,0:0:0:0:
244,294,210643,6,0,P|268:287|304:272,2,50,2|2|2,0:0|0:0|0:0,0:0:0:0:
183,367,211432,2,0,P|241:374|298:390,1,100,2|2,0:0|0:0,0:0:0:0:
292,279,212222,2,0,P|320:302|344:331,1,75,2|0,0:0|0:0,0:0:0:0:
512,289,212748,6,0,B|534:358|482:435|365:425|324:322|377:253|422:230|422:230|410:212|411:183|411:183|436:170|441:155,1,450,2|0,0:0|0:0,0:0:0:0:
460,45,214064,6,0,B|484:108|484:108|340:163,1,200,6|0,3:2|0:0,0:0:0:0:
421,230,214458,2,0,B|394:291|394:291|252:231,1,200,6|0,3:2|0:0,0:0:0:0:
197,332,214853,2,0,B|202:286|202:286|176:258|176:258|153:140,1,200,6|0,3:2|0:2,0:2:0:0:
200,335,215741,5,2,0:0:0:0:
203,338,216300,2,0,L|144:349,1,50,2|2,0:0|0:0,0:0:0:0:
156,350,217156,2,0,L|112:344,1,43.75,2|2,0:0|0:0,0:0:0:0:
112,344,217748,2,0,L|80:351,1,31.25,2|2,0:0|0:0,0:0:0:0:
112,344,218110,5,0,0:0:0:0:
0,361,218274,2,0,B|34:194|34:194|169:221,2,300.000011444092,2|14|2,3:2|0:0|0:0,0:0:0:0:
438,315,219064,6,0,P|425:269|415:217,1,100,0|0,3:0|0:0,3:0:0:0:
368,368,219590,5,10,0:0:0:0:
495,176,219853,1,2,0:0:0:0:
249,301,220116,5,2,0:0:0:0:
410,219,220379,1,2,3:2:0:0:
200,197,220643,5,10,0:0:0:0:
276,223,220906,1,2,0:0:0:0:
225,382,221169,5,2,3:2:0:0:
0,318,221432,1,2,0:0:0:0:
68,79,221695,1,10,0:0:0:0:
303,145,221958,2,0,P|385:177|451:191,1,150,2|0,0:0|0:0,0:0:0:0:
303,145,222508,1,0,3:2:0:0:
429,307,222771,2,0,P|480:269|519:249,1,100,8|0,0:0|0:0,0:0:0:0:
246,380,223274,5,2,3:2:0:0:
92,244,223537,1,2,0:0:0:0:
168,72,223800,1,10,0:0:0:0:
342,86,224064,1,2,0:0:0:0:
394,243,224327,1,2,0:0:0:0:
270,309,224590,1,2,0:0:0:0:
184,234,224853,1,10,0:0:0:0:
211,160,225116,1,2,0:0:0:0:
286,213,225379,5,2,3:2:0:0:
286,213,225643,1,2,0:0:0:0:
286,213,225906,1,10,0:0:0:0:
286,213,226169,2,0,P|276:132|261:58,1,150,2|0,3:2|0:0,0:0:0:0:
367,121,226695,1,2,3:2:0:0:
367,121,226958,2,0,P|356:69|350:16,1,100,8|2,0:0|0:0,0:0:0:0:
121,254,227485,6,0,P|88:270|51:274,1,75,0|0,3:2|0:0,0:0:0:0:
346,283,228011,2,0,P|394:249|452:233,1,120,8|0,0:0|0:0,0:0:0:0:
285,384,228537,6,0,B|232:290|292:309|235:204,1,179.999994506836,2|0,0:0|0:0,0:0:0:0:
285,384,229064,1,8,0:0:0:0:
359,354,229327,1,0,3:2:0:0:
89,317,229590,6,0,B|116:212|146:267|177:153,1,179.999994506836,2|0,3:2|0:0,0:0:0:0:
89,317,230116,1,8,0:0:0:0:
178,355,230379,1,0,0:0:0:0:
0,122,230643,6,0,B|92:65|75:126|177:66,1,179.999994506836,2|0,0:0|0:0,0:0:0:0:
0,122,231169,1,8,0:0:0:0:
48,237,231432,1,2,0:0:0:0:
290,12,231695,6,0,L|228:44,1,60
293,15,232222,6,0,L|241:107,1,104.999996795654,8|0,0:0|0:0,0:0:0:0:
296,18,232748,6,0,L|267:168,1,150
299,21,233274,6,0,L|368:248,1,230.000004386902,8|0,0:0|0:0,0:0:0:0:
376,170,233669,1,0,0:0:0:0:
0,283,233800,6,0,B|57:259|57:259|92:316|92:316|265:361,1,230.000004386902,4|0,0:0|0:0,0:0:0:0:
104,192,234195,1,0,0:0:0:0:
74,334,234327,2,0,B|108:282|108:282|169:311|169:311|338:255,1,230.000004386902,10|0,0:0|0:0,0:0:0:0:
107,195,234722,1,0,0:0:0:0:
354,321,234853,6,0,B|401:238|401:238|376:207|376:207|408:104,1,230.000004386902,10|2,0:0|3:2,0:0:0:0:
512,303,235248,1,0,0:0:0:0:
422,377,235380,2,0,B|398:284|398:284|359:280|359:280|311:183,1,230.000004386902,8|2,0:0|0:0,0:0:0:0:
22,78,235906,5,6,3:2:0:0:
99,55,236037,1,2,0:0:0:0:
163,104,236169,1,2,0:0:0:0:
153,182,236300,1,2,0:0:0:0:
94,229,236432,1,10,0:0:0:0:
77,302,236564,1,2,0:0:0:0:
133,350,236695,1,2,0:0:0:0:
209,331,236827,1,2,0:0:0:0:
219,322,236958,5,2,3:2:0:0:
206,259,237090,1,2,0:0:0:0:
318,252,237222,5,2,3:2:0:0:
300,344,237353,1,2,0:0:0:0:
387,352,237485,5,10,0:0:0:0:
411,285,237616,1,2,0:0:0:0:
497,384,237748,6,0,L|486:322,1,60,2|0,3:2|0:0,0:0:0:0:
321,255,238274,5,2,3:2:0:0:
414,288,238406,2,0,L|429:253,1,20,2|8,0:0|0:0,0:0:0:0:
435,82,238669,5,2,0:0:0:0:
379,34,238800,1,2,0:0:0:0:
303,53,238932,1,2,0:0:0:0:
293,62,239063,5,2,3:2:0:0:
306,130,239195,1,2,0:0:0:0:
198,147,239327,5,2,3:2:0:0:
215,49,239458,1,2,0:0:0:0:
123,39,239590,5,10,0:0:0:0:
98,105,239721,1,2,0:0:0:0:
6,61,239853,6,0,L|12:80,1,20,2|0,0:0|0:0,0:0:0:0:
30,339,240116,6,0,B|78:324|130:324|130:324|118:276|116:219,1,200,4|0,3:2|0:0,0:0:0:0:
310,271,240511,1,0,0:0:0:0:
216,286,240643,2,0,P|227:335|232:389,1,100,10|0,0:0|0:0,0:0:0:0:
294,172,240906,2,0,P|298:221|309:270,1,100,2|0,0:0|0:0,0:0:0:0:
397,221,241169,2,0,P|407:280|422:333,1,100,2|0,3:2|0:0,0:0:0:0:
486,207,241432,5,2,3:2:0:0:
378,135,241564,1,0,0:0:0:0:
400,224,241695,5,10,0:0:0:0:
466,120,241827,1,0,0:0:0:0:
365,48,241958,6,0,P|258:33|158:10,1,200,2|0,3:0|0:0,0:0:0:0:
168,12,242353,1,0,0:0:0:0:
147,97,242485,2,0,P|92:82|39:72,1,100,2|0,3:2|0:0,0:0:0:0:
236,118,242748,1,10,0:0:0:0:
125,183,242879,1,0,0:0:0:0:
236,372,243011,6,0,P|221:290|215:166,1,170.000003242493,2|0,0:0|3:2,0:0:0:0:
400,262,243406,1,0,0:0:0:0:
312,271,243537,2,0,P|316:312|324:355,1,85.0000016212464,2|0,3:2|0:0,0:0:0:0:
387,178,243800,2,0,P|391:219|399:262,1,85.0000016212464,10|0,0:0|0:0,0:0:0:0:
491,341,244034,5,8,0:0:0:0:
315,274,244159,1,8,0:0:0:0:
376,91,244284,2,0,P|369:59|367:32,1,60,4|0,3:2|0:0,0:0:0:0:
249,152,244855,5,10,0:0:0:0:
288,19,244986,1,0,0:0:0:0:
281,177,245118,5,2,0:0:0:0:
272,100,245250,1,0,0:0:0:0:
207,54,245381,1,0,3:2:0:0:
126,58,245513,1,0,0:0:0:0:
73,117,245644,1,0,3:2:0:0:
74,197,245776,1,0,0:0:0:0:
141,258,245907,5,10,0:0:0:0:
10,274,246039,1,0,0:0:0:0:
141,258,246170,2,0,B|153:298|153:341|153:341|193:331|241:329,1,170.000003242493,2|0,3:2|0:0,0:0:0:0:
303,215,246564,1,0,0:0:0:0:
320,384,246696,2,0,P|369:373|412:370,1,85.0000016212464,2|0,3:2|0:0,0:0:0:0:
437,297,246959,2,0,B|486:286|520:283|520:283|506:197|499:105,1,255.000004863739,8|0,0:0|0:0,0:0:0:0:
259,32,247485,5,0,3:2:0:0:
360,117,247617,1,0,0:0:0:0:
352,23,247748,5,0,3:2:0:0:
267,124,247880,1,0,0:0:0:0:
369,206,248011,1,8,0:0:0:0:
369,206,248275,5,2,0:0:0:0:
252,359,248406,1,2,0:0:0:0:
102,234,248538,6,0,P|95:182|84:134,1,85.0000016212464,6|0,3:2|0:0,0:0:0:0:
13,183,248801,2,0,P|6:131|-5:83,1,85.0000016212464,2|0,0:0|0:0,0:0:0:0:
148,86,249064,2,0,P|141:34|130:-14,1,85.0000016212464,10|0,0:0|0:0,0:0:0:0:
0,99,249327,1,2,0:0:0:0:
230,125,249459,2,0,P|248:243|258:299,1,170.000003242493
499,256,249854,6,0,P|506:204|517:156,1,85.0000016212464,2|0,3:2|0:0,0:0:0:0:
364,159,250117,2,0,P|371:107|382:59,1,85.0000016212464,10|0,0:0|0:0,0:0:0:0:
512,172,250380,1,2,3:2:0:0:
282,198,250512,2,0,P|264:316|254:372,1,170.000003242493
60,332,250906,6,0,P|53:280|42:232,1,85.0000016212464,2|0,3:2|0:0,0:0:0:0:
195,235,251169,2,0,P|188:183|177:135,1,85.0000016212464,10|0,0:0|0:0,0:0:0:0:
364,159,251420,2,0,P|357:107|346:59,1,85.0000016212464,2|0,3:2|0:0,0:0:0:0:
63,13,251696,2,0,P|86:114|95:185,1,170.000003242493,0|2,0:0|0:0,0:0:0:0:
12,195,252090,1,0,3:2:0:0:
264,148,252222,2,0,P|281:251|296:320,1,170.000003242493,10|2,0:0|0:0,0:0:0:0:
217,335,252617,1,0,0:0:0:0:
512,349,252748,5,6,3:2:0:0:
435,372,252880,1,2,0:0:0:0:
371,323,253011,1,2,0:0:0:0:
381,245,253143,1,2,0:0:0:0:
440,198,253274,1,10,0:0:0:0:
457,125,253406,1,2,0:0:0:0:
401,77,253538,1,2,0:0:0:0:
325,96,253669,1,2,0:0:0:0:
308,86,253801,6,0,L|317:49,1,20,2|0,3:2|0:0,0:0:0:0:
99,226,254064,2,0,L|93:200,1,20,2|0,3:2|0:0,0:0:0:0:
208,68,254327,5,8,0:0:0:0:
342,186,254459,1,0,0:0:0:0:
202,303,254590,2,0,L|213:238,1,60,0|0,3:2|0:0,0:0:0:0:
309,81,255117,6,0,P|410:74|512:47,2,200,2|8|2,3:2|0:0|3:2,0:0:0:0:
388,0,255774,1,0,0:0:0:0:
429,242,255906,2,0,P|482:230|541:225,1,85.0000016212464,2|0,3:2|0:0,0:0:0:0:
271,183,256169,2,0,P|315:172|378:167,1,85.0000016212464,2|0,3:2|2:0,2:0:0:0:
346,355,256432,2,0,P|385:345|454:341,1,85.0000016212464,10|0,0:0|0:0,0:0:0:0:
199,127,256696,1,2,0:0:0:0:
231,308,256827,1,0,0:0:0:0:
47,344,256959,6,0,P|31:211|14:123,1,200,2|0,3:2|0:0,0:0:0:0:
480,244,257485,2,0,P|462:145|451:46,1,200,10|0,0:0|0:0,0:0:0:0:
56,66,258011,1,2,3:2:0:0:
451,46,258274,1,0,3:2:0:0:
302,376,258538,2,0,P|307:313|319:262,1,100,10|0,0:0|0:0,0:0:0:0:
216,16,258801,2,0,P|202:121|161:260,1,200,2|0,3:2|0:0,0:0:0:0:
337,0,259327,1,0,3:2:0:0:
166,383,259590,6,0,B|89:254|99:354|27:245,1,200,12|0,0:0|0:0,0:0:0:0:
245,112,259985,1,8,0:0:0:0:
355,303,260117,2,0,B|414:257|391:302|444:265,1,100,0|0,3:2|0:0,0:0:0:0:
55,164,260380,2,0,B|114:118|91:163|144:126,1,100,0|0,3:2|0:0,0:0:0:0:
340,3,260643,5,8,0:3:0:0:
289,212,260774,1,8,0:3:0:0:
182,60,260906,5,4,0:3:0:0:
243,292,261038,1,4,0:3:0:0:
452,219,261169,1,4,3:2:0:0:
448,90,276959,6,0,B|460:141,2,40,2|2|2,0:0|0:0|0:0,0:0:0:0:
378,150,277721,1,2,0:0:0:0:
378,150,277975,2,0,L|393:189,1,40,2|2,0:0|0:0,0:0:0:0:
328,236,278484,2,0,L|350:270,1,40,2|2,0:0|0:0,0:0:0:0:
244,331,278989,6,0,B|256:280,2,40,2|2|2,0:0|0:0|0:0,0:0:0:0:
165,280,279714,1,2,0:0:0:0:
165,280,279956,2,0,L|180:241,1,40,2|2,0:0|0:0,0:0:0:0:
99,217,280440,2,0,L|121:183,1,40,2|2,0:0|0:0,0:0:0:0:
0,70,280924,6,0,L|15:123,1,40,2|2,0:0|0:0,0:0:0:0:
129,138,281415,2,0,L|111:201,1,60,2|0,0:0|0:0,0:0:0:0:
34,197,281907,1,2,0:0:0:0:
34,197,282153,2,0,L|54:287,1,80,2|0,0:0|0:0,0:0:0:0:
150,255,282891,1,2,0:0:0:0:
130,369,283137,5,2,0:0:0:0:
130,369,283383,2,0,L|121:316,1,40,2|2,0:0|0:0,0:0:0:0:
232,307,283874,2,0,L|246:263,1,40,2|2,0:0|0:0,0:0:0:0:
315,236,284366,1,2,0:0:0:0:
394,262,284612,1,2,0:0:0:0:
369,340,284858,5,2,0:0:0:0:
372,343,285818,1,2,0:0:0:0:
186,38,286778,5,2,0:0:0:0:
341,71,287265,1,2,0:0:0:0:
359,103,287753,5,10,0:0:0:0:
244,169,287916,2,0,L|230:120,3,33.3333333333333,8|8|8|8,0:3|0:3|0:3|0:3,0:0:0:0:
350,206,288241,2,0,B|298:237|298:237|290:262|290:262|235:306,1,150,8|0,0:0|0:0,0:0:0:0:
234,343,288735,6,0,B|219:294|219:294|61:330,2,200,6|0|10,3:2|0:0|0:0,0:0:0:0:
5,168,290222,2,0,L|84:238,1,100,0|2,0:0|0:0,0:0:0:0:
56,246,290718,2,0,L|109:214,1,50,2|0,3:2|0:0,0:0:0:0:
136,94,290965,2,0,L|121:153,1,50,2|0,0:0|0:0,0:0:0:0:
219,230,291213,2,0,L|184:178,1,50,2|0,3:2|0:0,0:0:0:0:
219,230,291461,1,2,0:0:0:0:
153,345,291709,2,0,L|171:293,1,50,10|0,0:0|0:0,0:0:0:0:
336,167,291950,2,0,L|284:191,1,50,2|0,0:0|0:0,0:0:0:0:
418,329,292192,2,0,B|365:314|365:314|339:324|339:324|267:289,1,150,10|0,0:0|0:0,0:0:0:0:
393,189,292676,2,0,B|461:139|461:139|367:62,1,200,2|0,3:2|0:0,0:0:0:0:
396,192,293667,1,10,0:0:0:0:
193,20,293915,2,0,B|105:56|105:56|244:116,1,200,2|0,0:0|0:0,0:0:0:0:
318,150,294535,1,8,0:0:0:0:
288,102,294659,2,0,L|293:165,1,50,2|0,0:0|0:0,0:0:0:0:
90,326,294893,2,0,L|269:147,1,250,2|0,0:0|0:0,0:0:0:0:
56,241,295641,2,0,B|-14:222|-14:222|43:149,1,150,10|0,0:0|0:0,0:0:0:0:
163,296,296132,2,0,B|199:322|199:322|200:336|200:336|222:371,1,100,10|0,0:3|0:0,0:0:0:0:
366,384,296624,2,0,B|470:284|470:284|516:330,2,200,6|0|10,0:0|3:2|0:0,0:0:0:0:
289,210,298116,2,0,L|382:274,1,100,0|10,0:0|0:0,0:0:0:0:
391,249,298601,2,0,L|374:194,1,50,2|0,3:2|0:0,0:0:0:0:
472,106,298839,2,0,L|432:150,1,50,2|0,0:0|0:0,0:0:0:0:
306,90,299077,2,0,L|367:107,1,50,2|0,3:2|0:0,0:0:0:0:
306,90,299315,1,2,0:0:0:0:
359,217,299553,2,0,L|341:165,1,50,10|0,0:0|0:0,0:0:0:0:
176,39,299791,2,0,L|228:63,1,50,2|0,0:0|0:0,0:0:0:0:
84,241,300029,2,0,L|184:210,1,100,2|0,0:0|0:0,0:0:0:0:
84,241,300344,1,0,0:0:0:0:
258,200,300553,5,0,3:2:0:0:
249,197,300798,1,0,0:0:0:0:
249,187,301044,1,2,0:0:0:0:
258,183,301290,1,2,0:0:0:0:
409,291,301536,1,8,0:0:0:0:
264,192,301776,1,0,0:0:0:0:
258,200,302016,1,2,0:0:0:0:
45,320,302256,1,8,0:0:0:0:
246,107,302514,5,2,3:2:0:0:
356,251,302761,1,0,3:2:0:0:
181,275,303009,1,2,3:2:0:0:
249,197,303257,5,0,0:0:0:0:
300,40,303505,1,8,0:0:0:0:
249,187,303743,1,0,0:0:0:0:
258,183,303981,1,0,0:0:0:0:
292,384,304219,1,8,0:0:0:0:
71,154,304490,5,0,3:2:0:0:
264,192,304734,1,0,0:0:0:0:
447,232,304979,1,2,3:2:0:0:
258,200,305224,1,0,0:0:0:0:
32,242,305469,1,10,0:0:0:0:
249,197,305714,1,0,0:0:0:0:
249,187,305960,1,2,0:0:0:0:
471,146,306204,1,8,0:0:0:0:
284,361,306449,5,8,0:0:0:0:
141,320,306694,1,0,3:2:0:0:
84,182,306938,1,0,3:2:0:0:
156,51,307183,1,8,0:0:0:0:
303,26,307428,1,8,0:0:0:0:
415,126,307668,1,0,3:2:0:0:
406,275,307908,1,8,0:0:0:0:
37,101,308388,6,0,B|141:68|141:68|152:153|152:153|220:195|220:195|161:247,1,350,4|0,3:2|0:0,0:0:0:0:
121,164,309387,1,10,0:0:0:0:
184,338,309632,2,0,L|34:277,1,150,2|0,0:0|0:0,0:0:0:0:
187,341,310124,1,8,0:3:0:0:
18,306,310370,2,0,L|100:362,1,100,2|0,3:2|0:0,0:0:0:0:
18,377,310862,2,0,L|78:297,1,100,0|0,3:2|0:0,0:0:0:0:
263,116,311354,1,8,0:0:0:0:
112,193,311600,1,0,3:2:0:0:
187,341,311846,1,8,0:0:0:0:
315,21,312361,2,0,B|266:36|266:36|302:194,2,200,6|0|10,3:2|0:0|0:0,0:0:0:0:
453,142,313824,2,0,L|374:212,1,100,0|10,0:0|0:0,0:0:0:0:
398,231,314312,2,0,L|345:199,1,50,2|0,3:2|0:0,0:0:0:0:
318,79,314562,2,0,L|333:138,1,50,2|0,0:0|0:0,0:0:0:0:
235,215,314812,2,0,L|270:163,1,50,2|0,3:2|0:0,0:0:0:0:
235,215,315062,1,2,0:0:0:0:
311,362,315303,2,0,L|293:310,1,50,10|0,0:0|0:0,0:0:0:0:
99,110,315546,2,0,L|151:134,1,50,2|0,0:0|0:0,0:0:0:0:
0,351,315790,2,0,B|53:336|53:336|79:346|79:346|151:311,1,150,10|0,0:0|0:0,0:0:0:0:
340,48,316323,2,0,B|387:51|387:51|396:68|396:68|496:106|496:106|387:197,1,300,6|0,3:2|0:0,0:0:0:0:
431,46,317283,1,10,0:0:0:0:
292,282,317523,2,0,L|248:103,1,150,2|0,0:0|0:0,0:0:0:0:
292,282,318003,1,8,0:3:0:0:
57,341,318243,2,0,B|98:314|98:314|115:259|115:259|407:159,2,400,2|2|10,3:2|3:2|0:0,0:0:0:0:
230,106,319482,1,8,0:0:0:0:
141,367,319730,1,8,0:3:0:0:
6,187,319978,1,8,0:3:0:0:
60,132,320251,1,2,0:0:0:0:
395,369,321226,2,0,B|487:341|487:341|416:262,1,200,10|2,0:0|0:0,0:0:0:0:
419,133,321958,1,10,0:0:0:0:
419,133,322080,1,8,0:0:0:0:
419,133,322190,2,0,L|366:165,1,50,2|0,3:2|0:0,0:0:0:0:
339,285,322431,2,0,L|354:226,1,50,2|0,0:0|0:0,0:0:0:0:
256,149,322673,2,0,L|291:201,1,50,2|0,3:2|0:0,0:0:0:0:
256,149,322915,1,2,0:0:0:0:
321,21,323139,2,0,L|304:86,1,66.6666666666667,10|8,0:0|0:3,0:0:0:0:
205,74,323391,2,0,L|175:88,2,33.3333333333333,8|8|8,0:3|0:3|0:3,0:0:0:0:
59,129,323643,2,0,B|103:41|103:41|167:185,1,225.000008583069,10|0,0:0|0:0,0:0:0:0:
253,183,324147,5,4,3:2:0:0:
262,187,324399,1,2,0:0:0:0:
262,197,324651,1,0,0:0:0:0:
253,200,324903,1,2,0:0:0:0:
409,93,325155,1,10,0:0:0:0:
247,192,325389,1,2,0:0:0:0:
253,183,325623,1,0,0:0:0:0:
45,64,325858,1,10,0:0:0:0:
246,277,326092,5,0,3:2:0:0:
356,133,326344,1,2,3:2:0:0:
181,109,326596,1,0,3:2:0:0:
263,187,326848,5,2,0:0:0:0:
300,344,327100,1,8,0:0:0:0:
263,197,327352,1,0,0:0:0:0:
253,200,327604,1,0,0:0:0:0:
292,0,327856,1,8,0:0:0:0:
63,140,328108,5,0,3:2:0:0:
247,192,328348,1,2,0:0:0:0:
447,220,328588,1,0,3:2:0:0:
253,183,328828,1,2,0:0:0:0:
228,384,329068,1,10,0:0:0:0:
262,187,329308,1,2,0:0:0:0:
262,197,329548,1,0,0:0:0:0:
254,201,329788,1,2,0:0:0:0:
31,211,330028,5,0,3:2:0:0:
247,192,330278,1,2,0:0:0:0:
458,145,330528,1,0,3:2:0:0:
253,183,330778,1,0,0:0:0:0:
84,54,331028,5,10,0:0:0:0:
262,187,331271,1,2,0:0:0:0:
116,357,331515,1,8,0:0:0:0:
116,357,331759,2,0,L|110:323,3,33.3333333333333,10|8|8|0,0:3|0:3|0:3|3:2,0:0:0:0:
192,333,332038,5,0,3:2:0:0:
256,192,332096,12,2,334850,0:0:0:0:
