osu file format v14

[General]
AudioFilename: audio.mp3
AudioLeadIn: 0
PreviewTime: 199920
Countdown: 0
SampleSet: Soft
StackLeniency: 0.5
Mode: 0
LetterboxInBreaks: 0
WidescreenStoryboard: 0

[Editor]
Bookmarks: 13442,26775,53442,80109,93358,106691,120109,146691,160025,173358,186691,200025,226691,240025,256696,269196,296696,323362,350029,363362,376696,383362
DistanceSpacing: 0.4
BeatDivisor: 4
GridSize: 32
TimelineZoom: 2.899999

[Metadata]
Title:Bodys
TitleUnicode:Bodys
Artist:Car Seat Headrest
ArtistUnicode:Car Seat Headrest
Creator:wafer
Version:embrace
Source:
Tags:english rock alternative indie twin fantasy lgbtq pride face to face on a need to know basis goopert kami no kotoba
BeatmapID:4031234
BeatmapSetID:1947889

[Difficulty]
HPDrainRate:5
CircleSize:4.3
OverallDifficulty:8.8
ApproachRate:9.2
SliderMultiplier:1.4
SliderTickRate:1

[Events]
//Background and Video events
0,0,"pill.jpg",0,0
//Break Periods
2,190025,196691
2,260229,267945
//Storyboard Layer 0 (Background)
//Storyboard Layer 1 (Fail)
//Storyboard Layer 2 (Pass)
//Storyboard Layer 3 (Foreground)
//Storyboard Layer 4 (Overlay)
//Storyboard Sound Samples

[TimingPoints]
25,416.666666666667,4,2,0,45,1,0
25,-133.333333333333,4,2,0,45,0,0
11066,-1000,4,2,0,15,0,0
12941,-1000,4,2,0,45,0,0
13358,-133.333333333333,4,2,0,45,0,0
14816,-400,4,2,0,45,0,0
30233,-133.333333333333,4,2,0,45,0,0
40441,-181.818181818182,4,2,0,45,0,0
40467,-181.818181818182,4,2,1,5,0,0
40650,-166.666666666667,4,2,0,25,0,0
40754,-166.666666666667,4,2,1,5,0,0
40858,-166.666666666667,4,2,0,30,0,0
40962,-166.666666666667,4,2,1,5,0,0
41066,-166.666666666667,4,2,0,30,0,0
41170,-166.666666666667,4,2,1,5,0,0
41275,-166.666666666667,4,2,0,35,0,0
41379,-166.666666666667,4,2,1,5,0,0
41483,-166.666666666667,4,2,0,35,0,0
41587,-166.666666666667,4,2,1,5,0,0
41691,-166.666666666667,4,2,0,40,0,0
42108,-166.666666666667,4,2,1,45,0,0
42525,-166.666666666667,4,2,0,50,0,0
42629,-166.666666666667,4,2,0,5,0,0
42733,-166.666666666667,4,2,0,45,0,0
43150,-50,4,2,0,45,0,0
43202,-50,4,2,0,5,0,0
43254,-100,4,2,0,5,0,0
43566,-100,4,2,0,45,0,0
50441,-133.333333333333,4,2,0,45,0,0
53358,-133.333333333333,4,2,0,45,0,0
60650,-100,4,2,0,50,0,0
62733,-133.333333333333,4,2,0,50,0,0
63150,-200,4,2,0,50,0,0
64400,-133.333333333333,4,2,0,50,0,0
66691,-133.333333333333,4,2,0,45,0,0
72941,-153.846153846153,4,2,0,45,0,0
73983,-100,4,2,0,50,0,0
76483,-133.333333333333,4,2,0,50,0,0
77108,-200,4,2,0,50,0,0
77733,-133.333333333333,4,2,0,50,0,0
78358,-117.647058823529,4,2,0,50,0,0
78983,-133.333333333333,4,2,0,52,0,0
79608,-133.333333333333,4,2,0,55,0,0
80025,-100,4,2,0,65,0,0
81812,-100,4,2,0,65,0,0
92941,-133.333333333333,4,2,0,65,0,0
93358,-100,4,2,0,60,0,0
93874,-100,4,2,0,60,0,0
97108,-100,4,1,0,60,0,0
97316,-100,4,2,0,60,0,0
107108,-83.3333333333333,4,2,0,65,0,0
109608,-133.333333333333,4,2,0,65,0,0
111066,-83.3333333333333,4,2,0,65,0,0
112733,-133.333333333333,4,2,0,65,0,0
113150,-83.3333333333333,4,2,0,65,0,0
119608,-66.6666666666667,4,2,0,65,0,0
120025,-250,4,2,0,70,0,0
123358,-50,4,2,0,70,0,0
126691,-133.333333333333,4,2,0,70,0,0
130025,-45.4545454545455,4,2,0,70,0,0
133358,-250,4,2,0,70,0,0
136691,-50,4,2,0,70,0,0
140025,-133.333333333333,4,2,0,70,0,0
140650,-50,4,2,0,70,0,0
141275,-133.333333333333,4,2,0,70,0,0
143358,-40,4,2,0,70,0,0
144400,-100,4,2,0,70,0,0
145025,-45.4545454545455,4,2,0,70,0,0
146691,-133.333333333333,4,2,0,60,0,0
157108,-100,4,2,0,60,0,0
160025,-80,4,2,0,65,0,0
186483,-80,4,1,0,65,0,0
186691,-80,4,2,0,65,0,0
187316,-80,4,2,0,40,0,0
199608,-80,4,2,0,50,0,0
200025,-55.5555555555556,4,2,0,75,0,0
201691,-50,4,2,0,75,0,0
203358,-45.4545454545455,4,2,0,75,0,0
204608,-100,4,2,0,75,0,0
205650,-50,4,2,0,75,0,0
206275,-200,4,2,0,75,0,0
206691,-33.3333333333333,4,2,0,75,0,0
207525,-40,4,2,0,75,0,0
208358,-50,4,2,0,75,0,0
209191,-40,4,2,0,75,0,0
210025,-200,4,2,0,75,0,0
212525,-57.1428571428571,4,2,0,75,0,0
213358,-55.5555555555556,4,2,0,75,0,0
215024,-50,4,2,0,75,0,0
216691,-45.4545454545455,4,2,0,75,0,0
217941,-100,4,2,0,75,0,0
218983,-50,4,2,0,75,0,0
219608,-200,4,2,0,75,0,0
220024,-33.3333333333333,4,2,0,75,0,0
220858,-40,4,2,0,75,0,0
221691,-50,4,2,0,75,0,0
222524,-37.037037037037,4,2,0,75,0,0
223358,-200,4,2,0,75,0,0
225858,-57.1428571428571,4,2,0,75,0,0
226275,-40,4,2,0,75,0,0
226691,-50,4,2,0,75,0,0
234608,-66.6666666666667,4,2,0,75,0,0
236691,-40,4,2,0,75,0,0
237941,-50,4,2,0,75,0,0
240858,-100,4,2,0,75,0,0
243150,-50,4,2,0,75,0,0
244191,-66.6666666666667,4,2,0,75,0,0
246691,-50,4,2,0,75,0,0
252941,-43.4782608695652,4,2,0,75,0,0
253358,419.58041958042,4,2,0,75,1,0
256714,414.436194094284,4,2,0,75,1,0
256800,-100,4,2,0,40,0,0
260029,416.666666666667,4,2,0,40,1,0
269195,-133.333333333333,4,2,0,40,0,0
270029,416.666666666667,4,2,0,40,1,0
270029,-133.333333333333,4,2,0,40,0,0
283357,-133.333333333333,4,2,0,40,0,0
290023,-133.333333333333,4,2,0,45,0,0
293356,-133.333333333333,4,2,0,48,0,0
293773,-133.333333333333,4,2,0,52,0,0
294190,-133.333333333333,4,2,0,56,0,0
294606,-133.333333333333,4,2,0,60,0,0
295029,411.663807890223,4,2,0,40,1,0
295029,-200,4,2,0,40,0,0
296675,416.666666666667,4,2,0,70,1,0
296675,-250,4,2,0,70,0,0
299591,-100,4,2,0,70,0,0
300008,-250,4,2,0,70,0,0
300425,-66.6666666666667,4,2,0,70,0,0
302716,-133.333333333333,4,2,0,70,0,0
303341,-57.1428571428571,4,2,0,70,0,0
306050,-66.6666666666667,4,2,0,70,0,0
306675,-57.1428571428571,4,2,0,70,0,0
310008,-250,4,2,0,70,0,0
312925,-50,4,2,0,70,0,0
313341,-250,4,2,0,70,0,0
313758,-66.6666666666667,4,2,0,70,0,0
314175,-250,4,2,0,70,0,0
314591,-66.6666666666667,4,2,0,70,0,0
315008,-250,4,2,0,70,0,0
315425,-66.6666666666667,4,2,0,70,0,0
316049,-133.333333333333,4,2,0,70,0,0
316675,-57.1428571428571,4,2,0,70,0,0
321675,419.58041958042,4,2,0,70,1,0
323353,416.666666666667,4,2,0,75,1,0
323353,-55.5555555555556,4,2,0,75,0,0
325019,-50,4,2,0,75,0,0
326686,-45.4545454545455,4,2,0,75,0,0
327936,-100,4,2,0,75,0,0
328978,-50,4,2,0,75,0,0
329603,-200,4,2,0,75,0,0
330019,413.793103448276,4,2,0,75,1,0
330019,-30.3030303030303,4,2,0,75,0,0
330838,-35.7142857142857,4,2,0,75,0,0
331671,-50,4,2,0,75,0,0
332476,-40,4,2,0,75,0,0
333313,-200,4,2,0,75,0,0
335812,-50,4,2,0,75,0,0
336639,421.052631578947,4,2,0,75,1,0
336639,-55.5555555555556,4,2,0,75,0,0
338323,-50,4,2,0,75,0,0
340007,416.666666666667,4,2,0,75,1,0
340007,-45.4545454545455,4,2,0,75,0,0
341257,-100,4,2,0,75,0,0
341882,-45.4545454545455,4,2,0,75,0,0
342298,-50,4,2,0,75,0,0
342923,-200,4,2,0,75,0,0
343340,413.793103448276,4,2,0,75,1,0
343340,-30.3030303030303,4,2,0,75,0,0
343611,-30.3030303030303,4,2,0,75,0,0
344167,-35.7142857142857,4,2,0,75,0,0
344995,418.118466898955,4,2,0,75,1,0
344995,-50,4,2,0,75,0,0
345828,-37.037037037037,4,2,0,75,0,0
346662,-200,4,2,0,75,0,0
348340,413.793103448276,4,2,0,75,1,0
348340,-200,4,2,0,75,0,0
349167,-57.1428571428571,4,2,0,75,0,0
349581,-40,4,2,0,75,0,0
349995,416.666666666667,4,2,0,75,1,0
349995,-50,4,2,0,75,0,0
353328,-250,4,2,0,75,0,0
355933,-50,4,2,0,75,0,0
360411,-250,4,2,0,75,0,0
362495,425.531914893617,4,2,0,75,1,0
362703,-66.6666666666667,4,2,0,75,0,0
363346,412.371134020619,4,2,0,75,1,0
364995,416.666666666667,4,2,0,75,1,0
365413,-50,4,2,0,75,0,0
366663,-50,4,2,0,75,0,0
367495,-66.6666666666667,4,2,0,75,0,0
368328,-50,4,2,0,75,0,0
369995,416.666666666667,4,2,0,75,1,0
369995,-50,4,2,0,75,0,0
376765,-100,4,2,0,60,0,0
377913,-100,4,2,2,40,0,0
379996,-100,4,2,1,20,0,0
381663,-100,4,2,1,20,0,0
382079,-100,4,2,1,10,0,0

[Colours]
Combo1 : 205,178,239
Combo2 : 252,196,196
Combo3 : 255,216,168
Combo4 : 255,251,190
Combo5 : 198,239,191
Combo6 : 179,213,255

[HitObjects]
48,75,25,6,0,L|38:16,2,52.5000020027161,4|2|0,3:0|0:0|1:0,0:0:0:0:
48,75,650,1,2,0:0:0:0:
92,0,858,2,0,L|82:58,2,52.5000020027161,4|2|0,3:0|0:0|1:0,0:0:0:0:
162,43,1483,5,8,3:0:0:0:
0,137,1900,1,8,3:0:0:0:
77,160,2108,1,8,3:0:0:0:
126,222,2525,6,0,L|136:280,2,52.5000020027161,4|2|0,3:0|0:0|1:0,0:0:0:0:
56,262,3150,1,8,3:0:0:0:
216,359,3566,1,8,3:0:0:0:
139,378,3775,2,0,L|124:328,1,52.5000020027161,8|2,3:0|0:0,0:0:0:0:
54,361,4191,2,0,L|32:312,2,52.5000020027161,4|2|0,3:0|0:0|1:0,0:0:0:0:
124,328,4816,5,8,3:0:0:0:
54,23,5441,2,0,L|32:71,1,52.5000020027161,8|2,3:0|0:0,0:0:0:0:
107,96,5858,2,0,L|80:141,2,52.5000020027161,4|2|0,3:0|2:0|1:0,2:0:0:0:
32,71,6483,5,8,3:0:0:0:
145,376,7108,2,0,L|123:327,1,52.5000020027161,8|2,3:0|2:0,2:0:0:0:
54,367,7525,2,0,L|27:321,2,52.5000020027161,4|2|0,3:0|2:0|1:0,2:0:0:0:
124,327,8150,5,8,3:0:0:0:
54,23,8775,2,0,L|21:64,1,52.5000020027161,8|2,3:0|2:0,2:0:0:0:
95,99,9191,2,0,L|58:136,2,52.5000020027161,4|2|0,3:0|2:0|1:0,2:0:0:0:
22,64,9816,5,8,3:0:0:0:
165,359,10441,2,0,L|123:326,1,52.5000020027161,8|2,3:0|2:0,2:0:0:0:
61,372,10858,1,4,3:0:0:0:
252,75,11066,6,2,L|258:11,1,63,2|0,0:0|1:0,0:1:0:0:
170,42,13150,1,8,3:0:0:0:
330,130,13358,6,0,L|390:152,3,52.5000020027161,4|2|0|2,3:0|0:0|1:1|0:0,0:1:0:0:
330,130,14191,1,4,3:0:0:0:
330,130,14400,1,2,0:0:0:0:
400,109,14608,1,0,1:0:0:0:
496,52,14816,6,0,L|500:-3,1,52.5,8|8,3:0|3:0,0:0:0:0:
500,0,15650,1,2,0:0:0:0:
458,138,15858,1,4,3:0:0:0:
458,138,16066,1,2,0:0:0:0:
413,205,16275,1,0,1:0:0:0:
486,57,16483,6,0,L|485:4,1,52.5,8|8,3:0|3:0,0:0:0:0:
485,4,17316,1,2,0:0:0:0:
433,136,17525,1,4,3:0:0:0:
433,136,17733,1,2,0:0:0:0:
388,203,17941,1,0,1:0:0:0:
453,52,18150,6,0,L|448:0,1,52.5,8|8,3:0|3:0,0:0:0:0:
448,1,18983,1,2,0:0:0:0:
406,137,19191,1,4,3:0:0:0:
406,137,19400,1,2,0:0:0:0:
361,204,19608,1,0,1:0:0:0:
418,51,19816,6,0,L|408:0,1,52.5,8|8,3:0|3:0,0:0:0:0:
407,0,20650,1,2,0:0:0:0:
352,137,20858,1,4,3:0:0:0:
352,137,21066,1,2,0:0:0:0:
307,204,21275,1,0,1:0:0:0:
356,50,21483,6,0,L|342:0,1,52.5,8|8,3:0|3:0,0:0:0:0:
341,0,22316,1,2,0:0:0:0:
287,146,22525,1,4,3:0:0:0:
287,146,22733,1,2,0:0:0:0:
242,213,22941,1,0,1:0:0:0:
283,58,23150,6,0,L|265:8,1,52.5,8|8,3:0|3:0,0:0:0:0:
265,8,23983,1,2,0:0:0:0:
206,139,24191,1,4,3:0:0:0:
206,139,24400,1,2,0:0:0:0:
161,206,24608,1,0,1:0:0:0:
194,51,24816,6,0,L|171:3,1,52.5,8|8,3:0|3:0,0:0:0:0:
171,3,25650,1,2,0:0:0:0:
124,132,25858,1,4,3:0:0:0:
124,132,26066,1,2,0:0:0:0:
79,199,26275,1,0,1:0:0:0:
98,47,26483,1,4,3:0:0:0:
10,19,26691,5,4,3:3:0:0:
23,30,26900,1,2,0:0:0:0:
98,47,27108,1,0,1:3:0:0:
108,56,27316,1,2,0:0:0:0:
182,76,27525,1,4,3:3:0:0:
194,87,27733,1,2,0:0:0:0:
266,108,27941,1,0,1:0:0:0:
277,119,28150,1,8,3:0:0:0:
350,144,28358,1,4,3:0:0:0:
358,154,28566,1,2,0:0:0:0:
430,181,28775,1,0,1:0:0:0:
439,193,28983,1,2,0:0:0:0:
510,222,29191,1,4,1:3:0:0:
433,235,29400,5,2,0:0:0:0:
355,249,29608,1,0,1:0:0:0:
278,263,29816,1,8,3:0:0:0:
278,263,30233,5,2,0:0:0:0:
291,264,30441,1,0,1:0:0:0:
304,265,30650,1,2,0:0:0:0:
224,269,30858,1,4,3:0:0:0:
243,271,31066,1,2,0:0:0:0:
262,272,31275,1,0,1:0:0:0:
161,240,31483,1,8,3:0:0:0:
185,242,31691,1,4,3:0:0:0:
207,244,31900,1,2,0:0:0:0:
86,256,32108,1,0,1:0:0:0:
112,258,32316,1,2,0:0:0:0:
138,261,32525,1,0,1:0:0:0:
0,221,32733,1,2,0:0:0:0:
34,223,32941,1,0,1:0:0:0:
68,227,33150,1,8,3:0:0:0:
128,179,33358,5,4,3:0:0:0:
134,126,33566,1,2,0:0:0:0:
61,279,33775,1,0,1:0:0:0:
68,226,33983,1,0,0:0:0:0:
128,179,34191,1,4,3:0:0:0:
134,126,34400,1,2,0:0:0:0:
61,279,34608,1,0,1:0:0:0:
134,126,34816,1,8,3:0:0:0:
137,99,35025,1,4,3:0:0:0:
141,73,35233,1,2,0:0:0:0:
61,279,35441,1,0,1:0:0:0:
68,226,35650,1,2,0:0:0:0:
128,179,35858,1,4,1:3:0:0:
134,126,36066,5,2,0:0:0:0:
204,139,36275,1,0,1:0:0:0:
273,152,36483,1,8,3:0:0:0:
273,152,36900,1,2,0:0:0:0:
480,137,37108,6,0,P|429:144|402:191,1,105.000004005432,0|4,1:0|3:0,0:2:0:0:
346,71,37733,2,0,P|295:63|268:20,1,105.000004005432,2|8,0:0|3:0,0:0:0:0:
230,113,38358,2,0,P|179:120|152:163,1,105.000004005432,4|4,3:0|3:0,0:0:0:0:
97,108,38983,2,0,P|46:100|20:57,1,105.000004005432,2|2,0:0|0:0,0:0:0:0:
49,134,39608,2,0,P|65:114|91:112,1,52.5000020027161,0|8,1:0|3:0,0:0:0:0:
0,234,40025,5,4,3:3:0:0:
13,223,40233,1,2,0:0:0:0:
88,205,40441,6,2,L|489:163,1,404.250012336731,0|0,1:0|0:0,0:1:0:0:
490,163,42733,5,2,0:0:0:0:
416,153,42941,1,0,1:0:0:0:
339,139,43150,2,2,L|332:81,1,35,8|0,3:0|0:0,0:1:0:0:
334,104,43566,5,2,0:0:0:0:
347,105,43775,1,0,1:0:0:0:
360,106,43983,1,2,0:0:0:0:
280,110,44191,1,4,3:0:0:0:
299,112,44400,1,2,0:0:0:0:
318,113,44608,1,0,1:0:0:0:
217,81,44816,1,8,3:0:0:0:
241,83,45025,1,4,3:0:0:0:
263,85,45233,1,2,0:0:0:0:
142,97,45441,1,0,1:0:0:0:
168,99,45650,1,2,0:0:0:0:
194,102,45858,1,0,1:0:0:0:
56,62,46066,1,2,0:0:0:0:
90,64,46275,1,0,1:0:0:0:
124,68,46483,1,8,3:0:0:0:
194,102,46691,5,4,3:0:0:0:
188,155,46900,1,2,0:0:0:0:
261,2,47108,1,0,1:0:0:0:
254,55,47316,1,0,0:0:0:0:
194,102,47525,1,4,3:0:0:0:
188,155,47733,1,2,0:0:0:0:
261,2,47941,1,0,1:0:0:0:
188,155,48150,1,8,3:0:0:0:
185,182,48358,1,4,3:0:0:0:
181,208,48566,1,2,0:0:0:0:
261,2,48775,1,0,1:0:0:0:
254,55,48983,1,2,0:0:0:0:
194,102,49191,1,4,1:3:0:0:
188,155,49400,5,2,0:0:0:0:
118,168,49608,1,0,1:0:0:0:
49,181,49816,1,8,3:0:0:0:
49,181,50233,1,2,0:0:0:0:
0,321,50441,6,0,P|51:328|78:375,1,105.000004005432,0|4,1:0|3:0,0:2:0:0:
134,255,51066,2,0,P|185:247|212:204,1,105.000004005432,2|8,0:0|3:0,0:0:0:0:
250,297,51691,2,0,P|301:304|328:347,1,105.000004005432,4|4,3:0|3:0,0:0:0:0:
492,253,52316,2,2,P|456:241|408:316,1,131.25000500679,2|0,0:0|0:0,0:1:0:0:
469,343,52941,2,2,P|494:351|471:332,1,78.7500030040742,0|0,1:0|0:0,0:1:0:0:
394,376,53358,5,4,1:2:0:0:
330,59,53775,5,2,1:2:0:0:
238,373,54191,5,4,3:0:0:0:
153,2,54608,5,2,1:2:0:0:
32,384,55025,5,4,3:0:0:0:
180,110,55441,5,2,1:2:0:0:
278,240,55650,2,0,P|269:292|263:344,2,105.000004005432,2|2|8,0:0|0:0|3:0,0:0:0:0:
278,240,56900,5,2,0:0:0:0:
291,239,57108,1,0,1:0:0:0:
304,238,57316,1,2,0:0:0:0:
224,234,57525,1,4,3:0:0:0:
243,232,57733,1,2,0:0:0:0:
262,231,57941,1,0,1:0:0:0:
161,263,58150,1,8,3:0:0:0:
185,261,58358,1,4,3:0:0:0:
207,259,58566,1,2,0:0:0:0:
86,247,58775,1,0,1:0:0:0:
112,245,58983,1,2,0:0:0:0:
138,242,59191,1,0,1:0:0:0:
30,291,59400,1,2,0:0:0:0:
64,223,59608,2,0,L|70:162,2,52.5000020027161,0|8|4,1:0|3:0|3:0,0:0:0:0:
477,358,60650,6,8,B|483:335|501:322|501:322|489:231,1,105,2|0,0:1|0:0,0:0:0:0:
490,234,61066,1,2,0:1:0:0:
412,249,61275,1,0,1:0:0:0:
512,329,61483,1,8,3:3:0:0:
387,179,61691,6,2,B|353:200|353:200|309:192|243:208,1,140,6|0,3:0|1:0,0:1:0:0:
90,295,62316,1,2,0:1:0:0:
6,199,62525,5,4,3:0:0:0:
36,115,62733,1,2,0:0:0:0:
125,115,62941,1,2,1:2:0:0:
181,170,63150,6,0,L|190:267,1,87.5,8|0,3:0|0:0,0:0:0:0:
125,115,63775,2,0,L|131:45,1,70,2|4,1:0|3:0,0:0:0:0:
9,157,64400,2,0,P|60:165|87:208,1,105.000004005432,2|8,0:0|3:0,0:0:0:0:
125,115,65025,2,0,P|176:108|203:65,1,105.000004005432,4|4,3:0|3:0,0:0:0:0:
258,120,65650,2,0,P|309:128|335:171,1,105.000004005432,2|2,0:0|0:0,0:0:0:0:
363,108,66275,2,0,P|388:105|404:85,1,52.5000020027161,0|8,1:0|3:0,0:0:0:0:
512,0,66691,5,2,1:2:0:0:
422,168,67108,5,2,1:2:0:0:
312,6,67525,5,4,3:0:0:0:
213,236,67941,5,2,1:2:0:0:
165,0,68358,5,4,3:0:0:0:
165,0,68566,1,2,0:0:0:0:
112,56,68775,1,2,1:2:0:0:
69,116,68983,2,0,P|60:168|54:220,2,105.000004005432,2|2|8,0:0|0:0|3:0,0:0:0:0:
69,116,70233,5,2,0:0:0:0:
59,115,70441,1,0,1:0:0:0:
50,114,70650,1,2,0:0:0:0:
106,111,70858,1,4,3:0:0:0:
93,110,71066,1,2,0:0:0:0:
80,109,71275,1,0,1:0:0:0:
150,132,71483,1,8,3:0:0:0:
134,130,71691,1,4,3:0:0:0:
118,129,71900,1,2,0:0:0:0:
203,120,72108,1,0,1:0:0:0:
185,119,72316,1,2,0:0:0:0:
167,117,72525,1,0,1:0:0:0:
242,151,72733,1,2,0:0:0:0:
215,90,72941,2,0,L|208:-14,1,90.9999958343508,0|4,1:0|3:0,0:0:0:0:
46,233,73983,6,8,B|48:258|48:258|5:287|33:359,1,105,2|0,0:1|0:0,0:0:0:0:
33,357,74400,1,2,0:1:0:0:
157,327,74608,1,0,1:0:0:0:
11,262,74816,1,8,3:3:0:0:
224,286,75025,6,2,B|255:315|302:299|302:299|368:315,1,140,6|0,3:0|1:0,0:1:0:0:
512,201,75650,1,2,0:1:0:0:
441,104,75858,5,4,3:0:0:0:
397,167,76066,1,2,0:0:0:0:
406,243,76275,1,2,1:2:0:0:
329,131,76483,6,0,L|314:-15,1,131.25000500679,8|0,3:0|0:0,0:0:0:0:
304,145,77108,2,0,L|296:221,1,70,2|4,1:0|3:0,0:0:0:0:
404,345,77733,2,0,P|455:337|482:294,1,105.000004005432,2|8,0:0|3:0,0:0:0:0:
348,297,78358,2,2,P|289:305|258:354,1,119.000002269745,4|4,3:0|3:0,0:0:0:0:
126,272,78983,2,2,P|90:284|42:209,1,131.25000500679,2|0,0:0|0:0,0:1:0:0:
105,185,79608,2,2,P|125:168|110:194,1,78.7500030040742,0|0,1:0|0:0,0:1:0:0:
23,324,80025,5,4,3:3:0:0:
35,310,80233,1,2,0:0:0:0:
116,283,80441,1,0,1:3:0:0:
126,272,80650,1,2,0:0:0:0:
205,244,80858,1,4,3:3:0:0:
218,231,81066,1,2,0:0:0:0:
294,200,81275,1,0,1:0:0:0:
304,186,81483,2,0,P|306:119|289:47,1,140,10|8,3:0|3:0,0:0:0:0:
383,153,82108,1,4,3:0:0:0:
391,141,82316,1,2,0:0:0:0:
467,105,82525,1,4,1:3:0:0:
381,98,82733,5,2,0:0:0:0:
442,195,82941,2,0,P|476:185|517:180,1,70,4|8,3:0|3:0,0:0:0:0:
393,274,83358,2,0,P|370:266|347:261,2,46.6666666666667,4|0|2,3:0|0:0|0:0,0:0:0:0:
477,331,83775,1,0,1:0:0:0:
469,344,83913,2,0,P|418:359|356:366,1,93.3333333333333,2|4,0:0|3:0,0:0:0:0:
219,306,84400,1,2,0:0:0:0:
185,308,84608,1,0,1:0:0:0:
151,312,84816,1,8,3:0:0:0:
23,333,85025,5,6,3:0:0:0:
56,263,85233,1,4,3:0:0:0:
122,302,85441,1,2,1:2:0:0:
31,292,85650,5,2,0:0:0:0:
109,245,85858,1,6,3:0:0:0:
95,334,86066,1,2,0:0:0:0:
44,233,86275,5,2,1:2:0:0:
86,293,86483,1,8,3:0:0:0:
96,292,86587,1,0,3:0:0:0:
106,294,86691,5,4,3:0:0:0:
179,276,86900,1,2,0:0:0:0:
234,201,87108,1,0,1:0:0:0:
262,131,87316,2,0,P|256:85|234:40,2,70,2|4|2,0:0|3:0|0:0,0:0:0:0:
156,198,87941,1,0,1:0:0:0:
295,257,88150,1,8,3:0:0:0:
304,260,88254,1,0,3:0:0:0:
314,258,88358,1,4,3:0:0:0:
373,211,88566,2,0,P|419:217|464:239,2,70,4|0|2,3:0|1:0|0:0,0:0:0:0:
246,307,89191,1,4,3:0:0:0:
314,319,89400,1,2,0:0:0:0:
383,332,89608,1,0,1:0:0:0:
452,345,89816,1,8,3:0:0:0:
452,345,90233,1,2,0:0:0:0:
289,250,90441,6,0,P|233:314|154:290,1,175,0|0,1:0|0:0,0:2:0:0:
122,230,91066,2,0,P|84:154|1:157,1,175,2|0,0:0|0:0,0:2:0:0:
4,167,91691,5,4,3:0:0:0:
157,121,91900,1,4,3:0:0:0:
0,52,92108,1,0,1:0:0:0:
93,128,92316,1,4,3:0:0:0:
103,127,92420,1,4,3:0:0:0:
113,126,92525,1,4,3:0:0:0:
123,125,92629,1,4,3:0:0:0:
133,124,92733,1,6,3:0:0:0:
0,57,92941,2,0,L|73:65,1,52.5000020027161,2|8,1:2|3:0,0:0:0:0:
182,185,93358,6,0,P|246:188|335:201,1,140,4|2,1:2|1:2,0:0:0:0:
364,138,93983,2,0,P|402:136|455:127,1,70,2|4,0:2|3:0,0:0:0:0:
443,219,94400,2,0,P|481:220|534:229,1,70,2|0,0:2|1:0,0:0:0:0:
367,293,94816,1,10,3:0:0:0:
292,288,95025,1,4,3:0:0:0:
254,225,95233,1,8,3:0:0:0:
110,181,95441,1,0,1:0:0:0:
38,197,95650,1,2,0:0:0:0:
109,187,95858,2,0,P|147:185|200:176,2,70,4|2|0,3:3|0:0|1:0,0:0:0:0:
0,261,96483,1,8,3:0:0:0:
46,202,96691,6,0,B|153:202|126:260|271:270,1,210,4|2,3:0|0:0,0:0:0:0:
333,211,97525,1,4,3:0:0:0:
248,161,97733,1,2,0:0:0:0:
248,161,97837,1,2,0:0:0:0:
248,161,97941,2,0,L|253:206,1,35,0|0,1:0|0:0,0:0:0:0:
314,280,98150,1,8,3:0:0:0:
390,284,98358,1,4,3:0:0:0:
439,225,98566,1,8,3:0:0:0:
510,195,98775,1,0,1:0:0:0:
436,189,98983,1,2,0:0:0:0:
363,160,99191,6,0,P|333:154|296:148,1,35,4|2,3:3|0:0,0:0:0:0:
243,133,99400,2,0,P|260:137|313:128,1,70,2|0,0:0|1:0,0:0:0:0:
184,175,99816,2,0,P|169:184|138:228,1,70,8|4,3:3|3:0,0:0:0:0:
145,233,100129,5,2,0:0:0:0:
145,233,100233,2,0,B|72:233|90:272|-8:279,1,140,2|2,0:0|0:0,0:0:0:0:
69,107,100858,2,0,P|67:142|63:177,1,70,4|2,3:3|0:0,0:0:0:0:
219,265,101275,1,2,1:2:0:0:
220,255,101379,1,2,0:0:0:0:
220,244,101483,1,8,3:0:0:0:
244,118,101691,1,4,3:0:0:0:
245,99,101795,1,2,0:0:0:0:
245,77,101900,2,0,P|242:30|236:-15,2,70,8|0|2,3:3|1:0|0:0,0:0:0:0:
286,181,102525,1,4,3:0:0:0:
354,193,102733,1,2,0:0:0:0:
423,206,102941,1,0,1:0:0:0:
492,219,103150,1,8,3:0:0:0:
373,265,103358,5,4,3:0:0:0:
473,143,103670,5,2,0:0:0:0:
213,143,103983,5,2,0:0:0:0:
146,178,104191,2,0,P|82:175|-7:162,1,140,4|2,3:0|1:2,0:0:0:0:
85,222,104816,1,8,3:0:0:0:
213,143,105025,5,4,3:0:0:0:
508,210,105337,5,2,0:2:0:0:
416,246,105650,6,0,P|377:247|324:255,2,70,2|4|2,0:0|3:0|0:0,0:0:0:0:
485,133,106275,5,0,1:0:0:0:
401,170,106483,1,8,3:0:0:0:
209,266,106691,2,0,P|156:263|104:256,1,105,0|0,1:2|0:0,0:0:0:0:
71,286,107108,53,2,1:0:0:0:
209,266,107316,1,2,0:0:0:0:
348,247,107525,1,4,3:0:0:0:
154,196,107733,1,2,0:0:0:0:
114,115,107941,2,0,L|129:7,1,83.9999974365235,2|8,1:2|3:0,0:0:0:0:
31,151,108358,5,6,3:0:0:0:
196,77,108566,1,4,3:0:0:0:
338,107,108775,1,2,1:2:0:0:
512,67,108983,2,0,L|440:77,1,41.9999987182618,2|0,0:2|0:0,0:0:0:0:
410,28,109191,2,0,L|326:16,2,83.9999974365235,2|2|0,1:2|0:0|1:0,0:0:0:0:
480,192,109816,1,8,3:0:0:0:
463,112,110025,5,6,3:0:0:0:
463,112,110441,5,2,1:0:0:0:
325,92,110650,1,2,0:0:0:0:
186,73,110858,1,4,3:0:0:0:
316,182,111066,1,2,0:0:0:0:
316,182,111275,2,0,L|300:289,1,83.9999974365235,2|8,1:2|3:0,0:0:0:0:
480,192,111691,5,6,3:0:0:0:
316,182,111900,1,4,3:0:0:0:
184,268,112108,1,0,1:0:0:0:
33,160,112316,2,0,L|27:65,1,83.9999974365235,2|4,0:0|3:0,0:0:0:0:
102,70,112733,2,0,L|97:-6,1,52.5000020027161,2|0,0:0|1:0,0:0:0:0:
26,167,113150,2,0,L|32:72,2,83.9999974365235,8|4|2,3:0|3:0|0:0,0:0:0:0:
71,286,113775,5,2,1:2:0:0:
209,266,113983,1,2,0:0:0:0:
348,247,114191,1,4,3:0:0:0:
154,196,114400,1,2,0:0:0:0:
289,305,114608,1,2,1:2:0:0:
150,326,114816,1,8,3:0:0:0:
46,212,115025,5,6,3:0:0:0:
209,266,115233,1,4,3:0:0:0:
370,317,115441,1,2,1:2:0:0:
199,267,115650,2,0,L|130:244,1,41.9999987182618,2|0,0:2|0:0,0:0:0:0:
88,278,115858,1,4,3:0:0:0:
261,217,116066,2,0,L|363:183,1,83.9999974365235,2|0,0:2|1:0,0:0:0:0:
489,242,116483,1,4,3:0:0:0:
441,98,116691,5,6,3:0:0:0:
441,98,117108,5,2,1:2:0:0:
303,118,117316,1,2,0:0:0:0:
164,137,117525,1,4,3:0:0:0:
340,190,117733,1,2,0:0:0:0:
170,58,117941,1,2,1:2:0:0:
334,7,118150,1,8,3:0:0:0:
512,87,118358,5,4,3:0:0:0:
441,98,118566,1,6,3:0:0:0:
303,117,118775,1,2,1:2:0:0:
164,137,118983,2,0,P|126:138|51:125,1,83.9999974365235,2|4,0:0|3:0,0:0:0:0:
261,215,119400,1,2,0:0:0:0:
118,11,119608,6,0,L|126:90,1,52.5000020027161,2|0,1:0|0:0,0:0:0:0:
157,363,119816,1,8,3:0:0:0:
16,81,120025,6,0,L|3:38,1,42,4|0,1:0|0:0,0:0:0:0:
57,238,120441,6,0,L|63:193,1,42,4|0,1:1|0:0,0:0:0:0:
162,96,120858,54,0,L|132:62,1,42,4|0,1:0|0:0,0:0:0:0:
156,286,121275,38,0,L|180:248,1,42,4|0,1:1|0:0,0:0:0:0:
313,64,121691,22,0,L|271:46,1,42,4|0,1:0|0:0,0:0:0:0:
254,329,122108,70,0,L|292:305,1,42,4|0,1:0|0:0,0:0:0:0:
450,0,122525,38,0,L|405:1,1,42,4|0,1:0|0:0,0:0:0:0:
352,384,122941,6,0,L|396:378,1,42,4|0,1:0|0:0,0:0:0:0:
254,329,123358,6,0,L|45:353,1,210,4|0,1:0|0:0,0:0:0:0:
269,304,123775,2,0,L|478:280,1,210,4|0,1:0|0:0,0:0:0:0:
217,240,124191,6,0,L|6:246,1,210,4|0,1:0|0:0,0:0:0:0:
234,216,124608,2,0,L|445:210,1,210,4|0,1:0|0:0,0:0:0:0:
209,134,125025,6,0,L|0:122,1,210,4|0,1:0|0:0,0:0:0:0:
228,112,125441,2,0,L|438:124,1,210,4|0,1:0|0:0,0:0:0:0:
215,29,125858,6,0,L|6:0,1,210,4|0,1:0|0:0,0:0:0:0:
235,8,126275,2,0,L|444:38,1,210,4|0,1:0|0:0,0:0:0:0:
230,37,126691,6,0,L|235:73,1,26.2500010013581,4|0,1:0|0:0,0:0:0:0:
270,333,126900,2,0,L|278:395,2,52.5000020027161,2|4|2,0:0|1:0|0:0,0:0:0:0:
156,59,127525,70,0,L|161:97,1,26.2500010013581,4|0,1:0|0:0,0:0:0:0:
188,316,127733,2,0,L|196:374,2,52.5000020027161,2|4|2,0:0|1:0|0:0,0:0:0:0:
84,80,128358,70,0,L|88:110,1,26.2500010013581,4|0,1:0|0:0,0:0:0:0:
113,302,128566,2,0,L|120:353,2,52.5000020027161,2|4|2,0:0|1:0|0:0,0:0:0:0:
11,105,129191,70,0,L|14:132,1,26.2500010013581,4|0,1:0|0:0,0:0:0:0:
36,285,129400,2,0,L|43:337,2,52.5000020027161,2|4|2,0:0|1:0|0:0,0:0:0:0:
265,4,130025,54,0,L|249:109,1,77.0000023498536,4|0,1:0|0:0,0:0:0:0:
212,373,130233,2,0,L|233:220,2,154.000004699707,2|4|2,0:0|1:0|0:0,0:0:0:0:
265,4,130858,2,0,L|249:109,1,77.0000023498536,4|0,1:0|0:0,0:0:0:0:
212,373,131066,2,0,L|233:220,2,154.000004699707,2|4|2,0:0|1:0|0:0,0:0:0:0:
265,4,131691,2,0,L|249:109,1,77.0000023498536,4|0,1:0|0:0,0:0:0:0:
212,373,131900,2,0,L|233:220,2,154.000004699707,2|4|2,0:0|1:0|0:0,0:0:0:0:
265,4,132525,2,0,L|249:109,1,77.0000023498536,4|0,1:0|0:0,0:0:0:0:
212,373,132733,2,0,L|233:220,2,154.000004699707,2|4|0,0:0|1:0|0:0,0:0:0:0:
481,73,133358,70,0,L|510:39,1,42,4|0,1:0|0:0,0:0:0:0:
455,259,133775,70,0,L|472:300,1,42,4|0,1:0|0:0,0:0:0:0:
355,64,134191,70,0,L|353:19,1,42,4|0,1:0|0:0,0:0:0:0:
325,300,134608,54,0,L|304:340,1,42,4|0,1:0|0:0,0:0:0:0:
243,35,135025,5,4,1:0:0:0:
220,17,135233,1,2,3:0:0:0:
188,348,135441,5,4,1:0:0:0:
112,363,135650,1,2,3:0:0:0:
134,13,135858,5,4,1:0:0:0:
43,34,136066,1,2,3:0:0:0:
38,312,136275,6,2,L|4:286,1,42,4|0,1:0|0:0,3:0:0:0:
188,348,136691,6,0,L|352:381,1,140,4|0,1:0|0:0,0:0:0:0:
307,287,137004,1,2,0:0:0:0:
307,287,137108,2,0,L|537:334,1,210,4|0,1:0|0:0,0:0:0:0:
239,225,137525,6,0,L|3:210,1,210,4|0,1:0|0:0,0:0:0:0:
278,197,137941,2,0,L|488:184,1,210,4|0,1:0|0:0,0:0:0:0:
220,134,138358,6,0,L|89:90,1,70,4|0,1:0|0:0,0:0:0:0:
21,67,138566,1,2,0:0:0:0:
292,86,138775,5,4,1:0:0:0:
510,159,138983,1,2,0:0:0:0:
285,103,139191,5,4,1:0:0:0:
78,0,139400,1,2,0:0:0:0:
346,0,139608,5,4,1:0:0:0:
512,147,139816,1,2,0:0:0:0:
236,302,140025,6,0,P|227:266|243:297,1,105.000004005432,4|4,1:0|1:0,0:0:0:0:
251,372,140650,2,0,P|257:240|217:97,1,280,2|2,0:0|0:0,0:0:0:0:
372,383,141275,6,0,L|375:356,1,26.2500010013581,4|0,1:0|0:0,0:0:0:0:
397,203,141483,2,0,L|404:151,1,52.5000020027161,2|4,0:0|1:0,0:0:0:0:
434,0,141900,5,2,0:0:0:0:
220,86,142108,5,4,1:0:0:0:
2,159,142316,1,2,0:0:0:0:
334,40,142525,5,4,1:0:0:0:
103,192,142733,1,2,0:0:0:0:
434,0,142941,5,4,1:0:0:0:
226,231,143150,1,2,0:0:0:0:
479,184,143358,6,2,P|396:160|485:179,2,350,4|4|4,1:0|1:0|1:0,3:0:0:0:
342,50,144400,2,0,P|294:99|226:108,1,140,2|2,0:0|0:0,0:0:0:0:
68,0,145025,6,0,L|84:105,1,77.0000023498536,4|0,1:0|0:0,0:0:0:0:
121,369,145233,2,0,L|100:216,2,154.000004699707,2|4|2,0:0|1:0|0:0,0:0:0:0:
68,0,145858,2,0,L|84:105,1,77.0000023498536,4|0,1:0|0:0,0:0:0:0:
121,369,146066,2,0,L|100:216,2,154.000004699707,2|4|4,1:0|1:0|3:0,0:0:0:0:
68,0,146691,5,4,1:2:0:0:
142,26,146900,1,2,0:0:0:0:
211,62,147108,2,0,L|221:0,1,52.5000020027161,2|0,1:2|0:0,0:0:0:0:
184,134,147525,1,4,3:0:0:0:
184,134,147733,2,0,L|173:195,1,52.5000020027161,2|0,0:2|1:0,0:0:0:0:
234,233,148150,1,2,0:0:0:0:
312,241,148358,1,4,3:0:0:0:
390,248,148566,1,2,0:0:0:0:
447,302,148775,1,2,1:2:0:0:
394,244,148983,2,2,L|370:121,1,105.000004005432,2|2,0:2|0:0,0:0:0:0:
422,29,149608,1,0,1:0:0:0:
297,127,149816,1,2,0:0:0:0:
297,127,150233,5,2,0:0:0:0:
219,135,150441,1,2,1:2:0:0:
141,143,150650,1,2,0:2:0:0:
63,151,150858,2,0,L|81:58,1,78.7500030040742,4|0,3:0|0:0,0:0:0:0:
97,60,151275,2,0,L|86:8,1,52.5000020027161,2|2,1:2|0:0,0:0:0:0:
43,164,151691,1,4,3:0:0:0:
61,240,151900,1,2,2:0:0:0:
79,316,152108,1,2,1:2:0:0:
165,278,152316,2,0,L|288:302,1,105.000004005432,4|2,3:0|0:0,0:0:0:0:
346,312,152941,1,2,1:2:0:0:
300,224,153150,6,0,L|288:162,1,52.5000020027161,2|4,0:0|3:0,0:0:0:0:
310,153,153462,1,2,0:0:0:0:
442,63,153775,5,2,1:2:0:0:
468,70,153879,1,2,0:0:0:0:
488,89,153983,1,2,0:0:0:0:
470,165,154191,2,0,L|381:147,1,78.7500030040742,6|0,3:0|0:0,0:0:0:0:
377,134,154608,2,0,L|327:144,2,26.2500010013581,0|0|2,1:0|0:0|0:0,0:0:0:0:
256,64,155025,5,4,3:0:0:0:
230,71,155129,1,2,0:0:0:0:
210,90,155233,1,2,0:0:0:0:
132,105,155441,1,0,1:0:0:0:
54,121,155650,1,2,0:0:0:0:
129,100,155858,2,0,L|199:115,1,52.5000020027161,4|2,3:0|0:0,0:0:0:0:
323,27,156275,1,2,1:2:0:0:
262,77,156483,2,0,L|277:147,1,52.5000020027161,2|4,0:0|3:0,0:0:0:0:
294,204,156900,1,2,0:0:0:0:
169,325,157108,6,0,P|235:334|276:282,1,140,0|4,1:0|3:0,0:2:0:0:
294,204,157733,1,2,0:0:0:0:
368,320,157941,2,0,P|434:310|475:362,1,140,0|4,1:0|3:0,0:2:0:0:
475,362,158566,1,2,0:0:0:0:
485,292,158775,1,0,1:0:0:0:
496,222,158983,1,2,0:0:0:0:
310,273,159191,5,4,3:0:0:0:
206,294,159400,1,2,0:0:0:0:
24,331,159608,2,2,P|67:318|129:318,1,105,0|2,1:0|0:0,0:1:0:0:
142,338,160025,5,4,3:0:0:0:
167,236,160233,1,2,0:0:0:0:
207,83,160441,1,0,1:0:0:0:
244,2,160650,1,4,3:0:0:0:
244,2,160754,1,4,3:0:0:0:
244,2,160858,1,4,3:0:0:0:
211,89,161066,2,0,P|128:112|11:112,1,175,2|2,0:0|0:0,0:0:0:0:
284,65,161691,2,0,P|305:73|327:77,1,43.75,4|0,3:0|0:0,0:0:0:0:
390,119,161900,2,0,P|442:113|492:100,1,87.5,2|0,0:0|1:0,0:0:0:0:
512,24,162316,1,4,3:0:0:0:
512,24,162420,1,4,3:0:0:0:
512,24,162525,1,4,3:0:0:0:
479,111,162733,1,2,0:0:0:0:
454,186,162941,2,2,P|371:162|254:162,1,175,2|4,1:2|3:0,0:0:0:0:
145,276,163566,5,2,0:0:0:0:
292,232,163775,1,0,1:0:0:0:
379,199,163983,1,4,3:0:0:0:
379,199,164087,1,4,3:0:0:0:
379,199,164191,1,4,3:0:0:0:
292,232,164400,2,0,P|280:255|277:351,1,87.5,2|2,0:0|1:2,0:0:0:0:
355,379,164816,1,2,0:0:0:0:
204,274,165025,1,4,3:0:0:0:
99,210,165233,2,0,P|46:215|-3:228,1,87.5,2|0,0:0|1:0,0:0:0:0:
164,148,165650,1,4,3:0:0:0:
164,148,165754,1,4,3:0:0:0:
164,148,165858,1,4,3:0:0:0:
265,226,166066,1,2,0:0:0:0:
331,292,166275,2,2,B|416:281|413:315|530:315,1,175,2|4,1:2|3:0,0:0:0:0:
385,241,166900,5,2,0:0:0:0:
345,88,167108,1,0,1:0:0:0:
308,7,167316,1,4,3:0:0:0:
308,7,167420,1,4,3:0:0:0:
308,7,167525,1,4,3:0:0:0:
341,94,167733,2,0,P|423:117|540:117,1,175,2|2,0:0|0:0,0:0:0:0:
267,70,168358,2,0,P|246:77|224:81,1,43.75,4|0,3:0|0:0,0:0:0:0:
162,124,168566,2,0,P|109:118|59:105,1,87.5,2|0,0:0|1:0,0:0:0:0:
40,29,168983,1,4,3:0:0:0:
40,29,169087,1,4,3:0:0:0:
40,29,169191,1,4,3:0:0:0:
73,116,169400,1,2,0:0:0:0:
98,191,169608,2,0,P|92:243|79:293,2,87.5,0|2|4,1:0|0:0|3:0,0:0:0:0:
154,126,170233,5,2,0:0:0:0:
300,176,170441,1,0,1:0:0:0:
387,216,170650,1,4,3:0:0:0:
387,216,170754,1,4,3:0:0:0:
387,216,170858,1,4,3:0:0:0:
387,216,170962,1,4,3:0:0:0:
387,216,171066,2,0,P|398:192|401:96,1,87.5,2|2,0:0|1:2,0:0:0:0:
367,28,171483,1,2,0:0:0:0:
254,142,171691,1,4,3:0:0:0:
200,216,171900,2,0,P|205:268|218:318,1,87.5,2|0,0:0|1:0,0:0:0:0:
130,377,172316,1,4,3:0:0:0:
130,377,172420,1,4,3:0:0:0:
130,377,172525,1,4,3:0:0:0:
281,275,172733,1,2,0:0:0:0:
340,224,172941,2,2,B|425:213|422:247|539:247,1,175,6|4,1:2|1:0,0:0:0:0:
512,246,173775,6,0,P|460:237|417:202,1,87.5,2|4,1:2|3:0,0:0:0:0:
421,203,174087,1,4,3:0:0:0:
412,186,174191,2,0,P|407:128|435:-24,1,175,6|0,3:0|1:0,0:0:0:0:
329,120,174816,1,2,0:0:0:0:
218,168,175025,2,0,P|253:121|375:27,1,175,4|0,3:0|1:0,0:0:0:0:
251,75,175650,1,4,3:0:0:0:
233,78,175754,1,4,3:0:0:0:
215,82,175858,1,4,3:0:0:0:
83,23,176066,2,0,P|111:17|188:23,1,87.5,2|0,0:0|1:0,0:0:0:0:
0,101,176483,2,0,P|49:131|156:243,1,175,2|2,0:0|0:0,0:0:0:0:
53,264,177108,5,2,1:2:0:0:
241,187,177316,1,4,3:0:0:0:
223,180,177420,1,4,3:0:0:0:
206,175,177525,1,4,3:0:0:0:
217,218,177629,1,4,3:0:0:0:
219,261,177733,1,4,3:0:0:0:
372,171,177941,2,0,P|352:210|324:244,1,87.5,2|0,1:2|0:0,0:0:0:0:
198,335,178358,1,4,3:0:0:0:
113,358,178566,1,2,0:0:0:0:
28,376,178775,1,0,1:0:0:0:
100,288,178983,1,4,3:0:0:0:
118,291,179087,1,4,3:0:0:0:
136,295,179191,1,4,3:0:0:0:
253,384,179400,2,0,L|265:284,2,87.5,2|0|2,0:2|1:0|0:0,0:0:0:0:
280,190,180025,5,4,3:0:0:0:
370,221,180233,1,2,0:0:0:0:
437,111,180441,1,2,1:2:0:0:
347,142,180650,1,4,3:0:0:0:
331,150,180754,1,4,3:0:0:0:
313,159,180858,2,0,P|279:162|187:145,1,87.5,6|2,3:0|0:0,0:0:0:0:
95,248,181275,1,2,1:2:0:0:
29,191,181483,1,2,0:0:0:0:
149,70,181691,1,4,3:0:0:0:
68,118,181900,2,0,P|61:83|68:-8,1,87.5,2|2,0:0|1:2,0:0:0:0:
226,77,182316,1,4,3:0:0:0:
244,80,182420,1,4,3:0:0:0:
262,84,182525,1,4,3:0:0:0:
180,221,182733,6,0,P|198:191|265:127,1,87.5,2|2,0:0|1:2,0:0:0:0:
340,97,183150,2,0,P|393:80|541:76,1,175,2|2,0:0|0:2,0:0:0:0:
376,8,183775,1,0,1:0:0:0:
376,8,183879,1,4,3:0:0:0:
376,8,183983,1,4,3:0:0:0:
376,8,184087,1,4,3:0:0:0:
376,8,184191,1,4,3:0:0:0:
428,97,184400,1,2,0:0:0:0:
320,175,184608,2,0,P|350:189|418:246,1,87.5,2|2,1:2|3:0,0:0:0:0:
445,299,185025,2,0,P|461:340|470:383,1,87.5,6|2,3:0|0:0,0:0:0:0:
464,223,185441,1,2,1:2:0:0:
355,283,185650,2,0,P|344:314|293:388,1,87.5,2|4,0:2|3:0,0:0:0:0:
245,109,186066,2,0,P|174:147|-33:198,2,262.5,6|4|0,0:0|3:0|0:0,0:0:0:0:
256,0,198775,5,0,1:0:0:0:
209,54,199087,5,0,1:0:0:0:
209,54,199191,1,0,1:0:0:0:
302,84,199400,1,4,3:0:0:0:
256,352,199608,5,6,1:2:0:0:
256,352,200025,54,0,P|179:335|15:324,1,188.999994232178,4|0,1:1|0:0,0:0:0:0:
315,307,200441,2,0,P|408:327|502:336,1,188.999994232178,4|0,1:0|0:0,0:0:0:0:
237,305,200858,2,0,P|160:322|-4:333,1,188.999994232178,4|0,1:0|0:0,0:0:0:0:
296,349,201275,2,0,P|388:329|482:320,1,188.999994232178,4|0,1:0|0:0,0:0:0:0:
216,240,201691,70,0,P|136:215|-26:233,1,210,4|0,1:0|0:0,0:0:0:0:
292,244,202108,2,0,P|372:269|534:250,1,210,4|0,1:0|0:0,0:0:0:0:
214,236,202525,2,0,P|133:210|-28:229,1,210,4|0,1:0|0:0,0:0:0:0:
289,232,202941,2,0,P|369:257|531:238,1,210,4|0,1:0|0:0,0:0:0:0:
216,159,203358,70,0,P|138:118|79:122,1,77.0000023498536,4|0,1:0|0:0,0:0:0:0:
15,202,203566,2,0,P|51:186|82:164,1,77.0000023498536,2|0,0:0|0:0,0:0:0:0:
512,99,203775,70,0,P|399:88|304:151,1,231.000007049561,4|0,1:0|0:0,0:0:0:0:
0,129,204191,2,0,P|112:140|207:77,1,231.000007049561,4|0,1:0|0:0,0:0:0:0:
496,72,204608,70,0,P|446:74|413:36,1,105,4|0,1:0|0:0,0:0:0:0:
138,78,205025,2,0,P|81:16|0:33,1,175,4|0,1:0|0:0,0:0:0:0:
285,0,205650,70,6,P|319:100|256:2,1,350,2|0,0:0|0:0,0:1:0:0:
254,327,206275,2,0,L|245:384,1,52.5,2|0,1:0|0:0,0:0:0:0:
212,207,206691,6,2,B|193:306|83:433|-40:314|-54:183|-37:203|-11:55|135:-31|202:-5|219:94|206:141|129:251|-3:158|-3:122,1,735.000028038026,4|0,1:0|0:0,3:0:0:0:
320,264,207525,2,2,B|342:345|444:443|538:335|540:224|528:243|495:120|366:59|312:86|305:170|319:208|391:294|496:207|493:177,1,612.5,4|0,1:0|0:0,3:0:0:0:
207,355,208358,6,2,P|186:285|220:364,1,420,4|0,1:0|0:0,3:0:0:0:
512,211,209191,6,2,B|335:407|253:89|176:-82|-40:62|21:183,1,612.5,4|0,1:2|0:0,0:1:0:0:
19,107,210025,22,0,L|29:161,1,52.5,4|0,1:0|0:0,0:0:0:0:
465,103,210441,6,0,L|455:49,1,52.5,4|0,1:0|0:0,0:0:0:0:
117,117,210858,54,0,L|112:171,1,52.5,4|0,1:0|0:0,0:0:0:0:
396,200,211275,38,0,L|400:145,1,52.5,4|0,1:0|0:0,0:0:0:0:
219,99,211691,22,0,L|200:150,1,52.5,4|0,1:0|0:0,0:0:0:0:
298,226,212108,70,0,L|316:174,1,52.5,4|0,1:0|0:0,0:0:0:0:
467,219,212525,6,2,L|41:179,1,428.750004088879,4|0,1:0|0:0,0:1:0:0:
257,28,213358,38,0,P|351:19|443:0,1,188.999994232178,4|0,1:1|0:0,0:0:0:0:
245,29,213775,2,0,P|150:38|58:57,1,188.999994232178,4|0,1:0|0:0,0:0:0:0:
255,38,214191,2,0,P|349:46|441:66,1,188.999994232178,4|0,1:1|0:0,0:0:0:0:
243,37,214608,2,0,P|148:27|56:8,1,188.999994232178,4|0,1:0|0:0,0:0:0:0:
302,105,215025,6,0,P|382:130|544:112,1,210,4|0,1:0|0:0,0:0:0:0:
229,128,215441,2,0,P|149:103|-13:122,1,210,4|0,1:0|0:0,0:0:0:0:
306,150,215858,2,0,P|387:124|548:143,1,210,4|0,1:0|0:0,0:0:0:0:
221,160,216275,2,0,P|141:135|-21:154,1,210,4|0,1:0|0:0,0:0:0:0:
323,177,216691,6,0,P|401:218|460:214,1,77.0000023498536,4|0,1:0|0:0,0:0:0:0:
153,166,216900,2,0,P|117:181|86:203,1,77.0000023498536,2|0,0:0|0:0,0:0:0:0:
305,261,217108,6,0,P|418:272|513:209,1,231.000007049561,4|0,1:0|0:0,0:0:0:0:
225,305,217525,2,0,P|130:242|17:252,1,231.000007049561,4|0,1:0|0:0,0:0:0:0:
400,299,217941,6,0,P|450:297|483:335,1,105,4|0,1:0|0:0,0:0:0:0:
0,325,218358,2,0,P|84:331|141:269,1,175,4|0,1:0|0:0,0:0:0:0:
247,381,218983,6,6,P|268:263|275:382,1,350,2|0,0:0|0:0,0:1:0:0:
282,70,219608,2,0,L|290:18,1,52.5,2|0,1:0|0:0,0:0:0:0:
11,181,220025,6,0,B|112:278|237:103|83:132|220:59|156:-105|313:-97|495:5|431:182|296:202|226:233|170:99|224:38,1,735.000028038026,4|0,1:0|0:0,0:0:0:0:
464,208,220858,2,0,B|419:323|254:230|387:196|251:188|241:33|118:97|11:247|128:365|244:331|311:329|306:201|240:173,1,612.5,4|0,1:0|0:0,0:0:0:0:
314,34,221691,6,2,P|229:142|304:27,1,420,4|0,1:0|0:0,3:0:0:0:
19,212,222525,6,2,B|55:362|188:379|260:276|264:93|332:-60|533:73|471:166,1,661.500002523422,4|0,1:2|0:0,0:1:0:0:
480,128,223358,38,0,L|489:76,1,52.5,4|0,1:0|0:0,0:0:0:0:
454,378,223775,70,0,L|464:327,1,52.5,4|0,1:0|0:0,0:0:0:0:
348,53,224191,70,0,L|343:1,1,52.5,4|0,1:0|0:0,0:0:0:0:
337,327,224608,70,0,L|333:274,1,52.5,4|0,1:0|0:0,0:0:0:0:
150,115,225025,70,0,L|131:65,1,52.5,4|0,1:0|0:0,0:0:0:0:
225,322,225441,70,0,L|206:272,1,52.5,4|0,1:0|0:0,0:0:0:0:
2,281,225858,70,0,P|47:349|133:305,1,183.750001752377,6|0,1:1|0:1,0:1:0:0:
295,119,226275,2,0,P|362:16|491:83,1,262.5,4|0,1:1|0:1,0:1:0:0:
480,64,226691,6,0,L|448:192,1,70,6|0,1:2|0:0,0:0:0:0:
416,352,226900,1,2,3:0:0:0:
392,46,227108,6,0,L|360:174,1,70,6|0,1:2|0:0,0:0:0:0:
316,362,227317,1,2,0:0:0:0:
306,28,227525,6,0,L|274:156,1,70,6|0,1:2|0:0,0:0:0:0:
226,372,227734,1,2,3:0:0:0:
220,17,227941,6,0,L|188:145,1,70,6|0,1:2|0:0,0:0:0:0:
137,380,228150,1,2,3:0:0:0:
135,0,228358,6,0,L|103:128,1,70,6|0,1:2|0:0,0:0:0:0:
55,384,228566,1,2,3:0:0:0:
42,0,228774,5,4,1:0:0:0:
25,67,228983,1,2,3:0:0:0:
142,384,229191,5,4,1:0:0:0:
165,289,229400,1,2,3:0:0:0:
212,82,229608,6,2,B|215:70|215:70|196:-15,3,70,4|0|0|0,1:0|0:0|0:0|0:0,3:0:0:0:
311,49,230024,6,0,L|278:213,1,140,4|0,1:0|0:0,0:0:0:0:
372,168,230337,1,2,0:0:0:0:
372,168,230441,2,0,L|325:398,1,210,4|0,1:0|0:0,0:0:0:0:
433,64,230858,6,0,L|477:195,1,70,4|0,1:0|0:0,0:0:0:0:
500,263,231066,1,2,0:0:0:0:
239,186,231275,6,0,L|362:247,1,70,4|0,1:0|0:0,0:0:0:0:
426,278,231483,1,2,3:0:0:0:
159,361,231691,6,0,L|290:317,1,70,4|0,1:0|0:0,0:0:0:0:
356,293,231899,1,2,0:0:0:0:
226,96,232108,5,4,1:0:0:0:
0,225,232316,1,2,0:0:0:0:
246,110,232524,5,4,1:0:0:0:
466,0,232733,1,2,0:0:0:0:
226,117,232941,5,4,1:0:0:0:
0,246,233149,1,2,0:0:0:0:
125,50,233358,6,0,P|178:136|401:80,1,350,4|0,1:0|0:0,0:0:0:0:
287,0,233983,2,0,P|249:88|294:5,1,280,2|4,0:1|3:0,0:0:0:0:
253,243,234608,6,0,L|264:323,1,52.5000020027161,4|0,1:0|0:0,0:0:0:0:
240,372,234816,2,0,L|258:237,1,105.000004005432,2|4,0:0|1:0,0:0:0:0:
41,80,235233,5,2,0:0:0:0:
255,166,235441,5,4,1:0:0:0:
473,239,235649,1,2,0:0:0:0:
231,174,235858,5,4,1:0:0:0:
0,22,236066,1,2,0:0:0:0:
247,184,236274,5,4,1:0:0:0:
478,384,236483,1,2,0:0:0:0:
289,4,236691,6,2,P|206:28|295:9,2,350,4|4|4,1:0|1:0|1:0,3:0:0:0:
256,192,237733,1,2,0:0:0:0:
88,179,237941,6,0,L|200:162,1,70,4|0,1:0|0:0,0:0:0:0:
336,256,238150,2,0,L|448:272,1,70,2|0,3:0|0:0,0:0:0:0:
0,352,238358,6,2,L|319:305,1,280,4|4,1:0|1:0,0:1:0:0:
512,279,238983,1,2,0:0:0:0:
275,350,239191,2,2,B|141:277|145:399|-44:303,1,280,4|4,1:0|1:0,0:0:0:0:
250,379,240025,6,2,P|263:274|279:171,1,210,4|0,1:0|0:0,0:1:0:0:
167,118,240441,5,2,1:2:0:0:
0,44,240650,1,2,0:0:0:0:
232,0,240858,6,2,P|240:62|249:124,1,105,0|0,1:0|0:0,0:1:0:0:
301,151,241275,5,2,1:2:0:0:
468,226,241484,1,2,3:0:0:0:
246,104,241691,5,6,1:2:0:0:
512,7,241900,1,2,0:0:0:0:
301,151,242108,5,2,1:2:0:0:
422,344,242317,1,2,3:0:0:0:
289,46,242525,5,2,1:2:0:0:
0,131,242734,1,2,0:0:0:0:
168,244,242941,1,0,1:0:0:0:
190,0,243150,2,2,L|207:124,1,70,2|0,0:0|0:0,0:0:0:0:
219,165,243358,6,2,P|323:178|426:194,1,210,4|0,1:0|0:0,0:1:0:0:
486,150,243774,5,2,1:2:0:0:
286,261,243983,1,2,0:0:0:0:
112,357,244191,6,2,P|121:282|133:207,1,105.000004005432,2|0,1:0|0:0,0:1:0:0:
154,122,244608,1,2,1:2:0:0:
178,0,244817,1,2,3:0:0:0:
0,170,245024,5,6,1:2:0:0:
250,102,245233,1,2,0:0:0:0:
443,217,245441,5,2,1:2:0:0:
157,143,245650,1,2,3:0:0:0:
9,329,245858,5,2,1:2:0:0:
321,250,246067,1,2,0:0:0:0:
31,103,246275,1,2,1:2:0:0:
151,54,246483,1,2,0:0:0:0:
31,103,246691,6,2,P|33:215|130:259,1,210,4|0,1:0|0:0,0:1:0:0:
191,196,247107,5,2,1:2:0:0:
339,52,247316,1,2,0:0:0:0:
6,20,247525,5,2,1:2:0:0:
155,99,247734,1,2,0:0:0:0:
398,221,247941,1,2,1:2:0:0:
126,337,248150,1,2,3:0:0:0:
496,274,248357,5,4,1:0:0:0:
5,136,248775,5,2,1:2:0:0:
223,203,248984,1,2,0:0:0:0:
508,294,249191,1,2,1:2:0:0:
287,368,249400,5,2,3:0:0:0:
126,129,249608,1,0,1:0:0:0:
489,180,250025,6,2,P|432:97|332:102,1,210,4|0,1:0|0:0,0:1:0:0:
228,78,250440,5,2,1:2:0:0:
17,8,250649,1,2,0:0:0:0:
263,144,250857,6,2,P|252:75|244:5,1,140,2|0,1:2|0:0,0:1:0:0:
237,383,251275,2,2,P|244:314|255:245,1,140,0|0,1:0|0:0,0:1:0:0:
7,83,251691,6,0,P|59:172|157:169,1,210,4|0,1:0|0:0,0:0:0:0:
321,196,252108,2,0,P|221:186|166:270,1,210,4|0,1:0|0:0,0:0:0:0:
374,141,252525,6,0,P|348:119|339:86,1,70,4|0,1:0|0:0,0:0:0:0:
454,250,252733,2,0,P|487:243|512:219,1,70,2|0,3:0|0:0,0:0:0:0:
271,257,252941,6,0,P|335:158|451:136,1,241.500004606247,4|0,1:0|3:0,3:0:0:0:
256,384,253358,69,4,1:0:0:0:
256,384,253567,1,4,3:0:0:0:
194,340,253777,69,4,1:0:0:0:
123,356,253987,1,4,3:0:0:0:
271,256,254197,69,4,1:0:0:0:
363,276,254406,1,4,3:0:0:0:
162,184,254616,69,4,1:0:0:0:
42,210,254826,1,4,3:0:0:0:
323,130,255036,69,4,1:0:0:0:
479,163,255246,1,4,3:0:0:0:
203,65,255455,69,4,1:0:0:0:
0,107,255665,1,4,3:0:0:0:
249,0,255875,1,4,1:0:0:0:
512,55,256085,1,4,3:0:0:0:
76,114,256295,5,4,3:0:0:0:
38,110,256399,1,4,3:0:0:0:
0,107,256504,1,4,3:0:0:0:
512,160,256714,1,4,1:2:0:0:
256,192,256817,12,4,260029,0:0:0:0:
256,32,269195,5,0,0:0:0:0:
199,82,269404,2,0,P|159:73|77:64,1,105.000004005432,2|0,0:0|0:0,0:0:0:0:
18,132,270029,5,4,3:0:0:0:
23,133,270237,1,4,3:0:0:0:
28,134,270445,1,4,3:0:0:0:
33,135,270654,1,4,3:0:0:0:
0,170,270863,1,4,3:0:0:0:
5,169,271071,1,4,3:0:0:0:
10,168,271280,1,4,3:0:0:0:
15,167,271488,1,4,3:0:0:0:
71,219,271695,1,4,3:0:0:0:
76,220,271904,1,4,3:0:0:0:
81,221,272112,1,4,3:0:0:0:
86,222,272320,1,4,3:0:0:0:
30,254,272529,1,4,3:0:0:0:
35,253,272737,1,4,3:0:0:0:
40,252,272945,1,4,3:0:0:0:
45,251,273154,1,4,3:0:0:0:
189,223,273363,5,4,2:0:0:0:
256,352,275863,5,0,3:0:0:0:
199,302,276070,2,0,P|159:311|77:320,1,105.000004005432,2|0,0:0|0:0,0:0:0:0:
18,252,276696,5,4,3:0:0:0:
23,251,276904,1,4,3:0:0:0:
28,250,277113,1,4,3:0:0:0:
33,249,277321,1,4,3:0:0:0:
0,212,277529,1,4,3:0:0:0:
7,213,277737,1,4,3:0:0:0:
15,215,277946,1,4,3:0:0:0:
22,216,278154,1,4,3:0:0:0:
67,157,278363,1,4,3:0:0:0:
78,158,278571,1,4,3:0:0:0:
92,162,278780,1,4,3:0:0:0:
104,163,278988,1,4,3:0:0:0:
32,121,279195,1,4,3:0:0:0:
39,120,279404,1,4,3:0:0:0:
47,118,279612,1,4,3:0:0:0:
54,117,279820,1,4,3:0:0:0:
256,64,280029,5,4,2:0:0:0:
256,192,281695,12,0,283257,0:0:0:0:
128,66,283362,6,0,L|59:80,1,52.5000020027161,2|0,0:0|0:0,0:0:0:0:
18,132,283779,5,4,3:0:0:0:
23,133,283987,1,4,3:0:0:0:
28,134,284195,1,4,3:0:0:0:
33,135,284404,1,4,3:0:0:0:
0,170,284612,1,4,3:0:0:0:
5,169,284820,1,4,3:0:0:0:
10,168,285029,1,4,3:0:0:0:
15,167,285237,1,4,3:0:0:0:
71,219,285444,1,4,3:0:0:0:
76,220,285654,1,4,3:0:0:0:
81,221,285862,1,4,3:0:0:0:
86,222,286070,1,4,3:0:0:0:
465,256,286694,5,4,2:0:0:0:
64,227,287529,5,4,3:0:0:0:
71,225,287737,1,4,3:0:0:0:
79,224,287945,1,4,3:0:0:0:
86,222,288154,1,4,3:0:0:0:
0,189,288363,1,4,3:0:0:0:
13,190,288569,1,4,3:0:0:0:
28,194,288778,1,4,3:0:0:0:
41,196,288986,1,4,3:0:0:0:
97,138,289195,1,4,3:0:0:0:
130,132,289403,1,4,3:0:0:0:
158,162,289612,1,4,3:0:0:0:
191,143,289820,1,4,3:0:0:0:
296,197,290029,6,0,P|338:206|411:205,1,105.000004005432,2|4,3:0|3:0,0:0:0:0:
483,264,290654,2,0,P|456:265|431:270,1,52.5000020027161,2|4,0:0|3:0,0:0:0:0:
373,312,291070,2,0,P|346:310|321:305,1,52.5000020027161,2|4,0:0|3:0,0:0:0:0:
268,353,291487,2,0,P|241:354|216:359,2,52.5000020027161,2|4|2,0:0|3:0|0:0,0:0:0:0:
268,353,292320,1,2,0:0:0:0:
294,283,292529,5,4,3:0:0:0:
294,283,292737,1,4,3:0:0:0:
294,283,292944,1,4,3:0:0:0:
294,283,293154,1,4,3:0:0:0:
233,237,293362,5,0,1:0:0:0:
233,237,293570,1,4,3:0:0:0:
308,197,293779,5,0,1:0:0:0:
308,197,293987,1,4,3:0:0:0:
160,160,294195,5,0,1:0:0:0:
160,160,294404,1,4,3:0:0:0:
384,128,294612,5,0,1:0:0:0:
243,60,294820,1,0,1:0:0:0:
248,36,294924,1,0,1:0:0:0:
256,0,295029,5,4,1:2:0:0:
256,0,295852,2,0,L|262:44,1,35
3,343,296675,6,0,L|16:303,1,42,4|0,1:0|0:0,0:0:0:0:
104,108,297091,6,0,L|98:149,1,42,4|0,1:1|0:0,0:0:0:0:
164,357,297508,6,0,L|160:333,1,14,4|0,1:1|0:0,0:0:0:0:
164,357,297716,2,0,L|160:333,1,14,4|0,3:0|0:0,0:0:0:0:
224,50,297925,6,0,L|222:91,1,42,4|0,1:1|0:0,0:0:0:0:
310,338,298341,6,0,L|311:296,1,42,4|0,1:1|0:0,0:0:0:0:
388,68,298758,6,0,L|393:109,1,42,4|0,1:1|0:0,0:0:0:0:
495,346,299175,6,0,L|497:322,1,14,4|0,1:1|0:0,0:0:0:0:
490,374,299383,2,0,L|492:350,1,14,4|0,3:0|0:0,0:0:0:0:
490,0,299591,6,0,L|513:106,1,105,4|0,1:1|0:0,0:0:0:0:
353,170,300008,6,0,L|299:158,1,42,0|0,1:1|0:0,0:0:0:0:
159,116,300425,2,0,L|4:150,1,157.500006008148,4|0,1:1|0:0,0:0:0:0:
235,159,300841,5,0,1:0:0:0:
235,159,301049,1,4,3:0:0:0:
18,4,301258,2,0,L|172:38,1,157.500006008148,4|0,1:1|0:0,0:0:0:0:
256,0,301675,5,4,3:0:0:0:
308,383,302091,2,0,L|273:228,1,157.500006008148,4|0,1:1|0:0,0:0:0:0:
172,146,302508,5,4,1:0:0:0:
501,196,302716,2,0,P|453:197|375:180,1,105.000004005432,4|0,1:2|0:0,0:0:0:0:
239,298,303341,6,0,P|147:298|60:325,1,183.750001752377,6|0,1:0|0:0,0:0:0:0:
0,373,303758,1,4,1:2:0:0:
140,237,303966,1,0,1:0:0:0:
120,192,304070,1,0,1:0:0:0:
71,180,304175,1,4,1:2:0:0:
109,269,304383,1,4,3:0:0:0:
309,330,304591,1,4,1:2:0:0:
383,278,304800,1,2,3:0:0:0:
392,293,304904,1,2,3:0:0:0:
372,286,305008,2,0,L|438:271,1,61.2500005841255,4|2,3:0|0:0,0:0:0:0:
499,215,305216,6,0,P|509:149|513:47,2,122.500001168251,2|4|2,0:0|1:2|0:0,0:0:0:0:
512,291,305737,1,0,1:0:0:0:
512,291,305841,1,4,3:0:0:0:
307,197,306050,2,0,L|249:210,1,52.5000020027161,4|0,3:0|0:0,0:0:0:0:
194,248,306258,2,2,B|144:241|122:247|122:247|104:203|60:192,1,157.500006008148,4|0,1:2|0:0,0:1:0:0:
61,192,306675,6,0,P|54:101|87:13,1,183.750001752377,4|0,1:0|0:0,0:0:0:0:
149,67,307091,1,4,1:2:0:0:
304,197,307404,5,0,1:0:0:0:
349,177,307508,1,0,1:2:0:0:
361,128,307613,1,0,1:2:0:0:
361,128,307716,1,4,3:0:0:0:
149,67,307925,6,0,P|137:126|145:187,2,122.500001168251,4|2|4,1:2|0:0|1:2,0:0:0:0:
472,29,308758,1,4,1:2:0:0:
280,148,309175,5,0,1:0:0:0:
272,139,309253,5,0,1:2:0:0:
273,125,309331,6,0,L|354:102,1,76.5625007301569,4|4,3:0|3:0,0:0:0:0:
422,145,309539,1,0,1:0:0:0:
422,145,309591,2,0,L|484:162,3,61.2500005841255,0|0|0|0,1:0|3:0|3:0|3:0,0:0:0:0:
509,41,310008,38,0,L|497:77,1,28,4|0,1:0|0:0,0:0:0:0:
491,209,310320,1,0,0:0:0:0:
403,320,310424,54,0,L|408:283,1,28,4|0,1:1|0:0,0:0:0:0:
395,141,310737,1,0,0:0:0:0:
483,19,310841,6,0,L|471:55,1,28,4|0,1:0|0:0,0:0:0:0:
465,186,311153,1,0,0:0:0:0:
363,314,311258,54,0,L|368:277,1,28,4|0,1:1|0:0,0:0:0:0:
356,136,311571,1,0,0:0:0:0:
442,12,311675,70,0,L|430:48,1,28,4|0,1:0|0:0,0:0:0:0:
424,179,311987,1,0,0:0:0:0:
323,307,312091,6,0,L|328:270,1,28,4|0,1:1|0:0,0:0:0:0:
315,128,312404,1,0,0:0:0:0:
393,7,312508,54,0,L|381:43,1,28,4|0,1:0|0:0,0:0:0:0:
242,317,312925,6,2,P|188:323|35:359,1,210,4|0,1:1|0:0,0:1:0:0:
102,305,313341,54,0,L|156:317,1,42,0|0,1:1|0:0,0:0:0:0:
353,268,313758,2,0,L|508:234,1,157.500006008148,4|0,1:1|0:0,0:0:0:0:
99,230,314175,70,0,L|153:237,1,42,0|0,1:1|0:0,0:0:0:0:
350,193,314591,2,0,L|505:159,1,157.500006008148,4|0,1:1|0:0,0:0:0:0:
96,156,315009,70,0,L|150:163,1,42,0|0,1:1|0:0,0:0:0:0:
342,97,315425,2,0,L|493:49,1,157.500006008148,4|0,1:1|0:0,0:0:0:0:
264,118,315841,5,4,1:0:0:0:
126,176,316050,2,0,P|73:176|-13:146,1,131.25000500679,4|0,1:2|0:0,0:0:0:0:
205,199,316675,6,0,P|297:199|384:226,1,183.750001752377,6|0,1:2|0:0,0:0:0:0:
474,314,317092,5,4,1:2:0:0:
329,119,317404,5,0,1:0:0:0:
89,312,317716,5,4,3:0:0:0:
286,243,317925,1,4,1:2:0:0:
92,318,318133,2,0,P|32:311|17:311,1,61.2500005841255,2|0,0:0|0:0,0:0:0:0:
247,339,318342,5,4,1:2:0:0:
132,172,318550,2,0,P|122:106|118:4,2,122.500001168251,4|4|2,3:0|1:2|0:0,0:0:0:0:
75,219,319071,1,0,1:0:0:0:
243,69,319279,1,0,1:0:0:0:
269,99,319383,2,0,L|330:112,1,61.2500005841255,4|0,3:0|0:0,0:0:0:0:
385,156,319591,2,2,B|430:149|457:155|457:155|519:100,1,122.500001168251,4|0,1:2|0:0,0:1:0:0:
243,69,320008,5,4,3:0:0:0:
228,66,320112,1,0,3:0:0:0:
213,64,320216,1,0,3:0:0:0:
198,62,320320,1,0,3:0:0:0:
183,59,320424,1,4,1:2:0:0:
0,180,320737,5,0,1:0:0:0:
256,222,321050,1,4,3:0:0:0:
121,109,321258,1,0,1:0:0:0:
16,324,321570,1,0,1:0:0:0:
16,324,321675,5,2,0:0:0:0:
56,347,321779,1,2,0:0:0:0:
97,324,321884,1,2,0:0:0:0:
99,278,321989,1,2,0:0:0:0:
60,252,322094,5,2,0:0:0:0:
72,296,322199,1,2,0:0:0:0:
117,309,322304,1,2,0:0:0:0:
151,278,322409,1,2,0:0:0:0:
142,232,322514,5,2,0:0:0:0:
119,271,322619,1,2,0:0:0:0:
142,312,322723,1,2,0:0:0:0:
187,314,322828,1,2,0:0:0:0:
214,275,322933,5,2,0:0:0:0:
170,286,323038,1,2,0:0:0:0:
157,331,323143,1,2,0:0:0:0:
187,364,323248,1,2,0:0:0:0:
234,356,323353,22,0,P|157:339|-7:328,1,188.999994232178,4|0,1:1|0:0,0:0:0:0:
483,345,323770,2,0,P|389:336|297:316,1,188.999994232178,4|0,1:0|0:0,0:0:0:0:
27,350,324187,2,0,P|121:341|213:321,1,188.999994232178,4|0,1:0|0:0,0:0:0:0:
479,319,324604,2,0,P|384:327|292:348,1,188.999994232178,4|0,1:0|0:0,0:0:0:0:
11,220,325020,70,0,P|115:212|216:240,1,210,4|0,1:0|0:0,0:0:0:0:
501,218,325437,2,0,P|396:226|296:199,1,210,4|0,1:0|0:0,0:0:0:0:
4,221,325854,2,0,P|108:229|208:201,1,210,4|0,1:0|0:0,0:0:0:0:
505,234,326270,2,0,P|425:209|263:228,1,210,4|0,1:0|0:0,0:0:0:0:
8,151,326687,70,0,P|86:110|145:114,1,77.0000023498536,4|0,1:0|0:0,0:0:0:0:
428,112,326895,2,0,P|459:134|495:150,1,77.0000023498536,2|0,0:0|0:0,0:0:0:0:
0,73,327104,70,0,P|112:61|207:124,1,231.000007049561,4|0,1:0|0:0,0:0:0:0:
496,72,327520,2,0,P|384:61|289:124,1,231.000007049561,4|0,1:0|0:0,0:0:0:0:
0,49,327937,70,0,P|50:51|83:13,1,105,4|0,1:0|0:0,0:0:0:0:
510,42,328354,2,0,P|428:24|371:86,1,175,4|0,1:0|0:0,0:0:0:0:
276,6,328979,70,6,P|274:111|248:-1,1,350,2|0,0:0|0:0,0:1:0:0:
198,314,329604,2,0,L|189:371,1,52.5,2|0,1:0|0:0,0:0:0:0:
39,212,330019,6,2,B|44:183|147:113|219:293|84:449|-65:303|-82:143|-62:167|-30:-13|148:-118|230:-86|256:219|147:244|120:286,1,808.500007710457,4|0,1:0|0:0,3:0:0:0:
362,240,330846,2,2,B|355:214|413:117|541:238|490:417|311:355|235:230|262:242|218:81|325:-73|404:-78|543:162|463:225|457:270,1,685.999979064942,4|0,1:0|0:0,3:0:0:0:
200,362,331674,6,2,P|179:292|213:371,1,420,4|0,1:0|0:0,3:0:0:0:
8,193,332501,6,2,B|-17:203|100:413|167:114|251:-151|320:73|443:404|553:185|446:104,1,612.5,4|0,1:2|0:0,0:1:0:0:
479,157,333329,22,0,L|489:211,1,52.5,4|0,1:0|0:0,0:0:0:0:
313,55,333743,6,0,L|303:1,1,52.5,4|0,1:0|0:0,0:0:0:0:
419,286,334156,54,0,L|414:340,1,52.5,4|0,1:0|0:0,0:0:0:0:
405,52,334570,38,0,L|409:-3,1,52.5,4|0,1:0|0:0,0:0:0:0:
334,279,334984,22,0,L|315:330,1,52.5,4|0,1:0|0:0,0:0:0:0:
489,90,335398,70,0,L|507:38,1,52.5,4|0,1:0|0:0,0:0:0:0:
507,232,335812,6,2,L|-15:151,1,490,4|0,1:0|0:0,0:1:0:0:
257,28,336639,38,0,P|351:19|443:0,1,188.999994232178,4|0,1:1|0:0,0:0:0:0:
245,29,337060,2,0,P|150:38|58:57,1,188.999994232178,4|0,1:0|0:0,0:0:0:0:
255,38,337481,2,0,P|349:46|441:66,1,188.999994232178,4|0,1:1|0:0,0:0:0:0:
243,37,337902,2,0,P|148:27|56:8,1,188.999994232178,4|0,1:0|0:0,0:0:0:0:
252,50,338323,2,0,P|325:78|370:81,1,70,4|0,1:0|0:0,0:0:0:0:
426,164,338533,6,0,P|499:136|544:133,1,70,2|0,0:0|0:0,0:0:0:0:
173,153,338744,2,0,P|246:181|291:184,1,70,4|0,1:0|0:0,0:0:0:0:
0,142,338954,2,0,P|73:114|118:111,1,70,2|0,0:0|0:0,0:0:0:0:
253,195,339165,2,0,P|326:167|371:164,1,70,4|0,1:0|0:0,0:0:0:0:
448,106,339375,2,0,P|521:134|566:137,1,70,2|0,0:0|0:0,0:0:0:0:
340,192,339586,2,0,P|238:147|76:166,1,210,4|0,1:0|0:0,0:0:0:0:
500,247,340007,6,0,P|422:206|363:210,1,77.0000023498536,4|0,1:0|0:0,0:0:0:0:
76,190,340215,2,0,P|40:205|9:227,1,77.0000023498536,2|0,0:0|0:0,0:0:0:0:
303,227,340423,6,0,P|416:216|511:279,1,231.000007049561,4|0,1:0|0:0,0:0:0:0:
207,224,340840,2,0,P|112:287|-1:277,1,231.000007049561,4|0,1:0|0:0,0:0:0:0:
400,317,341257,6,0,P|447:331|502:260,1,140,4|4,1:0|1:0,0:0:0:0:
116,331,341882,2,0,P|87:339|54:296,1,77.0000023498536,2|0,0:0|0:0,0:0:0:0:
301,251,342090,2,0,P|329:259|362:216,1,77.0000023498536,4|0,1:0|0:0,0:0:0:0:
247,381,342298,6,6,P|268:263|275:382,1,350,2|0,0:0|0:0,0:1:0:0:
279,30,342923,2,0,L|272:74,1,35,2|2,1:0|0:0,0:0:0:0:
274,65,343340,6,2,B|268:93|165:163|93:-16|228:-172|378:-26|395:133|375:109|343:290|164:395|82:363|71:177|158:175|165:32|-67:48,1,808.500007710457,4|0,1:0|0:0,3:0:0:0:
265,216,344167,2,2,B|279:235|383:252|374:88|215:16|151:182|195:312|203:286|292:414|467:430|519:377|461:229|393:258|336:151|520:80,1,685.999979064942,4|0,1:0|0:0,3:0:0:0:
270,16,344995,6,2,P|226:71|264:12,1,210,4|0,1:0|0:0,3:0:0:0:
136,102,345413,2,0,P|111:78|97:47,1,70,4|0,1:0|0:0,0:0:0:0:
375,84,345622,2,0,P|386:51|386:16,1,70,2|0,0:0|0:0,0:0:0:0:
8,191,345831,6,2,B|-17:181|121:-82|167:270|251:535|320:311|446:-43|553:199|473:291,1,661.500002523422,4|0,1:2|0:0,0:1:0:0:
492,252,346667,38,0,L|501:200,1,52.5,4|0,1:0|0:0,0:0:0:0:
248,384,347085,22,0,L|258:333,1,52.5,4|0,1:0|0:0,0:0:0:0:
461,379,347503,38,0,L|456:327,1,52.5,4|0,1:0|0:0,0:0:0:0:
165,231,347921,22,0,L|161:178,1,52.5,4|0,1:0|0:0,0:0:0:0:
378,341,348340,38,0,L|359:291,1,52.5,4|0,1:0|0:0,0:0:0:0:
264,239,348753,70,0,L|245:189,1,52.5,4|0,1:0|0:0,0:0:0:0:
0,348,349167,5,4,1:0:0:0:
161,178,349374,2,2,L|479:233,1,306.250002920628,2|0,0:0|0:0,0:0:0:0:
511,12,349994,21,4,1:2:0:0:
511,12,350202,1,4,3:0:0:0:
384,384,350411,69,6,1:2:0:0:
384,384,350619,1,4,3:0:0:0:
302,29,350827,69,6,1:2:0:0:
302,29,351036,1,4,3:0:0:0:
226,383,351244,69,6,1:2:0:0:
226,383,351452,1,4,3:0:0:0:
105,1,351661,69,6,1:2:0:0:
105,1,351869,1,4,3:0:0:0:
0,384,352077,69,6,1:2:0:0:
0,384,352286,2,0,L|13:206,1,140,2|0,0:0|1:0,0:0:0:0:
256,24,352702,2,0,L|245:163,1,140,4|4,3:0|1:0,0:0:0:0:
512,345,353119,1,2,0:1:0:0:
371,52,353328,6,0,L|328:71,1,42,4|0,1:0|0:0,0:0:0:0:
149,174,353744,6,0,L|106:155,1,42,4|0,1:0|0:0,0:0:0:0:
379,211,354161,6,0,L|337:233,1,42,4|0,1:0|0:0,0:0:0:0:
157,55,354577,6,0,L|115:32,1,42,4|0,1:0|0:0,0:0:0:0:
327,156,354994,6,0,L|290:126,1,42,4|0,1:0|0:0,0:0:0:0:
97,257,355410,6,0,L|60:286,1,42,4|0,1:0|0:0,0:0:0:0:
330,163,355827,5,4,1:0:0:0:
2,88,356036,2,2,L|381:30,1,350,2|0,0:0|0:0,0:1:0:0:
0,0,356661,6,0,L|204:46,1,210,4|0,1:0|0:0,0:0:0:0:
334,175,357078,2,0,L|505:295,1,210,4|0,1:0|0:0,0:0:0:0:
507,79,357494,5,6,1:0:0:0:
110,177,357702,1,2,0:0:0:0:
507,89,357911,1,4,1:0:0:0:
49,134,358119,1,2,3:0:0:0:
507,99,358327,1,4,1:0:0:0:
91,73,358536,1,2,0:0:0:0:
507,108,358744,1,4,1:0:0:0:
23,139,358953,1,2,0:0:0:0:
422,111,359161,6,0,L|435:32,1,70,4|0,1:0|0:0,0:0:0:0:
211,207,359369,2,0,L|165:140,1,70,4|0,3:0|0:0,0:0:0:0:
405,213,359577,2,0,L|471:167,1,70,4|0,1:0|0:0,0:0:0:0:
167,273,359786,2,0,L|88:258,1,70,4|0,3:0|0:0,0:0:0:0:
301,208,359994,6,0,L|221:-11,1,210,4|0,1:0|0:0,0:0:0:0:
115,328,360411,6,0,L|158:309,1,42,4|0,1:0|0:0,0:0:0:0:
385,207,360828,6,0,L|428:226,1,42,4|0,1:0|0:0,0:0:0:0:
107,169,361244,6,0,L|149:147,1,42,4|0,1:0|0:0,0:0:0:0:
329,325,361661,6,0,L|371:348,1,42,4|0,1:0|0:0,0:0:0:0:
29,233,362078,6,0,L|66:263,1,42,4|0,1:0|0:0,0:0:0:0:
93,69,362495,5,4,1:0:0:0:
216,378,362707,2,2,L|157:73,1,262.500010013581,2|0,0:0|0:0,0:0:0:0:
0,27,363346,5,4,1:2:0:0:
0,27,363552,1,4,3:0:0:0:
508,79,363758,5,6,1:2:0:0:
508,79,363964,1,4,3:0:0:0:
19,170,364170,5,6,1:2:0:0:
19,170,364376,1,4,3:0:0:0:
467,250,364583,5,6,1:2:0:0:
467,250,364789,1,4,3:0:0:0:
43,340,364995,5,6,1:2:0:0:
43,340,365203,1,4,3:0:0:0:
512,361,365411,5,6,1:2:0:0:
512,361,365620,2,0,L|334:348,1,140,2|4,0:0|1:0,0:0:0:0:
23,240,366036,2,0,L|162:229,1,140,4|0,3:0|1:0,0:0:0:0:
470,134,366453,1,2,0:1:0:0:
28,44,366661,6,0,P|178:63|359:374,1,490,4|0,1:0|0:0,0:0:0:0:
11,341,367495,2,0,P|198:295|233:100,1,367.500014019013,4|0,1:0|0:0,0:0:0:0:
492,0,368328,6,0,P|476:120|138:167,1,490,4|0,1:0|3:0,0:0:0:0:
7,152,369161,5,4,1:0:0:0:
164,199,369370,2,2,L|543:141,1,350,2|0,0:0|0:0,0:1:0:0:
237,272,369995,6,0,L|33:226,1,210,4|0,1:0|0:0,0:0:0:0:
323,242,370411,2,0,L|442:326,1,140,4|2,1:0|0:0,0:0:0:0:
395,0,370828,5,6,1:0:0:0:
305,347,371036,1,2,0:0:0:0:
419,13,371245,1,4,1:0:0:0:
209,288,371453,1,2,3:0:0:0:
448,28,371661,1,4,1:0:0:0:
223,368,371870,1,2,0:0:0:0:
474,44,372078,1,4,1:0:0:0:
136,316,372287,1,2,0:0:0:0:
347,83,372495,6,0,L|325:5,1,70,4|0,1:0|0:0,0:0:0:0:
173,227,372703,2,0,L|127:160,1,70,4|0,3:0|0:0,0:0:0:0:
367,232,372911,2,0,L|433:186,1,70,4|0,1:0|0:0,0:0:0:0:
197,71,373120,2,0,L|162:-1,1,70,4|0,3:0|0:0,0:0:0:0:
317,162,373328,2,0,P|265:241|237:381,1,210,4|0,1:0|0:0,0:0:0:0:
283,0,373744,5,4,1:0:0:0:
283,0,373953,1,4,3:0:0:0:
210,92,374161,5,4,1:0:0:0:
35,72,374370,1,4,3:0:0:0:
481,120,374577,5,4,1:0:0:0:
221,162,374786,1,4,3:0:0:0:
0,204,374994,5,4,1:0:0:0:
334,225,375203,1,4,3:0:0:0:
137,312,375411,5,4,1:0:0:0:
512,281,375620,1,4,3:0:0:0:
512,384,375827,5,4,3:0:0:0:
0,363,376037,1,4,1:0:0:0:
280,12,376244,5,4,3:3:0:0:
256,17,376348,1,4,3:3:0:0:
232,22,376452,1,4,3:3:0:0:
44,296,376661,5,0,1:0:0:0:
21,311,376765,6,0,B|462:360|462:360|559:368|568:299|529:237|443:218|285:241|269:197|269:197|312:40|312:40|263:44|205:79|188:182|188:182|107:171|107:171|151:-1|151:-1|-13:41|-20:204|13:240,1,1785,0|0,1:0|0:0,0:0:0:0:
