osu file format v14

[General]
AudioFilename: audio.mp3
AudioLeadIn: 0
PreviewTime: -1
Countdown: 1
SampleSet: Normal
StackLeniency: 0.7
Mode: 0
LetterboxInBreaks: 0
WidescreenStoryboard: 1

[Editor]
DistanceSpacing: 1.3
BeatDivisor: 4
GridSize: 4
TimelineZoom: 1

[Metadata]
Title:Happy Dreams Short Version
TitleUnicode:Happy Dreams Short Version
Artist:Captain Jack+East Clubbers
ArtistUnicode:Captain Jack+East Clubbers
Creator:Zuisho
Version:Fast Rave
Source:
Tags:
BeatmapID:2088046
BeatmapSetID:998265

[Difficulty]
HPDrainRate:4
CircleSize:3.2
OverallDifficulty:6
ApproachRate:7
SliderMultiplier:1.4
SliderTickRate:1

[Events]
//Background and Video events
Video,0,"Rave Fortress.mp4"
0,0,"Rave Fortress.jpg",0,0
//Break Periods
//Storyboard Layer 0 (Background)
//Storyboard Layer 1 (Fail)
//Storyboard Layer 2 (Pass)
//Storyboard Layer 3 (Foreground)
//Storyboard Sound Samples

[TimingPoints]
1012,416.666666666667,4,1,0,100,1,0

[HitObjects]
130,92,1012,5,0,0:0:0:0:
202,147,1220,1,0,0:0:0:0:
121,189,1428,1,0,0:0:0:0:
121,189,1637,2,0,L|193:237,1,70
251,283,2053,1,0,0:0:0:0:
339,260,2262,1,0,0:0:0:0:
339,260,2470,2,0,L|305:182,1,70
368,67,3095,5,0,0:0:0:0:
368,67,3303,1,0,0:0:0:0:
388,155,3512,1,0,0:0:0:0:
388,155,3720,1,0,0:0:0:0:
388,155,3928,2,0,L|321:198,1,70
248,235,4345,1,0,0:0:0:0:
161,206,4553,1,0,0:0:0:0:
220,136,4762,1,0,0:0:0:0:
220,136,4970,2,0,L|295:77,1,70
366,91,5387,1,0,0:0:0:0:
366,91,5595,1,0,0:0:0:0:
366,91,5803,2,0,L|307:139,1,70
268,61,6428,5,0,0:0:0:0:
268,61,6637,1,0,0:0:0:0:
180,84,6845,1,0,0:0:0:0:
180,84,7053,1,0,0:0:0:0:
180,84,7262,2,0,L|227:146,1,70
306,173,7678,1,0,0:0:0:0:
320,263,7887,1,0,0:0:0:0:
386,201,8095,1,0,0:0:0:0:
293,220,8303,1,0,0:0:0:0:
202,228,8512,1,0,0:0:0:0:
133,168,8720,1,0,0:0:0:0:
133,168,8928,1,0,0:0:0:0:
133,168,9137,2,0,L|127:94,1,70
51,171,9762,6,0,L|116:217,1,70
37,268,10178,2,0,L|125:268,1,70
197,253,10595,1,0,0:0:0:0:
242,174,10803,1,0,0:0:0:0:
242,174,11012,2,0,L|291:235,1,70
288,319,11428,1,0,0:0:0:0:
375,343,11637,1,0,0:0:0:0:
451,293,11845,1,0,0:0:0:0:
451,202,12053,1,0,0:0:0:0:
451,202,12262,1,0,0:0:0:0:
451,202,12470,2,0,L|355:184,1,70
313,91,13095,5,0,0:0:0:0:
313,91,13303,2,0,L|291:163,1,70
250,239,13720,1,0,0:0:0:0:
183,301,13928,1,0,0:0:0:0:
183,301,14137,2,0,L|147:233,1,70
130,150,14553,1,0,0:0:0:0:
182,75,14762,1,0,0:0:0:0:
259,122,14970,1,0,0:0:0:0:
213,200,15178,1,0,0:0:0:0:
304,200,15387,1,0,0:0:0:0:
391,175,15595,1,0,0:0:0:0:
391,175,15803,2,0,L|313:204,1,70
