osu file format v14

[General]
AudioFilename: audio140.mp3
AudioLeadIn: 0
PreviewTime: 32775
Countdown: 0
SampleSet: None
StackLeniency: 0.7
Mode: 3
LetterboxInBreaks: 0
SpecialStyle: 0
WidescreenStoryboard: 0

[Editor]
DistanceSpacing: 0.8
BeatDivisor: 4
GridSize: 8
TimelineZoom: 1

[Metadata]
Title:Captain Jack (Grandale Remix)
TitleUnicode:Captain Jack (Grandale Remix)
Artist:Captain Jack
ArtistUnicode:Captain Jack
Creator:Cokiiplay
Version:Expert 1,4x
Source:DanceDanceRevolution 3rdMIX
Tags:
BeatmapID:2065481
BeatmapSetID:987353

[Difficulty]
HPDrainRate:8
CircleSize:4
OverallDifficulty:8
ApproachRate:5
SliderMultiplier:1.4
SliderTickRate:1

[Events]
//Background and Video events
//Break Periods
//Storyboard Layer 0 (Background)
//Storyboard Layer 1 (Fail)
//Storyboard Layer 2 (Pass)
//Storyboard Layer 3 (Foreground)
//Storyboard Sound Samples

[TimingPoints]
4580,252.100840336134,4,1,0,50,1,0

[HitObjects]
64,192,4580,5,0,0:0:0:0:
192,192,4580,1,0,0:0:0:0:
448,192,4580,1,0,0:0:0:0:
320,192,4706,1,0,0:0:0:0:
64,192,4832,1,0,0:0:0:0:
448,192,4832,1,0,0:0:0:0:
192,192,4958,1,0,0:0:0:0:
192,192,5084,1,0,0:0:0:0:
448,192,5210,1,0,0:0:0:0:
64,192,5336,1,0,0:0:0:0:
192,192,5336,1,0,0:0:0:0:
320,192,5399,1,0,0:0:0:0:
192,192,5462,1,0,0:0:0:0:
320,192,5525,1,0,0:0:0:0:
448,192,5588,1,0,0:0:0:0:
448,192,5714,1,0,0:0:0:0:
320,192,5840,1,0,0:0:0:0:
64,192,5840,1,0,0:0:0:0:
192,192,5966,1,0,0:0:0:0:
448,192,6029,1,0,0:0:0:0:
320,192,6092,1,0,0:0:0:0:
192,192,6155,1,0,0:0:0:0:
448,192,6218,1,0,0:0:0:0:
320,192,6281,1,0,0:0:0:0:
192,192,6344,1,0,0:0:0:0:
64,192,6344,1,0,0:0:0:0:
320,192,6470,1,0,0:0:0:0:
192,192,6533,1,0,0:0:0:0:
448,192,6596,1,0,0:0:0:0:
448,192,6722,1,0,0:0:0:0:
64,192,6848,1,0,0:0:0:0:
320,192,6848,1,0,0:0:0:0:
192,192,6974,1,0,0:0:0:0:
192,192,7101,1,0,0:0:0:0:
320,192,7227,1,0,0:0:0:0:
64,192,7353,1,0,0:0:0:0:
448,192,7353,1,0,0:0:0:0:
192,192,7416,1,0,0:0:0:0:
320,192,7479,1,0,0:0:0:0:
192,192,7542,1,0,0:0:0:0:
64,192,7605,1,0,0:0:0:0:
64,192,7731,1,0,0:0:0:0:
320,192,7857,1,0,0:0:0:0:
448,192,7857,1,0,0:0:0:0:
192,192,7983,1,0,0:0:0:0:
320,192,8046,1,0,0:0:0:0:
448,192,8109,1,0,0:0:0:0:
320,192,8172,1,0,0:0:0:0:
192,192,8235,1,0,0:0:0:0:
64,192,8235,1,0,0:0:0:0:
320,192,8298,1,0,0:0:0:0:
448,192,8298,1,0,0:0:0:0:
192,192,8361,1,0,0:0:0:0:
448,192,8424,1,0,0:0:0:0:
320,192,8487,1,0,0:0:0:0:
64,192,8487,1,0,0:0:0:0:
192,192,8550,1,0,0:0:0:0:
320,192,8613,1,0,0:0:0:0:
64,192,8613,1,0,0:0:0:0:
448,192,8613,1,0,0:0:0:0:
192,192,8739,1,0,0:0:0:0:
320,192,8865,1,0,0:0:0:0:
448,192,8865,1,0,0:0:0:0:
64,192,8991,1,0,0:0:0:0:
64,192,9117,1,0,0:0:0:0:
448,192,9243,1,0,0:0:0:0:
64,192,9369,1,0,0:0:0:0:
320,192,9369,1,0,0:0:0:0:
192,192,9432,1,0,0:0:0:0:
448,192,9495,1,0,0:0:0:0:
320,192,9558,1,0,0:0:0:0:
192,192,9622,1,0,0:0:0:0:
192,192,9748,1,0,0:0:0:0:
64,192,9874,1,0,0:0:0:0:
448,192,9874,1,0,0:0:0:0:
192,192,10000,1,0,0:0:0:0:
64,192,10063,1,0,0:0:0:0:
448,192,10126,1,0,0:0:0:0:
320,192,10189,1,0,0:0:0:0:
192,192,10252,1,0,0:0:0:0:
448,192,10315,1,0,0:0:0:0:
320,192,10378,1,0,0:0:0:0:
64,192,10378,1,0,0:0:0:0:
192,192,10504,1,0,0:0:0:0:
320,192,10567,1,0,0:0:0:0:
448,192,10630,1,0,0:0:0:0:
448,192,10756,1,0,0:0:0:0:
64,192,10882,1,0,0:0:0:0:
320,192,10882,1,0,0:0:0:0:
192,192,11008,1,0,0:0:0:0:
192,192,11134,1,0,0:0:0:0:
448,192,11260,1,0,0:0:0:0:
320,192,11386,1,0,0:0:0:0:
192,192,11386,1,0,0:0:0:0:
448,192,11449,1,0,0:0:0:0:
64,192,11512,1,0,0:0:0:0:
192,192,11575,1,0,0:0:0:0:
320,192,11638,1,0,0:0:0:0:
448,192,11638,1,0,0:0:0:0:
64,192,11701,1,0,0:0:0:0:
320,192,11764,1,0,0:0:0:0:
64,192,11827,1,0,0:0:0:0:
192,192,11890,1,0,0:0:0:0:
448,192,11953,1,0,0:0:0:0:
192,192,12016,1,0,0:0:0:0:
448,192,12079,1,0,0:0:0:0:
320,192,12143,1,0,0:0:0:0:
64,192,12143,1,0,0:0:0:0:
192,192,12206,1,0,0:0:0:0:
320,192,12269,1,0,0:0:0:0:
192,192,12332,1,0,0:0:0:0:
448,192,12395,1,0,0:0:0:0:
64,192,12458,1,0,0:0:0:0:
448,192,12521,1,0,0:0:0:0:
64,192,12584,1,0,0:0:0:0:
192,192,12647,1,0,0:0:0:0:
320,192,12647,1,0,0:0:0:0:
64,192,12773,1,0,0:0:0:0:
192,192,12899,1,0,0:0:0:0:
448,192,12899,1,0,0:0:0:0:
320,192,12899,1,0,0:0:0:0:
64,192,13025,1,0,0:0:0:0:
192,192,13151,1,0,0:0:0:0:
448,192,13151,1,0,0:0:0:0:
320,192,13277,1,0,0:0:0:0:
192,192,13403,1,0,0:0:0:0:
64,192,13403,1,0,0:0:0:0:
448,192,13403,1,0,0:0:0:0:
320,192,13466,1,0,0:0:0:0:
64,192,13529,1,0,0:0:0:0:
192,192,13592,1,0,0:0:0:0:
320,192,13655,1,0,0:0:0:0:
448,192,13655,1,0,0:0:0:0:
192,192,13781,1,0,0:0:0:0:
320,192,13907,1,0,0:0:0:0:
64,192,13907,1,0,0:0:0:0:
448,192,13907,1,0,0:0:0:0:
192,192,14033,1,0,0:0:0:0:
320,192,14096,1,0,0:0:0:0:
64,192,14159,1,0,0:0:0:0:
448,192,14159,1,0,0:0:0:0:
320,192,14222,1,0,0:0:0:0:
192,192,14285,1,0,0:0:0:0:
320,192,14348,1,0,0:0:0:0:
192,192,14411,1,0,0:0:0:0:
64,192,14411,1,0,0:0:0:0:
448,192,14411,1,0,0:0:0:0:
320,192,14537,1,0,0:0:0:0:
192,192,14601,1,0,0:0:0:0:
448,192,14664,1,0,0:0:0:0:
320,192,14664,1,0,0:0:0:0:
64,192,14790,1,0,0:0:0:0:
192,192,14916,1,0,0:0:0:0:
448,192,14916,1,0,0:0:0:0:
320,192,14916,1,0,0:0:0:0:
64,192,15042,1,0,0:0:0:0:
192,192,15168,1,0,0:0:0:0:
320,192,15168,1,0,0:0:0:0:
448,192,15294,1,0,0:0:0:0:
64,192,15420,1,0,0:0:0:0:
192,192,15420,1,0,0:0:0:0:
320,192,15420,1,0,0:0:0:0:
448,192,15483,1,0,0:0:0:0:
192,192,15546,1,0,0:0:0:0:
448,192,15609,1,0,0:0:0:0:
320,192,15672,1,0,0:0:0:0:
64,192,15672,1,0,0:0:0:0:
192,192,15798,1,0,0:0:0:0:
320,192,15924,1,0,0:0:0:0:
448,192,15924,1,0,0:0:0:0:
64,192,15924,1,0,0:0:0:0:
192,192,16050,1,0,0:0:0:0:
320,192,16113,1,0,0:0:0:0:
192,192,16176,1,0,0:0:0:0:
64,192,16176,1,0,0:0:0:0:
320,192,16239,1,0,0:0:0:0:
448,192,16302,1,0,0:0:0:0:
64,192,16302,1,0,0:0:0:0:
192,192,16365,1,0,0:0:0:0:
320,192,16365,1,0,0:0:0:0:
448,192,16428,1,0,0:0:0:0:
64,192,16428,1,0,0:0:0:0:
192,192,16491,1,0,0:0:0:0:
320,192,16554,1,0,0:0:0:0:
448,192,16554,1,0,0:0:0:0:
192,192,16617,1,0,0:0:0:0:
64,192,16617,1,0,0:0:0:0:
320,192,16680,1,0,0:0:0:0:
448,192,16680,1,0,0:0:0:0:
192,192,16806,1,0,0:0:0:0:
64,192,16932,1,0,0:0:0:0:
320,192,16932,1,0,0:0:0:0:
448,192,16932,1,0,0:0:0:0:
320,192,17058,1,0,0:0:0:0:
192,192,17185,1,0,0:0:0:0:
64,192,17185,1,0,0:0:0:0:
320,192,17311,1,0,0:0:0:0:
64,192,17437,1,0,0:0:0:0:
192,192,17437,1,0,0:0:0:0:
448,192,17437,1,0,0:0:0:0:
320,192,17500,1,0,0:0:0:0:
192,192,17563,1,0,0:0:0:0:
320,192,17626,1,0,0:0:0:0:
448,192,17689,1,0,0:0:0:0:
64,192,17689,1,0,0:0:0:0:
192,192,17815,1,0,0:0:0:0:
320,192,17941,1,0,0:0:0:0:
448,192,17941,1,0,0:0:0:0:
64,192,17941,1,0,0:0:0:0:
192,192,18067,1,0,0:0:0:0:
448,192,18130,1,0,0:0:0:0:
320,192,18193,1,0,0:0:0:0:
64,192,18193,1,0,0:0:0:0:
192,192,18256,1,0,0:0:0:0:
448,192,18319,1,0,0:0:0:0:
320,192,18382,1,0,0:0:0:0:
192,192,18445,1,0,0:0:0:0:
64,192,18445,1,0,0:0:0:0:
448,192,18445,1,0,0:0:0:0:
320,192,18508,1,0,0:0:0:0:
64,192,18571,1,0,0:0:0:0:
192,192,18634,1,0,0:0:0:0:
320,192,18697,1,0,0:0:0:0:
448,192,18697,1,0,0:0:0:0:
192,192,18823,1,0,0:0:0:0:
64,192,18949,1,0,0:0:0:0:
320,192,18949,1,0,0:0:0:0:
448,192,18949,1,0,0:0:0:0:
192,192,19075,1,0,0:0:0:0:
64,192,19201,1,0,0:0:0:0:
448,192,19201,1,0,0:0:0:0:
320,192,19327,1,0,0:0:0:0:
192,192,19453,1,0,0:0:0:0:
64,192,19453,1,0,0:0:0:0:
448,192,19453,1,0,0:0:0:0:
320,192,19516,1,0,0:0:0:0:
192,192,19579,1,0,0:0:0:0:
448,192,19643,1,0,0:0:0:0:
320,192,19706,1,0,0:0:0:0:
192,192,19769,1,0,0:0:0:0:
64,192,19769,1,0,0:0:0:0:
320,192,19832,1,0,0:0:0:0:
448,192,19832,1,0,0:0:0:0:
192,192,19895,1,0,0:0:0:0:
64,192,19895,1,0,0:0:0:0:
448,192,19958,1,0,0:0:0:0:
320,192,20021,1,0,0:0:0:0:
192,192,20021,1,0,0:0:0:0:
64,192,20084,1,0,0:0:0:0:
448,192,20084,1,0,0:0:0:0:
320,192,20147,1,0,0:0:0:0:
192,192,20147,1,0,0:0:0:0:
64,192,20210,1,0,0:0:0:0:
448,192,20273,1,0,0:0:0:0:
320,192,20273,1,0,0:0:0:0:
192,192,20336,1,0,0:0:0:0:
64,192,20336,1,0,0:0:0:0:
448,192,20399,1,0,0:0:0:0:
320,192,20399,1,0,0:0:0:0:
192,192,20462,1,0,0:0:0:0:
64,192,20525,1,0,0:0:0:0:
448,192,20525,1,0,0:0:0:0:
320,192,20588,1,0,0:0:0:0:
192,192,20588,1,0,0:0:0:0:
64,192,20651,1,0,0:0:0:0:
448,192,20651,1,0,0:0:0:0:
320,192,20714,128,0,22731:0:0:0:0:
64,192,22731,1,0,0:0:0:0:
192,192,22857,1,0,0:0:0:0:
448,192,22983,1,0,0:0:0:0:
192,192,23109,1,0,0:0:0:0:
320,192,23235,1,0,0:0:0:0:
192,192,23298,1,0,0:0:0:0:
320,192,23424,1,0,0:0:0:0:
192,192,23487,1,0,0:0:0:0:
320,192,23613,1,0,0:0:0:0:
64,192,23739,1,0,0:0:0:0:
192,192,23865,1,0,0:0:0:0:
448,192,23991,1,0,0:0:0:0:
192,192,24117,1,0,0:0:0:0:
64,192,24243,1,0,0:0:0:0:
64,192,24622,1,0,0:0:0:0:
448,192,24622,1,0,0:0:0:0:
320,192,24685,1,0,0:0:0:0:
192,192,24685,1,0,0:0:0:0:
64,192,24748,1,0,0:0:0:0:
448,192,24748,1,0,0:0:0:0:
320,192,24874,1,0,0:0:0:0:
192,192,25000,1,0,0:0:0:0:
64,192,25000,1,0,0:0:0:0:
448,192,25000,1,0,0:0:0:0:
320,192,25063,1,0,0:0:0:0:
64,192,25126,1,0,0:0:0:0:
192,192,25252,1,0,0:0:0:0:
320,192,25252,1,0,0:0:0:0:
64,192,25378,1,0,0:0:0:0:
320,192,25441,1,0,0:0:0:0:
192,192,25504,1,0,0:0:0:0:
64,192,25504,1,0,0:0:0:0:
448,192,25504,1,0,0:0:0:0:
320,192,25567,1,0,0:0:0:0:
192,192,25630,1,0,0:0:0:0:
448,192,25756,1,0,0:0:0:0:
64,192,25756,1,0,0:0:0:0:
192,192,25882,1,0,0:0:0:0:
64,192,26008,1,0,0:0:0:0:
320,192,26008,1,0,0:0:0:0:
448,192,26008,1,0,0:0:0:0:
192,192,26071,1,0,0:0:0:0:
448,192,26134,1,0,0:0:0:0:
64,192,26197,1,0,0:0:0:0:
192,192,26260,1,0,0:0:0:0:
320,192,26260,1,0,0:0:0:0:
448,192,26323,1,0,0:0:0:0:
320,192,26386,1,0,0:0:0:0:
192,192,26449,1,0,0:0:0:0:
64,192,26512,1,0,0:0:0:0:
320,192,26512,1,0,0:0:0:0:
448,192,26512,1,0,0:0:0:0:
192,192,26638,1,0,0:0:0:0:
448,192,26764,1,0,0:0:0:0:
64,192,26764,1,0,0:0:0:0:
320,192,26890,1,0,0:0:0:0:
192,192,27016,1,0,0:0:0:0:
64,192,27016,1,0,0:0:0:0:
448,192,27016,1,0,0:0:0:0:
320,192,27079,1,0,0:0:0:0:
192,192,27143,1,0,0:0:0:0:
320,192,27269,1,0,0:0:0:0:
448,192,27269,1,0,0:0:0:0:
64,192,27395,1,0,0:0:0:0:
320,192,27458,1,0,0:0:0:0:
192,192,27521,1,0,0:0:0:0:
448,192,27521,1,0,0:0:0:0:
64,192,27521,1,0,0:0:0:0:
320,192,27584,1,0,0:0:0:0:
192,192,27647,1,0,0:0:0:0:
448,192,27710,1,0,0:0:0:0:
320,192,27773,1,0,0:0:0:0:
64,192,27773,1,0,0:0:0:0:
192,192,27899,1,0,0:0:0:0:
320,192,28025,1,0,0:0:0:0:
448,192,28025,1,0,0:0:0:0:
64,192,28025,1,0,0:0:0:0:
192,192,28088,1,0,0:0:0:0:
448,192,28151,1,0,0:0:0:0:
320,192,28214,1,0,0:0:0:0:
192,192,28277,1,0,0:0:0:0:
64,192,28277,1,0,0:0:0:0:
448,192,28340,1,0,0:0:0:0:
64,192,28403,1,0,0:0:0:0:
320,192,28403,1,0,0:0:0:0:
192,192,28466,1,0,0:0:0:0:
320,192,28529,1,0,0:0:0:0:
448,192,28529,1,0,0:0:0:0:
192,192,28655,1,0,0:0:0:0:
448,192,28718,1,0,0:0:0:0:
320,192,28781,1,0,0:0:0:0:
64,192,28781,1,0,0:0:0:0:
448,192,28907,1,0,0:0:0:0:
192,192,29033,1,0,0:0:0:0:
64,192,29033,1,0,0:0:0:0:
320,192,29033,1,0,0:0:0:0:
448,192,29096,1,0,0:0:0:0:
64,192,29159,1,0,0:0:0:0:
448,192,29285,1,0,0:0:0:0:
192,192,29285,1,0,0:0:0:0:
64,192,29411,1,0,0:0:0:0:
448,192,29474,1,0,0:0:0:0:
320,192,29537,1,0,0:0:0:0:
192,192,29537,1,0,0:0:0:0:
64,192,29537,1,0,0:0:0:0:
448,192,29601,1,0,0:0:0:0:
320,192,29664,1,0,0:0:0:0:
64,192,29790,1,0,0:0:0:0:
448,192,29790,1,0,0:0:0:0:
192,192,29916,1,0,0:0:0:0:
320,192,30042,1,0,0:0:0:0:
448,192,30042,1,0,0:0:0:0:
64,192,30042,1,0,0:0:0:0:
192,192,30105,1,0,0:0:0:0:
448,192,30168,1,0,0:0:0:0:
320,192,30231,1,0,0:0:0:0:
192,192,30294,1,0,0:0:0:0:
64,192,30294,1,0,0:0:0:0:
320,192,30420,1,0,0:0:0:0:
192,192,30483,1,0,0:0:0:0:
64,192,30546,1,0,0:0:0:0:
320,192,30546,1,0,0:0:0:0:
448,192,30546,1,0,0:0:0:0:
192,192,30672,1,0,0:0:0:0:
320,192,30735,1,0,0:0:0:0:
64,192,30798,1,0,0:0:0:0:
448,192,30798,1,0,0:0:0:0:
320,192,30924,1,0,0:0:0:0:
192,192,31050,1,0,0:0:0:0:
64,192,31050,1,0,0:0:0:0:
448,192,31050,1,0,0:0:0:0:
320,192,31113,1,0,0:0:0:0:
64,192,31176,1,0,0:0:0:0:
192,192,31302,1,0,0:0:0:0:
320,192,31302,1,0,0:0:0:0:
64,192,31428,1,0,0:0:0:0:
320,192,31491,1,0,0:0:0:0:
192,192,31554,1,0,0:0:0:0:
64,192,31554,1,0,0:0:0:0:
448,192,31554,1,0,0:0:0:0:
320,192,31680,1,0,0:0:0:0:
192,192,31743,1,0,0:0:0:0:
448,192,31806,1,0,0:0:0:0:
64,192,31806,1,0,0:0:0:0:
320,192,31869,1,0,0:0:0:0:
192,192,31932,1,0,0:0:0:0:
320,192,31995,1,0,0:0:0:0:
448,192,32058,1,0,0:0:0:0:
64,192,32058,1,0,0:0:0:0:
192,192,32122,1,0,0:0:0:0:
320,192,32185,1,0,0:0:0:0:
192,192,32248,1,0,0:0:0:0:
64,192,32311,1,0,0:0:0:0:
448,192,32311,1,0,0:0:0:0:
320,192,32374,1,0,0:0:0:0:
192,192,32437,1,0,0:0:0:0:
64,192,32500,1,0,0:0:0:0:
320,192,32563,1,0,0:0:0:0:
448,192,32563,1,0,0:0:0:0:
64,192,32626,1,0,0:0:0:0:
192,192,32689,1,0,0:0:0:0:
448,192,32752,1,0,0:0:0:0:
64,192,32815,1,0,0:0:0:0:
320,192,32815,1,0,0:0:0:0:
192,192,32815,1,0,0:0:0:0:
448,192,32941,1,0,0:0:0:0:
64,192,33067,1,0,0:0:0:0:
192,192,33067,1,0,0:0:0:0:
320,192,33067,1,0,0:0:0:0:
192,192,33193,1,0,0:0:0:0:
64,192,33319,1,0,0:0:0:0:
448,192,33319,1,0,0:0:0:0:
320,192,33445,1,0,0:0:0:0:
192,192,33571,1,0,0:0:0:0:
64,192,33571,1,0,0:0:0:0:
448,192,33571,1,0,0:0:0:0:
320,192,33634,1,0,0:0:0:0:
192,192,33697,1,0,0:0:0:0:
448,192,33760,1,0,0:0:0:0:
320,192,33823,1,0,0:0:0:0:
64,192,33823,1,0,0:0:0:0:
192,192,33949,1,0,0:0:0:0:
320,192,34075,1,0,0:0:0:0:
448,192,34075,1,0,0:0:0:0:
64,192,34075,1,0,0:0:0:0:
320,192,34201,1,0,0:0:0:0:
192,192,34264,1,0,0:0:0:0:
64,192,34327,1,0,0:0:0:0:
448,192,34327,1,0,0:0:0:0:
320,192,34390,1,0,0:0:0:0:
192,192,34453,1,0,0:0:0:0:
320,192,34579,1,0,0:0:0:0:
448,192,34579,1,0,0:0:0:0:
64,192,34579,1,0,0:0:0:0:
192,192,34706,1,0,0:0:0:0:
320,192,34769,1,0,0:0:0:0:
192,192,34832,1,0,0:0:0:0:
64,192,34832,1,0,0:0:0:0:
448,192,34958,1,0,0:0:0:0:
320,192,35084,1,0,0:0:0:0:
192,192,35084,1,0,0:0:0:0:
64,192,35084,1,0,0:0:0:0:
64,192,35210,1,0,0:0:0:0:
192,192,35336,1,0,0:0:0:0:
448,192,35336,1,0,0:0:0:0:
320,192,35462,1,0,0:0:0:0:
192,192,35588,1,0,0:0:0:0:
64,192,35588,1,0,0:0:0:0:
448,192,35588,1,0,0:0:0:0:
320,192,35651,1,0,0:0:0:0:
192,192,35714,1,0,0:0:0:0:
448,192,35840,1,0,0:0:0:0:
64,192,35840,1,0,0:0:0:0:
192,192,35966,1,0,0:0:0:0:
320,192,36092,1,0,0:0:0:0:
448,192,36092,1,0,0:0:0:0:
64,192,36092,1,0,0:0:0:0:
192,192,36218,1,0,0:0:0:0:
320,192,36281,1,0,0:0:0:0:
64,192,36344,1,0,0:0:0:0:
448,192,36344,1,0,0:0:0:0:
192,192,36407,1,0,0:0:0:0:
320,192,36470,1,0,0:0:0:0:
448,192,36470,1,0,0:0:0:0:
192,192,36533,1,0,0:0:0:0:
64,192,36533,1,0,0:0:0:0:
320,192,36596,1,0,0:0:0:0:
448,192,36596,1,0,0:0:0:0:
192,192,36722,1,0,0:0:0:0:
64,192,36722,1,0,0:0:0:0:
320,192,36785,1,0,0:0:0:0:
448,192,36785,1,0,0:0:0:0:
192,192,36848,1,0,0:0:0:0:
64,192,36848,1,0,0:0:0:0:
320,192,36974,1,0,0:0:0:0:
192,192,37101,1,0,0:0:0:0:
64,192,37101,1,0,0:0:0:0:
448,192,37101,1,0,0:0:0:0:
320,192,37227,1,0,0:0:0:0:
64,192,37353,1,0,0:0:0:0:
448,192,37353,1,0,0:0:0:0:
192,192,37479,1,0,0:0:0:0:
320,192,37542,1,0,0:0:0:0:
192,192,37605,1,0,0:0:0:0:
64,192,37605,1,0,0:0:0:0:
448,192,37605,1,0,0:0:0:0:
320,192,37668,1,0,0:0:0:0:
64,192,37731,1,0,0:0:0:0:
192,192,37794,1,0,0:0:0:0:
320,192,37857,1,0,0:0:0:0:
448,192,37857,1,0,0:0:0:0:
192,192,37983,1,0,0:0:0:0:
64,192,38109,1,0,0:0:0:0:
320,192,38109,1,0,0:0:0:0:
448,192,38109,1,0,0:0:0:0:
192,192,38235,1,0,0:0:0:0:
320,192,38298,1,0,0:0:0:0:
448,192,38361,1,0,0:0:0:0:
64,192,38361,1,0,0:0:0:0:
192,192,38424,1,0,0:0:0:0:
448,192,38487,1,0,0:0:0:0:
320,192,38613,1,0,0:0:0:0:
192,192,38613,1,0,0:0:0:0:
64,192,38613,1,0,0:0:0:0:
448,192,38739,1,0,0:0:0:0:
320,192,38802,1,0,0:0:0:0:
192,192,38865,1,0,0:0:0:0:
64,192,38865,1,0,0:0:0:0:
320,192,38991,1,0,0:0:0:0:
192,192,39117,1,0,0:0:0:0:
64,192,39117,1,0,0:0:0:0:
448,192,39117,1,0,0:0:0:0:
64,192,39243,1,0,0:0:0:0:
192,192,39369,1,0,0:0:0:0:
448,192,39369,1,0,0:0:0:0:
320,192,39495,1,0,0:0:0:0:
192,192,39622,1,0,0:0:0:0:
64,192,39622,1,0,0:0:0:0:
448,192,39622,1,0,0:0:0:0:
320,192,39685,1,0,0:0:0:0:
192,192,39748,1,0,0:0:0:0:
320,192,39874,1,0,0:0:0:0:
448,192,39874,1,0,0:0:0:0:
64,192,39937,1,0,0:0:0:0:
192,192,40000,1,0,0:0:0:0:
320,192,40063,1,0,0:0:0:0:
192,192,40126,1,0,0:0:0:0:
64,192,40126,1,0,0:0:0:0:
448,192,40126,1,0,0:0:0:0:
320,192,40252,1,0,0:0:0:0:
64,192,40315,1,0,0:0:0:0:
320,192,40378,1,0,0:0:0:0:
448,192,40378,1,0,0:0:0:0:
192,192,40378,1,0,0:0:0:0:
64,192,40441,1,0,0:0:0:0:
192,192,40504,1,0,0:0:0:0:
320,192,40567,1,0,0:0:0:0:
64,192,40630,1,0,0:0:0:0:
448,192,40630,1,0,0:0:0:0:
192,192,40693,1,0,0:0:0:0:
320,192,40756,1,0,0:0:0:0:
192,192,40819,1,0,0:0:0:0:
320,192,40882,1,0,0:0:0:0:
448,192,40882,1,0,0:0:0:0:
64,192,40882,1,0,0:0:0:0:
192,192,41008,1,0,0:0:0:0:
448,192,41134,1,0,0:0:0:0:
320,192,41134,1,0,0:0:0:0:
64,192,41134,1,0,0:0:0:0:
320,192,41260,1,0,0:0:0:0:
192,192,41386,1,0,0:0:0:0:
64,192,41386,1,0,0:0:0:0:
320,192,41512,1,0,0:0:0:0:
192,192,41638,1,0,0:0:0:0:
64,192,41638,1,0,0:0:0:0:
448,192,41638,1,0,0:0:0:0:
320,192,41701,1,0,0:0:0:0:
192,192,41764,1,0,0:0:0:0:
448,192,41827,1,0,0:0:0:0:
64,192,41890,1,0,0:0:0:0:
320,192,41890,1,0,0:0:0:0:
192,192,42016,1,0,0:0:0:0:
320,192,42143,1,0,0:0:0:0:
448,192,42143,1,0,0:0:0:0:
64,192,42143,1,0,0:0:0:0:
192,192,42269,1,0,0:0:0:0:
320,192,42332,1,0,0:0:0:0:
192,192,42395,1,0,0:0:0:0:
64,192,42395,1,0,0:0:0:0:
448,192,42458,1,0,0:0:0:0:
320,192,42521,1,0,0:0:0:0:
64,192,42584,1,0,0:0:0:0:
192,192,42647,1,0,0:0:0:0:
320,192,42647,1,0,0:0:0:0:
448,192,42647,1,0,0:0:0:0:
64,192,42773,1,0,0:0:0:0:
448,192,42836,1,0,0:0:0:0:
320,192,42899,1,0,0:0:0:0:
192,192,42899,1,0,0:0:0:0:
64,192,43025,1,0,0:0:0:0:
192,192,43151,1,0,0:0:0:0:
320,192,43151,1,0,0:0:0:0:
448,192,43151,1,0,0:0:0:0:
64,192,43277,1,0,0:0:0:0:
192,192,43403,1,0,0:0:0:0:
448,192,43403,1,0,0:0:0:0:
320,192,43529,1,0,0:0:0:0:
192,192,43655,1,0,0:0:0:0:
64,192,43655,1,0,0:0:0:0:
448,192,43655,1,0,0:0:0:0:
320,192,43718,1,0,0:0:0:0:
192,192,43781,1,0,0:0:0:0:
448,192,43907,1,0,0:0:0:0:
64,192,43907,1,0,0:0:0:0:
192,192,44033,1,0,0:0:0:0:
320,192,44159,1,0,0:0:0:0:
448,192,44159,1,0,0:0:0:0:
64,192,44159,1,0,0:0:0:0:
192,192,44285,1,0,0:0:0:0:
320,192,44348,1,0,0:0:0:0:
192,192,44411,1,0,0:0:0:0:
64,192,44411,1,0,0:0:0:0:
448,192,44474,1,0,0:0:0:0:
320,192,44537,1,0,0:0:0:0:
64,192,44537,1,0,0:0:0:0:
192,192,44601,1,0,0:0:0:0:
320,192,44664,1,0,0:0:0:0:
448,192,44664,1,0,0:0:0:0:
64,192,44664,1,0,0:0:0:0:
192,192,44790,1,0,0:0:0:0:
448,192,44853,1,0,0:0:0:0:
320,192,44916,1,0,0:0:0:0:
192,192,44916,1,0,0:0:0:0:
64,192,45042,1,0,0:0:0:0:
192,192,45168,1,0,0:0:0:0:
448,192,45168,1,0,0:0:0:0:
320,192,45168,1,0,0:0:0:0:
320,192,45294,1,0,0:0:0:0:
192,192,45420,1,0,0:0:0:0:
64,192,45420,1,0,0:0:0:0:
320,192,45546,1,0,0:0:0:0:
64,192,45672,1,0,0:0:0:0:
192,192,45672,1,0,0:0:0:0:
448,192,45672,1,0,0:0:0:0:
320,192,45735,1,0,0:0:0:0:
192,192,45798,1,0,0:0:0:0:
448,192,45861,1,0,0:0:0:0:
320,192,45924,1,0,0:0:0:0:
64,192,45924,1,0,0:0:0:0:
192,192,46050,1,0,0:0:0:0:
320,192,46176,1,0,0:0:0:0:
448,192,46176,1,0,0:0:0:0:
64,192,46176,1,0,0:0:0:0:
192,192,46302,1,0,0:0:0:0:
320,192,46365,1,0,0:0:0:0:
192,192,46428,1,0,0:0:0:0:
64,192,46428,1,0,0:0:0:0:
448,192,46491,1,0,0:0:0:0:
320,192,46554,1,0,0:0:0:0:
192,192,46680,1,0,0:0:0:0:
64,192,46680,1,0,0:0:0:0:
448,192,46680,1,0,0:0:0:0:
320,192,46806,1,0,0:0:0:0:
192,192,46869,1,0,0:0:0:0:
448,192,46932,1,0,0:0:0:0:
64,192,46932,1,0,0:0:0:0:
192,192,47058,1,0,0:0:0:0:
320,192,47185,1,0,0:0:0:0:
448,192,47185,1,0,0:0:0:0:
64,192,47185,1,0,0:0:0:0:
320,192,47311,1,0,0:0:0:0:
192,192,47437,1,0,0:0:0:0:
64,192,47437,1,0,0:0:0:0:
448,192,47563,1,0,0:0:0:0:
320,192,47689,1,0,0:0:0:0:
192,192,47689,1,0,0:0:0:0:
64,192,47689,1,0,0:0:0:0:
448,192,47752,1,0,0:0:0:0:
64,192,47815,1,0,0:0:0:0:
192,192,47941,1,0,0:0:0:0:
448,192,47941,1,0,0:0:0:0:
320,192,48004,1,0,0:0:0:0:
64,192,48067,1,0,0:0:0:0:
448,192,48130,1,0,0:0:0:0:
320,192,48193,1,0,0:0:0:0:
192,192,48193,1,0,0:0:0:0:
64,192,48193,1,0,0:0:0:0:
448,192,48256,1,0,0:0:0:0:
192,192,48319,1,0,0:0:0:0:
320,192,48382,1,0,0:0:0:0:
448,192,48445,1,0,0:0:0:0:
64,192,48445,1,0,0:0:0:0:
192,192,48508,1,0,0:0:0:0:
320,192,48571,1,0,0:0:0:0:
448,192,48571,1,0,0:0:0:0:
192,192,48634,1,0,0:0:0:0:
64,192,48634,1,0,0:0:0:0:
320,192,48697,1,0,0:0:0:0:
448,192,48697,1,0,0:0:0:0:
64,192,48760,1,0,0:0:0:0:
192,192,48823,1,0,0:0:0:0:
320,192,48823,1,0,0:0:0:0:
448,192,48886,1,0,0:0:0:0:
192,192,48949,128,0,49958:0:0:0:0:
64,192,48949,1,0,0:0:0:0:
448,192,49832,1,0,0:0:0:0:
64,192,49895,1,0,0:0:0:0:
448,192,49958,1,0,0:0:0:0:
320,192,49958,1,0,0:0:0:0:
320,192,50084,1,0,0:0:0:0:
64,192,50210,1,0,0:0:0:0:
192,192,50210,1,0,0:0:0:0:
448,192,50210,1,0,0:0:0:0:
320,192,50336,1,0,0:0:0:0:
192,192,50399,1,0,0:0:0:0:
64,192,50462,1,0,0:0:0:0:
448,192,50462,1,0,0:0:0:0:
320,192,50525,1,0,0:0:0:0:
192,192,50588,1,0,0:0:0:0:
64,192,50714,1,0,0:0:0:0:
320,192,50714,1,0,0:0:0:0:
448,192,50714,1,0,0:0:0:0:
192,192,50840,1,0,0:0:0:0:
320,192,50903,1,0,0:0:0:0:
64,192,50966,1,0,0:0:0:0:
448,192,50966,1,0,0:0:0:0:
192,192,51092,1,0,0:0:0:0:
320,192,51218,1,0,0:0:0:0:
448,192,51218,1,0,0:0:0:0:
64,192,51218,1,0,0:0:0:0:
448,192,51344,1,0,0:0:0:0:
192,192,51470,1,0,0:0:0:0:
64,192,51470,1,0,0:0:0:0:
320,192,51596,1,0,0:0:0:0:
64,192,51722,1,0,0:0:0:0:
192,192,51722,1,0,0:0:0:0:
448,192,51722,1,0,0:0:0:0:
320,192,51785,1,0,0:0:0:0:
192,192,51848,1,0,0:0:0:0:
320,192,51974,1,0,0:0:0:0:
448,192,51974,1,0,0:0:0:0:
64,192,52101,1,0,0:0:0:0:
192,192,52227,1,0,0:0:0:0:
320,192,52227,1,0,0:0:0:0:
448,192,52227,1,0,0:0:0:0:
64,192,52353,1,0,0:0:0:0:
192,192,52416,1,0,0:0:0:0:
320,192,52479,1,0,0:0:0:0:
448,192,52479,1,0,0:0:0:0:
64,192,52542,1,0,0:0:0:0:
192,192,52605,1,0,0:0:0:0:
64,192,52731,1,0,0:0:0:0:
320,192,52731,1,0,0:0:0:0:
448,192,52731,1,0,0:0:0:0:
192,192,52857,1,0,0:0:0:0:
320,192,52920,1,0,0:0:0:0:
192,192,52983,1,0,0:0:0:0:
64,192,52983,1,0,0:0:0:0:
448,192,52983,1,0,0:0:0:0:
320,192,53109,1,0,0:0:0:0:
64,192,53235,1,0,0:0:0:0:
448,192,53235,1,0,0:0:0:0:
192,192,53235,1,0,0:0:0:0:
192,192,53361,1,0,0:0:0:0:
320,192,53487,1,0,0:0:0:0:
448,192,53487,1,0,0:0:0:0:
64,192,53613,1,0,0:0:0:0:
192,192,53739,1,0,0:0:0:0:
320,192,53739,1,0,0:0:0:0:
448,192,53739,1,0,0:0:0:0:
64,192,53802,1,0,0:0:0:0:
448,192,53865,1,0,0:0:0:0:
320,192,53928,1,0,0:0:0:0:
192,192,53991,1,0,0:0:0:0:
64,192,53991,1,0,0:0:0:0:
320,192,54117,1,0,0:0:0:0:
64,192,54243,1,0,0:0:0:0:
192,192,54243,1,0,0:0:0:0:
448,192,54243,1,0,0:0:0:0:
320,192,54369,1,0,0:0:0:0:
192,192,54432,1,0,0:0:0:0:
320,192,54495,1,0,0:0:0:0:
448,192,54495,1,0,0:0:0:0:
64,192,54558,1,0,0:0:0:0:
192,192,54622,1,0,0:0:0:0:
320,192,54748,1,0,0:0:0:0:
448,192,54748,1,0,0:0:0:0:
64,192,54748,1,0,0:0:0:0:
192,192,54874,1,0,0:0:0:0:
320,192,54937,1,0,0:0:0:0:
64,192,55000,1,0,0:0:0:0:
448,192,55000,1,0,0:0:0:0:
192,192,55126,1,0,0:0:0:0:
320,192,55252,1,0,0:0:0:0:
448,192,55252,1,0,0:0:0:0:
64,192,55252,1,0,0:0:0:0:
192,192,55378,1,0,0:0:0:0:
64,192,55504,1,0,0:0:0:0:
448,192,55504,1,0,0:0:0:0:
320,192,55630,1,0,0:0:0:0:
192,192,55756,1,0,0:0:0:0:
64,192,55756,1,0,0:0:0:0:
448,192,55756,1,0,0:0:0:0:
320,192,55819,1,0,0:0:0:0:
64,192,55882,1,0,0:0:0:0:
320,192,56008,1,0,0:0:0:0:
448,192,56008,1,0,0:0:0:0:
64,192,56071,1,0,0:0:0:0:
192,192,56134,1,0,0:0:0:0:
448,192,56197,1,0,0:0:0:0:
320,192,56260,1,0,0:0:0:0:
64,192,56260,1,0,0:0:0:0:
192,192,56323,1,0,0:0:0:0:
448,192,56386,1,0,0:0:0:0:
192,192,56449,1,0,0:0:0:0:
64,192,56449,1,0,0:0:0:0:
320,192,56512,1,0,0:0:0:0:
448,192,56512,1,0,0:0:0:0:
64,192,56575,1,0,0:0:0:0:
192,192,56638,1,0,0:0:0:0:
448,192,56701,1,0,0:0:0:0:
320,192,56764,1,0,0:0:0:0:
64,192,56764,1,0,0:0:0:0:
192,192,56827,1,0,0:0:0:0:
320,192,56890,1,0,0:0:0:0:
448,192,56890,1,0,0:0:0:0:
192,192,56953,1,0,0:0:0:0:
64,192,56953,1,0,0:0:0:0:
320,192,57016,1,0,0:0:0:0:
448,192,57016,1,0,0:0:0:0:
192,192,57143,1,0,0:0:0:0:
64,192,57269,1,0,0:0:0:0:
320,192,57269,1,0,0:0:0:0:
448,192,57269,1,0,0:0:0:0:
192,192,57395,1,0,0:0:0:0:
64,192,57521,1,0,0:0:0:0:
448,192,57521,1,0,0:0:0:0:
320,192,57647,1,0,0:0:0:0:
192,192,57773,1,0,0:0:0:0:
64,192,57773,1,0,0:0:0:0:
448,192,57773,1,0,0:0:0:0:
320,192,57836,1,0,0:0:0:0:
192,192,57899,1,0,0:0:0:0:
448,192,57962,1,0,0:0:0:0:
320,192,58025,1,0,0:0:0:0:
64,192,58025,1,0,0:0:0:0:
192,192,58151,1,0,0:0:0:0:
320,192,58277,1,0,0:0:0:0:
448,192,58277,1,0,0:0:0:0:
64,192,58277,1,0,0:0:0:0:
192,192,58403,1,0,0:0:0:0:
448,192,58466,1,0,0:0:0:0:
320,192,58529,1,0,0:0:0:0:
64,192,58529,1,0,0:0:0:0:
192,192,58592,1,0,0:0:0:0:
448,192,58655,1,0,0:0:0:0:
320,192,58781,1,0,0:0:0:0:
192,192,58781,1,0,0:0:0:0:
64,192,58781,1,0,0:0:0:0:
448,192,58907,1,0,0:0:0:0:
64,192,58970,1,0,0:0:0:0:
192,192,59033,1,0,0:0:0:0:
320,192,59033,1,0,0:0:0:0:
64,192,59159,1,0,0:0:0:0:
192,192,59285,1,0,0:0:0:0:
320,192,59285,1,0,0:0:0:0:
448,192,59285,1,0,0:0:0:0:
64,192,59411,1,0,0:0:0:0:
192,192,59537,1,0,0:0:0:0:
448,192,59537,1,0,0:0:0:0:
320,192,59664,1,0,0:0:0:0:
192,192,59790,1,0,0:0:0:0:
64,192,59790,1,0,0:0:0:0:
448,192,59790,1,0,0:0:0:0:
320,192,59853,1,0,0:0:0:0:
64,192,59916,1,0,0:0:0:0:
192,192,59979,1,0,0:0:0:0:
320,192,60042,1,0,0:0:0:0:
448,192,60042,1,0,0:0:0:0:
192,192,60168,1,0,0:0:0:0:
64,192,60294,1,0,0:0:0:0:
320,192,60294,1,0,0:0:0:0:
448,192,60294,1,0,0:0:0:0:
192,192,60420,1,0,0:0:0:0:
64,192,60546,1,0,0:0:0:0:
448,192,60546,1,0,0:0:0:0:
320,192,60609,1,0,0:0:0:0:
192,192,60672,1,0,0:0:0:0:
64,192,60672,1,0,0:0:0:0:
448,192,60672,1,0,0:0:0:0:
320,192,60735,1,0,0:0:0:0:
192,192,60798,1,0,0:0:0:0:
64,192,60798,1,0,0:0:0:0:
320,192,60924,1,0,0:0:0:0:
192,192,60987,1,0,0:0:0:0:
64,192,61050,1,0,0:0:0:0:
320,192,61050,1,0,0:0:0:0:
448,192,61050,1,0,0:0:0:0:
192,192,61176,1,0,0:0:0:0:
64,192,61302,1,0,0:0:0:0:
320,192,61302,1,0,0:0:0:0:
448,192,61302,1,0,0:0:0:0:
192,192,61428,1,0,0:0:0:0:
64,192,61554,1,0,0:0:0:0:
448,192,61554,1,0,0:0:0:0:
320,192,61680,1,0,0:0:0:0:
192,192,61806,1,0,0:0:0:0:
64,192,61806,1,0,0:0:0:0:
448,192,61806,1,0,0:0:0:0:
320,192,61869,1,0,0:0:0:0:
64,192,61932,1,0,0:0:0:0:
448,192,61995,1,0,0:0:0:0:
192,192,62058,1,0,0:0:0:0:
320,192,62058,1,0,0:0:0:0:
448,192,62185,1,0,0:0:0:0:
320,192,62311,1,0,0:0:0:0:
192,192,62311,1,0,0:0:0:0:
64,192,62311,1,0,0:0:0:0:
448,192,62437,1,0,0:0:0:0:
64,192,62500,1,0,0:0:0:0:
192,192,62563,1,0,0:0:0:0:
448,192,62563,1,0,0:0:0:0:
320,192,62626,1,0,0:0:0:0:
64,192,62689,1,0,0:0:0:0:
192,192,62815,1,0,0:0:0:0:
320,192,62815,1,0,0:0:0:0:
448,192,62815,1,0,0:0:0:0:
64,192,62941,1,0,0:0:0:0:
192,192,63004,1,0,0:0:0:0:
320,192,63067,1,0,0:0:0:0:
448,192,63067,1,0,0:0:0:0:
192,192,63193,1,0,0:0:0:0:
64,192,63319,1,0,0:0:0:0:
320,192,63319,1,0,0:0:0:0:
448,192,63319,1,0,0:0:0:0:
320,192,63445,1,0,0:0:0:0:
192,192,63571,1,0,0:0:0:0:
64,192,63571,1,0,0:0:0:0:
320,192,63697,1,0,0:0:0:0:
192,192,63823,1,0,0:0:0:0:
64,192,63823,1,0,0:0:0:0:
448,192,63823,1,0,0:0:0:0:
320,192,63886,1,0,0:0:0:0:
64,192,63949,1,0,0:0:0:0:
192,192,64075,1,0,0:0:0:0:
448,192,64075,1,0,0:0:0:0:
320,192,64138,1,0,0:0:0:0:
64,192,64201,1,0,0:0:0:0:
192,192,64264,1,0,0:0:0:0:
320,192,64327,1,0,0:0:0:0:
448,192,64327,1,0,0:0:0:0:
64,192,64327,1,0,0:0:0:0:
192,192,64390,1,0,0:0:0:0:
448,192,64453,1,0,0:0:0:0:
64,192,64516,1,0,0:0:0:0:
320,192,64579,1,0,0:0:0:0:
192,192,64579,1,0,0:0:0:0:
448,192,64643,1,0,0:0:0:0:
64,192,64706,1,0,0:0:0:0:
192,192,64769,1,0,0:0:0:0:
320,192,64832,1,0,0:0:0:0:
448,192,64832,1,0,0:0:0:0:
64,192,64832,1,0,0:0:0:0:
192,192,64895,1,0,0:0:0:0:
448,192,64958,1,0,0:0:0:0:
320,192,65021,1,0,0:0:0:0:
192,192,65084,1,0,0:0:0:0:
64,192,65084,1,0,0:0:0:0:
320,192,65210,1,0,0:0:0:0:
192,192,65336,1,0,0:0:0:0:
64,192,65336,1,0,0:0:0:0:
448,192,65336,1,0,0:0:0:0:
320,192,65462,1,0,0:0:0:0:
64,192,65588,1,0,0:0:0:0:
448,192,65588,1,0,0:0:0:0:
192,192,65714,1,0,0:0:0:0:
320,192,65840,1,0,0:0:0:0:
448,192,65840,1,0,0:0:0:0:
64,192,65840,1,0,0:0:0:0:
192,192,65903,1,0,0:0:0:0:
448,192,65966,1,0,0:0:0:0:
320,192,66092,1,0,0:0:0:0:
64,192,66092,1,0,0:0:0:0:
192,192,66218,1,0,0:0:0:0:
320,192,66344,1,0,0:0:0:0:
448,192,66344,1,0,0:0:0:0:
64,192,66344,1,0,0:0:0:0:
448,192,66470,1,0,0:0:0:0:
320,192,66533,1,0,0:0:0:0:
192,192,66596,1,0,0:0:0:0:
64,192,66596,1,0,0:0:0:0:
448,192,66659,1,0,0:0:0:0:
320,192,66722,1,0,0:0:0:0:
64,192,66848,1,0,0:0:0:0:
192,192,66848,1,0,0:0:0:0:
448,192,66848,1,0,0:0:0:0:
64,192,66974,1,0,0:0:0:0:
448,192,67037,1,0,0:0:0:0:
320,192,67101,1,0,0:0:0:0:
192,192,67101,1,0,0:0:0:0:
320,192,67227,1,0,0:0:0:0:
192,192,67353,1,0,0:0:0:0:
448,192,67353,1,0,0:0:0:0:
64,192,67353,1,0,0:0:0:0:
64,192,67479,1,0,0:0:0:0:
448,192,67605,1,0,0:0:0:0:
320,192,67605,1,0,0:0:0:0:
192,192,67731,1,0,0:0:0:0:
64,192,67857,1,0,0:0:0:0:
320,192,67857,1,0,0:0:0:0:
448,192,67857,1,0,0:0:0:0:
192,192,67920,1,0,0:0:0:0:
448,192,67983,1,0,0:0:0:0:
192,192,68109,1,0,0:0:0:0:
64,192,68109,1,0,0:0:0:0:
320,192,68235,1,0,0:0:0:0:
192,192,68361,1,0,0:0:0:0:
64,192,68361,1,0,0:0:0:0:
448,192,68361,1,0,0:0:0:0:
320,192,68487,1,0,0:0:0:0:
192,192,68550,1,0,0:0:0:0:
64,192,68613,1,0,0:0:0:0:
448,192,68613,1,0,0:0:0:0:
192,192,68676,1,0,0:0:0:0:
320,192,68739,1,0,0:0:0:0:
448,192,68739,1,0,0:0:0:0:
64,192,68739,1,0,0:0:0:0:
192,192,68802,1,0,0:0:0:0:
320,192,68865,1,0,0:0:0:0:
448,192,68865,1,0,0:0:0:0:
192,192,68991,1,0,0:0:0:0:
64,192,68991,1,0,0:0:0:0:
448,192,69054,1,0,0:0:0:0:
320,192,69117,1,0,0:0:0:0:
192,192,69117,1,0,0:0:0:0:
64,192,69117,1,0,0:0:0:0:
320,192,69243,1,0,0:0:0:0:
192,192,69369,1,0,0:0:0:0:
64,192,69369,1,0,0:0:0:0:
448,192,69369,1,0,0:0:0:0:
64,192,69495,1,0,0:0:0:0:
192,192,69622,1,0,0:0:0:0:
448,192,69622,1,0,0:0:0:0:
320,192,69685,1,0,0:0:0:0:
64,192,69748,1,0,0:0:0:0:
192,192,69874,1,0,0:0:0:0:
64,192,69874,1,0,0:0:0:0:
448,192,69874,1,0,0:0:0:0:
320,192,69937,1,0,0:0:0:0:
192,192,70000,1,0,0:0:0:0:
64,192,70126,1,0,0:0:0:0:
448,192,70126,1,0,0:0:0:0:
192,192,70252,1,0,0:0:0:0:
320,192,70378,1,0,0:0:0:0:
448,192,70378,1,0,0:0:0:0:
64,192,70378,1,0,0:0:0:0:
320,192,70504,1,0,0:0:0:0:
192,192,70567,1,0,0:0:0:0:
64,192,70630,1,0,0:0:0:0:
448,192,70630,1,0,0:0:0:0:
192,192,70693,1,0,0:0:0:0:
320,192,70756,1,0,0:0:0:0:
192,192,70882,1,0,0:0:0:0:
64,192,70882,1,0,0:0:0:0:
448,192,70882,1,0,0:0:0:0:
320,192,71008,1,0,0:0:0:0:
192,192,71071,1,0,0:0:0:0:
64,192,71134,1,0,0:0:0:0:
448,192,71134,1,0,0:0:0:0:
320,192,71260,1,0,0:0:0:0:
192,192,71386,1,0,0:0:0:0:
64,192,71386,1,0,0:0:0:0:
448,192,71386,1,0,0:0:0:0:
64,192,71512,1,0,0:0:0:0:
192,192,71638,1,0,0:0:0:0:
448,192,71638,1,0,0:0:0:0:
320,192,71764,1,0,0:0:0:0:
192,192,71890,1,0,0:0:0:0:
64,192,71890,1,0,0:0:0:0:
448,192,71890,1,0,0:0:0:0:
320,192,71953,1,0,0:0:0:0:
64,192,72016,1,0,0:0:0:0:
192,192,72143,1,0,0:0:0:0:
448,192,72143,1,0,0:0:0:0:
320,192,72206,1,0,0:0:0:0:
64,192,72269,1,0,0:0:0:0:
192,192,72332,1,0,0:0:0:0:
320,192,72395,1,0,0:0:0:0:
448,192,72395,1,0,0:0:0:0:
64,192,72395,1,0,0:0:0:0:
192,192,72458,1,0,0:0:0:0:
448,192,72521,1,0,0:0:0:0:
320,192,72584,1,0,0:0:0:0:
192,192,72647,1,0,0:0:0:0:
64,192,72647,1,0,0:0:0:0:
448,192,72710,1,0,0:0:0:0:
320,192,72710,1,0,0:0:0:0:
192,192,72773,1,0,0:0:0:0:
64,192,72773,1,0,0:0:0:0:
320,192,72836,1,0,0:0:0:0:
448,192,72836,1,0,0:0:0:0:
192,192,72899,1,0,0:0:0:0:
64,192,72899,1,0,0:0:0:0:
320,192,73025,1,0,0:0:0:0:
448,192,73088,1,0,0:0:0:0:
320,192,73151,1,0,0:0:0:0:
192,192,73151,1,0,0:0:0:0:
64,192,73151,1,0,0:0:0:0:
192,192,73277,1,0,0:0:0:0:
64,192,73403,1,0,0:0:0:0:
448,192,73403,1,0,0:0:0:0:
320,192,73403,1,0,0:0:0:0:
192,192,73466,1,0,0:0:0:0:
320,192,73529,1,0,0:0:0:0:
192,192,73655,1,0,0:0:0:0:
448,192,73655,1,0,0:0:0:0:
64,192,73781,1,0,0:0:0:0:
320,192,73844,1,0,0:0:0:0:
192,192,73907,1,0,0:0:0:0:
64,192,73907,1,0,0:0:0:0:
448,192,73907,1,0,0:0:0:0:
320,192,73970,1,0,0:0:0:0:
192,192,74033,1,0,0:0:0:0:
320,192,74159,1,0,0:0:0:0:
448,192,74159,1,0,0:0:0:0:
64,192,74285,1,0,0:0:0:0:
192,192,74411,1,0,0:0:0:0:
448,192,74411,1,0,0:0:0:0:
320,192,74411,1,0,0:0:0:0:
64,192,74474,1,0,0:0:0:0:
320,192,74537,1,0,0:0:0:0:
192,192,74601,1,0,0:0:0:0:
64,192,74664,1,0,0:0:0:0:
448,192,74664,1,0,0:0:0:0:
192,192,74727,1,0,0:0:0:0:
320,192,74790,1,0,0:0:0:0:
192,192,74916,1,0,0:0:0:0:
64,192,74916,1,0,0:0:0:0:
448,192,74916,1,0,0:0:0:0:
64,192,75042,1,0,0:0:0:0:
448,192,75105,1,0,0:0:0:0:
192,192,75168,1,0,0:0:0:0:
320,192,75168,1,0,0:0:0:0:
448,192,75294,1,0,0:0:0:0:
320,192,75420,1,0,0:0:0:0:
192,192,75420,1,0,0:0:0:0:
64,192,75420,1,0,0:0:0:0:
448,192,75483,1,0,0:0:0:0:
64,192,75546,1,0,0:0:0:0:
192,192,75672,1,0,0:0:0:0:
448,192,75672,1,0,0:0:0:0:
64,192,75798,1,0,0:0:0:0:
448,192,75861,1,0,0:0:0:0:
320,192,75924,1,0,0:0:0:0:
192,192,75924,1,0,0:0:0:0:
64,192,75924,1,0,0:0:0:0:
448,192,76050,1,0,0:0:0:0:
320,192,76113,1,0,0:0:0:0:
192,192,76176,1,0,0:0:0:0:
64,192,76176,1,0,0:0:0:0:
64,192,76302,1,0,0:0:0:0:
192,192,76428,1,0,0:0:0:0:
320,192,76428,1,0,0:0:0:0:
448,192,76428,1,0,0:0:0:0:
64,192,76491,1,0,0:0:0:0:
448,192,76554,1,0,0:0:0:0:
320,192,76617,1,0,0:0:0:0:
192,192,76680,1,0,0:0:0:0:
64,192,76680,1,0,0:0:0:0:
320,192,76743,1,0,0:0:0:0:
448,192,76806,1,0,0:0:0:0:
192,192,76806,1,0,0:0:0:0:
64,192,76806,1,0,0:0:0:0:
320,192,76869,1,0,0:0:0:0:
64,192,76932,1,0,0:0:0:0:
448,192,76932,1,0,0:0:0:0:
320,192,77058,1,0,0:0:0:0:
192,192,77058,1,0,0:0:0:0:
64,192,77122,1,0,0:0:0:0:
192,192,77185,1,0,0:0:0:0:
320,192,77185,1,0,0:0:0:0:
448,192,77185,1,0,0:0:0:0:
448,192,77311,1,0,0:0:0:0:
320,192,77437,1,0,0:0:0:0:
192,192,77437,1,0,0:0:0:0:
64,192,77437,1,0,0:0:0:0:
448,192,77500,1,0,0:0:0:0:
64,192,77563,1,0,0:0:0:0:
448,192,77689,1,0,0:0:0:0:
192,192,77689,1,0,0:0:0:0:
64,192,77815,1,0,0:0:0:0:
448,192,77878,1,0,0:0:0:0:
320,192,77941,1,0,0:0:0:0:
192,192,77941,1,0,0:0:0:0:
64,192,77941,1,0,0:0:0:0:
448,192,78067,1,0,0:0:0:0:
320,192,78193,1,0,0:0:0:0:
64,192,78193,1,0,0:0:0:0:
192,192,78319,1,0,0:0:0:0:
64,192,78445,1,0,0:0:0:0:
320,192,78445,1,0,0:0:0:0:
448,192,78445,1,0,0:0:0:0:
192,192,78508,1,0,0:0:0:0:
448,192,78571,1,0,0:0:0:0:
320,192,78634,1,0,0:0:0:0:
192,192,78697,1,0,0:0:0:0:
64,192,78697,1,0,0:0:0:0:
448,192,78760,1,0,0:0:0:0:
320,192,78823,1,0,0:0:0:0:
192,192,78886,1,0,0:0:0:0:
64,192,78949,1,0,0:0:0:0:
320,192,78949,1,0,0:0:0:0:
448,192,78949,1,0,0:0:0:0:
192,192,79075,1,0,0:0:0:0:
448,192,79201,1,0,0:0:0:0:
64,192,79201,1,0,0:0:0:0:
320,192,79327,1,0,0:0:0:0:
192,192,79453,1,0,0:0:0:0:
64,192,79453,1,0,0:0:0:0:
448,192,79453,1,0,0:0:0:0:
320,192,79516,1,0,0:0:0:0:
192,192,79579,1,0,0:0:0:0:
320,192,79706,1,0,0:0:0:0:
448,192,79706,1,0,0:0:0:0:
64,192,79832,1,0,0:0:0:0:
320,192,79895,1,0,0:0:0:0:
192,192,79958,1,0,0:0:0:0:
64,192,79958,1,0,0:0:0:0:
448,192,79958,1,0,0:0:0:0:
320,192,80021,1,0,0:0:0:0:
192,192,80084,1,0,0:0:0:0:
448,192,80147,1,0,0:0:0:0:
320,192,80210,1,0,0:0:0:0:
64,192,80210,1,0,0:0:0:0:
192,192,80273,1,0,0:0:0:0:
448,192,80336,1,0,0:0:0:0:
320,192,80399,1,0,0:0:0:0:
192,192,80462,1,0,0:0:0:0:
64,192,80462,1,0,0:0:0:0:
448,192,80462,1,0,0:0:0:0:
320,192,80525,1,0,0:0:0:0:
64,192,80588,1,0,0:0:0:0:
448,192,80651,1,0,0:0:0:0:
320,192,80714,1,0,0:0:0:0:
192,192,80714,1,0,0:0:0:0:
64,192,80777,1,0,0:0:0:0:
448,192,80840,1,0,0:0:0:0:
320,192,80903,1,0,0:0:0:0:
192,192,80966,1,0,0:0:0:0:
64,192,80966,1,0,0:0:0:0:
448,192,80966,1,0,0:0:0:0:
320,192,81029,1,0,0:0:0:0:
64,192,81092,1,0,0:0:0:0:
192,192,81155,1,0,0:0:0:0:
320,192,81218,1,0,0:0:0:0:
448,192,81218,1,0,0:0:0:0:
64,192,81218,1,0,0:0:0:0:
192,192,81344,1,0,0:0:0:0:
64,192,81470,1,0,0:0:0:0:
320,192,81470,1,0,0:0:0:0:
448,192,81470,1,0,0:0:0:0:
320,192,81596,1,0,0:0:0:0:
64,192,81722,1,0,0:0:0:0:
448,192,81722,1,0,0:0:0:0:
192,192,81848,1,0,0:0:0:0:
320,192,81974,1,0,0:0:0:0:
448,192,81974,1,0,0:0:0:0:
64,192,81974,1,0,0:0:0:0:
448,192,82101,1,0,0:0:0:0:
192,192,82227,1,0,0:0:0:0:
64,192,82227,1,0,0:0:0:0:
320,192,82353,1,0,0:0:0:0:
192,192,82479,1,0,0:0:0:0:
64,192,82479,1,0,0:0:0:0:
448,192,82479,1,0,0:0:0:0:
64,192,82605,1,0,0:0:0:0:
192,192,82668,1,0,0:0:0:0:
320,192,82731,1,0,0:0:0:0:
448,192,82731,1,0,0:0:0:0:
192,192,82794,1,0,0:0:0:0:
448,192,82857,1,0,0:0:0:0:
320,192,82983,1,0,0:0:0:0:
192,192,82983,1,0,0:0:0:0:
64,192,82983,1,0,0:0:0:0:
448,192,83109,1,0,0:0:0:0:
64,192,83172,1,0,0:0:0:0:
192,192,83235,1,0,0:0:0:0:
320,192,83235,1,0,0:0:0:0:
64,192,83361,1,0,0:0:0:0:
192,192,83487,1,0,0:0:0:0:
320,192,83487,1,0,0:0:0:0:
448,192,83487,1,0,0:0:0:0:
64,192,83613,1,0,0:0:0:0:
192,192,83739,1,0,0:0:0:0:
448,192,83739,1,0,0:0:0:0:
320,192,83865,1,0,0:0:0:0:
192,192,83991,1,0,0:0:0:0:
64,192,83991,1,0,0:0:0:0:
448,192,83991,1,0,0:0:0:0:
320,192,84054,1,0,0:0:0:0:
192,192,84117,1,0,0:0:0:0:
64,192,84243,1,0,0:0:0:0:
448,192,84243,1,0,0:0:0:0:
320,192,84369,1,0,0:0:0:0:
192,192,84495,1,0,0:0:0:0:
64,192,84495,1,0,0:0:0:0:
448,192,84495,1,0,0:0:0:0:
192,192,84622,1,0,0:0:0:0:
320,192,84685,1,0,0:0:0:0:
448,192,84748,1,0,0:0:0:0:
64,192,84748,1,0,0:0:0:0:
192,192,84811,1,0,0:0:0:0:
320,192,84874,1,0,0:0:0:0:
448,192,84874,1,0,0:0:0:0:
64,192,84874,1,0,0:0:0:0:
192,192,84937,1,0,0:0:0:0:
320,192,85000,1,0,0:0:0:0:
448,192,85000,1,0,0:0:0:0:
192,192,85126,1,0,0:0:0:0:
64,192,85126,1,0,0:0:0:0:
320,192,85189,1,0,0:0:0:0:
192,192,85252,1,0,0:0:0:0:
64,192,85252,1,0,0:0:0:0:
448,192,85252,1,0,0:0:0:0:
320,192,85378,1,0,0:0:0:0:
64,192,85504,1,0,0:0:0:0:
192,192,85504,1,0,0:0:0:0:
448,192,85504,1,0,0:0:0:0:
64,192,85630,1,0,0:0:0:0:
192,192,85756,1,0,0:0:0:0:
448,192,85756,1,0,0:0:0:0:
320,192,85882,1,0,0:0:0:0:
192,192,86008,1,0,0:0:0:0:
64,192,86008,1,0,0:0:0:0:
448,192,86008,1,0,0:0:0:0:
448,192,86134,1,0,0:0:0:0:
320,192,86260,1,0,0:0:0:0:
64,192,86260,1,0,0:0:0:0:
192,192,86386,1,0,0:0:0:0:
64,192,86512,1,0,0:0:0:0:
320,192,86512,1,0,0:0:0:0:
448,192,86512,1,0,0:0:0:0:
320,192,86638,1,0,0:0:0:0:
192,192,86701,1,0,0:0:0:0:
64,192,86764,1,0,0:0:0:0:
448,192,86764,1,0,0:0:0:0:
320,192,86827,1,0,0:0:0:0:
192,192,86890,1,0,0:0:0:0:
320,192,87016,1,0,0:0:0:0:
448,192,87016,1,0,0:0:0:0:
64,192,87016,1,0,0:0:0:0:
192,192,87143,1,0,0:0:0:0:
320,192,87206,1,0,0:0:0:0:
192,192,87269,1,0,0:0:0:0:
64,192,87269,1,0,0:0:0:0:
320,192,87395,1,0,0:0:0:0:
64,192,87521,1,0,0:0:0:0:
192,192,87521,1,0,0:0:0:0:
448,192,87521,1,0,0:0:0:0:
64,192,87647,1,0,0:0:0:0:
320,192,87773,1,0,0:0:0:0:
448,192,87773,1,0,0:0:0:0:
192,192,87899,1,0,0:0:0:0:
64,192,88025,1,0,0:0:0:0:
320,192,88025,1,0,0:0:0:0:
448,192,88025,1,0,0:0:0:0:
448,192,88151,1,0,0:0:0:0:
320,192,88277,1,0,0:0:0:0:
64,192,88277,1,0,0:0:0:0:
192,192,88340,1,0,0:0:0:0:
448,192,88403,1,0,0:0:0:0:
320,192,88466,1,0,0:0:0:0:
192,192,88529,1,0,0:0:0:0:
64,192,88529,1,0,0:0:0:0:
448,192,88529,1,0,0:0:0:0:
320,192,88655,1,0,0:0:0:0:
64,192,88718,1,0,0:0:0:0:
192,192,88781,1,0,0:0:0:0:
448,192,88781,1,0,0:0:0:0:
320,192,88844,1,0,0:0:0:0:
64,192,88907,1,0,0:0:0:0:
192,192,88970,1,0,0:0:0:0:
320,192,89033,1,0,0:0:0:0:
448,192,89033,1,0,0:0:0:0:
64,192,89033,1,0,0:0:0:0:
192,192,89096,1,0,0:0:0:0:
448,192,89159,1,0,0:0:0:0:
320,192,89222,1,0,0:0:0:0:
192,192,89285,1,0,0:0:0:0:
64,192,89285,1,0,0:0:0:0:
448,192,89285,1,0,0:0:0:0:
320,192,89348,1,0,0:0:0:0:
64,192,89411,1,0,0:0:0:0:
192,192,89537,1,0,0:0:0:0:
448,192,89537,1,0,0:0:0:0:
320,192,89537,1,0,0:0:0:0:
320,192,89664,1,0,0:0:0:0:
192,192,89790,1,0,0:0:0:0:
64,192,89790,1,0,0:0:0:0:
320,192,89916,1,0,0:0:0:0:
192,192,90042,1,0,0:0:0:0:
64,192,90042,1,0,0:0:0:0:
448,192,90042,1,0,0:0:0:0:
320,192,90105,1,0,0:0:0:0:
64,192,90168,1,0,0:0:0:0:
192,192,90231,1,0,0:0:0:0:
320,192,90294,1,0,0:0:0:0:
448,192,90294,1,0,0:0:0:0:
192,192,90420,1,0,0:0:0:0:
64,192,90546,1,0,0:0:0:0:
320,192,90546,1,0,0:0:0:0:
448,192,90546,1,0,0:0:0:0:
320,192,90672,1,0,0:0:0:0:
192,192,90735,1,0,0:0:0:0:
64,192,90798,1,0,0:0:0:0:
448,192,90798,1,0,0:0:0:0:
192,192,90861,1,0,0:0:0:0:
320,192,90924,1,0,0:0:0:0:
64,192,91050,1,0,0:0:0:0:
192,192,91050,1,0,0:0:0:0:
448,192,91050,1,0,0:0:0:0:
320,192,91176,1,0,0:0:0:0:
192,192,91239,1,0,0:0:0:0:
64,192,91302,1,0,0:0:0:0:
448,192,91302,1,0,0:0:0:0:
192,192,91428,1,0,0:0:0:0:
320,192,91554,1,0,0:0:0:0:
448,192,91554,1,0,0:0:0:0:
64,192,91554,1,0,0:0:0:0:
448,192,91680,1,0,0:0:0:0:
192,192,91806,1,0,0:0:0:0:
64,192,91806,1,0,0:0:0:0:
320,192,91932,1,0,0:0:0:0:
192,192,92058,1,0,0:0:0:0:
64,192,92058,1,0,0:0:0:0:
448,192,92058,1,0,0:0:0:0:
320,192,92122,1,0,0:0:0:0:
192,192,92185,1,0,0:0:0:0:
64,192,92311,1,0,0:0:0:0:
448,192,92311,1,0,0:0:0:0:
192,192,92437,1,0,0:0:0:0:
320,192,92563,1,0,0:0:0:0:
448,192,92563,1,0,0:0:0:0:
64,192,92563,1,0,0:0:0:0:
192,192,92689,1,0,0:0:0:0:
320,192,92752,1,0,0:0:0:0:
448,192,92815,1,0,0:0:0:0:
64,192,92815,1,0,0:0:0:0:
320,192,92878,1,0,0:0:0:0:
192,192,92941,1,0,0:0:0:0:
64,192,92941,1,0,0:0:0:0:
448,192,92941,1,0,0:0:0:0:
320,192,93004,1,0,0:0:0:0:
192,192,93067,1,0,0:0:0:0:
64,192,93067,1,0,0:0:0:0:
448,192,93193,1,0,0:0:0:0:
320,192,93193,1,0,0:0:0:0:
64,192,93256,1,0,0:0:0:0:
192,192,93319,1,0,0:0:0:0:
320,192,93319,1,0,0:0:0:0:
448,192,93319,1,0,0:0:0:0:
64,192,93445,1,0,0:0:0:0:
192,192,93571,1,0,0:0:0:0:
448,192,93571,1,0,0:0:0:0:
320,192,93571,1,0,0:0:0:0:
320,192,93697,1,0,0:0:0:0:
192,192,93823,1,0,0:0:0:0:
64,192,93823,1,0,0:0:0:0:
448,192,93949,1,0,0:0:0:0:
320,192,94075,1,0,0:0:0:0:
192,192,94075,1,0,0:0:0:0:
64,192,94075,1,0,0:0:0:0:
448,192,94138,1,0,0:0:0:0:
64,192,94201,1,0,0:0:0:0:
192,192,94264,1,0,0:0:0:0:
320,192,94327,1,0,0:0:0:0:
448,192,94327,1,0,0:0:0:0:
192,192,94453,1,0,0:0:0:0:
64,192,94579,1,0,0:0:0:0:
448,192,94579,1,0,0:0:0:0:
320,192,94579,1,0,0:0:0:0:
192,192,94706,1,0,0:0:0:0:
320,192,94769,1,0,0:0:0:0:
192,192,94832,1,0,0:0:0:0:
64,192,94832,1,0,0:0:0:0:
448,192,94895,1,0,0:0:0:0:
320,192,94958,1,0,0:0:0:0:
64,192,95084,1,0,0:0:0:0:
192,192,95084,1,0,0:0:0:0:
448,192,95084,1,0,0:0:0:0:
320,192,95210,1,0,0:0:0:0:
64,192,95273,1,0,0:0:0:0:
192,192,95336,1,0,0:0:0:0:
448,192,95336,1,0,0:0:0:0:
320,192,95462,1,0,0:0:0:0:
192,192,95588,1,0,0:0:0:0:
64,192,95588,1,0,0:0:0:0:
448,192,95588,1,0,0:0:0:0:
64,192,95714,1,0,0:0:0:0:
448,192,95840,1,0,0:0:0:0:
320,192,95840,1,0,0:0:0:0:
192,192,95966,1,0,0:0:0:0:
64,192,96092,1,0,0:0:0:0:
320,192,96092,1,0,0:0:0:0:
448,192,96092,1,0,0:0:0:0:
192,192,96155,1,0,0:0:0:0:
448,192,96218,1,0,0:0:0:0:
320,192,96344,1,0,0:0:0:0:
64,192,96344,1,0,0:0:0:0:
192,192,96407,1,0,0:0:0:0:
448,192,96470,1,0,0:0:0:0:
320,192,96533,1,0,0:0:0:0:
192,192,96596,1,0,0:0:0:0:
64,192,96596,1,0,0:0:0:0:
448,192,96596,1,0,0:0:0:0:
320,192,96659,1,0,0:0:0:0:
64,192,96722,1,0,0:0:0:0:
192,192,96785,1,0,0:0:0:0:
320,192,96848,1,0,0:0:0:0:
448,192,96848,1,0,0:0:0:0:
64,192,96911,1,0,0:0:0:0:
192,192,96974,1,0,0:0:0:0:
448,192,97037,1,0,0:0:0:0:
320,192,97101,1,0,0:0:0:0:
192,192,97101,1,0,0:0:0:0:
64,192,97101,1,0,0:0:0:0:
448,192,97164,1,0,0:0:0:0:
320,192,97227,1,0,0:0:0:0:
64,192,97290,1,0,0:0:0:0:
320,192,97353,1,0,0:0:0:0:
448,192,97353,1,0,0:0:0:0:
192,192,97353,128,0,98361:0:0:0:0:
448,192,98235,1,0,0:0:0:0:
64,192,98298,1,0,0:0:0:0:
320,192,98361,1,0,0:0:0:0:
448,192,98361,1,0,0:0:0:0:
64,192,98487,1,0,0:0:0:0:
192,192,98613,1,0,0:0:0:0:
320,192,98613,1,0,0:0:0:0:
448,192,98613,1,0,0:0:0:0:
64,192,98739,1,0,0:0:0:0:
448,192,98802,1,0,0:0:0:0:
320,192,98865,1,0,0:0:0:0:
64,192,98865,1,0,0:0:0:0:
192,192,98928,1,0,0:0:0:0:
448,192,98991,1,0,0:0:0:0:
320,192,99117,1,0,0:0:0:0:
192,192,99117,1,0,0:0:0:0:
64,192,99117,1,0,0:0:0:0:
448,192,99243,1,0,0:0:0:0:
320,192,99306,1,0,0:0:0:0:
192,192,99369,1,0,0:0:0:0:
64,192,99369,1,0,0:0:0:0:
320,192,99495,1,0,0:0:0:0:
192,192,99622,1,0,0:0:0:0:
448,192,99622,1,0,0:0:0:0:
64,192,99622,1,0,0:0:0:0:
64,192,99748,1,0,0:0:0:0:
320,192,99874,1,0,0:0:0:0:
448,192,99874,1,0,0:0:0:0:
192,192,100000,1,0,0:0:0:0:
64,192,100126,1,0,0:0:0:0:
320,192,100126,1,0,0:0:0:0:
448,192,100126,1,0,0:0:0:0:
192,192,100189,1,0,0:0:0:0:
448,192,100252,1,0,0:0:0:0:
320,192,100378,1,0,0:0:0:0:
64,192,100378,1,0,0:0:0:0:
192,192,100504,1,0,0:0:0:0:
64,192,100630,1,0,0:0:0:0:
320,192,100630,1,0,0:0:0:0:
448,192,100630,1,0,0:0:0:0:
320,192,100756,1,0,0:0:0:0:
192,192,100819,1,0,0:0:0:0:
64,192,100882,1,0,0:0:0:0:
448,192,100882,1,0,0:0:0:0:
320,192,100945,1,0,0:0:0:0:
192,192,101008,1,0,0:0:0:0:
64,192,101134,1,0,0:0:0:0:
320,192,101134,1,0,0:0:0:0:
448,192,101134,1,0,0:0:0:0:
192,192,101260,1,0,0:0:0:0:
320,192,101323,1,0,0:0:0:0:
192,192,101386,1,0,0:0:0:0:
64,192,101386,1,0,0:0:0:0:
448,192,101386,1,0,0:0:0:0:
64,192,101512,1,0,0:0:0:0:
192,192,101638,1,0,0:0:0:0:
320,192,101638,1,0,0:0:0:0:
448,192,101638,1,0,0:0:0:0:
64,192,101764,1,0,0:0:0:0:
192,192,101890,1,0,0:0:0:0:
448,192,101890,1,0,0:0:0:0:
320,192,102016,1,0,0:0:0:0:
320,192,102143,1,0,0:0:0:0:
448,192,102143,1,0,0:0:0:0:
64,192,102143,1,0,0:0:0:0:
192,192,102206,1,0,0:0:0:0:
448,192,102269,1,0,0:0:0:0:
320,192,102332,1,0,0:0:0:0:
192,192,102395,1,0,0:0:0:0:
64,192,102395,1,0,0:0:0:0:
192,192,102521,1,0,0:0:0:0:
64,192,102647,1,0,0:0:0:0:
320,192,102647,1,0,0:0:0:0:
448,192,102647,1,0,0:0:0:0:
192,192,102773,1,0,0:0:0:0:
448,192,102836,1,0,0:0:0:0:
320,192,102899,1,0,0:0:0:0:
64,192,102899,1,0,0:0:0:0:
192,192,102962,1,0,0:0:0:0:
448,192,103025,1,0,0:0:0:0:
320,192,103151,1,0,0:0:0:0:
192,192,103151,1,0,0:0:0:0:
64,192,103151,1,0,0:0:0:0:
448,192,103277,1,0,0:0:0:0:
320,192,103340,1,0,0:0:0:0:
192,192,103403,1,0,0:0:0:0:
64,192,103403,1,0,0:0:0:0:
64,192,103529,1,0,0:0:0:0:
192,192,103655,1,0,0:0:0:0:
320,192,103655,1,0,0:0:0:0:
448,192,103655,1,0,0:0:0:0:
320,192,103781,1,0,0:0:0:0:
192,192,103907,1,0,0:0:0:0:
64,192,103907,1,0,0:0:0:0:
320,192,104033,1,0,0:0:0:0:
64,192,104159,1,0,0:0:0:0:
192,192,104159,1,0,0:0:0:0:
448,192,104159,1,0,0:0:0:0:
320,192,104222,1,0,0:0:0:0:
64,192,104285,1,0,0:0:0:0:
192,192,104348,1,0,0:0:0:0:
448,192,104411,1,0,0:0:0:0:
320,192,104411,1,0,0:0:0:0:
192,192,104474,1,0,0:0:0:0:
64,192,104537,1,0,0:0:0:0:
448,192,104601,1,0,0:0:0:0:
192,192,104664,1,0,0:0:0:0:
64,192,104664,1,0,0:0:0:0:
320,192,104664,1,0,0:0:0:0:
448,192,104727,1,0,0:0:0:0:
320,192,104790,1,0,0:0:0:0:
192,192,104853,1,0,0:0:0:0:
320,192,104916,1,0,0:0:0:0:
448,192,104916,1,0,0:0:0:0:
192,192,104979,1,0,0:0:0:0:
64,192,104979,1,0,0:0:0:0:
448,192,105042,1,0,0:0:0:0:
320,192,105042,1,0,0:0:0:0:
64,192,105105,1,0,0:0:0:0:
192,192,105105,1,0,0:0:0:0:
448,192,105168,1,0,0:0:0:0:
320,192,105168,1,0,0:0:0:0:
64,192,105231,1,0,0:0:0:0:
192,192,105294,1,0,0:0:0:0:
448,192,105357,1,0,0:0:0:0:
320,192,105420,1,0,0:0:0:0:
64,192,105420,1,0,0:0:0:0:
192,192,105420,1,0,0:0:0:0:
320,192,105546,1,0,0:0:0:0:
448,192,105672,1,0,0:0:0:0:
64,192,105672,1,0,0:0:0:0:
192,192,105672,1,0,0:0:0:0:
320,192,105798,1,0,0:0:0:0:
64,192,105924,1,0,0:0:0:0:
448,192,105924,1,0,0:0:0:0:
192,192,106050,1,0,0:0:0:0:
320,192,106176,1,0,0:0:0:0:
448,192,106176,1,0,0:0:0:0:
64,192,106176,1,0,0:0:0:0:
192,192,106239,1,0,0:0:0:0:
448,192,106302,1,0,0:0:0:0:
320,192,106365,1,0,0:0:0:0:
192,192,106428,1,0,0:0:0:0:
64,192,106428,1,0,0:0:0:0:
320,192,106554,1,0,0:0:0:0:
192,192,106680,1,0,0:0:0:0:
64,192,106680,1,0,0:0:0:0:
448,192,106680,1,0,0:0:0:0:
320,192,106806,1,0,0:0:0:0:
64,192,106869,1,0,0:0:0:0:
192,192,106932,1,0,0:0:0:0:
448,192,106932,1,0,0:0:0:0:
320,192,106995,1,0,0:0:0:0:
64,192,107058,1,0,0:0:0:0:
192,192,107185,1,0,0:0:0:0:
64,192,107185,1,0,0:0:0:0:
448,192,107185,1,0,0:0:0:0:
320,192,107311,1,0,0:0:0:0:
192,192,107374,1,0,0:0:0:0:
64,192,107437,1,0,0:0:0:0:
448,192,107437,1,0,0:0:0:0:
192,192,107563,1,0,0:0:0:0:
320,192,107689,1,0,0:0:0:0:
448,192,107689,1,0,0:0:0:0:
64,192,107689,1,0,0:0:0:0:
192,192,107815,1,0,0:0:0:0:
64,192,107941,1,0,0:0:0:0:
448,192,107941,1,0,0:0:0:0:
320,192,108067,1,0,0:0:0:0:
192,192,108193,1,0,0:0:0:0:
64,192,108193,1,0,0:0:0:0:
448,192,108193,1,0,0:0:0:0:
320,192,108256,1,0,0:0:0:0:
64,192,108319,1,0,0:0:0:0:
320,192,108445,1,0,0:0:0:0:
448,192,108445,1,0,0:0:0:0:
64,192,108571,1,0,0:0:0:0:
192,192,108697,1,0,0:0:0:0:
320,192,108697,1,0,0:0:0:0:
448,192,108697,1,0,0:0:0:0:
64,192,108823,1,0,0:0:0:0:
192,192,108886,1,0,0:0:0:0:
320,192,108949,1,0,0:0:0:0:
448,192,108949,1,0,0:0:0:0:
192,192,109012,1,0,0:0:0:0:
64,192,109075,1,0,0:0:0:0:
320,192,109075,1,0,0:0:0:0:
448,192,109075,1,0,0:0:0:0:
192,192,109138,1,0,0:0:0:0:
64,192,109201,1,0,0:0:0:0:
448,192,109201,1,0,0:0:0:0:
320,192,109327,1,0,0:0:0:0:
192,192,109327,1,0,0:0:0:0:
64,192,109390,1,0,0:0:0:0:
192,192,109453,1,0,0:0:0:0:
320,192,109453,1,0,0:0:0:0:
448,192,109453,1,0,0:0:0:0:
64,192,109579,1,0,0:0:0:0:
192,192,109706,1,0,0:0:0:0:
448,192,109706,1,0,0:0:0:0:
320,192,109706,1,0,0:0:0:0:
320,192,109832,1,0,0:0:0:0:
192,192,109958,1,0,0:0:0:0:
64,192,109958,1,0,0:0:0:0:
448,192,110084,1,0,0:0:0:0:
320,192,110210,1,0,0:0:0:0:
192,192,110210,1,0,0:0:0:0:
64,192,110210,1,0,0:0:0:0:
64,192,110336,1,0,0:0:0:0:
192,192,110462,1,0,0:0:0:0:
448,192,110462,1,0,0:0:0:0:
320,192,110588,1,0,0:0:0:0:
192,192,110714,1,0,0:0:0:0:
64,192,110714,1,0,0:0:0:0:
448,192,110714,1,0,0:0:0:0:
320,192,110840,1,0,0:0:0:0:
192,192,110903,1,0,0:0:0:0:
64,192,110966,1,0,0:0:0:0:
448,192,110966,1,0,0:0:0:0:
192,192,111029,1,0,0:0:0:0:
448,192,111092,1,0,0:0:0:0:
320,192,111218,1,0,0:0:0:0:
192,192,111218,1,0,0:0:0:0:
64,192,111218,1,0,0:0:0:0:
64,192,111344,1,0,0:0:0:0:
192,192,111407,1,0,0:0:0:0:
320,192,111470,1,0,0:0:0:0:
448,192,111470,1,0,0:0:0:0:
192,192,111596,1,0,0:0:0:0:
64,192,111722,1,0,0:0:0:0:
320,192,111722,1,0,0:0:0:0:
448,192,111722,1,0,0:0:0:0:
448,192,111848,1,0,0:0:0:0:
320,192,111974,1,0,0:0:0:0:
64,192,111974,1,0,0:0:0:0:
192,192,112101,1,0,0:0:0:0:
320,192,112227,1,0,0:0:0:0:
448,192,112227,1,0,0:0:0:0:
64,192,112227,1,0,0:0:0:0:
192,192,112290,1,0,0:0:0:0:
448,192,112353,1,0,0:0:0:0:
320,192,112479,1,0,0:0:0:0:
192,192,112479,1,0,0:0:0:0:
64,192,112542,1,0,0:0:0:0:
448,192,112605,1,0,0:0:0:0:
320,192,112668,1,0,0:0:0:0:
192,192,112731,1,0,0:0:0:0:
64,192,112731,1,0,0:0:0:0:
448,192,112731,1,0,0:0:0:0:
320,192,112794,1,0,0:0:0:0:
64,192,112857,1,0,0:0:0:0:
448,192,112920,1,0,0:0:0:0:
320,192,112983,1,0,0:0:0:0:
192,192,112983,1,0,0:0:0:0:
64,192,113046,1,0,0:0:0:0:
448,192,113109,1,0,0:0:0:0:
320,192,113172,1,0,0:0:0:0:
64,192,113235,1,0,0:0:0:0:
192,192,113235,1,0,0:0:0:0:
320,192,113298,1,0,0:0:0:0:
192,192,113361,1,0,0:0:0:0:
64,192,113361,1,0,0:0:0:0:
320,192,113424,1,0,0:0:0:0:
448,192,113424,1,0,0:0:0:0:
192,192,113487,1,0,0:0:0:0:
64,192,113487,1,0,0:0:0:0:
320,192,113613,1,0,0:0:0:0:
64,192,113739,1,0,0:0:0:0:
192,192,113739,1,0,0:0:0:0:
448,192,113739,1,0,0:0:0:0:
64,192,113865,1,0,0:0:0:0:
320,192,113991,1,0,0:0:0:0:
448,192,113991,1,0,0:0:0:0:
192,192,114117,1,0,0:0:0:0:
64,192,114243,1,0,0:0:0:0:
320,192,114243,1,0,0:0:0:0:
448,192,114243,1,0,0:0:0:0:
192,192,114306,1,0,0:0:0:0:
448,192,114369,1,0,0:0:0:0:
320,192,114495,1,0,0:0:0:0:
64,192,114495,1,0,0:0:0:0:
192,192,114622,1,0,0:0:0:0:
320,192,114748,1,0,0:0:0:0:
448,192,114748,1,0,0:0:0:0:
64,192,114748,1,0,0:0:0:0:
448,192,114874,1,0,0:0:0:0:
320,192,114937,1,0,0:0:0:0:
192,192,115000,1,0,0:0:0:0:
64,192,115000,1,0,0:0:0:0:
448,192,115063,1,0,0:0:0:0:
320,192,115126,1,0,0:0:0:0:
192,192,115252,1,0,0:0:0:0:
64,192,115252,1,0,0:0:0:0:
448,192,115252,1,0,0:0:0:0:
64,192,115378,1,0,0:0:0:0:
192,192,115441,1,0,0:0:0:0:
320,192,115504,1,0,0:0:0:0:
448,192,115504,1,0,0:0:0:0:
448,192,115630,1,0,0:0:0:0:
64,192,115756,1,0,0:0:0:0:
320,192,115756,1,0,0:0:0:0:
192,192,115756,1,0,0:0:0:0:
192,192,115882,1,0,0:0:0:0:
448,192,116008,1,0,0:0:0:0:
320,192,116008,1,0,0:0:0:0:
64,192,116134,1,0,0:0:0:0:
192,192,116260,1,0,0:0:0:0:
448,192,116260,1,0,0:0:0:0:
320,192,116260,1,0,0:0:0:0:
64,192,116323,1,0,0:0:0:0:
448,192,116386,1,0,0:0:0:0:
192,192,116512,1,0,0:0:0:0:
64,192,116512,1,0,0:0:0:0:
320,192,116638,1,0,0:0:0:0:
64,192,116764,1,0,0:0:0:0:
448,192,116764,1,0,0:0:0:0:
192,192,116764,1,0,0:0:0:0:
320,192,116890,1,0,0:0:0:0:
192,192,116953,1,0,0:0:0:0:
64,192,117016,1,0,0:0:0:0:
448,192,117016,1,0,0:0:0:0:
320,192,117079,1,0,0:0:0:0:
192,192,117143,1,0,0:0:0:0:
64,192,117143,1,0,0:0:0:0:
448,192,117143,1,0,0:0:0:0:
320,192,117206,1,0,0:0:0:0:
64,192,117269,1,0,0:0:0:0:
192,192,117269,1,0,0:0:0:0:
448,192,117395,1,0,0:0:0:0:
320,192,117395,1,0,0:0:0:0:
192,192,117458,1,0,0:0:0:0:
64,192,117521,1,0,0:0:0:0:
448,192,117521,1,0,0:0:0:0:
320,192,117521,1,0,0:0:0:0:
320,192,117647,1,0,0:0:0:0:
64,192,117773,1,0,0:0:0:0:
192,192,117773,1,0,0:0:0:0:
448,192,117773,1,0,0:0:0:0:
64,192,117899,1,0,0:0:0:0:
320,192,118025,1,0,0:0:0:0:
448,192,118025,1,0,0:0:0:0:
192,192,118151,1,0,0:0:0:0:
64,192,118277,1,0,0:0:0:0:
320,192,118277,1,0,0:0:0:0:
448,192,118277,1,0,0:0:0:0:
192,192,118340,1,0,0:0:0:0:
448,192,118403,1,0,0:0:0:0:
320,192,118529,1,0,0:0:0:0:
64,192,118529,1,0,0:0:0:0:
192,192,118655,1,0,0:0:0:0:
64,192,118781,1,0,0:0:0:0:
320,192,118781,1,0,0:0:0:0:
448,192,118781,1,0,0:0:0:0:
448,192,118907,1,0,0:0:0:0:
320,192,118970,1,0,0:0:0:0:
192,192,119033,1,0,0:0:0:0:
64,192,119033,1,0,0:0:0:0:
448,192,119096,1,0,0:0:0:0:
320,192,119159,1,0,0:0:0:0:
192,192,119285,1,0,0:0:0:0:
448,192,119285,1,0,0:0:0:0:
64,192,119285,1,0,0:0:0:0:
64,192,119411,1,0,0:0:0:0:
192,192,119537,1,0,0:0:0:0:
448,192,119537,1,0,0:0:0:0:
320,192,119664,1,0,0:0:0:0:
192,192,119790,1,0,0:0:0:0:
64,192,119790,1,0,0:0:0:0:
448,192,119790,1,0,0:0:0:0:
320,192,119916,1,0,0:0:0:0:
64,192,120042,1,0,0:0:0:0:
448,192,120042,1,0,0:0:0:0:
192,192,120168,1,0,0:0:0:0:
64,192,120294,1,0,0:0:0:0:
320,192,120294,1,0,0:0:0:0:
448,192,120294,1,0,0:0:0:0:
192,192,120357,1,0,0:0:0:0:
448,192,120420,1,0,0:0:0:0:
320,192,120546,1,0,0:0:0:0:
64,192,120546,1,0,0:0:0:0:
192,192,120609,1,0,0:0:0:0:
448,192,120672,1,0,0:0:0:0:
320,192,120735,1,0,0:0:0:0:
192,192,120798,1,0,0:0:0:0:
64,192,120798,1,0,0:0:0:0:
448,192,120798,1,0,0:0:0:0:
320,192,120861,1,0,0:0:0:0:
64,192,120924,1,0,0:0:0:0:
448,192,120987,1,0,0:0:0:0:
192,192,121050,1,0,0:0:0:0:
320,192,121050,1,0,0:0:0:0:
64,192,121113,1,0,0:0:0:0:
448,192,121113,1,0,0:0:0:0:
320,192,121176,1,0,0:0:0:0:
192,192,121176,1,0,0:0:0:0:
448,192,121239,1,0,0:0:0:0:
64,192,121239,1,0,0:0:0:0:
192,192,121302,1,0,0:0:0:0:
320,192,121302,1,0,0:0:0:0:
64,192,121365,1,0,0:0:0:0:
448,192,121428,1,0,0:0:0:0:
320,192,121491,1,0,0:0:0:0:
192,192,121554,1,0,0:0:0:0:
64,192,121554,1,0,0:0:0:0:
448,192,121554,1,0,0:0:0:0:
192,192,121680,1,0,0:0:0:0:
64,192,121806,1,0,0:0:0:0:
320,192,121806,1,0,0:0:0:0:
448,192,121806,1,0,0:0:0:0:
192,192,121869,1,0,0:0:0:0:
448,192,121932,1,0,0:0:0:0:
320,192,122058,1,0,0:0:0:0:
192,192,122058,1,0,0:0:0:0:
448,192,122185,1,0,0:0:0:0:
192,192,122248,1,0,0:0:0:0:
64,192,122311,1,0,0:0:0:0:
320,192,122311,1,0,0:0:0:0:
448,192,122311,1,0,0:0:0:0:
192,192,122374,1,0,0:0:0:0:
320,192,122437,1,0,0:0:0:0:
64,192,122500,1,0,0:0:0:0:
192,192,122563,1,0,0:0:0:0:
448,192,122563,1,0,0:0:0:0:
320,192,122689,1,0,0:0:0:0:
192,192,122815,1,0,0:0:0:0:
448,192,122815,1,0,0:0:0:0:
64,192,122815,1,0,0:0:0:0:
320,192,122878,1,0,0:0:0:0:
64,192,122941,1,0,0:0:0:0:
320,192,123067,1,0,0:0:0:0:
448,192,123067,1,0,0:0:0:0:
64,192,123130,1,0,0:0:0:0:
192,192,123193,1,0,0:0:0:0:
320,192,123256,1,0,0:0:0:0:
192,192,123319,1,0,0:0:0:0:
64,192,123319,1,0,0:0:0:0:
448,192,123319,1,0,0:0:0:0:
320,192,123445,1,0,0:0:0:0:
64,192,123508,1,0,0:0:0:0:
448,192,123571,1,0,0:0:0:0:
192,192,123571,1,0,0:0:0:0:
64,192,123697,1,0,0:0:0:0:
192,192,123823,1,0,0:0:0:0:
320,192,123823,1,0,0:0:0:0:
448,192,123823,1,0,0:0:0:0:
64,192,123886,1,0,0:0:0:0:
320,192,123949,1,0,0:0:0:0:
192,192,124075,1,0,0:0:0:0:
64,192,124075,1,0,0:0:0:0:
320,192,124201,1,0,0:0:0:0:
64,192,124264,1,0,0:0:0:0:
192,192,124327,1,0,0:0:0:0:
320,192,124327,1,0,0:0:0:0:
448,192,124327,1,0,0:0:0:0:
64,192,124390,1,0,0:0:0:0:
448,192,124453,1,0,0:0:0:0:
192,192,124516,1,0,0:0:0:0:
64,192,124579,1,0,0:0:0:0:
320,192,124579,1,0,0:0:0:0:
448,192,124706,1,0,0:0:0:0:
320,192,124832,1,0,0:0:0:0:
192,192,124832,1,0,0:0:0:0:
64,192,124832,1,0,0:0:0:0:
448,192,124895,1,0,0:0:0:0:
64,192,124958,1,0,0:0:0:0:
320,192,125084,1,0,0:0:0:0:
448,192,125084,1,0,0:0:0:0:
192,192,125210,1,0,0:0:0:0:
64,192,125210,1,0,0:0:0:0:
320,192,125273,1,0,0:0:0:0:
448,192,125273,1,0,0:0:0:0:
192,192,125336,1,0,0:0:0:0:
64,192,125336,1,0,0:0:0:0:
448,192,125462,1,0,0:0:0:0:
320,192,125525,1,0,0:0:0:0:
192,192,125588,1,0,0:0:0:0:
64,192,125588,1,0,0:0:0:0:
448,192,125588,1,0,0:0:0:0:
192,192,125714,1,0,0:0:0:0:
64,192,125840,1,0,0:0:0:0:
320,192,125840,1,0,0:0:0:0:
448,192,125840,1,0,0:0:0:0:
192,192,125903,1,0,0:0:0:0:
320,192,125966,1,0,0:0:0:0:
64,192,126092,1,0,0:0:0:0:
192,192,126092,1,0,0:0:0:0:
448,192,126218,1,0,0:0:0:0:
192,192,126281,1,0,0:0:0:0:
64,192,126344,1,0,0:0:0:0:
320,192,126344,1,0,0:0:0:0:
448,192,126344,1,0,0:0:0:0:
192,192,126407,1,0,0:0:0:0:
320,192,126470,1,0,0:0:0:0:
192,192,126596,1,0,0:0:0:0:
64,192,126596,1,0,0:0:0:0:
448,192,126722,1,0,0:0:0:0:
192,192,126848,1,0,0:0:0:0:
64,192,126848,1,0,0:0:0:0:
320,192,126848,1,0,0:0:0:0:
448,192,126911,1,0,0:0:0:0:
64,192,126974,1,0,0:0:0:0:
320,192,127101,1,0,0:0:0:0:
448,192,127101,1,0,0:0:0:0:
192,192,127227,1,0,0:0:0:0:
448,192,127290,1,0,0:0:0:0:
64,192,127353,1,0,0:0:0:0:
320,192,127353,1,0,0:0:0:0:
192,192,127353,1,0,0:0:0:0:
448,192,127479,1,0,0:0:0:0:
64,192,127605,1,0,0:0:0:0:
320,192,127605,1,0,0:0:0:0:
192,192,127731,1,0,0:0:0:0:
320,192,127857,1,0,0:0:0:0:
448,192,127857,1,0,0:0:0:0:
64,192,127857,1,0,0:0:0:0:
192,192,127920,1,0,0:0:0:0:
448,192,127983,1,0,0:0:0:0:
320,192,128109,1,0,0:0:0:0:
192,192,128109,1,0,0:0:0:0:
64,192,128235,1,0,0:0:0:0:
192,192,128298,1,0,0:0:0:0:
320,192,128361,1,0,0:0:0:0:
448,192,128361,1,0,0:0:0:0:
64,192,128361,1,0,0:0:0:0:
192,192,128487,1,0,0:0:0:0:
320,192,128550,1,0,0:0:0:0:
448,192,128613,1,0,0:0:0:0:
64,192,128613,1,0,0:0:0:0:
320,192,128739,1,0,0:0:0:0:
192,192,128865,1,0,0:0:0:0:
64,192,128865,1,0,0:0:0:0:
448,192,128865,1,0,0:0:0:0:
320,192,128928,1,0,0:0:0:0:
64,192,128991,1,0,0:0:0:0:
192,192,129117,1,0,0:0:0:0:
320,192,129117,1,0,0:0:0:0:
448,192,129243,1,0,0:0:0:0:
192,192,129243,1,0,0:0:0:0:
64,192,129243,1,0,0:0:0:0:
320,192,129306,1,0,0:0:0:0:
192,192,129369,1,0,0:0:0:0:
64,192,129369,1,0,0:0:0:0:
448,192,129495,1,0,0:0:0:0:
320,192,129495,1,0,0:0:0:0:
64,192,129558,1,0,0:0:0:0:
192,192,129622,1,0,0:0:0:0:
320,192,129622,1,0,0:0:0:0:
448,192,129622,1,0,0:0:0:0:
64,192,129748,1,0,0:0:0:0:
192,192,129874,1,0,0:0:0:0:
320,192,129874,1,0,0:0:0:0:
448,192,129874,1,0,0:0:0:0:
64,192,129937,1,0,0:0:0:0:
448,192,130000,1,0,0:0:0:0:
192,192,130126,1,0,0:0:0:0:
64,192,130126,1,0,0:0:0:0:
320,192,130252,1,0,0:0:0:0:
64,192,130315,1,0,0:0:0:0:
192,192,130378,1,0,0:0:0:0:
320,192,130378,1,0,0:0:0:0:
448,192,130378,1,0,0:0:0:0:
64,192,130504,1,0,0:0:0:0:
192,192,130630,1,0,0:0:0:0:
320,192,130630,1,0,0:0:0:0:
448,192,130756,1,0,0:0:0:0:
320,192,130882,1,0,0:0:0:0:
192,192,130882,1,0,0:0:0:0:
64,192,130882,1,0,0:0:0:0:
448,192,130945,1,0,0:0:0:0:
64,192,131008,1,0,0:0:0:0:
320,192,131134,1,0,0:0:0:0:
448,192,131134,1,0,0:0:0:0:
192,192,131260,1,0,0:0:0:0:
448,192,131323,1,0,0:0:0:0:
320,192,131386,1,0,0:0:0:0:
192,192,131386,1,0,0:0:0:0:
64,192,131386,1,0,0:0:0:0:
448,192,131512,1,0,0:0:0:0:
320,192,131638,1,0,0:0:0:0:
64,192,131638,1,0,0:0:0:0:
192,192,131764,1,0,0:0:0:0:
320,192,131890,1,0,0:0:0:0:
448,192,131890,1,0,0:0:0:0:
64,192,131890,1,0,0:0:0:0:
192,192,131953,1,0,0:0:0:0:
320,192,132016,1,0,0:0:0:0:
192,192,132143,1,0,0:0:0:0:
64,192,132143,1,0,0:0:0:0:
448,192,132269,1,0,0:0:0:0:
192,192,132332,1,0,0:0:0:0:
320,192,132395,1,0,0:0:0:0:
448,192,132395,1,0,0:0:0:0:
64,192,132395,1,0,0:0:0:0:
192,192,132521,1,0,0:0:0:0:
448,192,132584,1,0,0:0:0:0:
320,192,132647,1,0,0:0:0:0:
64,192,132647,1,0,0:0:0:0:
448,192,132773,1,0,0:0:0:0:
320,192,132899,1,0,0:0:0:0:
64,192,132899,1,0,0:0:0:0:
192,192,132899,1,0,0:0:0:0:
448,192,132962,1,0,0:0:0:0:
64,192,133025,1,0,0:0:0:0:
448,192,133151,1,0,0:0:0:0:
320,192,133151,1,0,0:0:0:0:
320,192,133277,1,0,0:0:0:0:
192,192,133277,1,0,0:0:0:0:
64,192,133277,1,0,0:0:0:0:
448,192,133340,1,0,0:0:0:0:
64,192,133403,1,0,0:0:0:0:
192,192,133403,1,0,0:0:0:0:
320,192,133529,1,0,0:0:0:0:
448,192,133529,1,0,0:0:0:0:
192,192,133592,1,0,0:0:0:0:
64,192,133655,1,0,0:0:0:0:
320,192,133655,1,0,0:0:0:0:
448,192,133655,1,0,0:0:0:0:
192,192,133781,1,0,0:0:0:0:
320,192,133907,1,0,0:0:0:0:
448,192,133907,1,0,0:0:0:0:
64,192,133907,1,0,0:0:0:0:
192,192,133970,1,0,0:0:0:0:
448,192,134033,1,0,0:0:0:0:
320,192,134159,1,0,0:0:0:0:
192,192,134159,1,0,0:0:0:0:
64,192,134285,1,0,0:0:0:0:
192,192,134348,1,0,0:0:0:0:
64,192,134411,1,0,0:0:0:0:
320,192,134411,1,0,0:0:0:0:
448,192,134411,1,0,0:0:0:0:
192,192,134537,1,0,0:0:0:0:
64,192,134664,1,0,0:0:0:0:
320,192,134664,1,0,0:0:0:0:
448,192,134790,1,0,0:0:0:0:
320,192,134916,1,0,0:0:0:0:
64,192,134916,1,0,0:0:0:0:
192,192,134916,1,0,0:0:0:0:
448,192,134979,1,0,0:0:0:0:
64,192,135042,1,0,0:0:0:0:
192,192,135168,1,0,0:0:0:0:
448,192,135168,1,0,0:0:0:0:
320,192,135294,1,0,0:0:0:0:
448,192,135357,1,0,0:0:0:0:
192,192,135420,1,0,0:0:0:0:
64,192,135420,1,0,0:0:0:0:
320,192,135420,1,0,0:0:0:0:
448,192,135546,1,0,0:0:0:0:
320,192,135672,1,0,0:0:0:0:
192,192,135672,1,0,0:0:0:0:
64,192,135798,1,0,0:0:0:0:
192,192,135924,1,0,0:0:0:0:
320,192,135924,1,0,0:0:0:0:
448,192,135924,1,0,0:0:0:0:
64,192,135987,1,0,0:0:0:0:
448,192,136050,1,0,0:0:0:0:
320,192,136176,1,0,0:0:0:0:
64,192,136176,1,0,0:0:0:0:
448,192,136302,1,0,0:0:0:0:
64,192,136365,1,0,0:0:0:0:
448,192,136428,1,0,0:0:0:0:
320,192,136428,1,0,0:0:0:0:
192,192,136428,1,0,0:0:0:0:
64,192,136554,1,0,0:0:0:0:
192,192,136617,1,0,0:0:0:0:
320,192,136680,1,0,0:0:0:0:
448,192,136680,1,0,0:0:0:0:
64,192,136743,1,0,0:0:0:0:
192,192,136806,1,0,0:0:0:0:
448,192,136869,1,0,0:0:0:0:
320,192,136932,1,0,0:0:0:0:
64,192,136932,1,0,0:0:0:0:
192,192,136932,1,0,0:0:0:0:
448,192,136995,1,0,0:0:0:0:
320,192,137058,1,0,0:0:0:0:
64,192,137122,1,0,0:0:0:0:
192,192,137185,1,0,0:0:0:0:
448,192,137185,1,0,0:0:0:0:
320,192,137248,1,0,0:0:0:0:
64,192,137311,1,0,0:0:0:0:
192,192,137374,1,0,0:0:0:0:
320,192,137437,1,0,0:0:0:0:
448,192,137437,1,0,0:0:0:0:
64,192,137437,1,0,0:0:0:0:
192,192,137500,1,0,0:0:0:0:
448,192,137563,1,0,0:0:0:0:
320,192,137626,1,0,0:0:0:0:
64,192,137689,1,0,0:0:0:0:
192,192,137689,128,0,139706:0:0:0:0:
64,192,139706,1,0,0:0:0:0:
192,192,139832,1,0,0:0:0:0:
448,192,139958,1,0,0:0:0:0:
320,192,140084,1,0,0:0:0:0:
192,192,140210,1,0,0:0:0:0:
320,192,140273,1,0,0:0:0:0:
192,192,140399,1,0,0:0:0:0:
320,192,140462,1,0,0:0:0:0:
192,192,140588,1,0,0:0:0:0:
64,192,140714,1,0,0:0:0:0:
192,192,140840,1,0,0:0:0:0:
448,192,140966,1,0,0:0:0:0:
192,192,141092,1,0,0:0:0:0:
64,192,141218,1,0,0:0:0:0:
