osu file format v14

[General]
AudioFilename: audio110.mp3
AudioLeadIn: 0
PreviewTime: 41714
Countdown: 0
SampleSet: None
StackLeniency: 0.7
Mode: 3
LetterboxInBreaks: 0
SpecialStyle: 0
WidescreenStoryboard: 0

[Editor]
DistanceSpacing: 0.8
BeatDivisor: 4
GridSize: 8
TimelineZoom: 1

[Metadata]
Title:Captain Jack (Grandale Remix)
TitleUnicode:Captain Jack (Grandale Remix)
Artist:Captain Jack
ArtistUnicode:Captain Jack
Creator:Cokiiplay
Version:Expert 1,1x
Source:DanceDanceRevolution 3rdMIX
Tags:
BeatmapID:2065482
BeatmapSetID:987353

[Difficulty]
HPDrainRate:8
CircleSize:4
OverallDifficulty:8
ApproachRate:5
SliderMultiplier:1.4
SliderTickRate:1

[Events]
//Background and Video events
//Break Periods
//Storyboard Layer 0 (Background)
//Storyboard Layer 1 (Fail)
//Storyboard Layer 2 (Pass)
//Storyboard Layer 3 (Foreground)
//Storyboard Sound Samples

[TimingPoints]
5818,320.855614973262,4,1,0,50,1,0

[HitObjects]
64,192,5817,5,0,0:0:0:0:
448,192,5817,1,0,0:0:0:0:
192,192,5817,1,0,0:0:0:0:
320,192,5978,1,0,0:0:0:0:
448,192,6138,1,0,0:0:0:0:
64,192,6138,1,0,0:0:0:0:
192,192,6299,1,0,0:0:0:0:
192,192,6459,1,0,0:0:0:0:
448,192,6620,1,0,0:0:0:0:
192,192,6780,1,0,0:0:0:0:
64,192,6780,1,0,0:0:0:0:
320,192,6860,1,0,0:0:0:0:
192,192,6940,1,0,0:0:0:0:
320,192,7021,1,0,0:0:0:0:
448,192,7101,1,0,0:0:0:0:
448,192,7261,1,0,0:0:0:0:
64,192,7422,1,0,0:0:0:0:
320,192,7422,1,0,0:0:0:0:
192,192,7582,1,0,0:0:0:0:
448,192,7662,1,0,0:0:0:0:
320,192,7743,1,0,0:0:0:0:
192,192,7823,1,0,0:0:0:0:
448,192,7903,1,0,0:0:0:0:
320,192,7983,1,0,0:0:0:0:
64,192,8063,1,0,0:0:0:0:
192,192,8063,1,0,0:0:0:0:
320,192,8224,1,0,0:0:0:0:
192,192,8304,1,0,0:0:0:0:
448,192,8384,1,0,0:0:0:0:
448,192,8545,1,0,0:0:0:0:
320,192,8705,1,0,0:0:0:0:
64,192,8705,1,0,0:0:0:0:
192,192,8866,1,0,0:0:0:0:
192,192,9026,1,0,0:0:0:0:
320,192,9186,1,0,0:0:0:0:
448,192,9347,1,0,0:0:0:0:
64,192,9347,1,0,0:0:0:0:
192,192,9427,1,0,0:0:0:0:
320,192,9507,1,0,0:0:0:0:
192,192,9588,1,0,0:0:0:0:
64,192,9668,1,0,0:0:0:0:
64,192,9828,1,0,0:0:0:0:
448,192,9989,1,0,0:0:0:0:
320,192,9989,1,0,0:0:0:0:
192,192,10149,1,0,0:0:0:0:
320,192,10229,1,0,0:0:0:0:
448,192,10309,1,0,0:0:0:0:
320,192,10390,1,0,0:0:0:0:
64,192,10470,1,0,0:0:0:0:
192,192,10470,1,0,0:0:0:0:
448,192,10550,1,0,0:0:0:0:
320,192,10550,1,0,0:0:0:0:
192,192,10630,1,0,0:0:0:0:
448,192,10711,1,0,0:0:0:0:
64,192,10791,1,0,0:0:0:0:
320,192,10791,1,0,0:0:0:0:
192,192,10871,1,0,0:0:0:0:
448,192,10951,1,0,0:0:0:0:
64,192,10951,1,0,0:0:0:0:
320,192,10951,1,0,0:0:0:0:
192,192,11112,1,0,0:0:0:0:
448,192,11272,1,0,0:0:0:0:
320,192,11272,1,0,0:0:0:0:
64,192,11432,1,0,0:0:0:0:
64,192,11593,1,0,0:0:0:0:
448,192,11753,1,0,0:0:0:0:
320,192,11914,1,0,0:0:0:0:
64,192,11914,1,0,0:0:0:0:
192,192,11994,1,0,0:0:0:0:
448,192,12074,1,0,0:0:0:0:
320,192,12154,1,0,0:0:0:0:
192,192,12235,1,0,0:0:0:0:
192,192,12395,1,0,0:0:0:0:
448,192,12555,1,0,0:0:0:0:
64,192,12555,1,0,0:0:0:0:
192,192,12716,1,0,0:0:0:0:
64,192,12796,1,0,0:0:0:0:
448,192,12876,1,0,0:0:0:0:
320,192,12957,1,0,0:0:0:0:
192,192,13037,1,0,0:0:0:0:
448,192,13117,1,0,0:0:0:0:
64,192,13197,1,0,0:0:0:0:
320,192,13197,1,0,0:0:0:0:
192,192,13358,1,0,0:0:0:0:
320,192,13438,1,0,0:0:0:0:
448,192,13518,1,0,0:0:0:0:
448,192,13678,1,0,0:0:0:0:
320,192,13839,1,0,0:0:0:0:
64,192,13839,1,0,0:0:0:0:
192,192,13999,1,0,0:0:0:0:
192,192,14160,1,0,0:0:0:0:
448,192,14320,1,0,0:0:0:0:
192,192,14481,1,0,0:0:0:0:
320,192,14481,1,0,0:0:0:0:
448,192,14561,1,0,0:0:0:0:
64,192,14641,1,0,0:0:0:0:
192,192,14721,1,0,0:0:0:0:
448,192,14801,1,0,0:0:0:0:
320,192,14801,1,0,0:0:0:0:
64,192,14882,1,0,0:0:0:0:
320,192,14962,1,0,0:0:0:0:
64,192,15042,1,0,0:0:0:0:
192,192,15122,1,0,0:0:0:0:
448,192,15203,1,0,0:0:0:0:
192,192,15283,1,0,0:0:0:0:
448,192,15363,1,0,0:0:0:0:
64,192,15443,1,0,0:0:0:0:
320,192,15443,1,0,0:0:0:0:
192,192,15523,1,0,0:0:0:0:
320,192,15604,1,0,0:0:0:0:
192,192,15684,1,0,0:0:0:0:
448,192,15764,1,0,0:0:0:0:
64,192,15844,1,0,0:0:0:0:
448,192,15924,1,0,0:0:0:0:
64,192,16005,1,0,0:0:0:0:
320,192,16085,1,0,0:0:0:0:
192,192,16085,1,0,0:0:0:0:
64,192,16245,1,0,0:0:0:0:
320,192,16406,1,0,0:0:0:0:
448,192,16406,1,0,0:0:0:0:
192,192,16406,1,0,0:0:0:0:
64,192,16566,1,0,0:0:0:0:
448,192,16727,1,0,0:0:0:0:
192,192,16727,1,0,0:0:0:0:
320,192,16887,1,0,0:0:0:0:
448,192,17047,1,0,0:0:0:0:
64,192,17047,1,0,0:0:0:0:
192,192,17047,1,0,0:0:0:0:
320,192,17128,1,0,0:0:0:0:
64,192,17208,1,0,0:0:0:0:
192,192,17288,1,0,0:0:0:0:
448,192,17368,1,0,0:0:0:0:
320,192,17368,1,0,0:0:0:0:
192,192,17529,1,0,0:0:0:0:
448,192,17689,1,0,0:0:0:0:
64,192,17689,1,0,0:0:0:0:
320,192,17689,1,0,0:0:0:0:
192,192,17850,1,0,0:0:0:0:
320,192,17930,1,0,0:0:0:0:
448,192,18010,1,0,0:0:0:0:
64,192,18010,1,0,0:0:0:0:
320,192,18090,1,0,0:0:0:0:
192,192,18170,1,0,0:0:0:0:
320,192,18251,1,0,0:0:0:0:
448,192,18331,1,0,0:0:0:0:
64,192,18331,1,0,0:0:0:0:
192,192,18331,1,0,0:0:0:0:
320,192,18491,1,0,0:0:0:0:
192,192,18572,1,0,0:0:0:0:
320,192,18652,1,0,0:0:0:0:
448,192,18652,1,0,0:0:0:0:
64,192,18812,1,0,0:0:0:0:
320,192,18973,1,0,0:0:0:0:
448,192,18973,1,0,0:0:0:0:
192,192,18973,1,0,0:0:0:0:
64,192,19133,1,0,0:0:0:0:
320,192,19293,1,0,0:0:0:0:
192,192,19293,1,0,0:0:0:0:
448,192,19454,1,0,0:0:0:0:
320,192,19614,1,0,0:0:0:0:
192,192,19614,1,0,0:0:0:0:
64,192,19614,1,0,0:0:0:0:
448,192,19695,1,0,0:0:0:0:
192,192,19775,1,0,0:0:0:0:
448,192,19855,1,0,0:0:0:0:
64,192,19935,1,0,0:0:0:0:
320,192,19935,1,0,0:0:0:0:
192,192,20096,1,0,0:0:0:0:
64,192,20256,1,0,0:0:0:0:
448,192,20256,1,0,0:0:0:0:
320,192,20256,1,0,0:0:0:0:
192,192,20416,1,0,0:0:0:0:
320,192,20497,1,0,0:0:0:0:
64,192,20577,1,0,0:0:0:0:
192,192,20577,1,0,0:0:0:0:
320,192,20657,1,0,0:0:0:0:
64,192,20737,1,0,0:0:0:0:
448,192,20737,1,0,0:0:0:0:
320,192,20817,1,0,0:0:0:0:
192,192,20817,1,0,0:0:0:0:
64,192,20898,1,0,0:0:0:0:
448,192,20898,1,0,0:0:0:0:
192,192,20978,1,0,0:0:0:0:
448,192,21058,1,0,0:0:0:0:
320,192,21058,1,0,0:0:0:0:
64,192,21138,1,0,0:0:0:0:
192,192,21138,1,0,0:0:0:0:
448,192,21219,1,0,0:0:0:0:
320,192,21219,1,0,0:0:0:0:
192,192,21379,1,0,0:0:0:0:
448,192,21539,1,0,0:0:0:0:
320,192,21539,1,0,0:0:0:0:
64,192,21539,1,0,0:0:0:0:
320,192,21700,1,0,0:0:0:0:
64,192,21860,1,0,0:0:0:0:
192,192,21860,1,0,0:0:0:0:
320,192,22021,1,0,0:0:0:0:
448,192,22181,1,0,0:0:0:0:
192,192,22181,1,0,0:0:0:0:
64,192,22181,1,0,0:0:0:0:
320,192,22261,1,0,0:0:0:0:
192,192,22342,1,0,0:0:0:0:
320,192,22422,1,0,0:0:0:0:
64,192,22502,1,0,0:0:0:0:
448,192,22502,1,0,0:0:0:0:
192,192,22662,1,0,0:0:0:0:
64,192,22823,1,0,0:0:0:0:
448,192,22823,1,0,0:0:0:0:
320,192,22823,1,0,0:0:0:0:
192,192,22983,1,0,0:0:0:0:
448,192,23063,1,0,0:0:0:0:
64,192,23144,1,0,0:0:0:0:
320,192,23144,1,0,0:0:0:0:
192,192,23224,1,0,0:0:0:0:
448,192,23304,1,0,0:0:0:0:
320,192,23384,1,0,0:0:0:0:
448,192,23465,1,0,0:0:0:0:
64,192,23465,1,0,0:0:0:0:
192,192,23465,1,0,0:0:0:0:
320,192,23545,1,0,0:0:0:0:
64,192,23625,1,0,0:0:0:0:
192,192,23705,1,0,0:0:0:0:
448,192,23785,1,0,0:0:0:0:
320,192,23785,1,0,0:0:0:0:
192,192,23946,1,0,0:0:0:0:
448,192,24106,1,0,0:0:0:0:
320,192,24106,1,0,0:0:0:0:
64,192,24106,1,0,0:0:0:0:
192,192,24267,1,0,0:0:0:0:
448,192,24427,1,0,0:0:0:0:
64,192,24427,1,0,0:0:0:0:
320,192,24588,1,0,0:0:0:0:
448,192,24748,1,0,0:0:0:0:
64,192,24748,1,0,0:0:0:0:
192,192,24748,1,0,0:0:0:0:
320,192,24828,1,0,0:0:0:0:
192,192,24908,1,0,0:0:0:0:
448,192,24989,1,0,0:0:0:0:
320,192,25069,1,0,0:0:0:0:
64,192,25149,1,0,0:0:0:0:
192,192,25149,1,0,0:0:0:0:
448,192,25229,1,0,0:0:0:0:
320,192,25229,1,0,0:0:0:0:
64,192,25309,1,0,0:0:0:0:
192,192,25309,1,0,0:0:0:0:
448,192,25390,1,0,0:0:0:0:
192,192,25470,1,0,0:0:0:0:
320,192,25470,1,0,0:0:0:0:
448,192,25550,1,0,0:0:0:0:
64,192,25550,1,0,0:0:0:0:
192,192,25630,1,0,0:0:0:0:
320,192,25630,1,0,0:0:0:0:
64,192,25711,1,0,0:0:0:0:
320,192,25791,1,0,0:0:0:0:
448,192,25791,1,0,0:0:0:0:
64,192,25871,1,0,0:0:0:0:
192,192,25871,1,0,0:0:0:0:
320,192,25951,1,0,0:0:0:0:
448,192,25951,1,0,0:0:0:0:
192,192,26031,1,0,0:0:0:0:
448,192,26112,1,0,0:0:0:0:
64,192,26112,1,0,0:0:0:0:
192,192,26192,1,0,0:0:0:0:
320,192,26192,1,0,0:0:0:0:
448,192,26272,1,0,0:0:0:0:
64,192,26272,1,0,0:0:0:0:
320,192,26352,128,0,28919:0:0:0:0:
64,192,28919,1,0,0:0:0:0:
192,192,29080,1,0,0:0:0:0:
448,192,29240,1,0,0:0:0:0:
192,192,29400,1,0,0:0:0:0:
320,192,29561,1,0,0:0:0:0:
192,192,29641,1,0,0:0:0:0:
320,192,29801,1,0,0:0:0:0:
192,192,29882,1,0,0:0:0:0:
320,192,30042,1,0,0:0:0:0:
64,192,30203,1,0,0:0:0:0:
192,192,30363,1,0,0:0:0:0:
448,192,30523,1,0,0:0:0:0:
192,192,30684,1,0,0:0:0:0:
64,192,30844,1,0,0:0:0:0:
448,192,31326,1,0,0:0:0:0:
64,192,31326,1,0,0:0:0:0:
192,192,31406,1,0,0:0:0:0:
320,192,31406,1,0,0:0:0:0:
448,192,31486,1,0,0:0:0:0:
64,192,31486,1,0,0:0:0:0:
320,192,31646,1,0,0:0:0:0:
448,192,31807,1,0,0:0:0:0:
64,192,31807,1,0,0:0:0:0:
192,192,31807,1,0,0:0:0:0:
320,192,31887,1,0,0:0:0:0:
64,192,31967,1,0,0:0:0:0:
320,192,32128,1,0,0:0:0:0:
192,192,32128,1,0,0:0:0:0:
64,192,32288,1,0,0:0:0:0:
320,192,32368,1,0,0:0:0:0:
448,192,32449,1,0,0:0:0:0:
64,192,32449,1,0,0:0:0:0:
192,192,32449,1,0,0:0:0:0:
320,192,32529,1,0,0:0:0:0:
192,192,32609,1,0,0:0:0:0:
64,192,32769,1,0,0:0:0:0:
448,192,32769,1,0,0:0:0:0:
192,192,32930,1,0,0:0:0:0:
448,192,33090,1,0,0:0:0:0:
320,192,33090,1,0,0:0:0:0:
64,192,33090,1,0,0:0:0:0:
192,192,33170,1,0,0:0:0:0:
448,192,33251,1,0,0:0:0:0:
64,192,33331,1,0,0:0:0:0:
320,192,33411,1,0,0:0:0:0:
192,192,33411,1,0,0:0:0:0:
448,192,33491,1,0,0:0:0:0:
320,192,33572,1,0,0:0:0:0:
192,192,33652,1,0,0:0:0:0:
448,192,33732,1,0,0:0:0:0:
320,192,33732,1,0,0:0:0:0:
64,192,33732,1,0,0:0:0:0:
192,192,33892,1,0,0:0:0:0:
64,192,34053,1,0,0:0:0:0:
448,192,34053,1,0,0:0:0:0:
320,192,34213,1,0,0:0:0:0:
448,192,34374,1,0,0:0:0:0:
64,192,34374,1,0,0:0:0:0:
192,192,34374,1,0,0:0:0:0:
320,192,34454,1,0,0:0:0:0:
192,192,34534,1,0,0:0:0:0:
448,192,34695,1,0,0:0:0:0:
320,192,34695,1,0,0:0:0:0:
64,192,34855,1,0,0:0:0:0:
320,192,34935,1,0,0:0:0:0:
64,192,35015,1,0,0:0:0:0:
448,192,35015,1,0,0:0:0:0:
192,192,35015,1,0,0:0:0:0:
320,192,35096,1,0,0:0:0:0:
192,192,35176,1,0,0:0:0:0:
448,192,35256,1,0,0:0:0:0:
64,192,35336,1,0,0:0:0:0:
320,192,35336,1,0,0:0:0:0:
192,192,35497,1,0,0:0:0:0:
64,192,35657,1,0,0:0:0:0:
448,192,35657,1,0,0:0:0:0:
320,192,35657,1,0,0:0:0:0:
192,192,35737,1,0,0:0:0:0:
448,192,35817,1,0,0:0:0:0:
320,192,35898,1,0,0:0:0:0:
64,192,35978,1,0,0:0:0:0:
192,192,35978,1,0,0:0:0:0:
448,192,36058,1,0,0:0:0:0:
320,192,36138,1,0,0:0:0:0:
64,192,36138,1,0,0:0:0:0:
192,192,36219,1,0,0:0:0:0:
448,192,36299,1,0,0:0:0:0:
320,192,36299,1,0,0:0:0:0:
192,192,36459,1,0,0:0:0:0:
448,192,36539,1,0,0:0:0:0:
64,192,36620,1,0,0:0:0:0:
320,192,36620,1,0,0:0:0:0:
448,192,36780,1,0,0:0:0:0:
320,192,36940,1,0,0:0:0:0:
64,192,36940,1,0,0:0:0:0:
192,192,36940,1,0,0:0:0:0:
448,192,37021,1,0,0:0:0:0:
64,192,37101,1,0,0:0:0:0:
192,192,37261,1,0,0:0:0:0:
448,192,37261,1,0,0:0:0:0:
64,192,37422,1,0,0:0:0:0:
448,192,37502,1,0,0:0:0:0:
64,192,37582,1,0,0:0:0:0:
192,192,37582,1,0,0:0:0:0:
320,192,37582,1,0,0:0:0:0:
448,192,37662,1,0,0:0:0:0:
320,192,37743,1,0,0:0:0:0:
448,192,37903,1,0,0:0:0:0:
64,192,37903,1,0,0:0:0:0:
192,192,38063,1,0,0:0:0:0:
64,192,38224,1,0,0:0:0:0:
448,192,38224,1,0,0:0:0:0:
320,192,38224,1,0,0:0:0:0:
192,192,38304,1,0,0:0:0:0:
448,192,38384,1,0,0:0:0:0:
320,192,38465,1,0,0:0:0:0:
64,192,38545,1,0,0:0:0:0:
192,192,38545,1,0,0:0:0:0:
320,192,38705,1,0,0:0:0:0:
192,192,38785,1,0,0:0:0:0:
448,192,38866,1,0,0:0:0:0:
320,192,38866,1,0,0:0:0:0:
64,192,38866,1,0,0:0:0:0:
192,192,39026,1,0,0:0:0:0:
320,192,39106,1,0,0:0:0:0:
448,192,39186,1,0,0:0:0:0:
64,192,39186,1,0,0:0:0:0:
320,192,39347,1,0,0:0:0:0:
448,192,39507,1,0,0:0:0:0:
64,192,39507,1,0,0:0:0:0:
192,192,39507,1,0,0:0:0:0:
320,192,39588,1,0,0:0:0:0:
64,192,39668,1,0,0:0:0:0:
320,192,39828,1,0,0:0:0:0:
192,192,39828,1,0,0:0:0:0:
64,192,39989,1,0,0:0:0:0:
320,192,40069,1,0,0:0:0:0:
448,192,40149,1,0,0:0:0:0:
64,192,40149,1,0,0:0:0:0:
192,192,40149,1,0,0:0:0:0:
320,192,40309,1,0,0:0:0:0:
192,192,40390,1,0,0:0:0:0:
64,192,40470,1,0,0:0:0:0:
448,192,40470,1,0,0:0:0:0:
320,192,40550,1,0,0:0:0:0:
192,192,40630,1,0,0:0:0:0:
320,192,40711,1,0,0:0:0:0:
64,192,40791,1,0,0:0:0:0:
448,192,40791,1,0,0:0:0:0:
192,192,40871,1,0,0:0:0:0:
320,192,40951,1,0,0:0:0:0:
192,192,41031,1,0,0:0:0:0:
448,192,41112,1,0,0:0:0:0:
64,192,41112,1,0,0:0:0:0:
320,192,41192,1,0,0:0:0:0:
192,192,41272,1,0,0:0:0:0:
64,192,41352,1,0,0:0:0:0:
448,192,41432,1,0,0:0:0:0:
320,192,41432,1,0,0:0:0:0:
64,192,41513,1,0,0:0:0:0:
192,192,41593,1,0,0:0:0:0:
448,192,41673,1,0,0:0:0:0:
192,192,41753,1,0,0:0:0:0:
320,192,41753,1,0,0:0:0:0:
64,192,41753,1,0,0:0:0:0:
448,192,41914,1,0,0:0:0:0:
320,192,42074,1,0,0:0:0:0:
192,192,42074,1,0,0:0:0:0:
64,192,42074,1,0,0:0:0:0:
192,192,42235,1,0,0:0:0:0:
448,192,42395,1,0,0:0:0:0:
64,192,42395,1,0,0:0:0:0:
320,192,42555,1,0,0:0:0:0:
448,192,42716,1,0,0:0:0:0:
64,192,42716,1,0,0:0:0:0:
192,192,42716,1,0,0:0:0:0:
320,192,42796,1,0,0:0:0:0:
192,192,42876,1,0,0:0:0:0:
448,192,42957,1,0,0:0:0:0:
64,192,43037,1,0,0:0:0:0:
320,192,43037,1,0,0:0:0:0:
192,192,43197,1,0,0:0:0:0:
64,192,43358,1,0,0:0:0:0:
448,192,43358,1,0,0:0:0:0:
320,192,43358,1,0,0:0:0:0:
320,192,43518,1,0,0:0:0:0:
192,192,43598,1,0,0:0:0:0:
448,192,43678,1,0,0:0:0:0:
64,192,43678,1,0,0:0:0:0:
320,192,43759,1,0,0:0:0:0:
192,192,43839,1,0,0:0:0:0:
64,192,43999,1,0,0:0:0:0:
448,192,43999,1,0,0:0:0:0:
320,192,43999,1,0,0:0:0:0:
192,192,44160,1,0,0:0:0:0:
320,192,44240,1,0,0:0:0:0:
64,192,44320,1,0,0:0:0:0:
192,192,44320,1,0,0:0:0:0:
448,192,44481,1,0,0:0:0:0:
64,192,44641,1,0,0:0:0:0:
192,192,44641,1,0,0:0:0:0:
320,192,44641,1,0,0:0:0:0:
64,192,44801,1,0,0:0:0:0:
448,192,44962,1,0,0:0:0:0:
192,192,44962,1,0,0:0:0:0:
320,192,45122,1,0,0:0:0:0:
448,192,45283,1,0,0:0:0:0:
64,192,45283,1,0,0:0:0:0:
192,192,45283,1,0,0:0:0:0:
320,192,45363,1,0,0:0:0:0:
192,192,45443,1,0,0:0:0:0:
64,192,45604,1,0,0:0:0:0:
448,192,45604,1,0,0:0:0:0:
192,192,45764,1,0,0:0:0:0:
64,192,45924,1,0,0:0:0:0:
448,192,45924,1,0,0:0:0:0:
320,192,45924,1,0,0:0:0:0:
192,192,46085,1,0,0:0:0:0:
320,192,46165,1,0,0:0:0:0:
448,192,46245,1,0,0:0:0:0:
64,192,46245,1,0,0:0:0:0:
192,192,46326,1,0,0:0:0:0:
448,192,46406,1,0,0:0:0:0:
320,192,46406,1,0,0:0:0:0:
64,192,46486,1,0,0:0:0:0:
192,192,46486,1,0,0:0:0:0:
448,192,46566,1,0,0:0:0:0:
320,192,46566,1,0,0:0:0:0:
64,192,46727,1,0,0:0:0:0:
192,192,46727,1,0,0:0:0:0:
448,192,46807,1,0,0:0:0:0:
320,192,46807,1,0,0:0:0:0:
64,192,46887,1,0,0:0:0:0:
192,192,46887,1,0,0:0:0:0:
320,192,47047,1,0,0:0:0:0:
448,192,47208,1,0,0:0:0:0:
64,192,47208,1,0,0:0:0:0:
192,192,47208,1,0,0:0:0:0:
320,192,47368,1,0,0:0:0:0:
448,192,47529,1,0,0:0:0:0:
64,192,47529,1,0,0:0:0:0:
192,192,47689,1,0,0:0:0:0:
320,192,47769,1,0,0:0:0:0:
448,192,47850,1,0,0:0:0:0:
64,192,47850,1,0,0:0:0:0:
192,192,47850,1,0,0:0:0:0:
320,192,47930,1,0,0:0:0:0:
64,192,48010,1,0,0:0:0:0:
192,192,48090,1,0,0:0:0:0:
448,192,48170,1,0,0:0:0:0:
320,192,48170,1,0,0:0:0:0:
192,192,48331,1,0,0:0:0:0:
448,192,48491,1,0,0:0:0:0:
320,192,48491,1,0,0:0:0:0:
64,192,48491,1,0,0:0:0:0:
192,192,48652,1,0,0:0:0:0:
320,192,48732,1,0,0:0:0:0:
64,192,48812,1,0,0:0:0:0:
448,192,48812,1,0,0:0:0:0:
192,192,48892,1,0,0:0:0:0:
448,192,48973,1,0,0:0:0:0:
64,192,49133,1,0,0:0:0:0:
192,192,49133,1,0,0:0:0:0:
320,192,49133,1,0,0:0:0:0:
448,192,49293,1,0,0:0:0:0:
320,192,49374,1,0,0:0:0:0:
64,192,49454,1,0,0:0:0:0:
192,192,49454,1,0,0:0:0:0:
320,192,49614,1,0,0:0:0:0:
448,192,49775,1,0,0:0:0:0:
64,192,49775,1,0,0:0:0:0:
192,192,49775,1,0,0:0:0:0:
64,192,49935,1,0,0:0:0:0:
448,192,50096,1,0,0:0:0:0:
192,192,50096,1,0,0:0:0:0:
320,192,50256,1,0,0:0:0:0:
448,192,50416,1,0,0:0:0:0:
64,192,50416,1,0,0:0:0:0:
192,192,50416,1,0,0:0:0:0:
320,192,50497,1,0,0:0:0:0:
192,192,50577,1,0,0:0:0:0:
448,192,50737,1,0,0:0:0:0:
320,192,50737,1,0,0:0:0:0:
64,192,50817,1,0,0:0:0:0:
192,192,50898,1,0,0:0:0:0:
320,192,50978,1,0,0:0:0:0:
448,192,51058,1,0,0:0:0:0:
64,192,51058,1,0,0:0:0:0:
192,192,51058,1,0,0:0:0:0:
320,192,51219,1,0,0:0:0:0:
64,192,51299,1,0,0:0:0:0:
192,192,51379,1,0,0:0:0:0:
448,192,51379,1,0,0:0:0:0:
320,192,51379,1,0,0:0:0:0:
64,192,51459,1,0,0:0:0:0:
192,192,51539,1,0,0:0:0:0:
320,192,51620,1,0,0:0:0:0:
448,192,51700,1,0,0:0:0:0:
64,192,51700,1,0,0:0:0:0:
192,192,51780,1,0,0:0:0:0:
320,192,51860,1,0,0:0:0:0:
192,192,51940,1,0,0:0:0:0:
64,192,52021,1,0,0:0:0:0:
448,192,52021,1,0,0:0:0:0:
320,192,52021,1,0,0:0:0:0:
192,192,52181,1,0,0:0:0:0:
64,192,52342,1,0,0:0:0:0:
320,192,52342,1,0,0:0:0:0:
448,192,52342,1,0,0:0:0:0:
320,192,52502,1,0,0:0:0:0:
64,192,52662,1,0,0:0:0:0:
192,192,52662,1,0,0:0:0:0:
320,192,52823,1,0,0:0:0:0:
448,192,52983,1,0,0:0:0:0:
64,192,52983,1,0,0:0:0:0:
192,192,52983,1,0,0:0:0:0:
320,192,53063,1,0,0:0:0:0:
192,192,53144,1,0,0:0:0:0:
448,192,53224,1,0,0:0:0:0:
320,192,53304,1,0,0:0:0:0:
64,192,53304,1,0,0:0:0:0:
192,192,53465,1,0,0:0:0:0:
64,192,53625,1,0,0:0:0:0:
448,192,53625,1,0,0:0:0:0:
320,192,53625,1,0,0:0:0:0:
192,192,53785,1,0,0:0:0:0:
320,192,53866,1,0,0:0:0:0:
64,192,53946,1,0,0:0:0:0:
192,192,53946,1,0,0:0:0:0:
448,192,54026,1,0,0:0:0:0:
320,192,54106,1,0,0:0:0:0:
64,192,54186,1,0,0:0:0:0:
448,192,54267,1,0,0:0:0:0:
320,192,54267,1,0,0:0:0:0:
192,192,54267,1,0,0:0:0:0:
64,192,54427,1,0,0:0:0:0:
448,192,54507,1,0,0:0:0:0:
192,192,54588,1,0,0:0:0:0:
320,192,54588,1,0,0:0:0:0:
64,192,54748,1,0,0:0:0:0:
448,192,54908,1,0,0:0:0:0:
320,192,54908,1,0,0:0:0:0:
192,192,54908,1,0,0:0:0:0:
64,192,55069,1,0,0:0:0:0:
448,192,55229,1,0,0:0:0:0:
192,192,55229,1,0,0:0:0:0:
320,192,55390,1,0,0:0:0:0:
448,192,55550,1,0,0:0:0:0:
64,192,55550,1,0,0:0:0:0:
192,192,55550,1,0,0:0:0:0:
320,192,55630,1,0,0:0:0:0:
192,192,55711,1,0,0:0:0:0:
64,192,55871,1,0,0:0:0:0:
448,192,55871,1,0,0:0:0:0:
192,192,56031,1,0,0:0:0:0:
64,192,56192,1,0,0:0:0:0:
448,192,56192,1,0,0:0:0:0:
320,192,56192,1,0,0:0:0:0:
192,192,56352,1,0,0:0:0:0:
320,192,56432,1,0,0:0:0:0:
64,192,56513,1,0,0:0:0:0:
192,192,56513,1,0,0:0:0:0:
448,192,56593,1,0,0:0:0:0:
64,192,56673,1,0,0:0:0:0:
320,192,56673,1,0,0:0:0:0:
192,192,56753,1,0,0:0:0:0:
64,192,56834,1,0,0:0:0:0:
448,192,56834,1,0,0:0:0:0:
320,192,56834,1,0,0:0:0:0:
192,192,56994,1,0,0:0:0:0:
448,192,57074,1,0,0:0:0:0:
192,192,57154,1,0,0:0:0:0:
320,192,57154,1,0,0:0:0:0:
64,192,57315,1,0,0:0:0:0:
320,192,57475,1,0,0:0:0:0:
448,192,57475,1,0,0:0:0:0:
192,192,57475,1,0,0:0:0:0:
320,192,57636,1,0,0:0:0:0:
64,192,57796,1,0,0:0:0:0:
192,192,57796,1,0,0:0:0:0:
320,192,57957,1,0,0:0:0:0:
448,192,58117,1,0,0:0:0:0:
192,192,58117,1,0,0:0:0:0:
64,192,58117,1,0,0:0:0:0:
320,192,58197,1,0,0:0:0:0:
192,192,58277,1,0,0:0:0:0:
448,192,58358,1,0,0:0:0:0:
64,192,58438,1,0,0:0:0:0:
320,192,58438,1,0,0:0:0:0:
192,192,58598,1,0,0:0:0:0:
64,192,58759,1,0,0:0:0:0:
448,192,58759,1,0,0:0:0:0:
320,192,58759,1,0,0:0:0:0:
192,192,58919,1,0,0:0:0:0:
320,192,58999,1,0,0:0:0:0:
64,192,59080,1,0,0:0:0:0:
192,192,59080,1,0,0:0:0:0:
448,192,59160,1,0,0:0:0:0:
320,192,59240,1,0,0:0:0:0:
448,192,59400,1,0,0:0:0:0:
64,192,59400,1,0,0:0:0:0:
192,192,59400,1,0,0:0:0:0:
320,192,59561,1,0,0:0:0:0:
192,192,59641,1,0,0:0:0:0:
64,192,59721,1,0,0:0:0:0:
448,192,59721,1,0,0:0:0:0:
192,192,59882,1,0,0:0:0:0:
64,192,60042,1,0,0:0:0:0:
448,192,60042,1,0,0:0:0:0:
320,192,60042,1,0,0:0:0:0:
320,192,60203,1,0,0:0:0:0:
64,192,60363,1,0,0:0:0:0:
192,192,60363,1,0,0:0:0:0:
448,192,60523,1,0,0:0:0:0:
64,192,60684,1,0,0:0:0:0:
192,192,60684,1,0,0:0:0:0:
320,192,60684,1,0,0:0:0:0:
448,192,60764,1,0,0:0:0:0:
64,192,60844,1,0,0:0:0:0:
448,192,61005,1,0,0:0:0:0:
192,192,61005,1,0,0:0:0:0:
320,192,61085,1,0,0:0:0:0:
64,192,61165,1,0,0:0:0:0:
448,192,61245,1,0,0:0:0:0:
64,192,61326,1,0,0:0:0:0:
192,192,61326,1,0,0:0:0:0:
320,192,61326,1,0,0:0:0:0:
448,192,61406,1,0,0:0:0:0:
192,192,61486,1,0,0:0:0:0:
320,192,61566,1,0,0:0:0:0:
64,192,61646,1,0,0:0:0:0:
448,192,61646,1,0,0:0:0:0:
192,192,61727,1,0,0:0:0:0:
448,192,61807,1,0,0:0:0:0:
320,192,61807,1,0,0:0:0:0:
64,192,61887,1,0,0:0:0:0:
192,192,61887,1,0,0:0:0:0:
448,192,61967,1,0,0:0:0:0:
320,192,61967,1,0,0:0:0:0:
64,192,62047,1,0,0:0:0:0:
320,192,62128,1,0,0:0:0:0:
192,192,62128,1,0,0:0:0:0:
448,192,62208,1,0,0:0:0:0:
64,192,62288,1,0,0:0:0:0:
192,192,62288,128,0,63572:0:0:0:0:
448,192,63411,1,0,0:0:0:0:
64,192,63491,1,0,0:0:0:0:
320,192,63572,1,0,0:0:0:0:
448,192,63572,1,0,0:0:0:0:
320,192,63732,1,0,0:0:0:0:
448,192,63892,1,0,0:0:0:0:
192,192,63892,1,0,0:0:0:0:
64,192,63892,1,0,0:0:0:0:
320,192,64053,1,0,0:0:0:0:
192,192,64133,1,0,0:0:0:0:
448,192,64213,1,0,0:0:0:0:
64,192,64213,1,0,0:0:0:0:
320,192,64293,1,0,0:0:0:0:
192,192,64374,1,0,0:0:0:0:
448,192,64534,1,0,0:0:0:0:
320,192,64534,1,0,0:0:0:0:
64,192,64534,1,0,0:0:0:0:
192,192,64695,1,0,0:0:0:0:
320,192,64775,1,0,0:0:0:0:
448,192,64855,1,0,0:0:0:0:
64,192,64855,1,0,0:0:0:0:
192,192,65015,1,0,0:0:0:0:
64,192,65176,1,0,0:0:0:0:
448,192,65176,1,0,0:0:0:0:
320,192,65176,1,0,0:0:0:0:
448,192,65336,1,0,0:0:0:0:
64,192,65497,1,0,0:0:0:0:
192,192,65497,1,0,0:0:0:0:
320,192,65657,1,0,0:0:0:0:
448,192,65817,1,0,0:0:0:0:
192,192,65817,1,0,0:0:0:0:
64,192,65817,1,0,0:0:0:0:
320,192,65898,1,0,0:0:0:0:
192,192,65978,1,0,0:0:0:0:
448,192,66138,1,0,0:0:0:0:
320,192,66138,1,0,0:0:0:0:
64,192,66299,1,0,0:0:0:0:
448,192,66459,1,0,0:0:0:0:
320,192,66459,1,0,0:0:0:0:
192,192,66459,1,0,0:0:0:0:
64,192,66620,1,0,0:0:0:0:
192,192,66700,1,0,0:0:0:0:
448,192,66780,1,0,0:0:0:0:
320,192,66780,1,0,0:0:0:0:
64,192,66860,1,0,0:0:0:0:
192,192,66940,1,0,0:0:0:0:
448,192,67101,1,0,0:0:0:0:
320,192,67101,1,0,0:0:0:0:
64,192,67101,1,0,0:0:0:0:
192,192,67261,1,0,0:0:0:0:
320,192,67342,1,0,0:0:0:0:
448,192,67422,1,0,0:0:0:0:
64,192,67422,1,0,0:0:0:0:
192,192,67422,1,0,0:0:0:0:
320,192,67582,1,0,0:0:0:0:
192,192,67743,1,0,0:0:0:0:
448,192,67743,1,0,0:0:0:0:
64,192,67743,1,0,0:0:0:0:
192,192,67903,1,0,0:0:0:0:
448,192,68063,1,0,0:0:0:0:
320,192,68063,1,0,0:0:0:0:
64,192,68224,1,0,0:0:0:0:
448,192,68384,1,0,0:0:0:0:
320,192,68384,1,0,0:0:0:0:
192,192,68384,1,0,0:0:0:0:
64,192,68465,1,0,0:0:0:0:
448,192,68545,1,0,0:0:0:0:
320,192,68625,1,0,0:0:0:0:
64,192,68705,1,0,0:0:0:0:
192,192,68705,1,0,0:0:0:0:
320,192,68866,1,0,0:0:0:0:
448,192,69026,1,0,0:0:0:0:
192,192,69026,1,0,0:0:0:0:
64,192,69026,1,0,0:0:0:0:
320,192,69186,1,0,0:0:0:0:
192,192,69267,1,0,0:0:0:0:
448,192,69347,1,0,0:0:0:0:
320,192,69347,1,0,0:0:0:0:
64,192,69427,1,0,0:0:0:0:
192,192,69507,1,0,0:0:0:0:
64,192,69668,1,0,0:0:0:0:
448,192,69668,1,0,0:0:0:0:
320,192,69668,1,0,0:0:0:0:
192,192,69828,1,0,0:0:0:0:
320,192,69908,1,0,0:0:0:0:
448,192,69989,1,0,0:0:0:0:
64,192,69989,1,0,0:0:0:0:
192,192,70149,1,0,0:0:0:0:
64,192,70309,1,0,0:0:0:0:
448,192,70309,1,0,0:0:0:0:
320,192,70309,1,0,0:0:0:0:
192,192,70470,1,0,0:0:0:0:
448,192,70630,1,0,0:0:0:0:
64,192,70630,1,0,0:0:0:0:
320,192,70791,1,0,0:0:0:0:
448,192,70951,1,0,0:0:0:0:
64,192,70951,1,0,0:0:0:0:
192,192,70951,1,0,0:0:0:0:
320,192,71031,1,0,0:0:0:0:
64,192,71112,1,0,0:0:0:0:
448,192,71272,1,0,0:0:0:0:
320,192,71272,1,0,0:0:0:0:
64,192,71352,1,0,0:0:0:0:
192,192,71432,1,0,0:0:0:0:
448,192,71513,1,0,0:0:0:0:
64,192,71593,1,0,0:0:0:0:
320,192,71593,1,0,0:0:0:0:
192,192,71673,1,0,0:0:0:0:
448,192,71753,1,0,0:0:0:0:
64,192,71834,1,0,0:0:0:0:
192,192,71834,1,0,0:0:0:0:
448,192,71914,1,0,0:0:0:0:
320,192,71914,1,0,0:0:0:0:
64,192,71994,1,0,0:0:0:0:
192,192,72074,1,0,0:0:0:0:
448,192,72154,1,0,0:0:0:0:
64,192,72235,1,0,0:0:0:0:
320,192,72235,1,0,0:0:0:0:
192,192,72315,1,0,0:0:0:0:
448,192,72395,1,0,0:0:0:0:
320,192,72395,1,0,0:0:0:0:
64,192,72475,1,0,0:0:0:0:
192,192,72475,1,0,0:0:0:0:
448,192,72555,1,0,0:0:0:0:
320,192,72555,1,0,0:0:0:0:
192,192,72716,1,0,0:0:0:0:
448,192,72876,1,0,0:0:0:0:
320,192,72876,1,0,0:0:0:0:
64,192,72876,1,0,0:0:0:0:
192,192,73037,1,0,0:0:0:0:
448,192,73197,1,0,0:0:0:0:
64,192,73197,1,0,0:0:0:0:
320,192,73358,1,0,0:0:0:0:
448,192,73518,1,0,0:0:0:0:
64,192,73518,1,0,0:0:0:0:
192,192,73518,1,0,0:0:0:0:
320,192,73598,1,0,0:0:0:0:
192,192,73678,1,0,0:0:0:0:
448,192,73759,1,0,0:0:0:0:
64,192,73839,1,0,0:0:0:0:
320,192,73839,1,0,0:0:0:0:
192,192,73999,1,0,0:0:0:0:
64,192,74160,1,0,0:0:0:0:
448,192,74160,1,0,0:0:0:0:
320,192,74160,1,0,0:0:0:0:
192,192,74320,1,0,0:0:0:0:
448,192,74400,1,0,0:0:0:0:
64,192,74481,1,0,0:0:0:0:
320,192,74481,1,0,0:0:0:0:
192,192,74561,1,0,0:0:0:0:
448,192,74641,1,0,0:0:0:0:
64,192,74801,1,0,0:0:0:0:
192,192,74801,1,0,0:0:0:0:
320,192,74801,1,0,0:0:0:0:
448,192,74962,1,0,0:0:0:0:
64,192,75042,1,0,0:0:0:0:
320,192,75122,1,0,0:0:0:0:
192,192,75122,1,0,0:0:0:0:
64,192,75283,1,0,0:0:0:0:
448,192,75443,1,0,0:0:0:0:
320,192,75443,1,0,0:0:0:0:
192,192,75443,1,0,0:0:0:0:
64,192,75604,1,0,0:0:0:0:
448,192,75764,1,0,0:0:0:0:
192,192,75764,1,0,0:0:0:0:
320,192,75924,1,0,0:0:0:0:
448,192,76085,1,0,0:0:0:0:
64,192,76085,1,0,0:0:0:0:
192,192,76085,1,0,0:0:0:0:
320,192,76165,1,0,0:0:0:0:
64,192,76245,1,0,0:0:0:0:
192,192,76326,1,0,0:0:0:0:
448,192,76406,1,0,0:0:0:0:
320,192,76406,1,0,0:0:0:0:
192,192,76566,1,0,0:0:0:0:
448,192,76727,1,0,0:0:0:0:
320,192,76727,1,0,0:0:0:0:
64,192,76727,1,0,0:0:0:0:
192,192,76887,1,0,0:0:0:0:
448,192,77047,1,0,0:0:0:0:
64,192,77047,1,0,0:0:0:0:
320,192,77128,1,0,0:0:0:0:
448,192,77208,1,0,0:0:0:0:
64,192,77208,1,0,0:0:0:0:
192,192,77208,1,0,0:0:0:0:
320,192,77288,1,0,0:0:0:0:
64,192,77368,1,0,0:0:0:0:
192,192,77368,1,0,0:0:0:0:
320,192,77529,1,0,0:0:0:0:
192,192,77609,1,0,0:0:0:0:
448,192,77689,1,0,0:0:0:0:
320,192,77689,1,0,0:0:0:0:
64,192,77689,1,0,0:0:0:0:
192,192,77850,1,0,0:0:0:0:
448,192,78010,1,0,0:0:0:0:
320,192,78010,1,0,0:0:0:0:
64,192,78010,1,0,0:0:0:0:
192,192,78170,1,0,0:0:0:0:
448,192,78331,1,0,0:0:0:0:
64,192,78331,1,0,0:0:0:0:
320,192,78491,1,0,0:0:0:0:
448,192,78652,1,0,0:0:0:0:
64,192,78652,1,0,0:0:0:0:
192,192,78652,1,0,0:0:0:0:
320,192,78732,1,0,0:0:0:0:
64,192,78812,1,0,0:0:0:0:
448,192,78892,1,0,0:0:0:0:
320,192,78973,1,0,0:0:0:0:
192,192,78973,1,0,0:0:0:0:
448,192,79133,1,0,0:0:0:0:
64,192,79293,1,0,0:0:0:0:
192,192,79293,1,0,0:0:0:0:
320,192,79293,1,0,0:0:0:0:
448,192,79454,1,0,0:0:0:0:
64,192,79534,1,0,0:0:0:0:
448,192,79614,1,0,0:0:0:0:
192,192,79614,1,0,0:0:0:0:
320,192,79695,1,0,0:0:0:0:
64,192,79775,1,0,0:0:0:0:
448,192,79935,1,0,0:0:0:0:
320,192,79935,1,0,0:0:0:0:
192,192,79935,1,0,0:0:0:0:
64,192,80096,1,0,0:0:0:0:
192,192,80176,1,0,0:0:0:0:
448,192,80256,1,0,0:0:0:0:
320,192,80256,1,0,0:0:0:0:
192,192,80416,1,0,0:0:0:0:
448,192,80577,1,0,0:0:0:0:
320,192,80577,1,0,0:0:0:0:
64,192,80577,1,0,0:0:0:0:
320,192,80737,1,0,0:0:0:0:
64,192,80898,1,0,0:0:0:0:
192,192,80898,1,0,0:0:0:0:
320,192,81058,1,0,0:0:0:0:
448,192,81219,1,0,0:0:0:0:
64,192,81219,1,0,0:0:0:0:
192,192,81219,1,0,0:0:0:0:
320,192,81299,1,0,0:0:0:0:
64,192,81379,1,0,0:0:0:0:
448,192,81539,1,0,0:0:0:0:
192,192,81539,1,0,0:0:0:0:
320,192,81620,1,0,0:0:0:0:
64,192,81700,1,0,0:0:0:0:
192,192,81780,1,0,0:0:0:0:
64,192,81860,1,0,0:0:0:0:
448,192,81860,1,0,0:0:0:0:
320,192,81860,1,0,0:0:0:0:
192,192,81940,1,0,0:0:0:0:
448,192,82021,1,0,0:0:0:0:
64,192,82101,1,0,0:0:0:0:
192,192,82181,1,0,0:0:0:0:
320,192,82181,1,0,0:0:0:0:
448,192,82261,1,0,0:0:0:0:
64,192,82342,1,0,0:0:0:0:
192,192,82422,1,0,0:0:0:0:
64,192,82502,1,0,0:0:0:0:
448,192,82502,1,0,0:0:0:0:
320,192,82502,1,0,0:0:0:0:
192,192,82582,1,0,0:0:0:0:
448,192,82662,1,0,0:0:0:0:
320,192,82743,1,0,0:0:0:0:
64,192,82823,1,0,0:0:0:0:
192,192,82823,1,0,0:0:0:0:
320,192,82983,1,0,0:0:0:0:
448,192,83144,1,0,0:0:0:0:
64,192,83144,1,0,0:0:0:0:
192,192,83144,1,0,0:0:0:0:
320,192,83304,1,0,0:0:0:0:
448,192,83465,1,0,0:0:0:0:
64,192,83465,1,0,0:0:0:0:
192,192,83625,1,0,0:0:0:0:
64,192,83785,1,0,0:0:0:0:
448,192,83785,1,0,0:0:0:0:
320,192,83785,1,0,0:0:0:0:
192,192,83866,1,0,0:0:0:0:
448,192,83946,1,0,0:0:0:0:
64,192,84106,1,0,0:0:0:0:
320,192,84106,1,0,0:0:0:0:
192,192,84267,1,0,0:0:0:0:
64,192,84427,1,0,0:0:0:0:
448,192,84427,1,0,0:0:0:0:
320,192,84427,1,0,0:0:0:0:
448,192,84588,1,0,0:0:0:0:
320,192,84668,1,0,0:0:0:0:
64,192,84748,1,0,0:0:0:0:
192,192,84748,1,0,0:0:0:0:
448,192,84828,1,0,0:0:0:0:
320,192,84908,1,0,0:0:0:0:
448,192,85069,1,0,0:0:0:0:
192,192,85069,1,0,0:0:0:0:
64,192,85069,1,0,0:0:0:0:
64,192,85229,1,0,0:0:0:0:
448,192,85309,1,0,0:0:0:0:
192,192,85390,1,0,0:0:0:0:
320,192,85390,1,0,0:0:0:0:
320,192,85550,1,0,0:0:0:0:
64,192,85711,1,0,0:0:0:0:
448,192,85711,1,0,0:0:0:0:
192,192,85711,1,0,0:0:0:0:
64,192,85871,1,0,0:0:0:0:
320,192,86031,1,0,0:0:0:0:
448,192,86031,1,0,0:0:0:0:
192,192,86192,1,0,0:0:0:0:
448,192,86352,1,0,0:0:0:0:
320,192,86352,1,0,0:0:0:0:
64,192,86352,1,0,0:0:0:0:
192,192,86432,1,0,0:0:0:0:
448,192,86513,1,0,0:0:0:0:
64,192,86673,1,0,0:0:0:0:
192,192,86673,1,0,0:0:0:0:
320,192,86834,1,0,0:0:0:0:
448,192,86994,1,0,0:0:0:0:
64,192,86994,1,0,0:0:0:0:
192,192,86994,1,0,0:0:0:0:
320,192,87154,1,0,0:0:0:0:
192,192,87235,1,0,0:0:0:0:
448,192,87315,1,0,0:0:0:0:
64,192,87315,1,0,0:0:0:0:
192,192,87395,1,0,0:0:0:0:
64,192,87475,1,0,0:0:0:0:
448,192,87475,1,0,0:0:0:0:
320,192,87475,1,0,0:0:0:0:
192,192,87555,1,0,0:0:0:0:
448,192,87636,1,0,0:0:0:0:
320,192,87636,1,0,0:0:0:0:
64,192,87796,1,0,0:0:0:0:
192,192,87796,1,0,0:0:0:0:
448,192,87876,1,0,0:0:0:0:
64,192,87957,1,0,0:0:0:0:
192,192,87957,1,0,0:0:0:0:
320,192,87957,1,0,0:0:0:0:
320,192,88117,1,0,0:0:0:0:
448,192,88277,1,0,0:0:0:0:
64,192,88277,1,0,0:0:0:0:
192,192,88277,1,0,0:0:0:0:
64,192,88438,1,0,0:0:0:0:
448,192,88598,1,0,0:0:0:0:
192,192,88598,1,0,0:0:0:0:
320,192,88678,1,0,0:0:0:0:
64,192,88759,1,0,0:0:0:0:
448,192,88919,1,0,0:0:0:0:
64,192,88919,1,0,0:0:0:0:
192,192,88919,1,0,0:0:0:0:
320,192,88999,1,0,0:0:0:0:
192,192,89080,1,0,0:0:0:0:
448,192,89240,1,0,0:0:0:0:
64,192,89240,1,0,0:0:0:0:
192,192,89400,1,0,0:0:0:0:
64,192,89561,1,0,0:0:0:0:
448,192,89561,1,0,0:0:0:0:
320,192,89561,1,0,0:0:0:0:
320,192,89721,1,0,0:0:0:0:
192,192,89801,1,0,0:0:0:0:
448,192,89882,1,0,0:0:0:0:
64,192,89882,1,0,0:0:0:0:
192,192,89962,1,0,0:0:0:0:
320,192,90042,1,0,0:0:0:0:
448,192,90203,1,0,0:0:0:0:
64,192,90203,1,0,0:0:0:0:
192,192,90203,1,0,0:0:0:0:
320,192,90363,1,0,0:0:0:0:
192,192,90443,1,0,0:0:0:0:
448,192,90523,1,0,0:0:0:0:
64,192,90523,1,0,0:0:0:0:
320,192,90684,1,0,0:0:0:0:
448,192,90844,1,0,0:0:0:0:
64,192,90844,1,0,0:0:0:0:
192,192,90844,1,0,0:0:0:0:
64,192,91005,1,0,0:0:0:0:
448,192,91165,1,0,0:0:0:0:
192,192,91165,1,0,0:0:0:0:
320,192,91326,1,0,0:0:0:0:
448,192,91486,1,0,0:0:0:0:
64,192,91486,1,0,0:0:0:0:
192,192,91486,1,0,0:0:0:0:
320,192,91566,1,0,0:0:0:0:
64,192,91646,1,0,0:0:0:0:
448,192,91807,1,0,0:0:0:0:
192,192,91807,1,0,0:0:0:0:
320,192,91887,1,0,0:0:0:0:
64,192,91967,1,0,0:0:0:0:
192,192,92047,1,0,0:0:0:0:
64,192,92128,1,0,0:0:0:0:
448,192,92128,1,0,0:0:0:0:
320,192,92128,1,0,0:0:0:0:
192,192,92208,1,0,0:0:0:0:
448,192,92288,1,0,0:0:0:0:
320,192,92368,1,0,0:0:0:0:
64,192,92449,1,0,0:0:0:0:
192,192,92449,1,0,0:0:0:0:
320,192,92529,1,0,0:0:0:0:
448,192,92529,1,0,0:0:0:0:
64,192,92609,1,0,0:0:0:0:
192,192,92609,1,0,0:0:0:0:
448,192,92689,1,0,0:0:0:0:
320,192,92689,1,0,0:0:0:0:
64,192,92769,1,0,0:0:0:0:
192,192,92769,1,0,0:0:0:0:
320,192,92930,1,0,0:0:0:0:
448,192,93010,1,0,0:0:0:0:
64,192,93090,1,0,0:0:0:0:
192,192,93090,1,0,0:0:0:0:
320,192,93090,1,0,0:0:0:0:
192,192,93251,1,0,0:0:0:0:
320,192,93411,1,0,0:0:0:0:
448,192,93411,1,0,0:0:0:0:
64,192,93411,1,0,0:0:0:0:
192,192,93491,1,0,0:0:0:0:
320,192,93572,1,0,0:0:0:0:
448,192,93732,1,0,0:0:0:0:
192,192,93732,1,0,0:0:0:0:
64,192,93892,1,0,0:0:0:0:
320,192,93973,1,0,0:0:0:0:
448,192,94053,1,0,0:0:0:0:
64,192,94053,1,0,0:0:0:0:
192,192,94053,1,0,0:0:0:0:
320,192,94133,1,0,0:0:0:0:
192,192,94213,1,0,0:0:0:0:
448,192,94374,1,0,0:0:0:0:
320,192,94374,1,0,0:0:0:0:
64,192,94534,1,0,0:0:0:0:
320,192,94695,1,0,0:0:0:0:
448,192,94695,1,0,0:0:0:0:
192,192,94695,1,0,0:0:0:0:
64,192,94775,1,0,0:0:0:0:
320,192,94855,1,0,0:0:0:0:
192,192,94935,1,0,0:0:0:0:
448,192,95015,1,0,0:0:0:0:
64,192,95015,1,0,0:0:0:0:
192,192,95096,1,0,0:0:0:0:
320,192,95176,1,0,0:0:0:0:
448,192,95336,1,0,0:0:0:0:
64,192,95336,1,0,0:0:0:0:
192,192,95336,1,0,0:0:0:0:
64,192,95497,1,0,0:0:0:0:
448,192,95577,1,0,0:0:0:0:
320,192,95657,1,0,0:0:0:0:
192,192,95657,1,0,0:0:0:0:
448,192,95817,1,0,0:0:0:0:
64,192,95978,1,0,0:0:0:0:
192,192,95978,1,0,0:0:0:0:
320,192,95978,1,0,0:0:0:0:
448,192,96058,1,0,0:0:0:0:
64,192,96138,1,0,0:0:0:0:
448,192,96299,1,0,0:0:0:0:
192,192,96299,1,0,0:0:0:0:
64,192,96459,1,0,0:0:0:0:
448,192,96539,1,0,0:0:0:0:
64,192,96620,1,0,0:0:0:0:
192,192,96620,1,0,0:0:0:0:
320,192,96620,1,0,0:0:0:0:
448,192,96780,1,0,0:0:0:0:
320,192,96860,1,0,0:0:0:0:
64,192,96940,1,0,0:0:0:0:
192,192,96940,1,0,0:0:0:0:
64,192,97101,1,0,0:0:0:0:
448,192,97261,1,0,0:0:0:0:
320,192,97261,1,0,0:0:0:0:
192,192,97261,1,0,0:0:0:0:
64,192,97342,1,0,0:0:0:0:
448,192,97422,1,0,0:0:0:0:
320,192,97502,1,0,0:0:0:0:
64,192,97582,1,0,0:0:0:0:
192,192,97582,1,0,0:0:0:0:
320,192,97662,1,0,0:0:0:0:
64,192,97743,1,0,0:0:0:0:
192,192,97743,1,0,0:0:0:0:
448,192,97743,1,0,0:0:0:0:
320,192,97823,1,0,0:0:0:0:
448,192,97903,1,0,0:0:0:0:
64,192,97903,1,0,0:0:0:0:
192,192,98063,1,0,0:0:0:0:
320,192,98063,1,0,0:0:0:0:
64,192,98144,1,0,0:0:0:0:
448,192,98224,1,0,0:0:0:0:
320,192,98224,1,0,0:0:0:0:
192,192,98224,1,0,0:0:0:0:
448,192,98384,1,0,0:0:0:0:
64,192,98545,1,0,0:0:0:0:
192,192,98545,1,0,0:0:0:0:
320,192,98545,1,0,0:0:0:0:
448,192,98625,1,0,0:0:0:0:
64,192,98705,1,0,0:0:0:0:
192,192,98866,1,0,0:0:0:0:
448,192,98866,1,0,0:0:0:0:
64,192,99026,1,0,0:0:0:0:
448,192,99106,1,0,0:0:0:0:
64,192,99186,1,0,0:0:0:0:
192,192,99186,1,0,0:0:0:0:
320,192,99186,1,0,0:0:0:0:
448,192,99347,1,0,0:0:0:0:
64,192,99507,1,0,0:0:0:0:
320,192,99507,1,0,0:0:0:0:
192,192,99668,1,0,0:0:0:0:
448,192,99828,1,0,0:0:0:0:
320,192,99828,1,0,0:0:0:0:
64,192,99828,1,0,0:0:0:0:
192,192,99908,1,0,0:0:0:0:
448,192,99989,1,0,0:0:0:0:
320,192,100069,1,0,0:0:0:0:
64,192,100149,1,0,0:0:0:0:
192,192,100149,1,0,0:0:0:0:
448,192,100229,1,0,0:0:0:0:
320,192,100309,1,0,0:0:0:0:
192,192,100390,1,0,0:0:0:0:
448,192,100470,1,0,0:0:0:0:
320,192,100470,1,0,0:0:0:0:
64,192,100470,1,0,0:0:0:0:
192,192,100630,1,0,0:0:0:0:
64,192,100791,1,0,0:0:0:0:
448,192,100791,1,0,0:0:0:0:
320,192,100951,1,0,0:0:0:0:
448,192,101112,1,0,0:0:0:0:
64,192,101112,1,0,0:0:0:0:
192,192,101112,1,0,0:0:0:0:
320,192,101192,1,0,0:0:0:0:
192,192,101272,1,0,0:0:0:0:
448,192,101432,1,0,0:0:0:0:
320,192,101432,1,0,0:0:0:0:
64,192,101593,1,0,0:0:0:0:
320,192,101673,1,0,0:0:0:0:
448,192,101753,1,0,0:0:0:0:
64,192,101753,1,0,0:0:0:0:
192,192,101753,1,0,0:0:0:0:
320,192,101834,1,0,0:0:0:0:
192,192,101914,1,0,0:0:0:0:
448,192,101994,1,0,0:0:0:0:
64,192,102074,1,0,0:0:0:0:
320,192,102074,1,0,0:0:0:0:
192,192,102154,1,0,0:0:0:0:
448,192,102235,1,0,0:0:0:0:
320,192,102315,1,0,0:0:0:0:
448,192,102395,1,0,0:0:0:0:
64,192,102395,1,0,0:0:0:0:
192,192,102395,1,0,0:0:0:0:
320,192,102475,1,0,0:0:0:0:
64,192,102555,1,0,0:0:0:0:
448,192,102636,1,0,0:0:0:0:
192,192,102716,1,0,0:0:0:0:
320,192,102716,1,0,0:0:0:0:
64,192,102796,1,0,0:0:0:0:
448,192,102876,1,0,0:0:0:0:
320,192,102957,1,0,0:0:0:0:
448,192,103037,1,0,0:0:0:0:
64,192,103037,1,0,0:0:0:0:
192,192,103037,1,0,0:0:0:0:
320,192,103117,1,0,0:0:0:0:
64,192,103197,1,0,0:0:0:0:
192,192,103277,1,0,0:0:0:0:
64,192,103358,1,0,0:0:0:0:
448,192,103358,1,0,0:0:0:0:
320,192,103358,1,0,0:0:0:0:
192,192,103518,1,0,0:0:0:0:
448,192,103678,1,0,0:0:0:0:
320,192,103678,1,0,0:0:0:0:
64,192,103678,1,0,0:0:0:0:
320,192,103839,1,0,0:0:0:0:
448,192,103999,1,0,0:0:0:0:
64,192,103999,1,0,0:0:0:0:
192,192,104160,1,0,0:0:0:0:
64,192,104320,1,0,0:0:0:0:
448,192,104320,1,0,0:0:0:0:
320,192,104320,1,0,0:0:0:0:
448,192,104481,1,0,0:0:0:0:
64,192,104641,1,0,0:0:0:0:
192,192,104641,1,0,0:0:0:0:
320,192,104801,1,0,0:0:0:0:
448,192,104962,1,0,0:0:0:0:
64,192,104962,1,0,0:0:0:0:
192,192,104962,1,0,0:0:0:0:
64,192,105122,1,0,0:0:0:0:
192,192,105203,1,0,0:0:0:0:
448,192,105283,1,0,0:0:0:0:
320,192,105283,1,0,0:0:0:0:
192,192,105363,1,0,0:0:0:0:
448,192,105443,1,0,0:0:0:0:
64,192,105604,1,0,0:0:0:0:
192,192,105604,1,0,0:0:0:0:
320,192,105604,1,0,0:0:0:0:
448,192,105764,1,0,0:0:0:0:
64,192,105844,1,0,0:0:0:0:
320,192,105924,1,0,0:0:0:0:
192,192,105924,1,0,0:0:0:0:
64,192,106085,1,0,0:0:0:0:
448,192,106245,1,0,0:0:0:0:
320,192,106245,1,0,0:0:0:0:
192,192,106245,1,0,0:0:0:0:
64,192,106406,1,0,0:0:0:0:
448,192,106566,1,0,0:0:0:0:
192,192,106566,1,0,0:0:0:0:
320,192,106727,1,0,0:0:0:0:
448,192,106887,1,0,0:0:0:0:
64,192,106887,1,0,0:0:0:0:
192,192,106887,1,0,0:0:0:0:
320,192,106967,1,0,0:0:0:0:
192,192,107047,1,0,0:0:0:0:
448,192,107208,1,0,0:0:0:0:
64,192,107208,1,0,0:0:0:0:
320,192,107368,1,0,0:0:0:0:
448,192,107529,1,0,0:0:0:0:
64,192,107529,1,0,0:0:0:0:
192,192,107529,1,0,0:0:0:0:
192,192,107689,1,0,0:0:0:0:
320,192,107769,1,0,0:0:0:0:
64,192,107850,1,0,0:0:0:0:
448,192,107850,1,0,0:0:0:0:
192,192,107930,1,0,0:0:0:0:
64,192,108010,1,0,0:0:0:0:
448,192,108010,1,0,0:0:0:0:
320,192,108010,1,0,0:0:0:0:
192,192,108090,1,0,0:0:0:0:
448,192,108170,1,0,0:0:0:0:
320,192,108170,1,0,0:0:0:0:
64,192,108331,1,0,0:0:0:0:
192,192,108331,1,0,0:0:0:0:
320,192,108411,1,0,0:0:0:0:
448,192,108491,1,0,0:0:0:0:
64,192,108491,1,0,0:0:0:0:
192,192,108491,1,0,0:0:0:0:
320,192,108652,1,0,0:0:0:0:
448,192,108812,1,0,0:0:0:0:
192,192,108812,1,0,0:0:0:0:
64,192,108812,1,0,0:0:0:0:
64,192,108973,1,0,0:0:0:0:
448,192,109133,1,0,0:0:0:0:
192,192,109133,1,0,0:0:0:0:
320,192,109293,1,0,0:0:0:0:
448,192,109454,1,0,0:0:0:0:
64,192,109454,1,0,0:0:0:0:
192,192,109454,1,0,0:0:0:0:
448,192,109614,1,0,0:0:0:0:
64,192,109775,1,0,0:0:0:0:
320,192,109775,1,0,0:0:0:0:
192,192,109935,1,0,0:0:0:0:
448,192,110096,1,0,0:0:0:0:
320,192,110096,1,0,0:0:0:0:
64,192,110096,1,0,0:0:0:0:
320,192,110256,1,0,0:0:0:0:
192,192,110336,1,0,0:0:0:0:
448,192,110416,1,0,0:0:0:0:
64,192,110416,1,0,0:0:0:0:
320,192,110497,1,0,0:0:0:0:
192,192,110577,1,0,0:0:0:0:
64,192,110737,1,0,0:0:0:0:
448,192,110737,1,0,0:0:0:0:
320,192,110737,1,0,0:0:0:0:
192,192,110898,1,0,0:0:0:0:
320,192,110978,1,0,0:0:0:0:
64,192,111058,1,0,0:0:0:0:
192,192,111058,1,0,0:0:0:0:
320,192,111219,1,0,0:0:0:0:
448,192,111379,1,0,0:0:0:0:
192,192,111379,1,0,0:0:0:0:
64,192,111379,1,0,0:0:0:0:
64,192,111539,1,0,0:0:0:0:
448,192,111700,1,0,0:0:0:0:
320,192,111700,1,0,0:0:0:0:
192,192,111860,1,0,0:0:0:0:
448,192,112021,1,0,0:0:0:0:
320,192,112021,1,0,0:0:0:0:
64,192,112021,1,0,0:0:0:0:
448,192,112181,1,0,0:0:0:0:
64,192,112342,1,0,0:0:0:0:
320,192,112342,1,0,0:0:0:0:
192,192,112422,1,0,0:0:0:0:
448,192,112502,1,0,0:0:0:0:
320,192,112582,1,0,0:0:0:0:
448,192,112662,1,0,0:0:0:0:
64,192,112662,1,0,0:0:0:0:
192,192,112662,1,0,0:0:0:0:
320,192,112823,1,0,0:0:0:0:
64,192,112903,1,0,0:0:0:0:
448,192,112983,1,0,0:0:0:0:
192,192,112983,1,0,0:0:0:0:
320,192,113063,1,0,0:0:0:0:
64,192,113144,1,0,0:0:0:0:
192,192,113224,1,0,0:0:0:0:
64,192,113304,1,0,0:0:0:0:
448,192,113304,1,0,0:0:0:0:
320,192,113304,1,0,0:0:0:0:
192,192,113384,1,0,0:0:0:0:
448,192,113465,1,0,0:0:0:0:
320,192,113545,1,0,0:0:0:0:
448,192,113625,1,0,0:0:0:0:
64,192,113625,1,0,0:0:0:0:
192,192,113625,1,0,0:0:0:0:
320,192,113705,1,0,0:0:0:0:
64,192,113785,1,0,0:0:0:0:
320,192,113946,1,0,0:0:0:0:
448,192,113946,1,0,0:0:0:0:
192,192,113946,1,0,0:0:0:0:
320,192,114106,1,0,0:0:0:0:
64,192,114267,1,0,0:0:0:0:
192,192,114267,1,0,0:0:0:0:
320,192,114427,1,0,0:0:0:0:
448,192,114588,1,0,0:0:0:0:
64,192,114588,1,0,0:0:0:0:
192,192,114588,1,0,0:0:0:0:
320,192,114668,1,0,0:0:0:0:
64,192,114748,1,0,0:0:0:0:
192,192,114828,1,0,0:0:0:0:
448,192,114908,1,0,0:0:0:0:
320,192,114908,1,0,0:0:0:0:
192,192,115069,1,0,0:0:0:0:
448,192,115229,1,0,0:0:0:0:
320,192,115229,1,0,0:0:0:0:
64,192,115229,1,0,0:0:0:0:
320,192,115390,1,0,0:0:0:0:
192,192,115470,1,0,0:0:0:0:
448,192,115550,1,0,0:0:0:0:
64,192,115550,1,0,0:0:0:0:
192,192,115630,1,0,0:0:0:0:
320,192,115711,1,0,0:0:0:0:
448,192,115871,1,0,0:0:0:0:
192,192,115871,1,0,0:0:0:0:
64,192,115871,1,0,0:0:0:0:
320,192,116031,1,0,0:0:0:0:
192,192,116112,1,0,0:0:0:0:
448,192,116192,1,0,0:0:0:0:
64,192,116192,1,0,0:0:0:0:
192,192,116352,1,0,0:0:0:0:
64,192,116513,1,0,0:0:0:0:
448,192,116513,1,0,0:0:0:0:
320,192,116513,1,0,0:0:0:0:
448,192,116673,1,0,0:0:0:0:
64,192,116834,1,0,0:0:0:0:
192,192,116834,1,0,0:0:0:0:
320,192,116994,1,0,0:0:0:0:
448,192,117154,1,0,0:0:0:0:
64,192,117154,1,0,0:0:0:0:
192,192,117154,1,0,0:0:0:0:
320,192,117235,1,0,0:0:0:0:
192,192,117315,1,0,0:0:0:0:
448,192,117475,1,0,0:0:0:0:
64,192,117475,1,0,0:0:0:0:
192,192,117636,1,0,0:0:0:0:
64,192,117796,1,0,0:0:0:0:
448,192,117796,1,0,0:0:0:0:
320,192,117796,1,0,0:0:0:0:
192,192,117957,1,0,0:0:0:0:
320,192,118037,1,0,0:0:0:0:
64,192,118117,1,0,0:0:0:0:
448,192,118117,1,0,0:0:0:0:
320,192,118197,1,0,0:0:0:0:
448,192,118277,1,0,0:0:0:0:
64,192,118277,1,0,0:0:0:0:
192,192,118277,1,0,0:0:0:0:
320,192,118358,1,0,0:0:0:0:
64,192,118438,1,0,0:0:0:0:
192,192,118438,1,0,0:0:0:0:
320,192,118598,1,0,0:0:0:0:
448,192,118598,1,0,0:0:0:0:
64,192,118678,1,0,0:0:0:0:
448,192,118759,1,0,0:0:0:0:
320,192,118759,1,0,0:0:0:0:
192,192,118759,1,0,0:0:0:0:
64,192,118919,1,0,0:0:0:0:
320,192,119080,1,0,0:0:0:0:
448,192,119080,1,0,0:0:0:0:
192,192,119080,1,0,0:0:0:0:
320,192,119240,1,0,0:0:0:0:
64,192,119400,1,0,0:0:0:0:
192,192,119400,1,0,0:0:0:0:
448,192,119561,1,0,0:0:0:0:
64,192,119721,1,0,0:0:0:0:
192,192,119721,1,0,0:0:0:0:
320,192,119721,1,0,0:0:0:0:
448,192,119801,1,0,0:0:0:0:
64,192,119882,1,0,0:0:0:0:
192,192,119962,1,0,0:0:0:0:
448,192,120042,1,0,0:0:0:0:
320,192,120042,1,0,0:0:0:0:
192,192,120203,1,0,0:0:0:0:
320,192,120363,1,0,0:0:0:0:
448,192,120363,1,0,0:0:0:0:
64,192,120363,1,0,0:0:0:0:
192,192,120523,1,0,0:0:0:0:
320,192,120604,1,0,0:0:0:0:
64,192,120684,1,0,0:0:0:0:
192,192,120684,1,0,0:0:0:0:
448,192,120764,1,0,0:0:0:0:
320,192,120844,1,0,0:0:0:0:
448,192,121005,1,0,0:0:0:0:
192,192,121005,1,0,0:0:0:0:
64,192,121005,1,0,0:0:0:0:
320,192,121165,1,0,0:0:0:0:
64,192,121245,1,0,0:0:0:0:
448,192,121326,1,0,0:0:0:0:
192,192,121326,1,0,0:0:0:0:
320,192,121486,1,0,0:0:0:0:
448,192,121646,1,0,0:0:0:0:
64,192,121646,1,0,0:0:0:0:
192,192,121646,1,0,0:0:0:0:
64,192,121807,1,0,0:0:0:0:
320,192,121967,1,0,0:0:0:0:
448,192,121967,1,0,0:0:0:0:
192,192,122128,1,0,0:0:0:0:
448,192,122288,1,0,0:0:0:0:
320,192,122288,1,0,0:0:0:0:
64,192,122288,1,0,0:0:0:0:
192,192,122368,1,0,0:0:0:0:
448,192,122449,1,0,0:0:0:0:
64,192,122609,1,0,0:0:0:0:
320,192,122609,1,0,0:0:0:0:
192,192,122689,1,0,0:0:0:0:
448,192,122769,1,0,0:0:0:0:
320,192,122850,1,0,0:0:0:0:
448,192,122930,1,0,0:0:0:0:
64,192,122930,1,0,0:0:0:0:
192,192,122930,1,0,0:0:0:0:
320,192,123010,1,0,0:0:0:0:
64,192,123090,1,0,0:0:0:0:
192,192,123170,1,0,0:0:0:0:
448,192,123251,1,0,0:0:0:0:
320,192,123251,1,0,0:0:0:0:
64,192,123331,1,0,0:0:0:0:
192,192,123411,1,0,0:0:0:0:
448,192,123491,1,0,0:0:0:0:
64,192,123572,1,0,0:0:0:0:
192,192,123572,1,0,0:0:0:0:
320,192,123572,1,0,0:0:0:0:
448,192,123652,1,0,0:0:0:0:
320,192,123732,1,0,0:0:0:0:
64,192,123812,1,0,0:0:0:0:
192,192,123892,128,0,125176:0:0:0:0:
448,192,123892,1,0,0:0:0:0:
320,192,123892,1,0,0:0:0:0:
448,192,125015,1,0,0:0:0:0:
64,192,125096,1,0,0:0:0:0:
448,192,125176,1,0,0:0:0:0:
320,192,125176,1,0,0:0:0:0:
64,192,125336,1,0,0:0:0:0:
448,192,125497,1,0,0:0:0:0:
320,192,125497,1,0,0:0:0:0:
192,192,125497,1,0,0:0:0:0:
64,192,125657,1,0,0:0:0:0:
448,192,125737,1,0,0:0:0:0:
64,192,125817,1,0,0:0:0:0:
320,192,125817,1,0,0:0:0:0:
192,192,125898,1,0,0:0:0:0:
448,192,125978,1,0,0:0:0:0:
64,192,126138,1,0,0:0:0:0:
192,192,126138,1,0,0:0:0:0:
320,192,126138,1,0,0:0:0:0:
448,192,126299,1,0,0:0:0:0:
320,192,126379,1,0,0:0:0:0:
64,192,126459,1,0,0:0:0:0:
192,192,126459,1,0,0:0:0:0:
320,192,126620,1,0,0:0:0:0:
64,192,126780,1,0,0:0:0:0:
448,192,126780,1,0,0:0:0:0:
192,192,126780,1,0,0:0:0:0:
64,192,126940,1,0,0:0:0:0:
448,192,127101,1,0,0:0:0:0:
320,192,127101,1,0,0:0:0:0:
192,192,127261,1,0,0:0:0:0:
448,192,127422,1,0,0:0:0:0:
320,192,127422,1,0,0:0:0:0:
64,192,127422,1,0,0:0:0:0:
192,192,127502,1,0,0:0:0:0:
448,192,127582,1,0,0:0:0:0:
64,192,127743,1,0,0:0:0:0:
320,192,127743,1,0,0:0:0:0:
192,192,127903,1,0,0:0:0:0:
448,192,128063,1,0,0:0:0:0:
320,192,128063,1,0,0:0:0:0:
64,192,128063,1,0,0:0:0:0:
320,192,128224,1,0,0:0:0:0:
192,192,128304,1,0,0:0:0:0:
448,192,128384,1,0,0:0:0:0:
64,192,128384,1,0,0:0:0:0:
320,192,128465,1,0,0:0:0:0:
192,192,128545,1,0,0:0:0:0:
448,192,128705,1,0,0:0:0:0:
320,192,128705,1,0,0:0:0:0:
64,192,128705,1,0,0:0:0:0:
192,192,128866,1,0,0:0:0:0:
320,192,128946,1,0,0:0:0:0:
448,192,129026,1,0,0:0:0:0:
64,192,129026,1,0,0:0:0:0:
192,192,129026,1,0,0:0:0:0:
64,192,129186,1,0,0:0:0:0:
448,192,129347,1,0,0:0:0:0:
320,192,129347,1,0,0:0:0:0:
192,192,129347,1,0,0:0:0:0:
64,192,129507,1,0,0:0:0:0:
448,192,129668,1,0,0:0:0:0:
192,192,129668,1,0,0:0:0:0:
320,192,129828,1,0,0:0:0:0:
64,192,129989,1,0,0:0:0:0:
448,192,129989,1,0,0:0:0:0:
320,192,129989,1,0,0:0:0:0:
192,192,130069,1,0,0:0:0:0:
448,192,130149,1,0,0:0:0:0:
320,192,130229,1,0,0:0:0:0:
64,192,130309,1,0,0:0:0:0:
192,192,130309,1,0,0:0:0:0:
192,192,130470,1,0,0:0:0:0:
448,192,130630,1,0,0:0:0:0:
320,192,130630,1,0,0:0:0:0:
64,192,130630,1,0,0:0:0:0:
192,192,130791,1,0,0:0:0:0:
448,192,130871,1,0,0:0:0:0:
64,192,130951,1,0,0:0:0:0:
320,192,130951,1,0,0:0:0:0:
192,192,131031,1,0,0:0:0:0:
448,192,131112,1,0,0:0:0:0:
64,192,131272,1,0,0:0:0:0:
192,192,131272,1,0,0:0:0:0:
320,192,131272,1,0,0:0:0:0:
448,192,131432,1,0,0:0:0:0:
320,192,131513,1,0,0:0:0:0:
64,192,131593,1,0,0:0:0:0:
192,192,131593,1,0,0:0:0:0:
64,192,131753,1,0,0:0:0:0:
448,192,131914,1,0,0:0:0:0:
320,192,131914,1,0,0:0:0:0:
192,192,131914,1,0,0:0:0:0:
320,192,132074,1,0,0:0:0:0:
64,192,132235,1,0,0:0:0:0:
192,192,132235,1,0,0:0:0:0:
320,192,132395,1,0,0:0:0:0:
448,192,132555,1,0,0:0:0:0:
192,192,132555,1,0,0:0:0:0:
64,192,132555,1,0,0:0:0:0:
320,192,132636,1,0,0:0:0:0:
64,192,132716,1,0,0:0:0:0:
192,192,132796,1,0,0:0:0:0:
320,192,132876,1,0,0:0:0:0:
448,192,132876,1,0,0:0:0:0:
192,192,132957,1,0,0:0:0:0:
64,192,133037,1,0,0:0:0:0:
448,192,133117,1,0,0:0:0:0:
320,192,133197,1,0,0:0:0:0:
64,192,133197,1,0,0:0:0:0:
192,192,133197,1,0,0:0:0:0:
448,192,133277,1,0,0:0:0:0:
320,192,133358,1,0,0:0:0:0:
192,192,133438,1,0,0:0:0:0:
448,192,133518,1,0,0:0:0:0:
320,192,133518,1,0,0:0:0:0:
64,192,133598,1,0,0:0:0:0:
192,192,133598,1,0,0:0:0:0:
320,192,133678,1,0,0:0:0:0:
448,192,133678,1,0,0:0:0:0:
192,192,133759,1,0,0:0:0:0:
64,192,133759,1,0,0:0:0:0:
320,192,133839,1,0,0:0:0:0:
448,192,133839,1,0,0:0:0:0:
64,192,133919,1,0,0:0:0:0:
192,192,133999,1,0,0:0:0:0:
448,192,134080,1,0,0:0:0:0:
192,192,134160,1,0,0:0:0:0:
64,192,134160,1,0,0:0:0:0:
320,192,134160,1,0,0:0:0:0:
320,192,134320,1,0,0:0:0:0:
192,192,134481,1,0,0:0:0:0:
64,192,134481,1,0,0:0:0:0:
448,192,134481,1,0,0:0:0:0:
320,192,134641,1,0,0:0:0:0:
448,192,134801,1,0,0:0:0:0:
64,192,134801,1,0,0:0:0:0:
192,192,134962,1,0,0:0:0:0:
64,192,135122,1,0,0:0:0:0:
448,192,135122,1,0,0:0:0:0:
320,192,135122,1,0,0:0:0:0:
192,192,135203,1,0,0:0:0:0:
448,192,135283,1,0,0:0:0:0:
320,192,135363,1,0,0:0:0:0:
64,192,135443,1,0,0:0:0:0:
192,192,135443,1,0,0:0:0:0:
320,192,135604,1,0,0:0:0:0:
448,192,135764,1,0,0:0:0:0:
64,192,135764,1,0,0:0:0:0:
192,192,135764,1,0,0:0:0:0:
320,192,135924,1,0,0:0:0:0:
64,192,136005,1,0,0:0:0:0:
448,192,136085,1,0,0:0:0:0:
192,192,136085,1,0,0:0:0:0:
320,192,136165,1,0,0:0:0:0:
64,192,136245,1,0,0:0:0:0:
448,192,136406,1,0,0:0:0:0:
64,192,136406,1,0,0:0:0:0:
192,192,136406,1,0,0:0:0:0:
320,192,136566,1,0,0:0:0:0:
192,192,136646,1,0,0:0:0:0:
448,192,136727,1,0,0:0:0:0:
64,192,136727,1,0,0:0:0:0:
192,192,136887,1,0,0:0:0:0:
64,192,137047,1,0,0:0:0:0:
448,192,137047,1,0,0:0:0:0:
320,192,137047,1,0,0:0:0:0:
192,192,137208,1,0,0:0:0:0:
448,192,137368,1,0,0:0:0:0:
64,192,137368,1,0,0:0:0:0:
320,192,137529,1,0,0:0:0:0:
448,192,137689,1,0,0:0:0:0:
64,192,137689,1,0,0:0:0:0:
192,192,137689,1,0,0:0:0:0:
320,192,137769,1,0,0:0:0:0:
64,192,137850,1,0,0:0:0:0:
448,192,138010,1,0,0:0:0:0:
320,192,138010,1,0,0:0:0:0:
64,192,138170,1,0,0:0:0:0:
448,192,138331,1,0,0:0:0:0:
320,192,138331,1,0,0:0:0:0:
192,192,138331,1,0,0:0:0:0:
64,192,138491,1,0,0:0:0:0:
192,192,138572,1,0,0:0:0:0:
448,192,138652,1,0,0:0:0:0:
320,192,138652,1,0,0:0:0:0:
192,192,138732,1,0,0:0:0:0:
448,192,138812,1,0,0:0:0:0:
320,192,138812,1,0,0:0:0:0:
64,192,138812,1,0,0:0:0:0:
192,192,138892,1,0,0:0:0:0:
448,192,138973,1,0,0:0:0:0:
64,192,138973,1,0,0:0:0:0:
192,192,139133,1,0,0:0:0:0:
320,192,139133,1,0,0:0:0:0:
64,192,139213,1,0,0:0:0:0:
448,192,139293,1,0,0:0:0:0:
320,192,139293,1,0,0:0:0:0:
192,192,139293,1,0,0:0:0:0:
64,192,139454,1,0,0:0:0:0:
320,192,139614,1,0,0:0:0:0:
448,192,139614,1,0,0:0:0:0:
192,192,139614,1,0,0:0:0:0:
320,192,139775,1,0,0:0:0:0:
64,192,139935,1,0,0:0:0:0:
192,192,139935,1,0,0:0:0:0:
448,192,140096,1,0,0:0:0:0:
64,192,140256,1,0,0:0:0:0:
192,192,140256,1,0,0:0:0:0:
320,192,140256,1,0,0:0:0:0:
64,192,140416,1,0,0:0:0:0:
448,192,140577,1,0,0:0:0:0:
192,192,140577,1,0,0:0:0:0:
320,192,140737,1,0,0:0:0:0:
448,192,140898,1,0,0:0:0:0:
64,192,140898,1,0,0:0:0:0:
192,192,140898,1,0,0:0:0:0:
320,192,141058,1,0,0:0:0:0:
192,192,141138,1,0,0:0:0:0:
448,192,141219,1,0,0:0:0:0:
64,192,141219,1,0,0:0:0:0:
192,192,141299,1,0,0:0:0:0:
448,192,141379,1,0,0:0:0:0:
64,192,141539,1,0,0:0:0:0:
192,192,141539,1,0,0:0:0:0:
320,192,141539,1,0,0:0:0:0:
64,192,141700,1,0,0:0:0:0:
192,192,141780,1,0,0:0:0:0:
448,192,141860,1,0,0:0:0:0:
320,192,141860,1,0,0:0:0:0:
192,192,142021,1,0,0:0:0:0:
448,192,142181,1,0,0:0:0:0:
320,192,142181,1,0,0:0:0:0:
64,192,142181,1,0,0:0:0:0:
448,192,142342,1,0,0:0:0:0:
64,192,142502,1,0,0:0:0:0:
320,192,142502,1,0,0:0:0:0:
192,192,142662,1,0,0:0:0:0:
64,192,142823,1,0,0:0:0:0:
448,192,142823,1,0,0:0:0:0:
320,192,142823,1,0,0:0:0:0:
192,192,142903,1,0,0:0:0:0:
448,192,142983,1,0,0:0:0:0:
192,192,143144,1,0,0:0:0:0:
320,192,143144,1,0,0:0:0:0:
64,192,143224,1,0,0:0:0:0:
448,192,143304,1,0,0:0:0:0:
320,192,143384,1,0,0:0:0:0:
448,192,143465,1,0,0:0:0:0:
64,192,143465,1,0,0:0:0:0:
192,192,143465,1,0,0:0:0:0:
320,192,143545,1,0,0:0:0:0:
64,192,143625,1,0,0:0:0:0:
448,192,143705,1,0,0:0:0:0:
192,192,143785,1,0,0:0:0:0:
320,192,143785,1,0,0:0:0:0:
64,192,143866,1,0,0:0:0:0:
448,192,143946,1,0,0:0:0:0:
320,192,144026,1,0,0:0:0:0:
192,192,144106,1,0,0:0:0:0:
64,192,144106,1,0,0:0:0:0:
320,192,144186,1,0,0:0:0:0:
64,192,144267,1,0,0:0:0:0:
192,192,144267,1,0,0:0:0:0:
448,192,144347,1,0,0:0:0:0:
320,192,144347,1,0,0:0:0:0:
64,192,144427,1,0,0:0:0:0:
192,192,144427,1,0,0:0:0:0:
320,192,144588,1,0,0:0:0:0:
448,192,144748,1,0,0:0:0:0:
192,192,144748,1,0,0:0:0:0:
64,192,144748,1,0,0:0:0:0:
64,192,144908,1,0,0:0:0:0:
448,192,145069,1,0,0:0:0:0:
320,192,145069,1,0,0:0:0:0:
192,192,145229,1,0,0:0:0:0:
448,192,145390,1,0,0:0:0:0:
320,192,145390,1,0,0:0:0:0:
64,192,145390,1,0,0:0:0:0:
192,192,145470,1,0,0:0:0:0:
448,192,145550,1,0,0:0:0:0:
64,192,145711,1,0,0:0:0:0:
320,192,145711,1,0,0:0:0:0:
192,192,145871,1,0,0:0:0:0:
64,192,146031,1,0,0:0:0:0:
448,192,146031,1,0,0:0:0:0:
320,192,146031,1,0,0:0:0:0:
448,192,146192,1,0,0:0:0:0:
320,192,146272,1,0,0:0:0:0:
64,192,146352,1,0,0:0:0:0:
192,192,146352,1,0,0:0:0:0:
448,192,146432,1,0,0:0:0:0:
320,192,146513,1,0,0:0:0:0:
448,192,146673,1,0,0:0:0:0:
64,192,146673,1,0,0:0:0:0:
192,192,146673,1,0,0:0:0:0:
64,192,146834,1,0,0:0:0:0:
192,192,146914,1,0,0:0:0:0:
448,192,146994,1,0,0:0:0:0:
320,192,146994,1,0,0:0:0:0:
448,192,147154,1,0,0:0:0:0:
192,192,147315,1,0,0:0:0:0:
320,192,147315,1,0,0:0:0:0:
64,192,147315,1,0,0:0:0:0:
192,192,147475,1,0,0:0:0:0:
320,192,147636,1,0,0:0:0:0:
448,192,147636,1,0,0:0:0:0:
64,192,147796,1,0,0:0:0:0:
320,192,147957,1,0,0:0:0:0:
448,192,147957,1,0,0:0:0:0:
192,192,147957,1,0,0:0:0:0:
64,192,148037,1,0,0:0:0:0:
448,192,148117,1,0,0:0:0:0:
64,192,148277,1,0,0:0:0:0:
192,192,148277,1,0,0:0:0:0:
320,192,148438,1,0,0:0:0:0:
192,192,148598,1,0,0:0:0:0:
448,192,148598,1,0,0:0:0:0:
64,192,148598,1,0,0:0:0:0:
320,192,148759,1,0,0:0:0:0:
192,192,148839,1,0,0:0:0:0:
448,192,148919,1,0,0:0:0:0:
64,192,148919,1,0,0:0:0:0:
320,192,148999,1,0,0:0:0:0:
448,192,149080,1,0,0:0:0:0:
64,192,149080,1,0,0:0:0:0:
192,192,149080,1,0,0:0:0:0:
320,192,149160,1,0,0:0:0:0:
192,192,149240,1,0,0:0:0:0:
64,192,149240,1,0,0:0:0:0:
320,192,149400,1,0,0:0:0:0:
448,192,149400,1,0,0:0:0:0:
192,192,149481,1,0,0:0:0:0:
320,192,149561,1,0,0:0:0:0:
448,192,149561,1,0,0:0:0:0:
64,192,149561,1,0,0:0:0:0:
320,192,149721,1,0,0:0:0:0:
448,192,149882,1,0,0:0:0:0:
192,192,149882,1,0,0:0:0:0:
64,192,149882,1,0,0:0:0:0:
64,192,150042,1,0,0:0:0:0:
448,192,150203,1,0,0:0:0:0:
320,192,150203,1,0,0:0:0:0:
192,192,150363,1,0,0:0:0:0:
448,192,150523,1,0,0:0:0:0:
320,192,150523,1,0,0:0:0:0:
64,192,150523,1,0,0:0:0:0:
192,192,150604,1,0,0:0:0:0:
448,192,150684,1,0,0:0:0:0:
64,192,150844,1,0,0:0:0:0:
320,192,150844,1,0,0:0:0:0:
192,192,151005,1,0,0:0:0:0:
448,192,151165,1,0,0:0:0:0:
320,192,151165,1,0,0:0:0:0:
64,192,151165,1,0,0:0:0:0:
448,192,151326,1,0,0:0:0:0:
320,192,151406,1,0,0:0:0:0:
64,192,151486,1,0,0:0:0:0:
192,192,151486,1,0,0:0:0:0:
448,192,151566,1,0,0:0:0:0:
320,192,151646,1,0,0:0:0:0:
64,192,151807,1,0,0:0:0:0:
448,192,151807,1,0,0:0:0:0:
192,192,151807,1,0,0:0:0:0:
64,192,151967,1,0,0:0:0:0:
448,192,152128,1,0,0:0:0:0:
192,192,152128,1,0,0:0:0:0:
320,192,152288,1,0,0:0:0:0:
448,192,152449,1,0,0:0:0:0:
64,192,152449,1,0,0:0:0:0:
192,192,152449,1,0,0:0:0:0:
320,192,152609,1,0,0:0:0:0:
448,192,152769,1,0,0:0:0:0:
64,192,152769,1,0,0:0:0:0:
192,192,152930,1,0,0:0:0:0:
448,192,153090,1,0,0:0:0:0:
320,192,153090,1,0,0:0:0:0:
64,192,153090,1,0,0:0:0:0:
192,192,153170,1,0,0:0:0:0:
448,192,153251,1,0,0:0:0:0:
64,192,153411,1,0,0:0:0:0:
320,192,153411,1,0,0:0:0:0:
192,192,153491,1,0,0:0:0:0:
448,192,153572,1,0,0:0:0:0:
320,192,153652,1,0,0:0:0:0:
448,192,153732,1,0,0:0:0:0:
64,192,153732,1,0,0:0:0:0:
192,192,153732,1,0,0:0:0:0:
320,192,153812,1,0,0:0:0:0:
64,192,153892,1,0,0:0:0:0:
448,192,153973,1,0,0:0:0:0:
320,192,154053,1,0,0:0:0:0:
192,192,154053,1,0,0:0:0:0:
448,192,154133,1,0,0:0:0:0:
64,192,154133,1,0,0:0:0:0:
192,192,154213,1,0,0:0:0:0:
320,192,154213,1,0,0:0:0:0:
64,192,154293,1,0,0:0:0:0:
448,192,154293,1,0,0:0:0:0:
320,192,154374,1,0,0:0:0:0:
192,192,154374,1,0,0:0:0:0:
64,192,154454,1,0,0:0:0:0:
448,192,154534,1,0,0:0:0:0:
320,192,154614,1,0,0:0:0:0:
448,192,154695,1,0,0:0:0:0:
64,192,154695,1,0,0:0:0:0:
192,192,154695,1,0,0:0:0:0:
192,192,154855,1,0,0:0:0:0:
448,192,155015,1,0,0:0:0:0:
320,192,155015,1,0,0:0:0:0:
64,192,155015,1,0,0:0:0:0:
192,192,155096,1,0,0:0:0:0:
448,192,155176,1,0,0:0:0:0:
192,192,155336,1,0,0:0:0:0:
320,192,155336,1,0,0:0:0:0:
448,192,155497,1,0,0:0:0:0:
192,192,155577,1,0,0:0:0:0:
448,192,155657,1,0,0:0:0:0:
320,192,155657,1,0,0:0:0:0:
64,192,155657,1,0,0:0:0:0:
192,192,155737,1,0,0:0:0:0:
320,192,155817,1,0,0:0:0:0:
64,192,155898,1,0,0:0:0:0:
448,192,155978,1,0,0:0:0:0:
192,192,155978,1,0,0:0:0:0:
320,192,156138,1,0,0:0:0:0:
64,192,156299,1,0,0:0:0:0:
448,192,156299,1,0,0:0:0:0:
192,192,156299,1,0,0:0:0:0:
320,192,156379,1,0,0:0:0:0:
64,192,156459,1,0,0:0:0:0:
448,192,156620,1,0,0:0:0:0:
320,192,156620,1,0,0:0:0:0:
64,192,156700,1,0,0:0:0:0:
192,192,156780,1,0,0:0:0:0:
320,192,156860,1,0,0:0:0:0:
448,192,156940,1,0,0:0:0:0:
64,192,156940,1,0,0:0:0:0:
192,192,156940,1,0,0:0:0:0:
320,192,157101,1,0,0:0:0:0:
64,192,157181,1,0,0:0:0:0:
192,192,157261,1,0,0:0:0:0:
448,192,157261,1,0,0:0:0:0:
64,192,157422,1,0,0:0:0:0:
448,192,157582,1,0,0:0:0:0:
320,192,157582,1,0,0:0:0:0:
192,192,157582,1,0,0:0:0:0:
64,192,157662,1,0,0:0:0:0:
320,192,157743,1,0,0:0:0:0:
64,192,157903,1,0,0:0:0:0:
192,192,157903,1,0,0:0:0:0:
320,192,158063,1,0,0:0:0:0:
64,192,158144,1,0,0:0:0:0:
448,192,158224,1,0,0:0:0:0:
320,192,158224,1,0,0:0:0:0:
192,192,158224,1,0,0:0:0:0:
64,192,158304,1,0,0:0:0:0:
448,192,158384,1,0,0:0:0:0:
192,192,158465,1,0,0:0:0:0:
320,192,158545,1,0,0:0:0:0:
64,192,158545,1,0,0:0:0:0:
448,192,158705,1,0,0:0:0:0:
64,192,158866,1,0,0:0:0:0:
192,192,158866,1,0,0:0:0:0:
320,192,158866,1,0,0:0:0:0:
448,192,158946,1,0,0:0:0:0:
64,192,159026,1,0,0:0:0:0:
448,192,159186,1,0,0:0:0:0:
320,192,159186,1,0,0:0:0:0:
64,192,159347,1,0,0:0:0:0:
192,192,159347,1,0,0:0:0:0:
448,192,159427,1,0,0:0:0:0:
320,192,159427,1,0,0:0:0:0:
64,192,159507,1,0,0:0:0:0:
192,192,159507,1,0,0:0:0:0:
448,192,159668,1,0,0:0:0:0:
320,192,159748,1,0,0:0:0:0:
448,192,159828,1,0,0:0:0:0:
64,192,159828,1,0,0:0:0:0:
192,192,159828,1,0,0:0:0:0:
192,192,159989,1,0,0:0:0:0:
448,192,160149,1,0,0:0:0:0:
320,192,160149,1,0,0:0:0:0:
64,192,160149,1,0,0:0:0:0:
192,192,160229,1,0,0:0:0:0:
320,192,160309,1,0,0:0:0:0:
192,192,160470,1,0,0:0:0:0:
64,192,160470,1,0,0:0:0:0:
448,192,160630,1,0,0:0:0:0:
192,192,160711,1,0,0:0:0:0:
448,192,160791,1,0,0:0:0:0:
320,192,160791,1,0,0:0:0:0:
64,192,160791,1,0,0:0:0:0:
192,192,160871,1,0,0:0:0:0:
320,192,160951,1,0,0:0:0:0:
64,192,161112,1,0,0:0:0:0:
192,192,161112,1,0,0:0:0:0:
448,192,161272,1,0,0:0:0:0:
320,192,161432,1,0,0:0:0:0:
64,192,161432,1,0,0:0:0:0:
192,192,161432,1,0,0:0:0:0:
448,192,161513,1,0,0:0:0:0:
64,192,161593,1,0,0:0:0:0:
448,192,161753,1,0,0:0:0:0:
320,192,161753,1,0,0:0:0:0:
192,192,161914,1,0,0:0:0:0:
448,192,161994,1,0,0:0:0:0:
192,192,162074,1,0,0:0:0:0:
320,192,162074,1,0,0:0:0:0:
64,192,162074,1,0,0:0:0:0:
448,192,162235,1,0,0:0:0:0:
320,192,162395,1,0,0:0:0:0:
64,192,162395,1,0,0:0:0:0:
192,192,162555,1,0,0:0:0:0:
64,192,162716,1,0,0:0:0:0:
448,192,162716,1,0,0:0:0:0:
320,192,162716,1,0,0:0:0:0:
192,192,162796,1,0,0:0:0:0:
448,192,162876,1,0,0:0:0:0:
192,192,163037,1,0,0:0:0:0:
320,192,163037,1,0,0:0:0:0:
64,192,163197,1,0,0:0:0:0:
192,192,163277,1,0,0:0:0:0:
64,192,163358,1,0,0:0:0:0:
448,192,163358,1,0,0:0:0:0:
320,192,163358,1,0,0:0:0:0:
192,192,163518,1,0,0:0:0:0:
320,192,163598,1,0,0:0:0:0:
64,192,163678,1,0,0:0:0:0:
448,192,163678,1,0,0:0:0:0:
320,192,163839,1,0,0:0:0:0:
448,192,163999,1,0,0:0:0:0:
64,192,163999,1,0,0:0:0:0:
192,192,163999,1,0,0:0:0:0:
320,192,164080,1,0,0:0:0:0:
64,192,164160,1,0,0:0:0:0:
320,192,164320,1,0,0:0:0:0:
192,192,164320,1,0,0:0:0:0:
64,192,164481,1,0,0:0:0:0:
192,192,164481,1,0,0:0:0:0:
448,192,164481,1,0,0:0:0:0:
320,192,164561,1,0,0:0:0:0:
64,192,164641,1,0,0:0:0:0:
192,192,164641,1,0,0:0:0:0:
320,192,164801,1,0,0:0:0:0:
448,192,164801,1,0,0:0:0:0:
64,192,164882,1,0,0:0:0:0:
448,192,164962,1,0,0:0:0:0:
320,192,164962,1,0,0:0:0:0:
192,192,164962,1,0,0:0:0:0:
64,192,165122,1,0,0:0:0:0:
448,192,165283,1,0,0:0:0:0:
320,192,165283,1,0,0:0:0:0:
192,192,165283,1,0,0:0:0:0:
64,192,165363,1,0,0:0:0:0:
448,192,165443,1,0,0:0:0:0:
64,192,165604,1,0,0:0:0:0:
192,192,165604,1,0,0:0:0:0:
320,192,165764,1,0,0:0:0:0:
64,192,165844,1,0,0:0:0:0:
448,192,165924,1,0,0:0:0:0:
320,192,165924,1,0,0:0:0:0:
192,192,165924,1,0,0:0:0:0:
64,192,166085,1,0,0:0:0:0:
320,192,166245,1,0,0:0:0:0:
192,192,166245,1,0,0:0:0:0:
448,192,166406,1,0,0:0:0:0:
64,192,166566,1,0,0:0:0:0:
192,192,166566,1,0,0:0:0:0:
320,192,166566,1,0,0:0:0:0:
448,192,166646,1,0,0:0:0:0:
64,192,166727,1,0,0:0:0:0:
448,192,166887,1,0,0:0:0:0:
320,192,166887,1,0,0:0:0:0:
192,192,167047,1,0,0:0:0:0:
448,192,167128,1,0,0:0:0:0:
64,192,167208,1,0,0:0:0:0:
192,192,167208,1,0,0:0:0:0:
320,192,167208,1,0,0:0:0:0:
448,192,167368,1,0,0:0:0:0:
64,192,167529,1,0,0:0:0:0:
320,192,167529,1,0,0:0:0:0:
192,192,167689,1,0,0:0:0:0:
64,192,167850,1,0,0:0:0:0:
448,192,167850,1,0,0:0:0:0:
320,192,167850,1,0,0:0:0:0:
192,192,167930,1,0,0:0:0:0:
320,192,168010,1,0,0:0:0:0:
64,192,168170,1,0,0:0:0:0:
192,192,168170,1,0,0:0:0:0:
448,192,168331,1,0,0:0:0:0:
192,192,168411,1,0,0:0:0:0:
64,192,168491,1,0,0:0:0:0:
448,192,168491,1,0,0:0:0:0:
320,192,168491,1,0,0:0:0:0:
192,192,168652,1,0,0:0:0:0:
448,192,168732,1,0,0:0:0:0:
64,192,168812,1,0,0:0:0:0:
320,192,168812,1,0,0:0:0:0:
448,192,168973,1,0,0:0:0:0:
192,192,169133,1,0,0:0:0:0:
64,192,169133,1,0,0:0:0:0:
320,192,169133,1,0,0:0:0:0:
448,192,169213,1,0,0:0:0:0:
64,192,169293,1,0,0:0:0:0:
320,192,169454,1,0,0:0:0:0:
448,192,169454,1,0,0:0:0:0:
64,192,169614,1,0,0:0:0:0:
192,192,169614,1,0,0:0:0:0:
320,192,169614,1,0,0:0:0:0:
448,192,169695,1,0,0:0:0:0:
192,192,169775,1,0,0:0:0:0:
64,192,169775,1,0,0:0:0:0:
448,192,169935,1,0,0:0:0:0:
320,192,169935,1,0,0:0:0:0:
192,192,170015,1,0,0:0:0:0:
448,192,170096,1,0,0:0:0:0:
320,192,170096,1,0,0:0:0:0:
64,192,170096,1,0,0:0:0:0:
192,192,170256,1,0,0:0:0:0:
64,192,170416,1,0,0:0:0:0:
448,192,170416,1,0,0:0:0:0:
320,192,170416,1,0,0:0:0:0:
192,192,170497,1,0,0:0:0:0:
448,192,170577,1,0,0:0:0:0:
192,192,170737,1,0,0:0:0:0:
320,192,170737,1,0,0:0:0:0:
64,192,170898,1,0,0:0:0:0:
192,192,170978,1,0,0:0:0:0:
448,192,171058,1,0,0:0:0:0:
320,192,171058,1,0,0:0:0:0:
64,192,171058,1,0,0:0:0:0:
192,192,171219,1,0,0:0:0:0:
320,192,171379,1,0,0:0:0:0:
64,192,171379,1,0,0:0:0:0:
448,192,171539,1,0,0:0:0:0:
192,192,171700,1,0,0:0:0:0:
64,192,171700,1,0,0:0:0:0:
320,192,171700,1,0,0:0:0:0:
448,192,171780,1,0,0:0:0:0:
64,192,171860,1,0,0:0:0:0:
448,192,172021,1,0,0:0:0:0:
192,192,172021,1,0,0:0:0:0:
320,192,172181,1,0,0:0:0:0:
448,192,172261,1,0,0:0:0:0:
320,192,172342,1,0,0:0:0:0:
64,192,172342,1,0,0:0:0:0:
192,192,172342,1,0,0:0:0:0:
448,192,172502,1,0,0:0:0:0:
192,192,172662,1,0,0:0:0:0:
320,192,172662,1,0,0:0:0:0:
64,192,172823,1,0,0:0:0:0:
448,192,172983,1,0,0:0:0:0:
320,192,172983,1,0,0:0:0:0:
192,192,172983,1,0,0:0:0:0:
64,192,173063,1,0,0:0:0:0:
448,192,173144,1,0,0:0:0:0:
64,192,173304,1,0,0:0:0:0:
320,192,173304,1,0,0:0:0:0:
448,192,173465,1,0,0:0:0:0:
64,192,173545,1,0,0:0:0:0:
192,192,173625,1,0,0:0:0:0:
320,192,173625,1,0,0:0:0:0:
448,192,173625,1,0,0:0:0:0:
64,192,173785,1,0,0:0:0:0:
192,192,173866,1,0,0:0:0:0:
448,192,173946,1,0,0:0:0:0:
320,192,173946,1,0,0:0:0:0:
64,192,174026,1,0,0:0:0:0:
192,192,174106,1,0,0:0:0:0:
448,192,174186,1,0,0:0:0:0:
192,192,174267,1,0,0:0:0:0:
64,192,174267,1,0,0:0:0:0:
320,192,174267,1,0,0:0:0:0:
448,192,174347,1,0,0:0:0:0:
320,192,174427,1,0,0:0:0:0:
64,192,174507,1,0,0:0:0:0:
448,192,174588,1,0,0:0:0:0:
192,192,174588,1,0,0:0:0:0:
320,192,174668,1,0,0:0:0:0:
64,192,174748,1,0,0:0:0:0:
192,192,174828,1,0,0:0:0:0:
64,192,174908,1,0,0:0:0:0:
448,192,174908,1,0,0:0:0:0:
320,192,174908,1,0,0:0:0:0:
192,192,174989,1,0,0:0:0:0:
448,192,175069,1,0,0:0:0:0:
320,192,175149,1,0,0:0:0:0:
192,192,175229,128,0,177796:0:0:0:0:
64,192,175229,1,0,0:0:0:0:
64,192,177796,1,0,0:0:0:0:
192,192,177957,1,0,0:0:0:0:
448,192,178117,1,0,0:0:0:0:
320,192,178277,1,0,0:0:0:0:
192,192,178438,1,0,0:0:0:0:
320,192,178518,1,0,0:0:0:0:
192,192,178678,1,0,0:0:0:0:
320,192,178759,1,0,0:0:0:0:
192,192,178919,1,0,0:0:0:0:
64,192,179080,1,0,0:0:0:0:
192,192,179240,1,0,0:0:0:0:
448,192,179400,1,0,0:0:0:0:
192,192,179561,1,0,0:0:0:0:
64,192,179721,1,0,0:0:0:0:
