osu file format v14

[General]
AudioFilename: audio.mp3
AudioLeadIn: 0
PreviewTime: 73995
Countdown: 0
SampleSet: Soft
StackLeniency: 0.5
Mode: 0
LetterboxInBreaks: 0
WidescreenStoryboard: 0

[Editor]
Bookmarks: 37912,48578,64578,75245,85912
DistanceSpacing: 1.6
BeatDivisor: 4
GridSize: 8
TimelineZoom: 1.4

[Metadata]
Title:Watashi, Idol Sengen
TitleUnicode:私、アイドル宣⾔
Artist:Capi
ArtistUnicode:かぴ
Creator:brotarks
Version:Airin's Insane
Source:
Tags:honeyworks chico japanese pop jpop j-pop reform kujinn kowari rolniczy airin airincat onlybiscuit female vocalist
BeatmapID:1982451
BeatmapSetID:944137

[Difficulty]
HPDrainRate:5
CircleSize:4
OverallDifficulty:8
ApproachRate:9
SliderMultiplier:1.7
SliderTickRate:1

[Events]
//Background and Video events
0,0,"cutiebg.jpg",0,0
//Break Periods
//Storyboard Layer 0 (Background)
//Storyboard Layer 1 (Fail)
//Storyboard Layer 2 (Pass)
//Storyboard Layer 3 (Foreground)
//Storyboard Sound Samples

[TimingPoints]
16579,333.333333333333,4,2,1,80,1,0
16579,-100,4,2,1,80,0,0
21912,-142.857142857143,4,2,1,50,0,0
24579,-100,4,2,1,80,0,0
26912,-100,4,2,1,80,0,0
27162,-100,4,2,1,5,0,0
27245,-100,4,2,1,80,0,0
32162,-100,4,2,1,5,0,0
32245,-100,4,2,1,80,0,0
32579,-100,4,2,1,80,0,0
35745,-111.111111111111,4,2,1,80,0,0
36412,-142.857142857143,4,2,1,80,0,0
37829,-100,4,2,1,75,0,0
37912,-142.857142857143,4,2,1,60,0,0
48578,-125,4,2,1,60,0,0
59245,-125,4,2,1,60,0,0
64578,-111.111111111111,4,2,1,70,0,0
69495,-111.111111111111,4,2,1,5,0,0
69578,-111.111111111111,4,2,1,70,0,0
69828,-111.111111111111,4,2,1,5,0,0
69912,-111.111111111111,4,2,1,70,0,0
75245,-90.9090909090909,4,2,1,90,0,1
78162,-90.9090909090909,4,2,1,5,0,1
78245,-90.9090909090909,4,2,1,90,0,1
84412,-111.111111111111,4,2,1,90,0,0
85912,-90.9090909090909,4,2,1,90,0,1
95328,-100,4,2,1,5,0,0
95412,-111.111111111111,4,2,1,90,0,0
96578,-111.111111111111,4,2,1,70,0,0
101828,-100,4,2,1,5,0,0
101912,-100,4,2,1,80,0,0
111078,-125,4,2,1,80,0,0
112912,-100,4,2,1,80,0,0

[Colours]
Combo1 : 255,176,98
Combo2 : 255,128,255
Combo3 : 255,255,128
Combo4 : 128,255,255

[HitObjects]
190,233,16579,6,0,P|145:220|100:225,1,85,6|0,1:2|0:0,0:0:0:0:
339,238,16912,2,0,P|384:234|426:214,1,85,10|0,0:0|0:0,0:0:0:0:
264,56,17245,1,10,0:0:0:0:
264,56,17412,2,0,L|263:150,1,85,2|8,1:2|0:0,0:0:0:0:
259,293,17745,6,0,P|325:334|418:295,1,170,2|0,1:2|0:0,0:0:0:0:
339,238,18245,1,8,0:0:0:0:
174,334,18412,1,2,0:0:0:0:
181,147,18579,1,10,0:0:0:0:
259,293,18745,1,2,1:2:0:0:
316,133,18912,1,10,0:0:0:0:
258,280,19079,1,2,1:2:0:0:
252,65,19245,6,0,P|292:44|334:42,1,85,14|0,0:0|0:0,0:0:0:0:
94,174,19579,2,0,P|51:175|12:160,1,85,10|0,0:0|0:0,0:0:0:0:
164,24,19912,1,10,0:0:0:0:
164,24,20079,2,0,L|165:114,1,85,2|8,1:2|0:0,0:0:0:0:
238,294,20412,6,0,B|301:333|360:278|360:278|316:243,1,170,2|0,1:2|1:2,0:0:0:0:
206,173,20912,1,8,0:0:0:0:
129,300,21079,1,10,0:0:0:0:
129,300,21162,1,8,0:0:0:0:
129,300,21245,6,0,L|130:388,1,85,2|10,1:2|0:0,0:0:0:0:
49,219,21579,1,10,0:0:0:0:
88,120,21745,1,10,0:0:0:0:
190,94,21912,6,0,B|267:88|234:123|304:115,1,118.999996368408,2|2,0:0|0:0,0:0:0:0:
379,45,22412,1,2,0:0:0:0:
379,45,22745,2,0,P|417:26|492:46,1,118.999996368408,2|0,0:0|0:0,0:0:0:0:
435,121,23245,1,2,0:0:0:0:
435,121,23579,1,2,0:0:0:0:
369,177,23745,2,0,L|298:168,1,59.4999981842042,2|0,0:0|0:0,0:0:0:0:
443,254,24079,1,2,1:2:0:0:
443,254,24245,2,0,L|512:245,1,59.4999981842042,8|0,0:0|1:2,0:0:0:0:
230,100,24579,6,0,P|208:141|205:183,1,85,14|0,0:0|1:2,0:0:0:0:
310,170,24912,1,2,1:2:0:0:
135,80,25079,2,0,L|41:84,1,85,10|0,0:0|0:0,0:0:0:0:
246,273,25412,2,0,L|341:268,1,85,2|8,1:2|0:0,0:0:0:0:
120,203,25745,1,6,1:2:0:0:
120,203,26079,5,10,0:0:0:0:
65,362,26245,1,10,0:0:0:0:
119,181,26412,1,10,0:0:0:0:
212,366,26579,1,10,0:0:0:0:
212,366,26912,6,0,B|245:367|269:343|269:343|290:365|328:362,1,127.5,2|0,0:0|0:0,0:0:0:0:
409,352,27245,6,0,P|451:302|397:194,1,170,14|10,0:0|0:0,0:0:0:0:
230,179,27745,2,0,P|184:171|143:144,1,85,2|8,0:0|0:0,0:0:0:0:
302,26,28079,2,0,P|318:67|315:116,1,85,2|8,1:2|0:0,0:0:0:0:
309,301,28412,6,0,P|308:257|324:219,1,85,2|8,1:2|0:0,0:0:0:0:
425,284,28745,1,2,0:0:0:0:
249,363,28912,2,0,L|160:356,1,85,10|0,0:0|1:2,0:0:0:0:
205,202,29245,1,10,0:0:0:0:
309,301,29412,1,0,1:2:0:0:
281,138,29579,1,10,0:0:0:0:
304,284,29745,1,0,1:2:0:0:
365,77,29912,6,0,P|403:59|444:56,1,85,14|0,0:0|0:0,0:0:0:0:
336,203,30245,1,10,0:0:0:0:
194,100,30412,2,0,P|155:82|114:79,1,85,2|8,0:0|0:0,0:0:0:0:
163,274,30745,2,0,P|197:249|221:215,1,85,2|8,1:2|0:0,0:0:0:0:
41,256,31079,6,0,L|51:355,1,85,2|8,1:2|0:0,0:0:0:0:
163,274,31412,1,2,0:0:0:0:
39,166,31579,1,10,0:0:0:0:
158,293,31745,1,2,1:2:0:0:
221,126,31912,2,0,P|269:98|341:110,1,127.5,10|0,0:0|0:0,0:0:0:0:
406,153,32245,2,0,P|444:171|489:168,1,85,10|2,0:0|0:0,0:0:0:0:
464,4,32579,6,0,L|459:98,1,85,14|0,0:0|0:0,0:0:0:0:
443,253,32912,1,10,0:0:0:0:
338,108,33079,2,0,P|300:90|258:87,1,85,2|8,1:2|0:0,0:0:0:0:
308,269,33412,2,0,P|341:245|365:210,2,85,2|8|0,1:2|0:0|1:2,0:0:0:0:
177,138,33912,6,0,P|162:99|165:53,1,85,14|0,0:0|0:0,0:0:0:0:
280,180,34245,1,10,0:0:0:0:
117,228,34412,2,0,L|17:223,1,85,2|8,1:2|0:0,0:0:0:0:
216,327,34745,2,0,L|311:315,1,85,2|8,1:2|0:0,0:0:0:0:
205,215,35079,1,0,1:2:0:0:
45,381,35245,6,0,P|24:347|14:300,1,85,14|0,0:0|0:0,0:0:0:0:
49,135,35579,1,10,0:3:0:0:
166,215,35745,2,0,L|204:215,2,38.2499988327027,10|8|8,0:0|0:0|0:0,0:0:0:0:
91,306,36079,2,0,L|0:303,1,76.4999976654053,10|8,0:3|0:3,0:0:0:0:
186,130,36412,6,0,B|246:117|293:153|300:233|300:233|316:167|360:131|360:131|413:185|477:161,1,416.499987289429,14|0,0:0|0:0,0:0:0:0:
466,164,37912,6,0,P|479:206|464:287,1,118.999996368408,6|0,1:2|1:2,0:0:0:0:
346,363,38579,1,2,1:2:0:0:
346,363,38912,1,2,1:2:0:0:
346,363,39245,2,0,P|290:340|230:338,1,118.999996368408,2|0,1:2|1:2,0:0:0:0:
28,345,39912,1,2,1:2:0:0:
28,345,40245,1,2,1:2:0:0:
28,345,40578,6,0,P|38:319|39:283,1,59.4999981842042,2|0,1:2|0:0,0:0:0:0:
118,290,40912,2,0,P|114:262|97:230,1,59.4999981842042,2|0,1:2|0:0,0:0:0:0:
175,198,41245,2,0,P|158:175|127:156,1,59.4999981842042,2|0,1:2|0:0,0:0:0:0:
175,90,41578,2,0,P|149:79|113:78,1,59.4999981842042,2|0,1:2|0:0,0:0:0:0:
274,39,41912,6,0,P|324:19|396:21,2,118.999996368408,2|0|0,1:2|1:2|1:2,0:0:0:0:
246,127,42745,1,2,0:0:0:0:
246,127,42912,2,0,P|255:155|260:184,1,59.4999981842042,2|2,1:2|0:0,0:0:0:0:
326,286,43245,2,0,P|336:230|381:181,2,118.999996368408,6|2|0,1:2|1:2|1:2,0:0:0:0:
254,349,44078,1,2,0:0:0:0:
254,349,44245,2,0,P|214:339|186:341,1,59.4999981842042,2|2,1:2|0:0,0:0:0:0:
68,299,44578,6,0,P|123:287|169:247,2,118.999996368408,6|2|0,1:2|1:2|0:0,0:0:0:0:
68,299,45578,2,0,P|51:274|42:246,1,59.4999981842042,2|0,1:2|0:0,0:0:0:0:
16,126,45912,1,6,1:2:0:0:
16,126,46245,1,0,1:2:0:0:
16,126,46578,1,0,0:0:0:0:
16,126,46912,2,0,P|53:113|70:97,1,59.4999981842042,2|0,1:2|0:0,0:0:0:0:
164,26,47245,6,0,P|220:9|287:21,1,118.999996368408,6|0,1:2|1:2,0:0:0:0:
372,62,47745,1,0,0:0:0:0:
372,62,47912,2,0,L|364:123,1,59.4999981842042,2|0,1:2|0:0,0:0:0:0:
451,161,48245,2,0,L|463:233,1,59.4999981842042,2|0,1:2|0:0,0:0:0:0:
260,258,48578,6,0,P|309:209|386:219,1,136,6|0,1:2|1:2,0:0:0:0:
340,292,49078,1,0,0:0:0:0:
161,228,49245,2,0,L|164:149,1,68,2|0,1:2|0:0,0:0:0:0:
260,258,49578,2,0,L|258:330,1,68,2|0,1:2|0:0,0:0:0:0:
107,318,49912,6,0,P|43:313|0:240,1,136,6|0,1:2|1:2,0:0:0:0:
79,229,50412,1,0,0:0:0:0:
191,328,50578,2,0,L|266:326,1,68,2|0,1:2|0:0,0:0:0:0:
146,227,50912,2,0,L|71:229,1,68,2|0,1:2|0:0,0:0:0:0:
176,121,51245,6,0,P|207:132|235:154,1,68,2|0,1:2|0:0,0:0:0:0:
308,100,51578,2,0,P|330:125|342:158,1,68,2|0,1:2|0:0,0:0:0:0:
430,137,51912,2,0,P|436:170|430:205,1,68,2|0,1:2|0:0,0:0:0:0:
512,241,52245,2,0,P|500:272|478:300,1,68,2|0,1:2|0:0,0:0:0:0:
361,335,52578,6,0,P|401:298|492:306,1,136,6|0,1:2|1:2,0:0:0:0:
437,375,53078,1,0,0:0:0:0:
301,264,53245,1,0,1:2:0:0:
301,264,53412,2,0,L|303:192,2,68,2|2|2,0:0|1:2|0:0,0:0:0:0:
190,353,53912,6,0,P|136:366|65:308,1,136,6|10,1:2|0:0,0:0:0:0:
42,220,54412,1,0,0:0:0:0:
154,263,54578,1,2,1:2:0:0:
77,328,54745,1,2,0:0:0:0:
77,328,54912,2,0,P|40:333|9:327,1,68,10|2,0:0|0:0,0:0:0:0:
148,157,55245,6,0,B|229:145|204:194|282:181,1,136,6|10,1:2|0:0,0:0:0:0:
367,117,55745,1,2,0:0:0:0:
272,24,55912,2,0,L|263:98,1,68,2|0,1:2|0:0,0:0:0:0:
402,202,56245,2,0,P|440:171|450:101,1,102,10|0,0:0|0:0,0:0:0:0:
448,100,56578,5,10,0:0:0:0:
263,91,56912,2,0,L|221:72,2,45.3333333333333,10|2|2,0:0|0:0|0:0,0:0:0:0:
346,126,57245,1,8,0:0:0:0:
186,159,57578,2,0,L|155:104,2,45.3333333333333,10|8|8,0:0|0:0|0:0,0:0:0:0:
223,239,57912,5,10,0:0:0:0:
78,193,58245,2,0,L|76:130,2,45.3333333333333,8|8|8,0:3|0:3|0:3,0:0:0:0:
128,273,58578,2,0,L|164:301,2,45.3333333333333,10|8|8,0:3|0:3|0:3,0:0:0:0:
37,276,58912,2,0,L|0:301,2,45.3333333333333,10|8|8,0:3|0:3|0:3,0:0:0:0:
190,197,59245,6,0,P|244:186|341:210,2,136,14|0|0,0:0|0:0|0:0,0:0:0:0:
115,137,60078,1,2,0:0:0:0:
115,137,60245,2,0,L|115:67,1,68,2|2,0:0|1:2,0:0:0:0:
33,210,60578,2,0,L|38:362,2,136,2|0|0,1:2|0:0|0:0,0:0:0:0:
213,366,61578,1,2,0:0:0:0:
213,366,61745,1,2,0:0:0:0:
270,299,61912,6,0,P|290:259|262:159,2,136,2|0|0,1:2|0:0|0:0,0:0:0:0:
184,237,62745,1,2,0:0:0:0:
184,237,62912,2,0,L|106:235,1,68,2|0,0:0|1:2,0:0:0:0:
273,172,63245,2,0,B|344:156|337:199|417:185,2,136,2|0|0,1:2|0:0|0:0,0:0:0:0:
214,96,64078,1,0,0:0:0:0:
147,162,64245,2,0,P|139:195|143:241,1,68,2|0,0:0|0:0,0:0:0:0:
173,8,64578,6,0,P|247:4|302:55,1,152.999995330811,6|0,1:2|1:2,0:0:0:0:
308,162,65078,1,0,0:0:0:0:
214,96,65245,1,0,1:2:0:0:
389,50,65412,1,2,0:0:0:0:
389,50,65578,2,0,L|392:138,1,76.4999976654053,2|2,1:2|0:0,0:0:0:0:
320,201,65912,6,0,P|387:232|463:196,1,152.999995330811,6|0,1:2|1:2,0:0:0:0:
391,126,66412,1,0,0:0:0:0:
233,198,66578,2,0,L|236:276,1,76.4999976654053,0|0,1:2|0:0,0:0:0:0:
355,306,66912,1,2,1:2:0:0:
355,306,67078,1,2,0:0:0:0:
233,198,67245,6,0,P|163:167|91:205,1,152.999995330811,6|0,1:2|1:2,0:0:0:0:
57,295,67745,1,0,0:0:0:0:
163,260,67912,1,0,1:2:0:0:
10,149,68078,1,2,0:0:0:0:
10,149,68245,2,0,L|6:234,1,76.4999976654053,2|0,1:2|0:0,0:0:0:0:
135,351,68578,6,0,B|226:371|191:313|288:333,1,152.999995330811,6|0,1:2|1:2,0:0:0:0:
376,360,69078,1,0,0:0:0:0:
252,236,69245,2,0,P|228:176|257:123,1,114.749996498108,2|0,1:2|0:0,0:0:0:0:
303,84,69578,2,0,P|364:99|416:67,1,114.749996498108,2|0,1:2|0:0,0:0:0:0:
352,28,69912,6,0,B|373:110|314:90|340:175,1,152.999995330811,6|0,1:2|1:2,0:0:0:0:
405,252,70412,1,0,0:0:0:0:
505,160,70578,2,0,L|417:152,1,76.4999976654053,2|2,1:2|0:0,0:0:0:0:
306,262,70912,2,0,L|218:270,1,76.4999976654053,2|2,1:2|0:0,0:0:0:0:
163,120,71245,6,0,P|197:134|223:163,1,76.4999976654053,6|0,1:2|0:0,0:0:0:0:
133,230,71578,1,2,1:2:0:0:
58,126,71745,2,0,L|59:34,2,76.4999976654053,2|0|0,0:0|1:2|0:0,0:0:0:0:
0,232,72245,2,0,L|1:314,1,76.4999976654053,0|0,1:2|0:0,0:0:0:0:
223,163,72578,6,0,L|223:79,1,76.4999976654053,14|2,1:2|0:0,0:0:0:0:
133,230,72912,1,2,1:2:0:0:
329,190,73078,1,10,0:0:0:0:
123,134,73245,1,8,0:0:0:0:
241,313,73412,1,10,0:0:0:0:
301,93,73578,1,8,0:0:0:0:
241,333,73745,1,10,0:0:0:0:
241,333,75245,6,0,P|228:276|205:246,1,93.5000028533936,6|0,1:2|0:0,0:0:0:0:
294,43,75578,2,0,P|268:81|260:127,1,93.5000028533936,10|0,0:0|0:0,0:0:0:0:
359,248,75912,1,10,0:0:0:0:
455,113,76078,2,0,L|353:111,1,93.5000028533936,2|8,1:2|0:0,0:0:0:0:
162,206,76412,6,0,P|101:188|97:68,1,187.000005706787,2|0,1:2|0:0,0:0:0:0:
237,95,76912,1,8,0:0:0:0:
241,259,77078,1,2,0:0:0:0:
151,126,77245,1,10,0:0:0:0:
109,271,77412,1,2,1:2:0:0:
162,47,77578,1,10,0:0:0:0:
261,175,77745,1,2,1:2:0:0:
354,30,77912,6,0,P|421:6|487:44,1,140.25000428009,14|0,0:0|0:0,0:0:0:0:
512,99,78245,2,0,P|492:141|490:187,1,93.5000028533936,10|0,0:0|0:0,0:0:0:0:
362,281,78578,1,10,0:0:0:0:
324,121,78745,2,0,P|283:98|235:96,1,93.5000028533936,2|8,1:2|0:0,0:0:0:0:
196,303,79078,6,0,P|273:261|260:174,1,187.000005706787,2|0,1:2|0:0,0:0:0:0:
97,198,79578,1,8,0:0:0:0:
150,369,79745,1,2,1:2:0:0:
205,225,79912,1,10,0:0:0:0:
83,297,80078,1,2,1:2:0:0:
100,108,80245,1,10,0:0:0:0:
193,221,80412,1,2,0:0:0:0:
318,43,80578,6,0,P|364:21|420:21,1,93.5000028533936,14|0,0:0|0:0,0:0:0:0:
256,170,80912,1,10,0:0:0:0:
163,51,81078,2,0,P|122:29|73:26,1,93.5000028533936,2|8,0:0|0:0,0:0:0:0:
255,261,81412,2,0,P|265:215|256:170,1,93.5000028533936,2|8,1:2|0:0,0:0:0:0:
144,213,81745,1,0,1:2:0:0:
338,324,81912,6,0,L|435:311,1,93.5000028533936,14|0,0:0|0:0,0:0:0:0:
353,194,82245,1,10,0:0:0:0:
189,324,82412,2,0,L|94:316,1,93.5000028533936,2|8,1:2|0:0,0:0:0:0:
261,174,82745,1,2,1:2:0:0:
261,174,82912,2,0,L|264:270,1,93.5000028533936,8|0,0:0|1:2,0:0:0:0:
436,145,83245,6,0,P|398:111|353:99,1,93.5000028533936,14|0,0:0|1:2,0:0:0:0:
182,220,83578,1,10,0:0:0:0:
91,93,83745,2,0,P|128:59|173:47,1,93.5000028533936,2|8,1:2|0:0,0:0:0:0:
184,48,83995,1,8,0:0:0:0:
199,51,84078,1,2,1:2:0:0:
174,141,84245,1,8,0:0:0:0:
0,80,84412,5,14,0:0:0:0:
0,80,84745,1,10,0:0:0:0:
57,169,84912,1,10,0:0:0:0:
11,271,85078,1,10,0:0:0:0:
63,360,85245,2,0,L|171:350,1,76.4999976654053,10|0,0:0|1:2,0:0:0:0:
164,336,85495,1,8,0:0:0:0:
185,318,85578,2,0,P|249:301|294:337,1,114.749996498108,8|8,0:0|0:0,0:0:0:0:
317,321,85912,6,0,P|316:272|330:223,1,93.5000028533936,6|8,1:2|0:0,0:0:0:0:
425,125,86245,1,2,1:2:0:0:
508,285,86412,2,0,L|400:279,1,93.5000028533936,10|0,0:0|1:2,0:0:0:0:
254,143,86745,2,0,L|362:137,1,93.5000028533936,10|0,0:0|1:2,0:0:0:0:
429,129,86995,1,0,1:2:0:0:
429,129,87078,6,0,P|447:79|441:36,1,93.5000028533936,10|0,0:0|1:2,0:0:0:0:
306,56,87412,1,8,0:0:0:0:
348,221,87578,1,0,1:2:0:0:
283,54,87745,1,10,0:0:0:0:
182,197,87912,1,2,1:2:0:0:
363,136,88078,1,10,0:0:0:0:
196,102,88245,1,2,1:2:0:0:
196,102,88328,1,0,1:2:0:0:
196,102,88412,1,10,0:0:0:0:
260,248,88578,6,0,P|275:289|272:341,1,93.5000028533936,6|8,1:2|0:0,0:0:0:0:
100,209,88912,1,2,1:2:0:0:
270,136,89078,2,0,L|363:136,1,93.5000028533936,10|0,0:0|1:2,0:0:0:0:
184,308,89412,2,0,L|90:308,1,93.5000028533936,10|0,0:0|1:2,0:0:0:0:
20,263,89662,1,0,1:2:0:0:
20,263,89745,6,0,P|6:218|17:160,1,93.5000028533936,10|0,0:0|1:2,0:0:0:0:
130,45,90078,1,8,0:0:0:0:
100,209,90245,1,0,1:2:0:0:
23,55,90412,1,10,0:0:0:0:
185,138,90578,1,2,1:2:0:0:
185,138,90662,1,0,0:0:0:0:
185,138,90745,1,10,0:0:0:0:
21,179,90912,1,2,1:2:0:0:
21,179,90995,1,0,0:0:0:0:
21,179,91078,1,10,0:0:0:0:
197,264,91245,6,0,L|293:263,1,93.5000028533936,6|8,1:2|0:0,0:0:0:0:
260,109,91578,1,2,1:2:0:0:
126,202,91745,2,0,P|104:243|104:298,1,93.5000028533936,10|0,0:0|1:2,0:0:0:0:
378,286,92078,2,0,P|375:239|354:198,1,93.5000028533936,10|0,0:0|1:2,0:0:0:0:
341,185,92328,1,0,1:2:0:0:
326,174,92412,1,10,0:0:0:0:
426,29,92578,6,0,P|403:69|398:116,1,93.5000028533936,6|8,1:2|0:0,0:0:0:0:
512,115,92912,1,2,1:2:0:0:
323,28,93078,2,0,L|220:31,1,93.5000028533936,10|2,0:0|1:2,0:0:0:0:
117,164,93412,2,0,L|210:166,1,93.5000028533936,10|2,0:0|1:2,0:0:0:0:
226,160,93662,1,0,1:2:0:0:
237,152,93745,1,10,0:0:0:0:
80,65,93912,6,0,P|39:94|18:135,1,93.5000028533936,6|8,1:2|0:0,0:0:0:0:
11,238,94245,1,10,0:0:0:0:
21,250,94328,1,8,0:0:0:0:
32,262,94412,2,0,L|136:257,1,93.5000028533936,10|0,0:0|0:0,0:0:0:0:
291,216,94745,1,10,0:0:0:0:
278,200,94828,1,8,0:0:0:0:
262,190,94912,1,8,0:0:0:0:
221,349,95078,5,14,0:0:0:0:
221,349,95412,1,10,0:3:0:0:
291,216,95578,1,8,0:0:0:0:
398,322,95745,1,2,0:0:0:0:
458,198,95912,2,0,L|452:160,3,38.2499988327027,10|8|8|8,0:0|0:0|0:0|0:0,0:0:0:0:
436,83,96245,5,4,1:2:0:0:
436,83,97912,5,10,0:0:0:0:
95,265,98412,5,10,0:0:0:0:
153,106,98745,5,10,0:0:0:0:
265,230,98912,1,8,0:0:0:0:
303,65,99078,1,8,0:0:0:0:
271,250,99245,5,10,0:0:0:0:
271,250,100412,5,10,0:0:0:0:
271,250,100745,1,10,0:0:0:0:
168,134,100912,1,10,0:0:0:0:
276,268,101078,1,10,0:0:0:0:
335,107,101245,2,0,P|370:91|408:91,1,76.4999976654053,10|0,0:0|1:2,0:0:0:0:
487,110,101495,1,0,1:2:0:0:
487,110,101578,6,0,B|486:140|508:164|508:164|487:203|493:216,1,114.749996498108,10|0,0:0|0:0,0:0:0:0:
473,290,101912,6,0,P|401:340|326:307,1,170,14|10,0:0|0:0,0:0:0:0:
271,164,102412,2,0,P|275:117|297:73,1,85,2|8,0:0|0:0,0:0:0:0:
183,278,102745,2,0,L|185:369,1,85,2|8,1:2|0:0,0:0:0:0:
108,162,103078,6,0,P|99:116|74:73,1,85,2|8,1:2|0:0,0:0:0:0:
23,238,103412,1,2,0:0:0:0:
183,278,103578,2,0,L|269:271,1,85,10|2,0:0|1:2,0:0:0:0:
290,82,103912,1,10,0:0:0:0:
188,175,104078,1,2,1:2:0:0:
150,6,104245,1,10,0:0:0:0:
180,188,104412,1,2,1:2:0:0:
362,32,104578,6,0,P|405:35|444:57,1,85,14|0,0:0|0:0,0:0:0:0:
297,181,104912,1,10,0:0:0:0:
187,87,105078,2,0,P|144:90|105:112,1,85,2|8,1:2|0:0,0:0:0:0:
278,261,105412,2,0,P|295:222|296:178,1,85,2|8,1:2|0:0,0:0:0:0:
100,268,105745,6,0,L|102:363,1,85,2|8,1:2|0:0,0:0:0:0:
192,187,106078,1,2,1:2:0:0:
14,198,106245,1,10,0:0:0:0:
185,294,106412,1,2,1:2:0:0:
106,107,106578,6,0,L|106:10,1,85,10|2,0:0|1:2,0:0:0:0:
253,139,106912,1,10,0:0:0:0:
109,186,107078,1,2,0:0:0:0:
195,61,107245,6,0,P|233:46|279:47,1,85,14|0,0:0|0:0,0:0:0:0:
410,168,107578,1,10,0:0:0:0:
470,67,107745,2,0,P|431:52|386:53,1,85,2|8,1:2|0:0,0:0:0:0:
381,280,108078,2,0,P|423:280|462:265,1,85,2|8,1:2|0:0,0:0:0:0:
410,168,108412,1,0,1:2:0:0:
206,279,108578,6,0,P|163:279|124:264,1,85,14|0,0:0|1:2,0:0:0:0:
189,171,108912,1,10,0:0:0:0:
291,268,109078,2,0,L|289:358,1,85,2|8,1:2|0:0,0:0:0:0:
189,171,109412,2,0,L|191:81,1,85,2|8,1:2|0:0,0:0:0:0:
295,140,109745,1,0,1:2:0:0:
85,197,109912,6,0,L|-9:191,1,85,14|0,0:0|1:2,0:0:0:0:
105,322,110245,1,10,0:3:0:0:
206,267,110412,2,0,L|264:267,2,42.5,10|8|8,0:0|0:0|0:0,0:0:0:0:
105,322,110745,2,0,L|15:316,1,85,10|8,0:3|0:3,0:0:0:0:
302,333,111078,6,0,B|340:309|345:252|322:213|322:213|362:236|419:215,1,204,14|0,0:0|0:0,0:0:0:0:
390,223,111912,1,0,0:0:0:0:
390,223,112245,1,0,0:0:0:0:
341,15,112578,5,8,0:0:0:0:
171,156,112912,2,0,P|144:146|122:127,2,56.6666666666667,8|8|8,0:0|0:0|0:0,0:0:0:0:
252,175,113245,5,8,0:0:0:0:
