osu file format v14

[General]
AudioFilename: audio.mp3
AudioLeadIn: 0
PreviewTime: 73986
Countdown: 0
SampleSet: Soft
StackLeniency: 0.7
Mode: 3
LetterboxInBreaks: 0
EpilepsyWarning: 1
SpecialStyle: 0
WidescreenStoryboard: 1

[Editor]
DistanceSpacing: 1.4
BeatDivisor: 4
GridSize: 8
TimelineZoom: 1.7

[Metadata]
Title:Watashi, Idol Sengen
TitleUnicode:私、アイドル宣⾔
Artist:Capi
ArtistUnicode:かぴ
Creator:_Asha
Version:Declaration
Source:
Tags:chico with honeyworks japanese pop jpop j-pop [_Lovega_] Affirmation
BeatmapID:2176650
BeatmapSetID:1041437

[Difficulty]
HPDrainRate:8.5
CircleSize:4
OverallDifficulty:8.5
ApproachRate:5
SliderMultiplier:1.4
SliderTickRate:1

[Events]
//Background and Video events
0,0,"cutiebg.jpg",0,0
//Break Periods
//Storyboard Layer 0 (Background)
//Storyboard Layer 1 (Fail)
//Storyboard Layer 2 (Pass)
//Storyboard Layer 3 (Foreground)
//Storyboard Layer 4 (Overlay)
//Storyboard Sound Samples

[TimingPoints]
16570,333.333333333333,4,2,1,70,1,0
75236,-100,4,2,1,70,0,1
85569,-100,4,2,1,70,0,0
85903,-100,4,2,1,70,0,1
96569,-100,4,2,1,70,0,0

[HitObjects]
448,192,16570,5,4,0:0:0:0:
320,192,16570,1,8,0:0:0:0:
64,192,16570,1,0,0:0:0:0:
192,192,16736,1,0,0:0:0:0:
448,192,16903,1,8,0:0:0:0:
320,192,16903,1,0,0:0:0:0:
64,192,16903,1,0,0:0:0:0:
320,192,17070,1,0,0:0:0:0:
448,192,17236,1,8,0:0:0:0:
64,192,17236,1,0,0:0:0:0:
192,192,17236,1,0,0:0:0:0:
192,192,17403,1,2,0:0:0:0:
320,192,17403,1,0,0:0:0:0:
448,192,17570,1,8,0:0:0:0:
64,192,17570,1,0,0:0:0:0:
192,192,17736,1,2,0:0:0:0:
320,192,17736,1,0,0:0:0:0:
448,192,17903,1,8,0:0:0:0:
320,192,17903,1,0,0:0:0:0:
64,192,17903,1,0,0:0:0:0:
192,192,18070,1,0,0:0:0:0:
192,192,18236,1,8,0:0:0:0:
64,192,18236,1,0,0:0:0:0:
448,192,18236,1,0,0:0:0:0:
448,192,18403,1,2,0:0:0:0:
320,192,18403,1,0,0:0:0:0:
320,192,18570,1,8,0:0:0:0:
64,192,18570,1,0,0:0:0:0:
448,192,18736,1,2,0:0:0:0:
192,192,18736,1,0,0:0:0:0:
320,192,18903,1,8,0:0:0:0:
192,192,18903,1,0,0:0:0:0:
448,192,19070,1,2,0:0:0:0:
64,192,19070,1,0,0:0:0:0:
320,192,19236,1,8,0:0:0:0:
64,192,19236,1,0,0:0:0:0:
192,192,19236,1,4,0:0:0:0:
448,192,19403,1,0,0:0:0:0:
64,192,19570,1,8,0:0:0:0:
320,192,19570,1,0,0:0:0:0:
192,192,19570,1,0,0:0:0:0:
192,192,19736,1,0,0:0:0:0:
448,192,19903,1,8,0:0:0:0:
320,192,19903,1,0,0:0:0:0:
64,192,19903,1,0,0:0:0:0:
320,192,20070,1,2,0:0:0:0:
192,192,20070,1,0,0:0:0:0:
448,192,20236,1,8,0:0:0:0:
64,192,20236,1,0,0:0:0:0:
320,192,20403,1,2,0:0:0:0:
192,192,20403,1,0,0:0:0:0:
64,192,20570,1,8,0:0:0:0:
448,192,20570,1,0,0:0:0:0:
448,192,20736,1,2,0:0:0:0:
192,192,20736,1,0,0:0:0:0:
64,192,20903,1,8,0:0:0:0:
320,192,20903,1,0,0:0:0:0:
192,192,21070,1,8,0:0:0:0:
448,192,21070,1,0,0:0:0:0:
320,192,21153,1,8,0:0:0:0:
64,192,21236,1,8,0:0:0:0:
192,192,21236,1,2,0:0:0:0:
448,192,21403,1,8,0:0:0:0:
320,192,21403,1,0,0:0:0:0:
64,192,21570,1,8,0:0:0:0:
448,192,21570,1,0,0:0:0:0:
192,192,21570,1,0,0:0:0:0:
192,192,21736,1,8,0:0:0:0:
320,192,21736,1,0,0:0:0:0:
448,192,21903,128,0,22403:0:0:0:0:
64,192,22070,1,0,0:0:0:0:
192,192,22236,1,0,0:0:0:0:
320,192,22403,128,0,23236:0:0:0:0:
448,192,22736,1,0,0:0:0:0:
192,192,23070,1,0,0:0:0:0:
64,192,23236,128,0,23736:0:0:0:0:
448,192,23403,1,0,0:0:0:0:
320,192,23570,1,0,0:0:0:0:
192,192,23736,128,0,24070:0:0:0:0:
320,192,24070,1,2,0:0:0:0:
448,192,24070,1,0,0:0:0:0:
64,192,24236,1,8,0:0:0:0:
192,192,24236,1,0,0:0:0:0:
448,192,24236,1,0,0:0:0:0:
320,192,24403,1,2,0:0:0:0:
192,192,24403,1,0,0:0:0:0:
448,192,24570,1,4,0:0:0:0:
64,192,24570,1,8,0:0:0:0:
320,192,24570,128,0,24903:0:0:0:0:
192,192,24736,1,2,0:0:0:0:
64,192,24903,1,2,0:0:0:0:
448,192,24903,1,0,0:0:0:0:
192,192,25070,1,8,0:0:0:0:
448,192,25070,1,4,0:0:0:0:
64,192,25070,128,0,25403:0:0:0:0:
320,192,25236,1,2,0:0:0:0:
192,192,25403,1,2,0:0:0:0:
448,192,25403,1,0,0:0:0:0:
192,192,25570,1,8,0:0:0:0:
320,192,25570,1,0,0:0:0:0:
320,192,25736,1,8,0:0:0:0:
448,192,25736,128,4,26070:0:0:0:0:
64,192,25736,1,0,0:0:0:0:
64,192,26070,1,8,0:0:0:0:
192,192,26070,1,0,0:0:0:0:
320,192,26236,1,8,0:0:0:0:
448,192,26236,1,0,0:0:0:0:
448,192,26403,1,8,0:0:0:0:
64,192,26403,1,0,0:0:0:0:
320,192,26570,1,8,0:0:0:0:
192,192,26570,128,0,26736:0:0:0:0:
448,192,26903,128,0,27236:0:0:0:0:
192,192,27236,1,8,0:0:0:0:
320,192,27236,1,4,0:0:0:0:
64,192,27236,128,0,27570:0:0:0:0:
448,192,27403,1,0,0:0:0:0:
320,192,27570,128,8,27736:0:0:0:0:
192,192,27570,1,0,0:0:0:0:
64,192,27736,128,0,27903:0:0:0:0:
320,192,27903,1,8,0:0:0:0:
448,192,27903,1,0,0:0:0:0:
192,192,28070,128,2,28236:0:0:0:0:
64,192,28070,1,0,0:0:0:0:
448,192,28236,1,8,0:0:0:0:
320,192,28236,1,0,0:0:0:0:
192,192,28403,128,2,28570:0:0:0:0:
64,192,28403,1,0,0:0:0:0:
448,192,28570,1,8,0:0:0:0:
320,192,28570,1,0,0:0:0:0:
448,192,28736,128,0,28903:0:0:0:0:
64,192,28903,1,8,0:0:0:0:
192,192,28903,128,0,29070:0:0:0:0:
448,192,29070,1,2,0:0:0:0:
320,192,29070,128,0,29236:0:0:0:0:
448,192,29236,1,8,0:0:0:0:
64,192,29236,128,0,29403:0:0:0:0:
320,192,29403,1,2,0:0:0:0:
192,192,29403,128,0,29570:0:0:0:0:
64,192,29570,1,8,0:0:0:0:
448,192,29570,128,0,29736:0:0:0:0:
192,192,29736,1,2,0:0:0:0:
320,192,29736,128,0,29903:0:0:0:0:
192,192,29903,1,4,0:0:0:0:
448,192,29903,1,8,0:0:0:0:
64,192,29903,128,0,30236:0:0:0:0:
320,192,30070,1,0,0:0:0:0:
448,192,30236,1,8,0:0:0:0:
192,192,30236,128,0,30403:0:0:0:0:
320,192,30403,128,0,30570:0:0:0:0:
192,192,30570,1,8,0:0:0:0:
64,192,30570,1,0,0:0:0:0:
320,192,30736,1,2,0:0:0:0:
448,192,30736,128,0,30903:0:0:0:0:
64,192,30903,1,8,0:0:0:0:
192,192,30903,1,0,0:0:0:0:
320,192,31070,1,2,0:0:0:0:
448,192,31070,128,0,31236:0:0:0:0:
64,192,31236,1,8,0:0:0:0:
192,192,31236,1,0,0:0:0:0:
64,192,31403,128,0,31570:0:0:0:0:
192,192,31570,128,8,31736:0:0:0:0:
448,192,31570,1,0,0:0:0:0:
320,192,31736,128,2,31903:0:0:0:0:
448,192,31736,1,0,0:0:0:0:
192,192,31903,1,8,0:0:0:0:
64,192,31903,128,0,32070:0:0:0:0:
320,192,32070,1,2,0:0:0:0:
448,192,32070,128,0,32236:0:0:0:0:
64,192,32236,1,8,0:0:0:0:
192,192,32236,128,4,32403:0:0:0:0:
320,192,32236,1,0,0:0:0:0:
448,192,32403,128,0,32570:0:0:0:0:
320,192,32570,1,8,0:0:0:0:
64,192,32570,1,4,0:0:0:0:
192,192,32570,128,0,32903:0:0:0:0:
448,192,32903,1,8,0:0:0:0:
320,192,32903,1,0,0:0:0:0:
320,192,33070,128,2,33236:0:0:0:0:
448,192,33070,1,0,0:0:0:0:
192,192,33236,1,8,0:0:0:0:
64,192,33236,1,0,0:0:0:0:
64,192,33403,128,2,33570:0:0:0:0:
192,192,33403,1,0,0:0:0:0:
320,192,33570,1,8,0:0:0:0:
448,192,33570,1,0,0:0:0:0:
192,192,33736,1,2,0:0:0:0:
64,192,33736,1,0,0:0:0:0:
320,192,33903,1,4,0:0:0:0:
64,192,33903,1,8,0:0:0:0:
448,192,33903,128,0,34236:0:0:0:0:
64,192,34236,1,8,0:0:0:0:
192,192,34236,1,0,0:0:0:0:
64,192,34403,1,2,0:0:0:0:
192,192,34403,128,0,34570:0:0:0:0:
320,192,34570,1,8,0:0:0:0:
448,192,34570,1,0,0:0:0:0:
320,192,34736,128,2,34903:0:0:0:0:
448,192,34736,1,0,0:0:0:0:
192,192,34903,1,8,0:0:0:0:
64,192,34903,1,0,0:0:0:0:
448,192,35070,1,2,0:0:0:0:
192,192,35070,1,0,0:0:0:0:
64,192,35236,1,4,0:0:0:0:
320,192,35236,1,8,0:0:0:0:
448,192,35236,1,0,0:0:0:0:
320,192,35403,1,2,0:0:0:0:
192,192,35403,1,0,0:0:0:0:
64,192,35570,1,0,0:0:0:70:Tom2.wav
192,192,35570,1,0,0:0:0:0:
320,192,35736,1,8,0:0:0:0:
448,192,35736,1,0,0:0:0:0:
192,192,35820,1,8,0:0:0:0:
448,192,35903,1,8,0:0:0:0:
64,192,35903,1,2,0:0:0:0:
320,192,36070,1,0,0:0:0:70:Tom2.wav
192,192,36070,1,0,0:0:0:0:
192,192,36236,1,0,0:0:0:70:Tom3.wav
448,192,36236,1,0,0:0:0:0:
64,192,36403,1,4,0:0:0:0:
448,192,36403,128,2,36903:0:0:0:0:
320,192,36403,128,0,36903:0:0:0:0:
192,192,36903,1,0,0:0:0:0:
64,192,36945,1,0,0:0:0:0:
448,192,36986,1,0,0:0:0:0:
320,192,37028,1,0,0:0:0:0:
192,192,37070,1,0,0:0:0:0:
64,192,37111,1,0,0:0:0:0:
448,192,37153,1,0,0:0:0:0:
320,192,37195,1,0,0:0:0:0:
192,192,37236,128,0,37570:0:0:0:0:
64,192,37570,128,0,37903:0:0:0:0:
320,192,37903,1,2,0:0:0:0:
448,192,37903,128,0,38236:0:0:0:70:LR_Sleigh Bell.wav
192,192,37903,1,0,0:0:0:0:
192,192,38236,1,2,0:0:0:0:
64,192,38236,1,0,0:0:0:0:
320,192,38403,1,0,0:0:0:0:
448,192,38570,1,2,0:0:0:0:
192,192,38570,128,0,38903:0:0:0:0:
64,192,38903,1,2,0:0:0:0:
320,192,38903,128,0,39236:0:0:0:0:
448,192,39236,128,2,39569:0:0:0:0:
192,192,39236,1,0,0:0:0:0:
320,192,39569,1,2,0:0:0:0:
64,192,39569,1,0,0:0:0:0:
192,192,39736,1,0,0:0:0:0:
320,192,39903,1,2,0:0:0:0:
448,192,39903,128,0,40236:0:0:0:0:
64,192,40236,1,2,0:0:0:0:
192,192,40236,128,0,40569:0:0:0:0:
448,192,40569,1,2,0:0:0:0:
64,192,40569,128,0,40903:0:0:0:0:
320,192,40653,1,0,0:0:0:0:
192,192,40736,1,0,0:0:0:0:
448,192,40903,1,2,0:0:0:0:
320,192,40903,128,0,41236:0:0:0:0:
192,192,41069,1,0,0:0:0:0:
64,192,41236,1,2,0:0:0:0:
448,192,41236,128,0,41569:0:0:0:0:
192,192,41319,1,0,0:0:0:0:
320,192,41403,1,0,0:0:0:0:
192,192,41569,128,2,41903:0:0:0:0:
64,192,41569,1,0,0:0:0:0:
320,192,41903,128,2,42236:0:0:0:0:
448,192,41903,1,0,0:0:0:0:
192,192,42236,5,2,0:0:0:0:
64,192,42236,128,0,42569:0:0:0:0:
320,192,42403,128,0,42569:0:0:0:0:
448,192,42569,128,2,42903:0:0:0:0:
192,192,42569,1,0,0:0:0:0:
320,192,42736,128,0,42903:0:0:0:0:
192,192,42903,128,2,43236:0:0:0:0:
64,192,42903,128,0,43069:0:0:0:0:
448,192,43069,128,0,43236:0:0:0:0:
320,192,43236,128,2,43569:0:0:0:0:
64,192,43236,1,0,0:0:0:0:
192,192,43403,1,0,0:0:0:0:
448,192,43569,1,2,0:0:0:0:
64,192,43569,1,0,0:0:0:0:
320,192,43736,1,0,0:0:0:0:
64,192,43903,1,2,0:0:0:0:
448,192,43903,1,0,0:0:0:0:
192,192,44069,128,0,44236:0:0:0:0:
320,192,44236,128,2,44569:0:0:0:0:
448,192,44236,128,0,44403:0:0:0:0:
64,192,44403,128,0,44569:0:0:0:0:
192,192,44569,128,2,44903:0:0:0:0:
448,192,44569,1,0,0:0:0:0:
320,192,44736,1,0,0:0:0:0:
64,192,44903,1,2,0:0:0:0:
448,192,44903,1,0,0:0:0:0:
192,192,45069,1,0,0:0:0:0:
64,192,45236,1,2,0:0:0:0:
448,192,45236,1,0,0:0:0:0:
320,192,45403,128,0,45569:0:0:0:0:
192,192,45569,128,2,45903:0:0:0:0:
64,192,45569,128,0,45736:0:0:0:0:
448,192,45736,128,0,45903:0:0:0:0:
320,192,45903,1,2,0:0:0:0:
64,192,45903,128,0,46569:0:0:0:0:
320,192,46236,1,2,0:0:0:0:
192,192,46236,1,0,0:0:0:0:
448,192,46403,128,0,46903:0:0:0:0:
320,192,46569,1,2,0:0:0:0:
192,192,46569,1,0,0:0:0:0:
320,192,46903,128,2,47236:0:0:0:0:
64,192,46903,1,0,0:0:0:0:
192,192,47069,1,0,0:0:0:0:
64,192,47236,128,2,47569:0:0:0:0:
448,192,47236,1,0,0:0:0:0:
320,192,47569,1,2,0:0:0:0:
192,192,47569,1,0,0:0:0:0:
448,192,47736,1,0,0:0:0:0:
320,192,47819,1,0,0:0:0:0:
192,192,47903,1,2,0:0:0:0:
64,192,47903,1,0,0:0:0:0:
448,192,48069,1,0,0:0:0:0:
64,192,48236,1,2,0:0:0:0:
320,192,48403,1,0,0:0:0:0:
320,192,48569,1,2,0:0:0:0:
192,192,48569,1,0,0:0:0:50:soft-hitfinish.wav
448,192,48569,128,0,48903:0:0:0:0:
64,192,48736,1,0,0:0:0:0:
320,192,48903,1,2,0:0:0:0:
192,192,48903,1,0,0:0:0:0:
448,192,49069,1,0,0:0:0:0:
192,192,49236,1,2,0:0:0:0:
64,192,49236,128,0,49569:0:0:0:0:
320,192,49403,1,0,0:0:0:0:
448,192,49569,128,2,49903:0:0:0:0:
192,192,49569,1,0,0:0:0:0:
64,192,49736,1,0,0:0:0:0:
320,192,49903,128,2,50236:0:0:0:0:
64,192,49903,1,0,0:0:0:0:
448,192,50069,1,0,0:0:0:0:
192,192,50236,1,2,0:0:0:0:
64,192,50236,1,0,0:0:0:0:
320,192,50403,1,0,0:0:0:0:
192,192,50569,128,2,50903:0:0:0:0:
448,192,50569,1,0,0:0:0:0:
320,192,50736,1,0,0:0:0:0:
448,192,50903,1,2,0:0:0:0:
64,192,50903,1,0,0:0:0:0:
192,192,51069,1,0,0:0:0:0:
448,192,51236,128,2,51569:0:0:0:0:
192,192,51236,1,0,0:0:0:0:
320,192,51403,1,0,0:0:0:0:
64,192,51569,1,2,0:0:0:0:
192,192,51569,1,0,0:0:0:0:
320,192,51736,1,0,0:0:0:0:
320,192,51903,1,2,0:0:0:0:
64,192,51903,128,0,52236:0:0:0:0:
192,192,52069,1,0,0:0:0:0:
448,192,52236,1,2,0:0:0:0:
320,192,52236,1,0,0:0:0:0:
64,192,52403,1,0,0:0:0:0:
64,192,52569,1,2,0:0:0:0:
320,192,52569,128,0,52903:0:0:0:0:
192,192,52736,1,0,0:0:0:0:
448,192,52903,1,2,0:0:0:0:
64,192,52903,1,0,0:0:0:0:
320,192,53069,1,0,0:0:0:0:
192,192,53236,1,2,0:0:0:0:
64,192,53236,1,0,0:0:0:0:
448,192,53403,1,0,0:0:0:0:
448,192,53569,1,2,0:0:0:0:
320,192,53569,1,0,0:0:0:0:
192,192,53736,1,0,0:0:0:0:
192,192,53903,1,4,0:0:0:0:
64,192,53903,1,2,0:0:0:0:
448,192,53903,1,0,0:0:0:0:
320,192,54069,1,0,0:0:0:0:
192,192,54236,1,8,0:0:0:0:
448,192,54236,1,0,0:0:0:0:
64,192,54236,1,0,0:0:0:0:
320,192,54403,1,0,0:0:0:0:
448,192,54569,1,2,0:0:0:0:
64,192,54569,1,0,0:0:0:0:
192,192,54736,1,0,0:0:0:0:
320,192,54903,1,8,0:0:0:0:
192,192,54903,1,0,0:0:0:0:
64,192,54903,1,0,0:0:0:0:
448,192,55069,1,0,0:0:0:0:
448,192,55236,1,2,0:0:0:0:
64,192,55236,1,0,0:0:0:0:
192,192,55403,1,0,0:0:0:0:
64,192,55569,1,8,0:0:0:0:
448,192,55569,1,0,0:0:0:0:
320,192,55569,1,0,0:0:0:0:
192,192,55736,1,0,0:0:0:0:
448,192,55903,1,2,0:0:0:0:
64,192,55903,1,0,0:0:0:0:
320,192,56069,1,0,0:0:0:0:
64,192,56236,1,8,0:0:0:0:
448,192,56236,1,0,0:0:0:0:
192,192,56236,128,0,56569:0:0:0:0:
448,192,56569,1,4,0:0:0:0:
64,192,56569,1,8,0:0:0:0:
320,192,56569,128,0,56903:0:0:0:0:
448,192,56903,1,8,0:0:0:0:
64,192,56903,1,0,0:0:0:0:
192,192,56903,1,0,0:0:0:0:
320,192,57014,1,0,0:0:0:0:
192,192,57125,1,0,0:0:0:0:
64,192,57236,1,8,0:0:0:0:
448,192,57236,1,0,0:0:0:0:
320,192,57236,128,0,57569:0:0:0:0:
448,192,57569,1,2,0:0:0:0:
64,192,57569,1,0,0:0:0:0:
192,192,57569,1,0,0:0:0:0:
448,192,57681,1,8,0:0:0:0:
320,192,57681,1,0,0:0:0:0:
64,192,57792,1,8,0:0:0:0:
192,192,57792,1,0,0:0:0:0:
448,192,57903,1,2,0:0:0:0:
64,192,57903,128,0,58236:0:0:0:0:
320,192,57903,1,4,0:0:0:0:
448,192,58236,1,0,0:0:0:70:Tom1.wav
320,192,58236,1,0,0:0:0:0:
192,192,58347,1,0,0:0:0:70:Tom1.wav
64,192,58347,1,0,0:0:0:0:
448,192,58458,1,0,0:0:0:70:Tom1.wav
320,192,58458,1,0,0:0:0:0:
192,192,58569,1,0,0:0:0:70:Tom2.wav
448,192,58681,1,0,0:0:0:70:Tom2.wav
64,192,58681,1,0,0:0:0:0:
320,192,58792,1,0,0:0:0:70:Tom2.wav
192,192,58903,1,0,0:0:0:70:Tom3.wav
64,192,58903,1,0,0:0:0:0:
448,192,59014,1,0,0:0:0:0:
320,192,59014,1,0,0:0:0:0:
192,192,59125,1,0,0:0:0:70:Tom3.wav
64,192,59125,1,0,0:0:0:0:
320,192,59236,1,4,0:0:0:0:
64,192,59236,1,2,0:0:0:0:
448,192,59236,128,0,59569:0:0:0:0:
192,192,59569,1,0,0:0:0:0:
192,192,59903,1,0,0:0:0:0:
320,192,60069,1,0,0:0:0:0:
192,192,60236,1,0,0:0:0:0:
320,192,60403,1,2,0:0:0:0:
448,192,60403,1,0,0:0:0:0:
448,192,60569,1,2,0:0:0:0:
320,192,60569,128,0,60903:0:0:0:0:
64,192,60903,1,0,0:0:0:0:
64,192,61236,1,0,0:0:0:0:
64,192,61569,1,0,0:0:0:0:
320,192,61736,1,0,0:0:0:0:
64,192,61903,1,2,0:0:0:0:
192,192,61903,128,0,62236:0:0:0:0:
448,192,62236,1,0,0:0:0:0:
448,192,62569,1,0,0:0:0:0:
192,192,62736,1,0,0:0:0:0:
448,192,62903,1,0,0:0:0:0:
64,192,63069,1,2,0:0:0:0:
192,192,63069,1,0,0:0:0:0:
192,192,63236,1,2,0:0:0:0:
64,192,63236,128,0,63569:0:0:0:0:
320,192,63569,1,0,0:0:0:0:
320,192,63903,1,0,0:0:0:0:
64,192,64069,1,0,0:0:0:0:
192,192,64153,1,0,0:0:0:0:
320,192,64236,128,0,64569:0:0:0:0:
448,192,64569,1,2,0:0:0:0:
64,192,64569,1,0,0:0:0:50:LR_Sleigh Bell.wav
192,192,64736,1,0,0:0:0:0:
448,192,64903,1,2,0:0:0:0:
320,192,64903,1,0,0:0:0:0:
64,192,65069,1,0,0:0:0:0:
192,192,65236,1,2,0:0:0:0:
448,192,65236,1,0,0:0:0:0:
320,192,65403,1,0,0:0:0:0:
64,192,65569,1,2,0:0:0:0:
320,192,65569,1,0,0:0:0:0:
192,192,65736,1,0,0:0:0:0:
320,192,65903,1,2,0:0:0:0:
448,192,65903,1,0,0:0:0:0:
64,192,66069,1,0,0:0:0:0:
448,192,66236,1,2,0:0:0:0:
192,192,66236,1,0,0:0:0:0:
320,192,66403,1,0,0:0:0:0:
192,192,66569,1,2,0:0:0:0:
64,192,66569,1,0,0:0:0:0:
448,192,66736,1,0,0:0:0:0:
320,192,66903,1,2,0:0:0:0:
64,192,66903,1,0,0:0:0:0:
192,192,67069,1,0,0:0:0:0:
320,192,67236,1,2,0:0:0:0:
64,192,67236,1,0,0:0:0:0:
448,192,67403,1,0,0:0:0:0:
192,192,67569,1,2,0:0:0:0:
320,192,67569,1,0,0:0:0:0:
64,192,67736,1,0,0:0:0:0:
192,192,67903,1,2,0:0:0:0:
448,192,67903,1,0,0:0:0:0:
320,192,68069,1,0,0:0:0:0:
64,192,68236,1,2,0:0:0:0:
320,192,68236,1,0,0:0:0:0:
192,192,68403,1,0,0:0:0:0:
320,192,68569,1,2,0:0:0:0:
448,192,68569,1,0,0:0:0:0:
64,192,68736,1,0,0:0:0:0:
448,192,68903,1,2,0:0:0:0:
192,192,68903,1,0,0:0:0:0:
320,192,69069,1,0,0:0:0:0:
192,192,69236,1,2,0:0:0:0:
448,192,69236,1,0,0:0:0:50:soft-hitfinish.wav
64,192,69236,128,0,69569:0:0:0:0:
320,192,69569,1,2,0:0:0:0:
192,192,69569,1,0,0:0:0:50:soft-hitfinish.wav
448,192,69569,128,0,69903:0:0:0:0:
320,192,69903,1,2,0:0:0:0:
192,192,69903,128,0,70236:0:0:0:50:soft-hitfinish.wav
64,192,69903,1,0,0:0:0:0:
448,192,70069,128,0,70236:0:0:0:0:
64,192,70236,1,2,0:0:0:0:
320,192,70236,128,0,70403:0:0:0:0:
192,192,70403,128,0,70569:0:0:0:0:
448,192,70569,1,2,0:0:0:0:
320,192,70569,1,0,0:0:0:0:
64,192,70736,128,0,70903:0:0:0:0:
192,192,70903,1,2,0:0:0:0:
448,192,70903,1,0,0:0:0:0:
320,192,71069,1,0,0:0:0:0:
192,192,71236,1,2,0:0:0:0:
64,192,71236,1,0,0:0:0:0:
448,192,71403,1,0,0:0:0:0:
64,192,71569,1,2,0:0:0:0:
320,192,71569,1,0,0:0:0:0:
192,192,71736,1,0,0:0:0:0:
320,192,71903,1,2,0:0:0:0:
448,192,71903,128,0,72069:0:0:0:0:
64,192,72069,128,0,72236:0:0:0:0:
192,192,72236,1,2,0:0:0:0:
320,192,72236,128,0,72403:0:0:0:0:
448,192,72403,128,0,72569:0:0:0:0:
320,192,72569,1,8,0:0:0:0:
192,192,72569,1,2,0:0:0:0:
64,192,72569,1,0,0:0:0:0:
192,192,72736,1,0,0:0:0:0:
448,192,72903,1,2,0:0:0:0:
320,192,72903,1,0,0:0:0:0:
192,192,73069,1,8,0:0:0:0:
64,192,73069,1,0,0:0:0:0:
448,192,73069,1,0,0:0:0:0:
320,192,73236,1,8,0:0:0:0:
192,192,73236,1,0,0:0:0:0:
448,192,73403,1,8,0:0:0:0:
320,192,73403,1,0,0:0:0:0:
64,192,73403,1,0,0:0:0:0:
192,192,73569,1,8,0:0:0:0:
448,192,73569,1,0,0:0:0:0:
64,192,73569,1,0,0:0:0:0:
320,192,73736,1,8,0:0:0:0:
192,192,73736,1,0,0:0:0:0:
64,192,73736,1,0,0:0:0:0:
448,192,73736,1,0,0:0:0:0:
320,192,75236,1,4,0:0:0:0:
64,192,75236,128,2,75569:0:0:0:0:
448,192,75236,1,0,0:0:0:0:
192,192,75569,1,8,0:0:0:0:
320,192,75569,1,0,0:0:0:0:
448,192,75569,1,0,0:0:0:0:
192,192,75736,1,0,0:0:0:0:
448,192,75903,1,8,0:0:0:0:
64,192,75903,1,0,0:0:0:0:
320,192,75903,1,0,0:0:0:0:
192,192,76069,1,2,0:0:0:0:
64,192,76069,1,0,0:0:0:0:
192,192,76236,1,8,0:0:0:0:
448,192,76236,1,0,0:0:0:0:
64,192,76403,1,2,0:0:0:0:
320,192,76403,1,0,0:0:0:0:
448,192,76569,1,8,0:0:0:0:
64,192,76569,1,0,0:0:0:0:
192,192,76569,1,0,0:0:0:0:
320,192,76736,1,0,0:0:0:0:
192,192,76903,1,8,0:0:0:0:
64,192,76903,1,0,0:0:0:0:
448,192,76903,1,0,0:0:0:0:
320,192,77069,1,2,0:0:0:0:
192,192,77069,1,0,0:0:0:0:
448,192,77236,1,8,0:0:0:0:
64,192,77236,1,0,0:0:0:0:
448,192,77403,1,2,0:0:0:0:
192,192,77403,1,0,0:0:0:0:
320,192,77569,1,8,0:0:0:0:
64,192,77569,1,0,0:0:0:0:
448,192,77736,1,2,0:0:0:0:
192,192,77736,1,0,0:0:0:0:
64,192,77903,1,4,0:0:0:0:
192,192,77903,1,8,0:0:0:0:
320,192,77903,128,0,78236:0:0:0:0:
448,192,78236,1,8,0:0:0:0:
192,192,78236,1,0,0:0:0:0:
64,192,78236,1,0,0:0:0:0:
448,192,78403,1,0,0:0:0:0:
192,192,78569,1,8,0:0:0:0:
320,192,78569,1,0,0:0:0:0:
64,192,78569,1,0,0:0:0:0:
192,192,78736,1,2,0:0:0:0:
448,192,78736,1,0,0:0:0:0:
320,192,78903,1,8,0:0:0:0:
64,192,78903,1,0,0:0:0:0:
320,192,79069,1,2,0:0:0:0:
192,192,79069,1,0,0:0:0:0:
448,192,79236,1,8,0:0:0:0:
192,192,79236,1,0,0:0:0:0:
64,192,79236,1,0,0:0:0:0:
320,192,79403,1,0,0:0:0:0:
448,192,79569,1,8,0:0:0:0:
192,192,79569,1,0,0:0:0:0:
64,192,79569,1,0,0:0:0:0:
320,192,79736,1,2,0:0:0:0:
192,192,79736,1,0,0:0:0:0:
448,192,79903,1,8,0:0:0:0:
64,192,79903,1,0,0:0:0:0:
320,192,80069,1,2,0:0:0:0:
192,192,80069,1,0,0:0:0:0:
448,192,80236,1,4,0:0:0:0:
320,192,80236,1,8,0:0:0:0:
64,192,80236,1,0,0:0:0:0:
448,192,80403,1,0,0:0:0:0:
192,192,80569,1,4,0:0:0:0:
320,192,80569,1,8,0:0:0:0:
64,192,80569,128,0,80903:0:0:0:0:
192,192,80903,1,8,0:0:0:0:
448,192,80903,1,0,0:0:0:0:
320,192,80903,1,0,0:0:0:0:
320,192,81069,128,0,81236:0:0:0:0:
64,192,81236,1,8,0:0:0:0:
192,192,81236,1,0,0:0:0:0:
448,192,81236,1,0,0:0:0:0:
192,192,81403,128,2,81569:0:0:0:0:
320,192,81403,1,0,0:0:0:0:
448,192,81569,1,8,0:0:0:0:
64,192,81569,1,0,0:0:0:0:
192,192,81736,1,2,0:0:0:0:
320,192,81736,1,0,0:0:0:0:
320,192,81903,1,8,0:0:0:0:
64,192,81903,1,4,0:0:0:0:
448,192,81903,128,0,82236:0:0:0:0:
192,192,82236,1,8,0:0:0:0:
64,192,82236,1,0,0:0:0:0:
320,192,82236,1,0,0:0:0:0:
448,192,82403,1,2,0:0:0:0:
320,192,82403,128,0,82569:0:0:0:0:
192,192,82569,1,8,0:0:0:0:
64,192,82569,1,0,0:0:0:0:
448,192,82736,1,2,0:0:0:0:
64,192,82736,128,0,82903:0:0:0:0:
192,192,82903,1,8,0:0:0:0:
320,192,82903,1,0,0:0:0:0:
320,192,83069,1,2,0:0:0:0:
64,192,83069,1,0,0:0:0:0:
64,192,83236,1,4,0:0:0:0:
448,192,83236,1,8,0:0:0:0:
192,192,83236,128,0,83569:0:0:0:0:
320,192,83403,1,2,0:0:0:0:
448,192,83569,1,8,0:0:0:0:
64,192,83569,1,0,0:0:0:0:
320,192,83736,1,2,0:0:0:0:
192,192,83736,1,0,0:0:0:0:
320,192,83903,1,8,0:0:0:0:
448,192,83903,1,0,0:0:0:0:
192,192,83986,1,8,0:0:0:0:
64,192,83986,1,0,0:0:0:0:
320,192,84069,1,0,0:0:0:70:Tom2.wav
448,192,84069,1,0,0:0:0:0:
448,192,84236,1,8,0:0:0:0:
192,192,84236,1,0,0:0:0:0:
64,192,84236,1,0,0:0:0:0:
320,192,84403,1,4,0:0:0:0:
64,192,84403,1,2,0:0:0:0:
192,192,84403,128,0,84736:0:0:0:0:
320,192,84736,1,8,0:0:0:0:
64,192,84736,1,0,0:0:0:0:
448,192,84736,1,0,0:0:0:0:
192,192,84903,1,8,0:0:0:0:
320,192,84903,1,0,0:0:0:0:
192,192,85069,1,8,0:0:0:0:
64,192,85069,1,0,0:0:0:0:
448,192,85069,1,0,0:0:0:0:
448,192,85236,1,8,0:0:0:0:
320,192,85278,1,0,0:0:0:0:
192,192,85319,1,0,0:0:0:0:
64,192,85361,1,0,0:0:0:0:
448,192,85403,1,8,0:0:0:0:
320,192,85444,1,0,0:0:0:0:
192,192,85486,1,8,0:0:0:0:
64,192,85528,1,0,0:0:0:0:
448,192,85569,1,8,0:0:0:0:
320,192,85569,1,0,0:0:0:0:
192,192,85653,1,8,0:0:0:0:
64,192,85736,1,8,0:0:0:0:
320,192,85736,1,0,0:0:0:0:
448,192,85819,1,8,0:0:0:0:
320,192,85903,1,2,0:0:0:0:
192,192,85903,1,4,0:0:0:0:
64,192,85903,128,0,86236:0:0:0:0:
448,192,86069,1,8,0:0:0:0:
320,192,86236,1,2,0:0:0:0:
192,192,86236,1,0,0:0:0:0:
448,192,86403,1,8,0:0:0:0:
320,192,86403,128,0,86569:0:0:0:0:
192,192,86569,1,2,0:0:0:0:
64,192,86569,1,0,0:0:0:0:
448,192,86736,1,8,0:0:0:0:
320,192,86736,128,0,86903:0:0:0:0:
192,192,86903,1,2,0:0:0:0:
64,192,86903,1,0,0:0:0:0:
320,192,86986,1,2,0:0:0:0:
448,192,87069,1,8,0:0:0:0:
64,192,87069,128,0,87236:0:0:0:0:
320,192,87236,1,2,0:0:0:0:
192,192,87236,1,0,0:0:0:0:
448,192,87403,1,8,0:0:0:0:
192,192,87403,1,0,0:0:0:0:
320,192,87569,1,2,0:0:0:0:
64,192,87569,1,0,0:0:0:0:
448,192,87736,1,8,0:0:0:0:
320,192,87736,1,0,0:0:0:0:
64,192,87903,1,2,0:0:0:0:
192,192,87903,1,0,0:0:0:0:
448,192,88069,1,8,0:0:0:0:
64,192,88069,1,0,0:0:0:0:
320,192,88236,1,2,0:0:0:0:
192,192,88236,1,0,0:0:0:0:
448,192,88319,1,2,0:0:0:0:
64,192,88403,1,8,0:0:0:0:
192,192,88403,1,0,0:0:0:0:
64,192,88569,1,4,0:0:0:0:
320,192,88569,128,2,88903:0:0:0:0:
448,192,88569,1,0,0:0:0:0:
192,192,88736,1,8,0:0:0:0:
448,192,88903,1,2,0:0:0:0:
64,192,88903,1,0,0:0:0:0:
192,192,89069,1,8,0:0:0:0:
448,192,89069,128,0,89236:0:0:0:0:
64,192,89236,1,2,0:0:0:0:
320,192,89236,1,0,0:0:0:0:
192,192,89403,1,8,0:0:0:0:
448,192,89403,128,0,89569:0:0:0:0:
192,192,89569,1,2,0:0:0:0:
64,192,89569,1,0,0:0:0:0:
320,192,89653,1,2,0:0:0:0:
448,192,89736,1,8,0:0:0:0:
64,192,89736,128,0,89903:0:0:0:0:
448,192,89903,1,2,0:0:0:0:
320,192,89903,1,0,0:0:0:0:
192,192,89986,1,2,0:0:0:0:
64,192,90069,1,8,0:0:0:0:
320,192,90069,1,0,0:0:0:50:soft-hitfinish.wav
64,192,90236,1,2,0:0:0:0:
192,192,90236,1,0,0:0:0:0:
320,192,90319,1,2,0:0:0:0:
448,192,90403,1,8,0:0:0:0:
192,192,90403,1,0,0:0:0:50:soft-hitfinish.wav
448,192,90569,1,2,0:0:0:0:
64,192,90569,1,0,0:0:0:0:
320,192,90653,1,2,0:0:0:0:
192,192,90736,1,8,0:0:0:0:
64,192,90736,1,0,0:0:0:50:soft-hitfinish.wav
448,192,90903,1,2,0:0:0:0:
320,192,90903,1,0,0:0:0:0:
192,192,90986,1,2,0:0:0:0:
64,192,91069,1,8,0:0:0:0:
448,192,91069,1,0,0:0:0:50:soft-hitfinish.wav
64,192,91236,1,4,0:0:0:0:
320,192,91236,1,2,0:0:0:0:
192,192,91236,128,0,91569:0:0:0:0:
448,192,91403,1,8,0:0:0:0:
320,192,91569,1,2,0:0:0:0:
64,192,91569,1,0,0:0:0:0:
64,192,91736,1,8,0:0:0:0:
192,192,91736,128,0,91903:0:0:0:0:
448,192,91903,1,2,0:0:0:0:
320,192,91903,1,0,0:0:0:0:
448,192,92069,1,8,0:0:0:0:
320,192,92069,128,0,92236:0:0:0:0:
64,192,92236,1,2,0:0:0:0:
192,192,92236,1,0,0:0:0:0:
320,192,92319,1,2,0:0:0:0:
448,192,92403,1,0,0:0:0:0:
192,192,92403,1,8,0:0:0:0:
320,192,92569,1,4,0:0:0:0:
64,192,92569,1,2,0:0:0:0:
448,192,92569,128,0,92903:0:0:0:0:
192,192,92736,1,8,0:0:0:0:
320,192,92903,1,2,0:0:0:0:
64,192,92903,1,0,0:0:0:0:
448,192,93069,1,8,0:0:0:0:
320,192,93069,128,0,93236:0:0:0:0:
192,192,93236,1,2,0:0:0:0:
64,192,93236,1,0,0:0:0:0:
64,192,93403,1,8,0:0:0:0:
192,192,93403,128,0,93569:0:0:0:0:
448,192,93569,1,2,0:0:0:0:
320,192,93569,1,0,0:0:0:0:
192,192,93653,1,2,0:0:0:0:
64,192,93736,1,0,0:0:0:0:
448,192,93736,1,8,0:0:0:0:
320,192,93903,1,4,0:0:0:0:
192,192,93903,1,2,0:0:0:0:
64,192,93903,1,0,0:0:0:0:
448,192,94069,1,8,0:0:0:0:
320,192,94069,1,0,0:0:0:0:
192,192,94153,1,8,0:0:0:0:
64,192,94153,1,0,0:0:0:0:
448,192,94236,1,8,0:0:0:0:
320,192,94236,1,0,0:0:0:0:
192,192,94319,1,8,0:0:0:0:
64,192,94319,1,0,0:0:0:0:
448,192,94403,1,0,0:0:0:70:Tom1.wav
320,192,94403,1,0,0:0:0:0:
64,192,94486,1,0,0:0:0:70:Tom1.wav
192,192,94569,1,0,0:0:0:70:Tom2.wav
448,192,94569,1,0,0:0:0:0:
320,192,94653,1,0,0:0:0:70:Tom3.wav
64,192,94736,1,8,0:0:0:0:
192,192,94736,1,0,0:0:0:0:
320,192,94819,1,8,0:0:0:0:
448,192,94819,1,0,0:0:0:0:
192,192,94903,1,8,0:0:0:0:
64,192,94903,1,0,0:0:0:0:
448,192,95069,1,4,0:0:0:0:
320,192,95069,1,2,0:0:0:0:
64,192,95069,1,0,0:0:0:0:
64,192,95403,1,8,0:0:0:0:
448,192,95403,1,0,0:0:0:0:
320,192,95569,1,8,0:0:0:0:
192,192,95569,1,0,0:0:0:0:
448,192,95736,1,8,0:0:0:0:
64,192,95736,1,0,0:0:0:0:
320,192,95819,1,8,0:0:0:0:
192,192,95903,1,8,0:0:0:0:
64,192,95903,1,0,0:0:0:0:
448,192,95986,1,8,0:0:0:0:
320,192,95986,1,0,0:0:0:0:
192,192,96069,1,8,0:0:0:0:
64,192,96069,1,0,0:0:0:0:
448,192,96153,1,8,0:0:0:0:
320,192,96153,1,0,0:0:0:0:
64,192,96236,128,2,96569:0:0:0:0:
192,192,96236,128,0,96403:0:0:0:0:
448,192,96569,128,0,96903:0:0:0:0:
192,192,96903,1,0,0:0:0:0:
448,192,97069,128,0,97403:0:0:0:0:
320,192,97403,1,0,0:0:0:0:
192,192,97569,1,0,0:0:0:0:
448,192,97736,1,0,0:0:0:0:
320,192,97903,1,8,0:0:0:0:
192,192,97903,1,0,0:0:0:0:
64,192,97903,1,0,0:0:0:0:
64,192,98069,1,0,0:0:0:0:
320,192,98236,1,0,0:0:0:0:
192,192,98403,1,8,0:0:0:0:
64,192,98403,1,0,0:0:0:0:
448,192,98403,1,0,0:0:0:0:
448,192,98736,1,8,0:0:0:0:
320,192,98736,1,0,0:0:0:0:
320,192,98903,1,8,0:0:0:0:
448,192,98903,1,0,0:0:0:0:
192,192,99069,1,8,0:0:0:0:
64,192,99069,1,0,0:0:0:0:
192,192,99236,1,8,0:0:0:0:
64,192,99236,1,0,0:0:0:0:
448,192,99236,1,0,0:0:0:0:
448,192,100403,1,8,0:0:0:0:
320,192,100403,1,0,0:0:0:0:
64,192,100403,1,0,0:0:0:0:
192,192,100736,1,8,0:0:0:0:
64,192,100736,1,0,0:0:0:0:
448,192,100903,1,8,0:0:0:0:
320,192,100903,1,0,0:0:0:0:
320,192,101069,1,8,0:0:0:0:
448,192,101069,1,0,0:0:0:0:
192,192,101236,1,8,0:0:0:0:
64,192,101236,1,0,0:0:0:0:
320,192,101319,1,0,0:0:0:70:Tom1.wav
448,192,101319,1,0,0:0:0:0:
64,192,101403,1,0,0:0:0:70:Tom2.wav
192,192,101486,1,2,0:0:0:0:
320,192,101569,1,8,0:0:0:0:
448,192,101569,128,0,101903:0:0:0:0:
64,192,101569,1,0,0:0:0:0:
320,192,101903,1,4,0:0:0:0:
64,192,101903,1,8,0:0:0:0:
192,192,101903,128,0,102236:0:0:0:0:
448,192,102069,1,0,0:0:0:0:
320,192,102236,128,8,102403:0:0:0:0:
64,192,102236,1,0,0:0:0:0:
192,192,102403,128,0,102569:0:0:0:0:
448,192,102569,1,8,0:0:0:0:
64,192,102569,1,0,0:0:0:0:
320,192,102736,128,2,102903:0:0:0:0:
448,192,102736,1,0,0:0:0:0:
192,192,102903,1,8,0:0:0:0:
64,192,102903,1,0,0:0:0:0:
320,192,103069,128,2,103236:0:0:0:0:
448,192,103069,1,0,0:0:0:0:
192,192,103236,1,8,0:0:0:0:
64,192,103236,1,0,0:0:0:0:
64,192,103403,128,0,103569:0:0:0:0:
320,192,103569,1,8,0:0:0:0:
448,192,103569,128,0,103736:0:0:0:0:
320,192,103736,1,2,0:0:0:0:
192,192,103736,128,0,103903:0:0:0:0:
64,192,103903,1,8,0:0:0:0:
448,192,103903,128,0,104069:0:0:0:0:
192,192,104069,1,2,0:0:0:0:
320,192,104069,128,0,104236:0:0:0:0:
448,192,104236,1,8,0:0:0:0:
64,192,104236,128,0,104403:0:0:0:0:
320,192,104403,1,2,0:0:0:0:
192,192,104403,128,0,104569:0:0:0:0:
64,192,104569,1,4,0:0:0:0:
320,192,104569,1,8,0:0:0:0:
448,192,104569,128,0,104903:0:0:0:0:
192,192,104736,1,0,0:0:0:0:
320,192,104903,1,8,0:0:0:0:
64,192,104903,128,0,105069:0:0:0:0:
192,192,105069,128,2,105236:0:0:0:0:
448,192,105069,1,0,0:0:0:0:
448,192,105236,1,8,0:0:0:0:
320,192,105236,1,0,0:0:0:0:
64,192,105403,1,2,0:0:0:0:
192,192,105403,128,0,105569:0:0:0:0:
448,192,105569,1,8,0:0:0:0:
320,192,105569,1,0,0:0:0:0:
64,192,105736,1,2,0:0:0:0:
192,192,105736,128,0,105903:0:0:0:0:
448,192,105903,1,8,0:0:0:0:
320,192,105903,1,0,0:0:0:0:
320,192,106069,128,2,106236:0:0:0:0:
448,192,106236,128,8,106403:0:0:0:0:
64,192,106236,1,0,0:0:0:0:
192,192,106403,128,2,106569:0:0:0:0:
320,192,106403,1,0,0:0:0:0:
448,192,106569,1,8,0:0:0:0:
64,192,106569,128,0,106736:0:0:0:0:
320,192,106736,1,2,0:0:0:0:
448,192,106736,128,0,106903:0:0:0:0:
64,192,106903,1,8,0:0:0:0:
192,192,106903,128,0,107069:0:0:0:0:
448,192,107069,128,0,107236:0:0:0:0:
320,192,107236,1,4,0:0:0:0:
192,192,107236,1,8,0:0:0:0:
64,192,107236,128,0,107569:0:0:0:0:
448,192,107569,1,8,0:0:0:0:
320,192,107569,1,0,0:0:0:0:
320,192,107736,128,0,107903:0:0:0:0:
64,192,107903,1,8,0:0:0:0:
192,192,107903,1,0,0:0:0:0:
192,192,108069,128,2,108236:0:0:0:0:
64,192,108069,1,0,0:0:0:0:
448,192,108236,1,8,0:0:0:0:
320,192,108236,1,0,0:0:0:0:
192,192,108403,1,2,0:0:0:0:
64,192,108403,1,0,0:0:0:0:
64,192,108569,1,8,0:0:0:0:
320,192,108569,1,4,0:0:0:0:
448,192,108569,128,0,108903:0:0:0:0:
320,192,108736,1,2,0:0:0:0:
64,192,108903,1,8,0:0:0:0:
192,192,108903,1,0,0:0:0:0:
64,192,109069,128,2,109236:0:0:0:0:
192,192,109069,1,4,0:0:0:0:
448,192,109236,1,8,0:0:0:0:
320,192,109236,1,0,0:0:0:0:
320,192,109403,128,2,109569:0:0:0:0:
448,192,109403,1,0,0:0:0:0:
64,192,109569,1,8,0:0:0:0:
192,192,109569,1,0,0:0:0:0:
448,192,109736,1,2,0:0:0:0:
320,192,109736,1,0,0:0:0:0:
448,192,109903,1,4,0:0:0:0:
192,192,109903,1,8,0:0:0:0:
64,192,109903,1,0,0:0:0:0:
192,192,110069,1,2,0:0:0:0:
320,192,110069,1,0,0:0:0:0:
320,192,110236,1,8,0:0:0:0:
64,192,110236,1,0,0:0:0:0:
64,192,110403,1,0,0:0:0:0:
448,192,110403,1,0,0:0:0:0:
192,192,110486,1,8,0:0:0:0:
448,192,110569,1,8,0:0:0:0:
320,192,110569,1,2,0:0:0:0:
320,192,110736,1,0,0:0:0:70:Tom2.wav
192,192,110736,1,0,0:0:0:0:
448,192,110903,1,0,0:0:0:70:Tom3.wav
64,192,110903,1,0,0:0:0:0:
64,192,111069,1,4,0:0:0:0:
448,192,111069,128,2,112569:0:0:0:0:
320,192,111069,128,0,111569:0:0:0:0:
192,192,111569,1,0,0:0:0:70:finish.wav
192,192,111903,1,0,0:0:0:70:finish.wav
192,192,112236,1,0,0:0:0:70:finish.wav
64,192,112569,128,8,112736:0:0:0:0:
192,192,112569,128,0,112736:0:0:0:0:
320,192,112569,128,0,112736:0:0:0:0:
448,192,112903,1,8,0:0:0:0:
320,192,112903,1,0,0:0:0:0:
320,192,113014,1,8,0:0:0:0:
448,192,113014,1,0,0:0:0:0:
320,192,113125,1,8,0:0:0:0:
448,192,113125,1,0,0:0:0:0:
64,192,113236,128,8,113403:0:0:0:0:
192,192,113236,128,0,113403:0:0:0:0:
