osu file format v14

[General]
AudioFilename: audio.mp3
AudioLeadIn: 0
PreviewTime: 73995
Countdown: 0
SampleSet: Soft
StackLeniency: 0.5
Mode: 0
LetterboxInBreaks: 0
WidescreenStoryboard: 1

[Editor]
Bookmarks: 75245,87412
DistanceSpacing: 0.9
BeatDivisor: 4
GridSize: 8
TimelineZoom: 1

[Metadata]
Title:Watashi, Idol Sengen
TitleUnicode:私、アイドル宣⾔
Artist:Capi
ArtistUnicode:かぴ
Creator:NotEnough
Version:Insane
Source:
Tags:honeyworks chico japanese ハニーワークス
BeatmapID:2023151
BeatmapSetID:953768

[Difficulty]
HPDrainRate:5
CircleSize:4
OverallDifficulty:8
ApproachRate:8.9
SliderMultiplier:1.6
SliderTickRate:1

[Events]
//Background and Video events
0,0,"bg idol sengen.jpg",0,0
//Break Periods
//Storyboard Layer 0 (Background)
//Storyboard Layer 1 (Fail)
//Storyboard Layer 2 (Pass)
//Storyboard Layer 3 (Foreground)
//Storyboard Layer 4 (Overlay)
//Storyboard Sound Samples

[TimingPoints]
16579,333.333333333333,4,2,1,95,1,0
16579,-83.3333333333333,4,2,1,95,0,0
21912,-166.666666666667,4,2,1,55,0,0
24579,-83.3333333333334,4,2,1,95,0,0
27245,-83.3333333333334,4,2,1,95,0,0
36412,-200,4,2,1,62,0,0
37912,-125,4,2,1,68,0,0
48578,-111.111111111111,4,2,1,74,0,0
53912,-99.9999999999999,4,2,1,85,0,0
59245,-142.857142857143,4,2,1,62,0,0
64578,-117.647058823529,4,2,1,74,0,0
69245,-105.263157894737,4,2,1,85,0,0
72578,-80,4,2,1,95,0,0
75245,-71.4285714285714,4,2,1,95,0,1
85912,-71.4285714285714,4,2,1,95,0,1
96578,-76.9230769230769,4,2,1,95,0,0
101245,-76.9230769230769,4,2,1,70,0,0
101578,-76.9230769230769,4,2,1,95,0,0
101912,-83.3333333333333,4,2,1,95,0,0
111078,-125,4,2,1,72,0,0
113245,-125,4,2,1,72,0,0

[Colours]
Combo1 : 255,154,53
Combo2 : 145,48,241
Combo3 : 248,218,52
Combo4 : 128,255,255

[HitObjects]
419,85,16579,6,0,L|290:78,1,95.9999970703126,14|0,0:2|0:0,0:0:0:0:
248,200,16912,2,0,L|377:193,1,95.9999970703126,10|0,0:2|1:2,0:0:0:0:
242,119,17245,1,10,0:2:0:0:
159,205,17412,2,0,P|171:257|230:283,1,95.9999970703126,2|8,1:2|0:2,0:0:0:0:
51,309,17745,6,0,B|26:233|26:233|59:107,1,191.999994140625,2|0,1:2|0:2,0:0:0:0:
138,13,18245,1,8,0:2:0:0:
5,30,18412,1,2,1:2:0:0:
146,121,18579,2,0,L|249:118,1,95.9999970703126,10|2,0:2|1:2,0:0:0:0:
316,44,18912,1,10,0:2:0:0:
316,44,19079,1,2,1:2:0:0:
362,193,19245,6,0,L|357:324,1,95.9999970703126,14|0,0:2|0:0,0:0:0:0:
247,214,19579,2,0,L|241:118,1,95.9999970703126,10|0,0:2|1:2,0:0:0:0:
362,193,19912,1,10,0:2:0:0:
243,306,20079,2,0,L|135:296,1,95.9999970703126,2|8,1:2|0:2,0:0:0:0:
55,179,20412,6,0,P|117:186|144:301,1,191.999994140625,2|0,1:2|1:2,0:0:0:0:
228,191,20912,1,8,0:2:0:0:
341,283,21079,1,2,1:2:0:0:
341,283,21162,1,0,1:2:0:0:
341,283,21245,1,10,0:2:0:0:
432,253,21412,1,10,0:2:0:0:
452,159,21579,1,10,0:2:0:0:
386,89,21745,1,10,0:2:0:0:
325,152,21912,6,0,P|281:161|223:131,1,95.9999970703126,2|2,0:2|0:2,0:0:0:0:
175,65,22412,1,2,0:2:0:0:
121,232,22745,2,0,L|121:127,1,95.9999970703126,2|0,0:2|0:2,0:0:0:0:
72,312,23245,6,0,B|127:345|180:315,1,95.9999970703126,2|2,0:2|0:2,0:0:0:0:
255,262,23745,2,0,P|297:256|341:267,1,71.9999978027344,2|0,0:2|0:2,0:0:0:0:
356,278,24079,5,0,1:2:0:0:
407,127,24245,1,8,0:2:0:0:
446,228,24412,1,0,1:2:0:0:
311,121,24579,6,0,B|259:100|259:100|137:130,1,143.999995605469,6|0,1:2|0:2,0:0:0:0:
134,131,24912,1,2,1:2:0:0:
233,276,25079,2,0,B|257:231|257:231|253:173,1,95.9999970703126,14|0,0:2|1:2,0:0:0:0:
308,321,25412,1,2,1:2:0:0:
171,325,25579,1,8,0:2:0:0:
253,186,25745,6,0,L|403:191,1,143.999995605469,6|0,1:2|0:2,0:0:0:0:
431,192,26079,1,10,0:2:0:0:
512,88,26245,1,10,0:2:0:0:
361,49,26412,1,10,0:2:0:0:
443,225,26579,1,14,0:2:0:0:
259,41,26912,6,0,P|218:46|268:84,1,143.999995605469,0|0,1:0|0:0,0:0:0:0:
264,87,27245,6,0,B|219:116|219:116|88:91,1,143.999995605469,6|0,1:2|0:2,0:0:0:0:
91,88,27579,1,10,0:2:0:0:
29,196,27745,2,0,L|36:298,1,95.9999970703126,2|8,0:2|0:2,0:0:0:0:
142,370,28079,2,0,L|149:268,1,95.9999970703126,2|8,1:2|0:2,0:0:0:0:
241,184,28412,6,0,P|200:168|154:280,1,191.999994140625,2|2,1:2|0:2,0:0:0:0:
297,235,28912,2,0,L|298:128,1,95.9999970703126,10|2,0:2|1:2,0:0:0:0:
363,17,29245,1,10,0:2:0:0:
390,144,29412,1,2,1:2:0:0:
279,45,29579,1,10,0:2:0:0:
377,130,29745,1,2,1:2:0:0:
209,128,29912,6,0,P|149:113|60:186,1,143.999995605469,14|0,0:2|0:2,0:0:0:0:
57,174,30245,1,10,0:2:0:0:
160,297,30412,2,0,L|157:192,1,95.9999970703126,2|8,0:2|0:2,0:0:0:0:
281,265,30745,2,0,L|277:373,1,95.9999970703126,2|8,1:2|0:2,0:0:0:0:
114,378,31079,6,0,B|-13:377|-13:377|42:325,1,191.999994140625,2|2,1:2|0:2,0:0:0:0:
147,260,31579,1,10,0:2:0:0:
17,210,31745,1,2,1:2:0:0:
136,248,31912,1,10,0:2:0:0:
98,135,32079,1,2,1:2:0:0:
223,166,32245,2,0,L|328:159,1,95.9999970703126,10|2,0:2|1:2,0:0:0:0:
432,64,32579,6,0,P|358:65|332:159,1,143.999995605469,14|0,0:2|0:2,0:0:0:0:
318,159,32912,1,10,0:2:0:0:
242,54,33079,2,0,P|192:41|131:73,1,95.9999970703126,2|8,1:2|0:2,0:0:0:0:
26,108,33412,2,0,P|103:136|150:51,1,191.999994140625,2|0,1:2|1:2,0:0:0:0:
3,200,33912,6,0,B|57:228|57:228|206:209,1,191.999994140625,14|10,0:2|0:2,0:0:0:0:
329,276,34412,2,0,P|277:299|227:284,1,95.9999970703126,2|8,1:2|0:2,0:0:0:0:
358,188,34745,2,0,B|408:227|408:227|409:374,1,191.999994140625,2|0,1:2|1:2,0:0:0:0:
269,204,35245,6,0,L|274:90,1,95.9999970703126,14|0,0:2|0:0,0:0:0:0:
357,14,35579,1,10,0:2:0:0:
411,119,35745,1,2,1:2:0:0:
411,119,35829,1,0,1:2:0:0:
411,119,35912,1,8,0:2:0:0:
251,19,36079,2,0,L|120:31,1,95.9999970703126,2|8,1:2|0:2,0:0:0:0:
68,72,36412,6,0,P|20:99|133:108,1,320,14|0,0:2|0:2,0:0:0:0:
217,198,37912,6,0,P|265:212|349:179,1,128,2|0,1:2|1:2,0:0:0:0:
376,28,38579,2,0,L|384:93,1,64,2|0,1:2|0:2,0:0:0:0:
446,176,38912,2,0,L|439:248,1,64,2|0,1:2|0:2,0:0:0:0:
339,334,39245,6,0,P|318:308|209:303,1,128,2|0,1:2|1:2,0:0:0:0:
70,384,39912,2,0,L|79:296,1,64,2|0,1:2|0:2,0:0:0:0:
154,251,40245,2,0,L|149:177,1,64,2|0,1:2|0:2,0:0:0:0:
197,94,40578,6,0,P|263:70|311:84,1,96,2|0,1:2|0:0,0:0:0:0:
317,83,40912,2,0,P|356:93|384:88,1,64,2|0,1:2|0:2,0:0:0:0:
472,120,41245,2,0,L|467:196,1,64,2|0,1:2|0:2,0:0:0:0:
390,255,41578,2,0,L|398:322,1,64,2|0,1:2|0:2,0:0:0:0:
301,206,41912,6,0,P|247:177|176:200,2,128,2|0|0,1:2|1:2|1:2,0:0:0:0:
236,268,42745,1,2,0:2:0:0:
340,293,42912,1,2,1:2:0:0:
340,293,43078,1,2,0:2:0:0:
184,322,43245,6,0,L|183:175,2,128,2|0|0,1:2|1:2|1:2,0:0:0:0:
109,250,44078,1,2,0:2:0:0:
78,342,44245,1,2,1:2:0:0:
78,342,44412,1,2,0:2:0:0:
22,213,44578,6,0,P|48:178|128:157,2,128,2|0|0,1:2|1:2|1:2,0:0:0:0:
71,41,45578,6,0,L|151:35,1,64,2|0,1:2|0:2,0:0:0:0:
212,100,45912,2,0,P|266:117|325:66,2,128,2|0|0,1:2|1:2|1:2,0:0:0:0:
365,3,46912,6,0,P|389:29|401:62,1,64,2|0,1:2|0:2,0:0:0:0:
404,184,47245,2,0,B|361:199|361:199|256:178,1,128,2|0,1:2|1:2,0:0:0:0:
185,149,47745,6,0,L|188:97,2,32,2|2|2,0:2|0:2|1:2,0:2:0:0:
93,253,48245,1,2,1:2:0:0:
214,245,48578,6,0,P|293:239|346:285,1,143.999995605469,6|0,1:2|1:2,0:0:0:0:
470,384,49245,2,0,L|463:312,1,71.9999978027344,2|0,1:2|0:2,0:0:0:0:
413,220,49578,2,0,L|419:135,1,71.9999978027344,2|0,1:2|0:2,0:0:0:0:
328,55,49912,6,0,P|288:89|187:66,1,143.999995605469,2|0,1:2|1:2,0:0:0:0:
105,39,50412,1,0,0:0:0:0:
105,39,50578,2,0,P|76:50|40:81,1,71.9999978027344,2|0,1:2|0:2,0:0:0:0:
121,137,50912,2,0,L|127:210,1,71.9999978027344,2|0,1:2|0:2,0:0:0:0:
89,276,51245,6,0,P|137:250|205:265,1,107.999996704102,2|0,1:2|0:0,0:0:0:0:
220,270,51578,2,0,P|265:283|300:274,1,71.9999978027344,2|0,1:2|0:2,0:0:0:0:
384,227,51912,2,0,L|389:143,1,71.9999978027344,2|0,1:2|0:2,0:0:0:0:
312,98,52245,2,0,L|304:20,1,71.9999978027344,2|0,1:2|0:2,0:0:0:0:
201,81,52578,6,0,P|159:90|97:12,2,143.999995605469,2|0|0,1:2|1:2|1:2,0:0:0:0:
98,158,53412,1,2,0:2:0:0:
153,243,53578,1,2,1:2:0:0:
207,162,53745,1,2,0:2:0:0:
68,165,53912,6,0,B|38:211|38:211|55:325,2,160,6|0|0,1:2|1:2|1:2,0:0:0:0:
137,88,54745,1,2,0:2:0:0:
168,176,54912,1,2,1:2:0:0:
68,165,55078,1,2,0:2:0:0:
161,65,55245,6,0,L|325:73,2,160,6|0|0,1:2|1:2|1:2,0:0:0:0:
237,112,56078,1,0,0:0:0:0:
282,221,56245,6,0,L|423:212,1,120,2|0,1:2|0:0,0:0:0:0:
435,212,56578,2,0,P|460:177|450:126,1,80,6|0,1:2|0:2,0:0:0:0:
331,72,56912,2,0,L|326:141,3,53.3333333333333,2|2|2|2,1:2|0:0|0:0|1:2,0:0:0:0:
203,287,57578,6,0,L|198:218,3,53.3333333333333,10|0|0|10,0:2|0:0|0:0|0:2,0:0:0:0:
54,206,58245,5,8,0:3:0:0:
56,158,58356,1,8,0:3:0:0:
56,110,58467,1,8,0:3:0:0:
58,62,58578,2,0,L|129:55,2,53.3333333333333,8|8|8,0:3|0:3|0:3,0:0:0:0:
157,137,58912,2,0,L|230:141,2,53.3333333333333,4|4|4,0:3|0:3|0:3,0:0:0:0:
291,70,59245,5,6,1:2:0:0:
235,322,60412,1,2,1:2:0:0:
235,322,60578,1,2,1:2:0:0:
462,195,61912,5,2,1:2:0:0:
210,139,63078,1,2,1:2:0:0:
210,139,63245,1,2,1:2:0:0:
470,342,64245,6,0,L|476:237,1,83.9999974365235,0|0,0:0|0:0,0:0:0:0:
479,216,64578,2,0,B|447:182|447:182|341:191,2,136.000002593994,2|0|0,1:2|1:2|1:2,0:0:0:0:
387,279,65412,1,2,0:2:0:0:
331,192,65578,1,2,1:2:0:0:
331,192,65745,1,2,0:2:0:0:
269,299,65912,2,0,B|255:336|255:336|244:228,2,136.000002593994,2|0|0,1:2|1:2|1:2,0:0:0:0:
148,95,66912,6,0,L|146:184,1,68.0000012969971,2|2,1:2|0:2,0:0:0:0:
94,256,67245,2,0,P|99:179|160:166,2,136.000002593994,2|0|0,1:2|1:2|1:2,0:0:0:0:
167,318,68078,1,2,0:2:0:0:
227,235,68245,2,0,L|229:139,1,68.0000012969971,2|2,1:2|0:2,0:0:0:0:
282,52,68578,2,0,P|346:38|394:90,1,136.000002593994,2|0,1:2|1:2,0:2:0:0:
357,259,69245,6,0,B|313:276|313:276|215:254,1,113.999996955872,6|0,1:2|0:0,0:0:0:0:
212,251,69578,2,0,P|159:267|145:323,1,113.999996955872,2|0,1:2|0:0,0:0:0:0:
149,353,69912,2,0,B|104:369|104:369|-5:322|-4:322,1,151.999995941162,6|0,1:2|1:2,0:0:0:0:
56,86,70578,6,0,L|51:174,1,75.9999979705811,2|2,1:2|0:2,0:0:0:0:
96,254,70912,1,2,1:2:0:0:
96,254,71078,1,2,0:2:0:0:
188,148,71245,6,0,P|224:133|324:180,1,151.999995941162,2|2,1:2|1:2,0:0:0:0:
240,295,71745,1,2,0:2:0:0:
240,295,71912,2,0,L|245:189,1,75.9999979705811,0|0,1:2|0:2,0:0:0:0:
292,103,72245,2,0,L|286:22,1,75.9999979705811,0|0,1:2|0:2,0:0:0:0:
145,81,72578,6,0,P|84:56|37:72,2,100,6|2|2,1:2|0:2|1:2,0:0:0:0:
212,230,73078,1,2,1:2:0:0:
78,148,73245,1,0,1:2:0:0:
244,102,73412,1,10,0:2:0:0:
220,263,73578,1,8,0:2:0:0:
141,51,73745,1,14,0:2:0:0:
444,50,75245,6,0,L|438:177,1,111.999996582031,14|0,0:2|0:0,0:0:0:0:
321,276,75578,2,0,L|315:149,1,111.999996582031,10|0,0:2|0:2,0:0:0:0:
418,283,75912,1,10,0:2:0:0:
248,329,76078,2,0,L|111:317,1,111.999996582031,2|8,1:2|0:2,0:0:0:0:
142,157,76412,6,0,P|191:193|120:320,1,223.999993164063,2|0,1:2|1:2,0:0:0:0:
42,202,76912,2,0,L|51:83,1,111.999996582031,8|2,0:2|1:2,0:0:0:0:
182,0,77245,1,10,0:2:0:0:
196,142,77412,1,2,1:2:0:0:
84,20,77578,1,10,0:2:0:0:
246,54,77745,1,2,1:2:0:0:
171,225,77912,6,0,P|241:216|273:163,1,111.999996582031,14|0,0:2|0:0,0:0:0:0:
99,163,78245,2,0,P|74:224|108:293,1,111.999996582031,10|0,0:2|0:2,0:0:0:0:
196,329,78578,1,10,0:2:0:0:
282,223,78745,2,0,L|152:225,1,111.999996582031,2|8,1:2|0:2,0:0:0:0:
342,290,79078,6,0,B|380:220|380:220|357:61,1,223.999993164063,2|0,1:2|0:2,0:0:0:0:
258,70,79578,2,0,P|325:93|380:52,1,111.999996582031,8|2,0:2|1:2,0:0:0:0:
185,2,79912,1,10,0:2:0:0:
213,179,80078,1,2,1:2:0:0:
258,70,80245,1,10,0:2:0:0:
93,112,80412,1,2,1:2:0:0:
279,228,80578,6,0,B|236:262|236:262|101:244,1,167.999994873047,14|0,0:2|0:2,0:0:0:0:
88,241,80912,1,10,0:2:0:0:
169,88,81078,2,0,P|212:130|208:192,1,111.999996582031,2|8,0:2|0:2,0:0:0:0:
94,332,81412,2,0,P|30:314|40:171,1,223.999993164063,2|0,1:2|1:2,0:0:0:0:
202,310,81912,6,0,B|267:331|267:331|377:303,1,167.999994873047,14|0,0:2|0:0,0:0:0:0:
400,292,82245,1,10,0:2:0:0:
288,145,82412,2,0,P|258:205|269:252,1,111.999996582031,2|8,1:2|0:2,0:0:0:0:
399,137,82745,1,2,1:2:0:0:
302,50,82912,2,0,L|170:53,1,111.999996582031,8|0,0:2|1:2,0:0:0:0:
89,177,83245,6,0,P|193:130|171:54,1,167.999994873047,10|0,0:2|0:2,0:0:0:0:
190,52,83578,1,10,0:2:0:0:
43,123,83745,2,0,L|44:242,1,111.999996582031,2|8,1:2|0:2,0:0:0:0:
48,269,83995,1,8,0:2:0:0:
48,269,84078,1,10,0:2:0:0:
138,384,84245,1,8,0:2:0:0:
296,229,84412,6,0,P|221:204|155:257,1,167.999994873047,6|0,1:2|0:2,0:0:0:0:
140,281,84745,1,10,0:2:0:0:
230,361,84912,1,0,1:2:0:0:
296,229,85078,1,10,0:2:0:0:
383,381,85245,1,2,1:2:0:0:
458,190,85412,1,8,0:2:0:0:
458,190,85495,1,8,0:2:0:0:
458,190,85578,2,0,L|457:124,3,55.9999982910157,10|8|8|8,0:2|0:2|0:2|1:2,0:0:0:0:
394,74,85912,6,0,L|251:67,1,111.999996582031,6|8,1:2|0:2,0:0:0:0:
147,122,86245,1,2,1:2:0:0:
230,244,86412,2,0,P|249:193|234:131,1,111.999996582031,10|0,0:2|1:2,0:0:0:0:
76,57,86745,2,0,P|53:111|62:168,1,111.999996582031,10|0,0:2|1:2,0:0:0:0:
69,193,86995,1,0,1:2:0:0:
69,193,87078,1,10,0:2:0:0:
119,362,87245,6,0,L|244:357,1,111.999996582031,0|8,1:2|0:2,0:0:0:0:
341,248,87578,2,0,L|216:243,1,111.999996582031,0|10,1:2|0:2,0:0:0:0:
325,349,87912,1,2,1:2:0:0:
410,205,88078,1,10,0:2:0:0:
236,252,88245,1,2,1:2:0:0:
236,252,88328,1,0,1:2:0:0:
236,252,88412,1,10,0:2:0:0:
467,278,88578,6,0,P|501:213|485:154,1,111.999996582031,6|8,1:2|0:2,0:0:0:0:
445,38,88912,1,2,1:2:0:0:
313,129,89078,2,0,L|454:124,1,111.999996582031,10|0,0:2|1:2,0:0:0:0:
309,19,89412,2,0,L|168:14,1,111.999996582031,10|0,0:2|1:2,0:0:0:0:
166,12,89662,1,0,1:2:0:0:
129,23,89745,6,0,B|89:73|125:129,1,111.999996582031,10|0,0:2|1:2,0:0:0:0:
207,261,90078,1,12,0:2:0:0:
304,169,90245,2,0,L|184:173,1,111.999996582031,0|14,1:2|0:2,0:0:0:0:
44,182,90578,1,2,1:2:0:0:
44,182,90662,1,0,1:2:0:0:
44,182,90745,1,14,0:2:0:0:
123,48,90912,1,2,1:2:0:0:
123,48,90995,1,0,1:2:0:0:
123,48,91078,1,14,0:2:0:0:
108,242,91245,6,0,P|59:269|-2:257,1,111.999996582031,6|8,1:2|0:2,0:0:0:0:
120,141,91578,1,2,1:2:0:0:
120,141,91662,1,0,1:2:0:0:
120,141,91745,2,0,L|245:143,1,111.999996582031,10|0,0:2|1:2,0:0:0:0:
403,192,92078,1,10,0:2:0:0:
255,286,92245,1,0,1:2:0:0:
255,286,92329,1,0,1:2:0:0:
255,286,92412,1,8,0:2:0:0:
370,107,92578,6,0,P|447:113|485:172,1,111.999996582031,6|8,1:2|0:2,0:0:0:0:
462,291,92912,1,2,1:2:0:0:
291,199,93078,2,0,L|414:191,1,111.999996582031,10|0,0:2|1:2,0:0:0:0:
255,286,93412,1,10,0:2:0:0:
229,122,93578,1,0,1:2:0:0:
229,122,93662,1,0,1:2:0:0:
229,122,93745,1,8,0:2:0:0:
83,267,93912,5,6,1:2:0:0:
70,78,94078,1,8,0:2:0:0:
70,78,94162,1,8,0:2:0:0:
70,78,94245,2,0,L|111:120,3,55.9999982910157,10|8|8|8,0:2|0:2|0:3|0:3,0:0:0:0:
213,228,94578,1,4,0:3:0:0:
15,202,94745,1,8,0:2:0:0:
15,202,94828,1,8,0:2:0:0:
15,202,94912,1,8,0:2:0:0:
229,122,95078,1,14,0:2:0:0:
229,122,95412,5,6,3:2:0:0:
333,317,95578,1,10,0:2:0:0:
419,107,95745,1,4,0:3:0:0:
419,107,95828,1,4,0:3:0:0:
419,107,95912,2,0,L|346:151,3,55.9999982910157,8|8|8|8,0:3|0:3|0:3|0:3,0:0:0:0:
213,228,96245,1,12,0:2:0:0:
461,37,97912,5,10,0:2:0:0:
435,62,98412,5,10,0:2:0:0:
435,62,98745,1,10,0:2:0:0:
256,82,98912,1,8,0:2:0:0:
408,186,99078,1,8,0:2:0:0:
239,239,99245,1,14,0:2:0:0:
239,239,100412,5,10,0:2:0:0:
239,239,100745,5,10,0:2:0:0:
152,78,100912,1,10,0:2:0:0:
79,254,101078,1,10,0:2:0:0:
249,132,101245,2,0,L|342:137,3,51.999997619629,6|8|4|4,0:2|0:3|0:3|0:3,0:0:0:0:
340,137,101578,6,0,P|385:137|329:170,1,155.999992858887,14|0,0:2|0:2,0:0:0:0:
340,188,101912,6,0,B|398:176|398:176|493:218,1,143.999995605469,14|0,0:2|0:2,0:0:0:0:
501,223,102245,1,10,0:2:0:0:
391,348,102412,2,0,L|281:345,1,95.9999970703126,2|8,0:2|0:2,0:0:0:0:
186,255,102745,2,0,L|296:252,1,95.9999970703126,2|8,1:2|0:2,0:0:0:0:
318,118,103078,6,0,P|356:177|274:251,1,191.999994140625,2|2,1:2|0:2,0:0:0:0:
135,196,103578,2,0,P|187:173|237:194,1,95.9999970703126,10|2,0:2|1:2,0:0:0:0:
106,316,103912,1,10,0:2:0:0:
40,230,104078,1,2,1:2:0:0:
186,255,104245,1,10,0:2:0:0:
61,232,104412,1,2,1:2:0:0:
153,86,104578,6,0,B|203:65|203:65|325:93,1,143.999995605469,14|0,0:2|0:2,0:0:0:0:
319,101,104912,1,10,0:2:0:0:
431,177,105078,2,0,P|369:194|327:171,1,95.9999970703126,2|8,1:2|0:2,0:0:0:0:
459,94,105412,2,0,P|500:123|512:175,1,95.9999970703126,2|8,1:2|0:2,0:0:0:0:
368,279,105745,6,0,B|307:271|307:271|258:235|258:235|157:221,1,191.999994140625,2|2,1:2|1:2,0:0:0:0:
27,200,106245,1,10,0:2:0:0:
140,316,106412,1,2,1:2:0:0:
40,221,106578,1,10,0:2:0:0:
3,350,106745,1,2,1:2:0:0:
115,240,106912,2,0,L|116:125,1,95.9999970703126,10|2,0:2|0:2,0:0:0:0:
109,4,107245,6,0,P|78:28|122:140,1,143.999995605469,14|0,0:2|0:2,0:0:0:0:
115,144,107578,1,10,0:2:0:0:
250,68,107745,2,0,L|133:69,1,95.9999970703126,2|8,0:2|0:2,0:0:0:0:
252,216,108078,2,0,P|302:146|229:63,1,191.999994140625,2|0,1:2|1:2,0:0:0:0:
132,242,108578,6,0,B|252:216|252:216|338:247,1,191.999994140625,14|10,0:2|0:2,0:0:0:0:
256,384,109078,2,0,P|239:330|248:284,1,95.9999970703126,6|8,1:2|0:2,0:0:0:0:
381,186,109412,2,0,P|405:264|318:329,1,191.999994140625,2|0,1:2|1:2,0:0:0:0:
316,138,109912,6,0,B|372:157|372:157|474:131,1,143.999995605469,14|0,0:2|0:2,0:0:0:0:
487,126,110245,1,8,0:3:0:0:
327,41,110412,1,4,0:3:0:0:
327,41,110495,1,4,0:3:0:0:
327,41,110578,1,4,0:3:0:0:
233,177,110745,1,8,0:3:0:0:
66,33,111078,6,0,P|13:28|60:73,1,160,6|2,1:2|0:2,0:0:0:0:
82,69,111578,6,0,B|74:148,1,64,0|2,0:2|0:2,0:0:0:0:
70,223,111912,1,2,0:2:0:0:
157,144,112078,1,2,0:2:0:0:
222,234,112245,2,0,B|147:230,1,64,2|2,0:2|0:2,0:0:0:0:
282,307,112578,1,10,0:2:0:0:
282,307,112912,6,0,L|363:299,2,42.6666666666667,10|0|0,0:2|0:0|0:0,0:0:0:0:
363,297,113245,1,10,0:2:0:0:
