osu file format v14

[General]
AudioFilename: audio.mp3
AudioLeadIn: 0
PreviewTime: 66208
Countdown: 0
SampleSet: Soft
StackLeniency: 0.7
Mode: 0
LetterboxInBreaks: 0
EpilepsyWarning: 1
WidescreenStoryboard: 1

[Editor]
Bookmarks: 196117
DistanceSpacing: 1.4
BeatDivisor: 4
GridSize: 32
TimelineZoom: 2.899999

[Metadata]
Title:Kimi no Shiranai Monogatari
TitleUnicode:君の知らない物語
Artist:Capi
ArtistUnicode:かぴ
Creator:-karUpA-
Version:Happiness
Source:化物語
Tags:jpop j-pop pop japanese female vocals cover supercell bakemonogatari ed ending IAmWayneKing
BeatmapID:3614081
BeatmapSetID:1765617

[Difficulty]
HPDrainRate:5.5
CircleSize:4.2
OverallDifficulty:9
ApproachRate:9.2
SliderMultiplier:1.8
SliderTickRate:1

[Events]
//Background and Video events
0,0,"1919.jpg",0,0
//Break Periods
2,229047,239914
//Storyboard Layer 0 (Background)
//Storyboard Layer 1 (Fail)
//Storyboard Layer 2 (Pass)
//Storyboard Layer 3 (Foreground)
//Storyboard Layer 4 (Overlay)
//Storyboard Sound Samples

[TimingPoints]
1208,363.636363636364,4,2,1,30,1,0
1208,-166.666666666667,4,2,1,30,0,0
9884,-125,4,2,1,30,0,0
9935,-125,4,2,1,50,0,0
10662,-125,4,2,1,60,0,0
11338,-100,4,2,1,60,0,0
11389,-100,4,2,1,70,0,0
12117,-100,4,2,1,80,0,0
12793,-100,4,2,1,80,0,0
12844,-100,4,2,1,75,0,0
14571,-100,4,2,1,5,0,0
14662,-100,4,2,1,75,0,0
18571,-100,4,2,1,5,0,0
18662,-100,4,2,1,75,0,0
20389,-100,4,2,1,5,0,0
20480,-100,4,2,1,75,0,0
22389,-100,4,2,1,5,0,0
22480,-100,4,2,1,75,0,0
28935,-100,4,2,1,5,0,0
29026,-100,4,2,1,75,0,0
30298,-142.857142857143,4,2,1,50,0,0
41935,-111.111111111111,4,2,1,60,0,0
53844,-111.111111111111,4,2,1,5,0,0
53935,-111.111111111111,4,2,1,50,0,0
55026,-111.111111111111,4,2,1,60,0,0
55753,-111.111111111111,4,2,1,70,0,0
62298,-111.111111111111,4,2,1,80,0,0
62571,-111.111111111111,4,2,1,5,0,0
62662,-83.3333333333333,4,2,1,80,0,1
64026,-83.3333333333333,4,2,1,5,0,1
64117,-83.3333333333333,4,2,1,80,0,1
65208,-83.3333333333333,4,2,1,70,0,1
65935,-83.3333333333333,4,2,1,75,0,1
66298,-83.3333333333333,4,2,2,75,0,1
66480,-83.3333333333333,4,2,3,75,0,1
66662,-50,4,2,4,75,0,0
66753,-100,4,2,1,5,0,0
66844,-100,4,2,1,75,0,0
68117,-90.9090909090909,4,2,5,85,0,1
68298,-90.9090909090909,4,2,1,85,0,1
69208,-90.9090909090909,4,2,6,85,0,1
69389,-90.9090909090909,4,2,1,85,0,1
69571,-90.9090909090909,4,2,7,85,0,1
69935,-90.9090909090909,4,2,8,85,0,1
70117,-90.9090909090909,4,2,9,85,0,1
70480,-90.9090909090909,4,2,5,85,0,1
70662,-90.9090909090909,4,2,1,85,0,1
70844,-90.9090909090909,4,2,5,85,0,1
70935,-90.9090909090909,4,2,1,85,0,1
71026,-90.9090909090909,4,2,9,85,0,1
71389,-90.9090909090909,4,2,1,85,0,1
72117,-90.9090909090909,4,2,6,85,0,1
72298,-90.9090909090909,4,2,1,85,0,1
72480,-90.9090909090909,4,2,8,85,0,1
72844,-90.9090909090909,4,2,9,85,0,1
73026,-90.9090909090909,4,2,5,85,0,1
73389,-90.9090909090909,4,2,11,85,0,1
73571,-90.9090909090909,4,2,1,85,0,1
73753,-90.9090909090909,4,2,12,85,0,1
73935,-90.9090909090909,4,2,5,85,0,1
74026,-90.9090909090909,4,2,1,85,0,1
76117,-111.111111111111,4,2,5,85,0,1
76389,-111.111111111111,4,2,1,5,0,1
76480,-83.3333333333333,4,2,9,85,0,1
76753,-83.3333333333333,4,2,1,5,0,1
76844,-90.9090909090909,4,2,8,85,0,1
77389,-90.9090909090909,4,2,9,85,0,1
77753,-90.9090909090909,4,2,1,85,0,1
78117,-90.9090909090909,4,2,9,85,0,1
78298,-90.9090909090909,4,2,14,85,0,1
78480,-90.9090909090909,4,2,1,85,0,1
78844,-90.9090909090909,4,2,14,85,0,1
79026,-90.9090909090909,4,2,8,85,0,1
79117,-90.9090909090909,4,2,1,85,0,1
79389,-90.9090909090909,4,2,9,85,0,1
79571,-90.9090909090909,4,2,15,85,0,1
79753,-90.9090909090909,4,2,5,85,0,1
79935,-90.9090909090909,4,2,1,85,0,1
80844,-90.9090909090909,4,2,6,85,0,1
81208,-90.9090909090909,4,2,7,85,0,1
81571,-90.9090909090909,4,2,8,85,0,1
81753,-90.9090909090909,4,2,9,85,0,1
81935,-90.9090909090909,4,2,1,85,0,1
82117,-90.9090909090909,4,2,5,85,0,1
82298,-90.9090909090909,4,2,1,85,0,1
82480,-90.9090909090909,4,2,5,85,0,1
82571,-90.9090909090909,4,2,1,85,0,1
82662,-90.9090909090909,4,2,9,85,0,1
83026,-90.9090909090909,4,2,1,85,0,1
83753,-90.9090909090909,4,2,6,85,0,1
84117,-90.9090909090909,4,2,8,85,0,1
84480,-90.9090909090909,4,2,9,85,0,1
84662,-90.9090909090909,4,2,5,85,0,1
85026,-90.9090909090909,4,2,11,85,0,1
85208,-90.9090909090909,4,2,1,85,0,1
85389,-90.9090909090909,4,2,12,85,0,1
85571,-100,4,2,13,85,0,0
85753,-100,4,2,1,85,0,0
86571,-100,4,2,1,5,0,0
86662,-100,4,2,16,75,0,0
86844,-100,4,2,1,75,0,0
87026,-100,4,2,17,75,0,0
87208,-100,4,2,1,75,0,0
88117,-100,4,2,5,75,0,0
88298,-100,4,2,17,75,0,0
88480,-100,4,2,5,75,0,0
88662,-100,4,2,1,75,0,0
89571,-100,4,2,6,75,0,0
89753,-100,4,2,1,75,0,0
89935,-100,4,2,5,75,0,0
90026,-100,4,2,1,75,0,0
91026,-100,4,2,9,75,0,0
91298,-100,4,2,1,75,0,0
91389,-90.9090909090909,4,2,8,85,0,1
91571,-90.9090909090909,4,2,1,50,0,1
91662,-90.9090909090909,4,2,1,5,0,1
91753,-90.9090909090909,4,2,1,50,0,1
92117,-90.9090909090909,4,2,1,60,0,1
92844,-90.9090909090909,4,2,1,70,0,1
93571,-90.9090909090909,4,2,1,80,0,1
94298,-90.9090909090909,4,2,1,85,0,1
95389,-90.9090909090909,4,2,6,85,0,1
95480,-90.9090909090909,4,2,1,85,0,1
95753,-90.9090909090909,4,2,5,85,0,1
95935,-90.9090909090909,4,2,1,85,0,1
96117,-90.9090909090909,4,2,11,85,0,1
96298,-90.9090909090909,4,2,5,85,0,1
96662,-90.9090909090909,4,2,9,85,0,1
97208,-100,4,2,5,75,0,0
97389,-100,4,2,1,75,0,0
101662,-100,4,2,1,5,0,0
101753,-100,4,2,1,75,0,0
103026,-125,4,2,1,60,0,0
114662,-111.111111111111,4,2,1,60,0,0
126571,-111.111111111111,4,2,1,5,0,0
126662,-111.111111111111,4,2,1,50,0,0
127753,-111.111111111111,4,2,1,60,0,0
128480,-111.111111111111,4,2,1,70,0,0
135026,-249.999999999999,4,2,1,70,0,0
135117,-249.999999999999,4,2,1,55,0,0
136117,-249.999999999999,4,2,1,55,0,0
137935,-100,4,2,1,70,0,0
138298,-100,4,2,1,50,0,0
138662,-100,4,2,1,60,0,0
139026,-100,4,2,20,60,0,0
139208,-100,4,2,21,60,0,0
139389,-100,4,2,23,70,0,0
139571,-100,4,2,1,70,0,0
139753,-100,4,2,21,70,0,0
139935,-100,4,2,24,70,0,0
140117,-100,4,2,1,80,0,0
140298,-100,4,2,23,80,0,0
140662,-100,4,2,5,80,0,0
140844,-90.9090909090909,4,2,5,85,0,1
141208,-90.9090909090909,4,2,1,85,0,1
141935,-90.9090909090909,4,2,6,85,0,1
142298,-90.9090909090909,4,2,7,85,0,1
142662,-90.9090909090909,4,2,8,85,0,1
142844,-90.9090909090909,4,2,9,85,0,1
143208,-90.9090909090909,4,2,5,85,0,1
143389,-90.9090909090909,4,2,1,85,0,1
143571,-90.9090909090909,4,2,5,85,0,1
143662,-90.9090909090909,4,2,1,85,0,1
143753,-90.9090909090909,4,2,9,85,0,1
144117,-90.9090909090909,4,2,1,85,0,1
144844,-90.9090909090909,4,2,6,85,0,1
145026,-90.9090909090909,4,2,1,85,0,1
145208,-90.9090909090909,4,2,8,85,0,1
145571,-90.9090909090909,4,2,9,85,0,1
145753,-90.9090909090909,4,2,5,85,0,1
146117,-90.9090909090909,4,2,11,85,0,1
146298,-90.9090909090909,4,2,1,85,0,1
146480,-90.9090909090909,4,2,12,85,0,1
146662,-90.9090909090909,4,2,5,85,0,1
146844,-90.9090909090909,4,2,1,85,0,1
148844,-111.111111111111,4,2,5,85,0,1
149117,-111.111111111111,4,2,1,5,0,1
149208,-83.3333333333332,4,2,9,85,0,1
149480,-83.3333333333332,4,2,1,5,0,1
149571,-90.9090909090909,4,2,8,85,0,1
149662,-90.9090909090909,4,2,1,85,0,1
150117,-90.9090909090909,4,2,9,85,0,1
150208,-90.9090909090909,4,2,1,85,0,1
150298,-90.9090909090909,4,2,9,85,0,1
150935,-90.9090909090909,4,2,1,85,0,1
151026,-90.9090909090909,4,2,14,85,0,1
151208,-90.9090909090909,4,2,1,85,0,1
151753,-90.9090909090909,4,2,8,85,0,1
151844,-90.9090909090909,4,2,1,85,0,1
152117,-90.9090909090909,4,2,9,85,0,1
152208,-90.9090909090909,4,2,1,85,0,1
152298,-90.9090909090909,4,2,15,85,0,1
152389,-90.9090909090909,4,3,1,85,0,1
152480,-90.9090909090909,4,2,5,85,0,1
152844,-90.9090909090909,4,2,1,85,0,1
153571,-90.9090909090909,4,2,6,85,0,1
153935,-90.9090909090909,4,2,7,85,0,1
154298,-90.9090909090909,4,2,8,85,0,1
154480,-90.9090909090909,4,2,9,85,0,1
154844,-90.9090909090909,4,2,5,85,0,1
155026,-90.9090909090909,4,2,1,85,0,1
155208,-90.9090909090909,4,2,5,85,0,1
155298,-90.9090909090909,4,2,1,85,0,1
155389,-90.9090909090909,4,2,9,85,0,1
155753,-90.9090909090909,4,2,1,85,0,1
156480,-90.9090909090909,4,2,6,85,0,1
156662,-90.9090909090909,4,2,1,85,0,1
156844,-90.9090909090909,4,2,8,85,0,1
157208,-90.9090909090909,4,2,9,85,0,1
157389,-90.9090909090909,4,2,5,85,0,1
157753,-90.9090909090909,4,2,11,85,0,1
157935,-90.9090909090909,4,2,1,85,0,1
158117,-90.9090909090909,4,2,11,85,0,1
158298,-100,4,2,13,75,0,0
158480,-100,4,2,1,75,0,0
159389,-100,4,2,16,75,0,0
159480,-100,4,2,1,75,0,0
159753,-100,4,2,17,75,0,0
159935,-100,4,2,1,75,0,0
160844,-100,4,2,5,75,0,0
161026,-100,4,2,17,75,0,0
161117,-100,4,2,1,75,0,0
161208,-100,4,2,5,75,0,0
161389,-100,4,2,1,75,0,0
162298,-100,4,2,6,75,0,0
162480,-100,4,2,1,75,0,0
162662,-100,4,2,5,75,0,0
162844,-100,4,2,1,75,0,0
163571,-100,4,2,9,75,0,0
163753,-100,4,2,1,75,0,0
163935,-100,4,2,9,75,0,0
164026,-100,4,2,1,75,0,0
164117,-90.9090909090909,4,2,8,85,0,1
164298,-90.9090909090909,4,2,1,50,0,1
164389,-90.9090909090909,4,2,1,5,0,1
164480,-90.9090909090909,4,2,1,50,0,1
164844,-90.9090909090909,4,2,1,60,0,1
165571,-90.9090909090909,4,2,1,70,0,1
166298,-90.9090909090909,4,2,1,80,0,1
167026,-90.9090909090909,4,2,1,85,0,1
168117,-90.9090909090909,4,2,6,85,0,1
168480,-90.9090909090909,4,2,5,85,0,1
168662,-90.9090909090909,4,2,1,85,0,1
168844,-90.9090909090909,4,2,11,85,0,1
169026,-90.9090909090909,4,2,5,85,0,1
169389,-90.9090909090909,4,2,9,85,0,1
169935,-100,4,2,5,75,0,0
170117,-100,4,2,1,75,0,0
172844,-90.9090909090909,4,2,1,80,0,0
175753,-111.111111111111,4,2,1,80,0,0
175844,-111.111111111111,4,2,1,60,0,0
176117,-500,4,2,1,60,0,0
178480,-500,4,2,1,70,0,0
179026,-500,4,2,1,60,0,0
181571,-111.111111111111,4,2,1,70,0,0
187662,-111.111111111111,4,2,1,5,0,0
187753,-111.111111111111,4,2,1,70,0,0
188753,-111.111111111111,4,2,1,5,0,0
188844,-111.111111111111,4,2,1,70,0,0
190208,-111.111111111111,4,2,1,5,0,0
190298,-111.111111111111,4,2,1,70,0,0
193208,-125,4,2,1,60,0,0
194662,-111.111111111111,4,2,1,60,0,0
196117,-99.9999999999999,4,2,1,60,0,1
196389,-99.9999999999999,4,2,1,5,0,1
196480,-99.9999999999999,4,2,1,50,0,1
197571,-99.9999999999999,4,2,1,60,0,1
199026,-90.9090909090909,4,2,1,70,0,1
200480,-90.9090909090909,4,2,1,80,0,1
201935,-90.9090909090909,4,2,1,65,0,1
202298,-90.9090909090909,4,2,1,70,0,1
202666,363.636363636364,4,2,1,75,1,0
202666,-100,4,2,1,75,0,0
214302,-100,4,2,1,75,0,0
220120,-90.9090909090909,4,2,1,75,0,0
223029,-100,4,2,1,75,0,0
225938,-90.9090909090909,4,2,1,60,0,1
226666,-90.9090909090909,4,2,1,70,0,1
227393,-90.9090909090909,4,2,1,80,0,1
228120,-90.9090909090909,4,2,1,90,0,1
228847,-125,4,2,1,50,0,0
240484,-142.857142857143,4,2,1,50,0,0
246302,-142.857142857143,4,2,1,30,0,0
249211,-500.000000000003,4,2,1,30,0,0
251393,-500.000000000003,4,2,1,70,0,0
252120,-111.111111111111,4,2,1,70,0,0
257938,-100,4,2,1,70,0,0
258484,-100,4,2,1,35,0,0
259393,-100,4,2,1,50,0,0
260120,-100,4,2,1,60,0,0
260847,-100,4,2,1,70,0,0
263756,-142.857142857143,4,2,1,60,0,0
263847,-142.857142857143,4,2,1,50,0,0
272029,-142.857142857143,4,2,1,5,0,0
272120,-142.857142857143,4,2,1,50,0,0
272393,-142.857142857143,4,2,1,5,0,0
272484,-142.857142857143,4,2,1,50,0,0
275393,-125,4,2,1,60,0,0
287029,-111.111111111111,4,2,1,40,0,0
288484,-111.111111111111,4,2,1,50,0,0
289938,-111.111111111111,4,2,1,60,0,0
291393,-111.111111111111,4,2,1,70,0,0
292847,-100,4,2,1,75,0,0
294302,-100,4,2,1,80,0,0
295756,-99.9999999999999,4,2,1,75,0,0
298666,-90.9090909090909,4,2,5,85,0,1
299756,-90.9090909090909,4,2,6,85,0,1
299938,-90.9090909090909,4,2,1,85,0,1
300120,-90.9090909090909,4,2,7,85,0,1
300302,-90.9090909090909,4,2,1,85,0,1
300484,-90.9090909090909,4,2,8,85,0,1
300666,-90.9090909090909,4,2,9,85,0,1
300847,-90.9090909090909,4,2,1,85,0,1
301029,-90.9090909090909,4,2,5,85,0,1
301211,-90.9090909090909,4,2,1,85,0,1
301393,-90.9090909090909,4,2,5,85,0,1
301484,-90.9090909090909,4,2,1,85,0,1
301575,-90.9090909090909,4,2,9,85,0,1
302666,-90.9090909090909,4,2,6,85,0,1
302847,-90.9090909090909,4,2,1,85,0,1
303029,-90.9090909090909,4,2,8,85,0,1
303211,-90.9090909090909,4,2,1,85,0,1
303393,-90.9090909090909,4,2,9,85,0,1
303575,-90.9090909090909,4,2,5,85,0,1
303756,-90.9090909090909,4,2,1,85,0,1
303938,-90.9090909090909,4,2,11,85,0,1
304120,-90.9090909090909,4,2,1,85,0,1
304302,-90.9090909090909,4,2,11,85,0,1
304484,-100,4,2,13,75,0,0
304666,-100,4,2,1,75,0,0
305938,-100,4,2,17,75,0,0
306120,-100,4,2,1,75,0,0
307029,-100,4,2,5,75,0,0
307211,-100,4,2,17,75,0,0
307393,-100,4,2,5,75,0,0
307575,-100,4,2,1,75,0,0
308484,-100,4,2,6,75,0,0
308666,-100,4,2,1,75,0,0
308847,-100,4,2,5,75,0,0
309029,-100,4,2,1,75,0,0
309756,-100,4,2,5,75,0,0
309938,-100,4,2,9,75,0,0
310029,-100,4,2,1,75,0,0
310120,-100,4,2,9,75,0,0
310211,-100,4,2,1,75,0,0
310302,-90.9090909090909,4,2,8,85,0,1
310484,-90.9090909090909,4,2,1,50,0,1
311029,-90.9090909090909,4,2,1,60,0,1
311756,-90.9090909090909,4,2,1,70,0,1
312484,-90.9090909090909,4,2,1,80,0,1
313211,-90.9090909090909,4,2,1,85,0,1
314302,-90.9090909090909,4,2,6,85,0,1
314484,-90.9090909090909,4,2,1,85,0,1
314666,-90.9090909090909,4,2,50,85,0,0
316120,-100,4,2,5,75,0,0
316211,-100,4,2,1,75,0,0
327029,-100,4,2,1,85,0,0
328484,-270.27027027027,4,2,99,85,0,0

[Colours]
Combo1 : 255,128,0
Combo2 : 255,104,104
Combo3 : 255,163,70
Combo4 : 169,84,84

[HitObjects]
53,62,1208,6,0,P|61:103|65:122,1,53.9999983520508,2|2,0:0|0:0,0:0:0:0:
139,162,1571,1,2,0:0:0:0:
139,162,1753,2,0,L|105:285,1,107.999996704102,2|2,0:0|0:0,0:0:0:0:
209,230,2298,2,0,P|258:219|269:219,1,53.9999983520508,2|2,0:0|0:0,0:0:0:0:
292,132,2662,2,0,P|243:121|232:121,2,53.9999983520508,2|2|2,0:0|0:0|0:0,0:0:0:0:
375,95,3208,2,0,P|387:125|384:155,1,53.9999983520508,2|0,0:0|0:0,0:0:0:0:
338,223,3571,2,0,B|400:201|391:245|459:224,1,107.999996704102,2|2,0:0|0:0,0:0:0:0:
512,283,4117,6,0,P|480:310|449:302,1,53.9999983520508,2|2,0:0|0:0,0:0:0:0:
401,354,4480,2,0,P|359:350|343:322,1,53.9999983520508,2|2,0:0|0:0,0:0:0:0:
267,345,4844,2,0,P|240:313|248:282,1,53.9999983520508,2|0,0:0|0:0,0:0:0:0:
261,222,5208,1,2,0:0:0:0:
261,222,5389,1,2,0:0:0:0:
181,268,5571,2,0,P|142:258|121:252,2,53.9999983520508,2|2|2,0:0|0:0|0:0,0:0:0:0:
261,222,6117,2,0,P|286:212|312:205,1,53.9999983520508,2|0,0:0|0:0,0:0:0:0:
398,231,6480,2,0,P|413:179|382:129,1,107.999996704102,2|0,0:0|0:0,0:0:0:0:
319,73,7026,6,0,L|252:85,2,53.9999983520508,2|0|0,0:0|0:0|0:0,0:0:0:0:
396,6,7571,1,0,0:0:0:0:
455,52,7753,2,0,L|519:70,2,53.9999983520508,2|0|0,0:0|0:0|0:0,0:0:0:0:
388,143,8298,1,0,0:0:0:0:
452,197,8480,2,0,L|472:134,2,53.9999983520508,2|0|0,0:0|0:0|0:0,0:0:0:0:
360,261,9026,1,0,0:0:0:0:
299,213,9208,2,0,L|237:222,2,53.9999983520508,2|0|0,0:0|0:0|0:0,0:0:0:0:
233,115,9753,1,0,0:0:0:0:
300,78,9935,6,0,L|389:91,1,72,14|0,2:2|0:0,0:0:0:0:
234,39,10298,1,8,0:0:0:0:
303,149,10480,1,8,0:0:0:0:
356,2,10662,1,10,0:0:0:0:
360,206,10844,1,8,0:0:0:0:
174,107,11026,1,8,0:0:0:0:
429,42,11208,1,8,0:0:0:0:
261,282,11389,6,0,P|252:225|245:183,1,90,10|8,0:0|0:0,0:0:0:0:
65,70,11753,2,0,P|57:114|50:158,1,90,10|8,0:0|0:0,0:0:0:0:
202,348,12117,1,10,0:0:0:0:
56,247,12298,1,8,0:0:0:0:
288,110,12480,1,10,0:0:0:0:
107,346,12662,1,8,0:0:0:0:
357,365,12844,6,0,P|406:374|451:345,1,90,6|0,1:2|0:0,0:0:0:0:
298,207,13208,2,0,L|274:312,1,90,10|0,0:0|0:0,0:0:0:0:
174,166,13571,1,2,1:2:0:0:
357,124,13753,1,0,0:0:0:0:
206,242,13935,2,0,P|158:253|106:217,1,90,10|0,0:0|0:0,0:0:0:0:
223,33,14298,6,0,B|301:15|291:71|381:43,1,135,2|0,1:2|0:0,0:0:0:0:
418,10,14662,2,0,P|397:55|387:108,1,90,10|0,0:0|0:0,0:0:0:0:
329,237,15026,1,2,1:2:0:0:
473,155,15208,1,0,0:0:0:0:
307,226,15389,2,0,P|249:205|216:198,1,90,10|0,0:0|0:0,0:0:0:0:
68,300,15753,6,0,P|123:264|130:233,1,90,2|0,1:2|0:0,0:0:0:0:
1,104,16117,2,0,L|-1:206,1,90,10|0,0:0|0:0,0:0:0:0:
154,93,16480,1,2,1:2:0:0:
0,18,16662,1,0,0:0:0:0:
101,188,16844,2,0,P|146:175|199:173,1,90,10|0,0:0|0:0,0:0:0:0:
317,85,17208,6,0,P|357:142|351:171,1,90,2|0,1:2|0:0,0:0:0:0:
324,190,17480,1,8,0:0:0:0:
315,210,17571,1,10,0:0:0:0:
316,232,17662,1,8,0:0:0:0:
324,252,17753,1,8,0:0:0:0:
497,171,17935,1,2,1:2:0:0:
497,171,18026,1,0,1:2:0:0:
497,171,18117,2,0,L|439:151,1,45,8|8,0:0|0:0,0:0:0:0:
394,17,18298,2,0,P|422:60|501:39,1,135,10|0,0:0|0:0,0:0:0:0:
373,4,18662,6,0,P|312:19|273:31,1,90,6|0,1:2|0:0,0:0:0:0:
200,161,19026,2,0,P|261:176|300:188,1,90,10|0,0:0|0:0,0:0:0:0:
141,90,19389,1,2,1:2:0:0:
127,245,19571,1,0,0:0:0:0:
230,74,19753,2,0,P|203:21|166:10,1,90,10|0,0:0|0:0,0:0:0:0:
28,102,20117,6,0,B|15:156|6:182|6:182|26:227|68:218,1,135,2|0,1:2|0:0,0:0:0:0:
86,276,20480,2,0,P|69:331|57:372,1,90,10|0,0:0|0:0,0:0:0:0:
191,384,20844,1,2,1:2:0:0:
258,224,21026,1,8,0:0:0:0:
240,210,21117,1,8,0:0:0:0:
217,210,21208,1,10,0:0:0:0:
198,222,21298,1,8,0:0:0:0:
189,242,21389,1,8,0:0:0:0:
339,373,21571,5,6,1:2:0:0:
336,182,21753,1,10,0:2:0:0:
336,182,21844,1,8,0:2:0:0:
336,182,21935,1,10,0:2:0:0:
476,338,22117,2,0,P|490:267|510:171,1,135,6|0,1:2|0:0,0:0:0:0:
484,174,22480,1,10,3:0:0:0:
324,88,22662,1,6,3:0:0:0:
257,261,22844,6,0,B|165:284|194:201|74:234,1,180,6|0,1:2|1:2,0:0:0:0:
54,255,23298,1,0,1:2:0:0:
54,255,23389,1,8,0:0:0:0:
19,73,23571,5,6,1:2:0:0:
311,188,23935,1,6,1:2:0:0:
227,60,24480,6,0,B|334:34|334:34|380:54|358:104,1,180,4|8,1:2|0:0,0:0:0:0:
223,205,25026,1,0,0:0:0:0:
330,275,25208,2,0,P|318:222|308:177,1,90,0|0,1:2|0:0,0:0:0:0:
155,117,25571,2,0,P|145:160|135:204,1,90,8|0,0:0|0:0,0:0:0:0:
18,76,25935,6,0,B|81:52|81:52|138:74|138:74|207:55,1,180,2|8,1:2|0:0,0:0:0:0:
342,118,26480,2,0,P|351:62|332:32,1,90,2|0,0:0|1:2,0:0:0:0:
221,131,26844,1,0,0:0:0:0:
374,208,27026,2,0,P|426:198|474:189,1,90,10|0,0:0|0:0,0:0:0:0:
402,347,27389,6,0,P|322:323|211:302,1,180,2|8,1:2|0:0,0:0:0:0:
59,384,27935,1,0,0:0:0:0:
123,245,28117,2,0,P|138:298|149:338,1,90,0|0,1:2|0:0,0:0:0:0:
22,202,28480,1,10,0:0:0:0:
213,244,28662,6,0,P|254:200|221:106,1,135,14|0,0:0|0:0,0:0:0:0:
232,108,29026,1,10,0:0:0:0:
337,305,29208,1,10,0:0:0:0:
403,80,29389,1,10,0:0:0:0:
213,244,29571,1,10,0:0:0:0:
512,135,29753,1,10,0:0:0:0:
205,9,29935,1,10,0:0:0:0:
327,288,30117,1,10,0:0:0:0:
411,184,30298,6,0,P|362:172|346:152,1,62.9999980773926,2|2,0:0|0:0,0:0:0:0:
278,113,30662,2,0,P|266:164|261:179,1,62.9999980773926,2|2,0:0|0:0,0:0:0:0:
163,152,31026,2,0,P|169:182|178:213,2,62.9999980773926,2|0|2,0:0|0:0|0:0,0:0:0:0:
93,101,31571,1,2,0:0:0:0:
165,54,31753,6,0,B|229:39|222:84|309:69,1,125.999996154785,2|2,0:0|0:0,0:0:0:0:
366,19,32298,2,0,B|389:43|389:43|382:88,1,62.9999980773926,2|0,0:0|0:0,0:0:0:0:
324,142,32662,2,0,P|334:197|354:283,1,125.999996154785,2|2,0:0|0:0,0:0:0:0:
435,290,33208,6,0,P|428:242|403:221,1,62.9999980773926,2|2,0:0|0:0,0:0:0:0:
286,262,33571,2,0,L|356:265,1,62.9999980773926,2|0,0:0|0:0,0:0:0:0:
238,191,33935,2,0,B|212:217|212:217|207:260,2,62.9999980773926,2|2|2,0:0|0:0|0:0,0:0:0:0:
305,134,34480,6,0,P|266:110|231:114,1,62.9999980773926,2|0,0:0|0:0,0:0:0:0:
184,60,34844,1,2,0:0:0:0:
106,101,35026,1,2,0:0:0:0:
106,101,35208,2,0,L|122:168,1,62.9999980773926,2|0,0:0|0:0,0:0:0:0:
15,222,35571,2,0,L|29:160,1,62.9999980773926,2|2,0:0|0:0,0:0:0:0:
87,261,35935,1,0,0:0:0:0:
15,308,36117,6,0,P|67:288|141:302,1,125.999996154785,2|2,0:0|0:0,0:0:0:0:
206,332,36662,1,0,0:0:0:0:
309,263,36844,2,0,B|250:221|250:221|268:141,1,125.999996154785,2|2,0:0|0:0,0:0:0:0:
231,99,37389,1,0,0:0:0:0:
346,50,37571,6,0,B|439:37|407:89|492:85,1,125.999996154785,2|2,0:0|0:0,0:0:0:0:
506,149,38117,1,0,0:0:0:0:
379,187,38298,2,0,L|368:111,2,62.9999980773926,2|0|2,0:0|0:0|0:0,0:0:0:0:
460,212,38844,1,0,0:0:0:0:
354,276,39026,6,0,B|286:275|300:230|214:239,1,125.999996154785,2|2,0:0|0:0,0:0:0:0:
120,308,39753,1,2,0:0:0:0:
120,308,39935,2,0,L|192:331,2,62.9999980773926,2|2|2,0:0|0:0|0:0,0:0:0:0:
29,339,40480,6,0,P|21:284|39:266,1,62.9999980773926,2|0,0:0|0:0,0:0:0:0:
0,204,40844,2,0,P|33:159|58:159,1,62.9999980773926,2|0,0:0|0:0,0:0:0:0:
75,90,41208,2,0,P|130:82|148:100,1,62.9999980773926,2|0,0:0|0:0,0:0:0:0:
204,50,41571,2,0,P|248:83|248:108,1,62.9999980773926,2|0,0:0|0:0,0:0:0:0:
289,203,41935,5,4,1:2:0:0:
289,203,42117,1,0,0:0:0:0:
361,106,42298,1,2,1:2:0:0:
224,155,42480,2,0,P|203:199|212:235,1,80.9999975280763,2|0,0:0|1:2,0:0:0:0:
341,296,42844,1,2,0:0:0:0:
289,203,43026,1,2,1:2:0:0:
249,303,43208,1,2,0:0:0:0:
375,225,43389,6,0,P|423:236|465:244,2,80.9999975280763,2|2|2,1:2|0:0|1:2,0:0:0:0:
320,126,43935,2,0,P|255:141|231:144,1,80.9999975280763,2|0,0:0|1:2,0:0:0:0:
140,85,44298,2,0,P|106:126|110:171,1,80.9999975280763,2|0,0:0|1:2,0:0:0:0:
104,151,44662,1,2,0:0:0:0:
205,242,44844,6,0,B|175:227|175:227|121:236,1,80.9999975280763,2|2,1:2|0:0,0:0:0:0:
58,317,45208,2,0,B|88:332|88:332|142:323,1,80.9999975280763,2|0,1:2|0:0,0:0:0:0:
274,325,45571,1,2,1:2:0:0:
205,242,45753,1,2,0:0:0:0:
202,362,45935,1,2,1:2:0:0:
285,244,46117,6,0,P|269:187|232:171,1,80.9999975280763,2|0,0:0|1:2,0:0:0:0:
183,91,46480,1,2,0:0:0:0:
289,41,46662,1,2,1:2:0:0:
165,96,46844,2,0,P|111:82|77:74,1,80.9999975280763,2|0,0:0|1:2,0:0:0:0:
5,190,47208,2,0,P|59:176|93:168,1,80.9999975280763,2|0,0:0|1:2,0:0:0:0:
83,170,47571,1,0,0:0:0:0:
215,253,47753,6,0,P|232:196|264:80,1,161.999995056153,2|0,1:2|1:2,0:0:0:0:
197,13,48298,1,0,0:0:0:0:
332,43,48480,2,0,P|379:54|419:21,1,80.9999975280763,2|0,1:2|0:0,0:0:0:0:
511,107,48844,2,0,P|478:156|483:197,1,80.9999975280763,0|0,1:2|0:0,0:0:0:0:
356,241,49208,6,0,B|443:200|422:277|522:241,1,161.999995056153,2|0,1:2|1:2,0:0:0:0:
397,304,49753,1,0,0:0:0:0:
284,272,49935,2,0,P|276:218|304:191,1,80.9999975280763,2|0,1:2|0:0,0:0:0:0:
167,257,50298,2,0,P|186:306|174:346,1,80.9999975280763,0|0,1:2|0:0,0:0:0:0:
67,384,50662,6,0,B|57:314|57:314|70:280|70:280|57:190,1,161.999995056153,2|0,1:2|1:2,0:0:0:0:
7,121,51208,1,0,0:0:0:0:
86,80,51389,2,0,L|168:87,2,80.9999975280763,2|0|0,1:2|0:0|1:2,0:0:0:0:
132,166,51935,1,0,0:0:0:0:
242,101,52117,6,0,B|278:57|278:57|260:185,1,161.999995056153,2|0,1:2|1:2,0:0:0:0:
185,252,52662,1,0,0:0:0:0:
300,299,52844,2,0,P|286:253|242:240,1,80.9999975280763,2|0,1:2|0:0,0:0:0:0:
186,338,53208,1,0,1:2:0:0:
186,338,53389,1,0,0:0:0:0:
85,282,53571,6,0,P|94:218|102:147,1,121.499996292114,6|0,1:2|0:0,0:0:0:0:
105,135,53935,1,8,0:0:0:0:
241,250,54117,1,8,0:0:0:0:
159,72,54298,1,8,0:0:0:0:
12,204,54480,1,8,0:0:0:0:
222,165,54662,1,8,0:0:0:0:
78,15,54844,1,8,0:0:0:0:
149,251,55026,5,8,0:0:0:0:
275,24,55208,1,8,0:0:0:0:
257,286,55389,1,8,0:0:0:0:
131,76,55571,1,8,0:0:0:0:
175,329,55753,1,8,0:0:0:0:
390,122,55935,1,8,0:0:0:0:
97,197,56117,1,10,0:0:0:0:
404,117,56298,1,8,0:0:0:0:
248,218,56480,6,0,P|237:157|230:129,1,80.9999975280763,6|0,1:2|0:0,0:0:0:0:
340,218,56844,2,0,P|329:157|322:129,1,80.9999975280763,2|0,1:2|0:0,0:0:0:0:
218,39,57208,2,0,B|156:44|156:44|128:69|128:69|55:79,1,161.999995056153,10|2,0:0|1:2,0:0:0:0:
28,200,57753,5,8,0:0:0:0:
28,200,57844,1,8,0:0:0:0:
28,200,57935,1,0,1:2:0:0:
170,140,58117,1,8,0:0:0:0:
127,250,58298,2,0,P|107:193|95:164,1,80.9999975280763,2|0,1:2|0:0,0:0:0:0:
209,62,58662,2,0,P|247:102|247:154,1,80.9999975280763,10|0,0:0|0:0,0:0:0:0:
327,208,59026,2,0,P|389:201|419:197,1,80.9999975280763,2|0,1:2|0:0,0:0:0:0:
380,38,59389,6,0,P|364:98|353:124,1,80.9999975280763,2|0,1:2|0:0,0:0:0:0:
298,18,59753,2,0,P|282:78|271:104,1,80.9999975280763,2|0,1:2|0:0,0:0:0:0:
136,85,60117,2,0,P|155:156|196:246,1,161.999995056153,10|2,0:0|1:2,0:0:0:0:
276,364,60662,5,8,0:0:0:0:
276,364,60753,1,8,0:0:0:0:
276,364,60844,1,0,1:2:0:0:
380,259,61026,1,8,0:0:0:0:
286,196,61208,2,0,P|295:246|300:286,1,80.9999975280763,2|8,1:2|0:0,0:0:0:0:
298,275,61480,1,8,0:0:0:0:
298,275,61571,1,2,1:2:0:0:
408,169,61753,1,8,3:0:0:0:
489,215,61935,2,0,P|503:169|517:125,1,80.9999975280763,0|4,1:2|3:0,0:0:0:0:
435,52,62298,6,0,P|385:58|303:13,1,121.499996292114,6|0,1:2|0:0,0:0:0:0:
252,7,62662,5,8,0:0:0:0:
142,196,62844,1,0,1:0:0:0:
39,93,63026,5,8,0:0:0:0:
273,198,63208,1,0,1:0:0:0:
70,277,63389,5,8,0:0:0:0:
110,38,63571,1,0,1:0:0:0:
337,97,63753,6,0,P|349:155|377:263,1,161.999995056153,10|0,0:0|0:0,0:0:0:0:
341,319,64117,5,8,0:0:0:0:
457,146,64298,1,0,1:0:0:0:
230,42,64480,5,10,0:0:0:0:
267,237,64662,1,0,1:0:0:0:
249,24,64844,2,0,P|312:37|361:45,1,107.999996704102,8|0,0:0|1:0,0:0:0:0:
434,0,65208,5,6,1:2:0:0:
342,137,65389,1,4,3:0:0:0:
166,97,65571,1,4,3:0:0:0:
95,246,65753,1,8,0:0:0:0:
95,246,65844,1,8,0:0:0:0:
95,246,65935,1,8,0:0:0:0:
233,174,66117,1,4,3:0:0:0:
6,36,66298,1,6,3:0:0:0:
5,223,66480,1,10,3:0:0:0:
262,47,66662,6,0,B|247:76|225:86|225:86|257:79|300:103,1,90,14|0,0:0|0:0,0:0:0:0:
76,39,68117,6,0,B|77:96|90:126|90:126|69:160|69:160|85:198|88:248,1,198.000006042481,6|8,1:2|0:0,0:0:0:0:
217,376,68662,1,0,0:0:0:0:
228,197,68844,1,0,1:2:0:0:
65,303,69026,1,0,1:2:0:0:
316,223,69208,2,0,P|304:147|264:115,1,99.0000030212403,10|0,0:0|0:0,0:0:0:0:
146,337,69571,6,0,L|365:380,1,198.000006042481,2|10,1:2|0:0,0:0:0:0:
510,227,70117,2,0,P|491:296|481:332,1,99.0000030212403,2|0,1:2|0:0,0:0:0:0:
271,176,70480,2,0,P|290:245|300:281,1,99.0000030212403,2|8,1:2|0:0,0:0:0:0:
418,86,70844,5,2,0:0:0:0:
418,86,70935,1,8,0:0:0:0:
418,86,71026,2,0,B|305:96|348:20|215:39,1,198.000006042481,2|8,1:2|0:0,0:0:0:0:
61,153,71571,1,0,0:0:0:0:
277,228,71753,1,0,1:2:0:0:
157,79,71935,1,0,1:2:0:0:
161,289,72117,2,0,P|176:205|184:160,1,99.0000030212403,10|0,0:0|0:0,0:0:0:0:
347,61,72480,6,0,P|355:109|364:158,1,99.0000030212403,2|0,1:2|1:2,0:0:0:0:
232,51,72844,1,10,0:0:0:0:
333,237,73026,2,0,P|377:249|428:220,1,99.0000030212403,2|0,0:0|1:2,0:0:0:0:
416,0,73389,1,10,0:0:0:0:
246,143,73571,1,12,0:0:0:0:
450,90,73753,1,6,3:0:0:0:
203,47,73935,6,0,B|165:82|135:103|135:103|156:151|183:232,1,198.000006042481,6|8,1:2|0:0,0:0:0:0:
63,367,74480,1,0,0:0:0:0:
80,180,74662,1,0,1:2:0:0:
211,312,74844,1,0,1:2:0:0:
3,223,75026,2,0,P|-12:163|19:117,1,99.0000030212403,8|0,0:0|0:0,0:0:0:0:
165,5,75389,5,0,1:2:0:0:
80,180,75571,1,0,1:2:0:0:
293,154,75753,2,0,P|238:133|194:115,1,99.0000030212403,8|0,0:0|0:0,0:0:0:0:
339,43,76117,6,0,P|405:38|434:99,1,121.499996292114,6|0,1:2|0:0,0:0:0:0:
404,146,76480,6,0,L|443:311,1,161.999995056153,14|0,0:0|0:0,0:0:0:0:
463,379,76844,6,0,L|503:273,1,99.0000030212403,6|0,1:2|1:2,0:0:0:0:
318,148,77208,1,8,0:0:0:0:
511,209,77389,1,2,0:0:0:0:
329,46,77571,2,0,B|277:56|277:56|243:105,1,99.0000030212403,6|0,1:2|1:2,0:0:0:0:
352,300,77935,1,8,0:0:0:0:
444,106,78117,1,2,0:0:0:0:
263,241,78298,6,0,B|226:259|226:259|137:253,1,99.0000030212403,6|0,1:2|1:2,0:0:0:0:
0,126,78662,1,8,0:0:0:0:
211,172,78844,1,2,0:0:0:0:
52,319,79026,1,2,1:2:0:0:
52,319,79117,1,8,0:2:0:0:
52,319,79208,1,8,0:2:0:0:
131,112,79389,1,10,0:2:0:0:
164,303,79571,1,10,3:0:0:0:
41,77,79753,6,0,P|86:26|207:45,1,198.000006042481,6|8,1:2|0:0,0:0:0:0:
313,147,80298,1,0,0:0:0:0:
374,27,80480,1,0,1:2:0:0:
216,136,80662,1,0,1:2:0:0:
425,88,80844,2,0,P|456:45|444:-16,1,99.0000030212403,10|0,0:0|0:0,0:0:0:0:
306,166,81208,6,0,B|280:220|305:268|305:268|368:274|418:306,1,198.000006042481,2|10,1:2|0:0,0:0:0:0:
163,373,81753,2,0,P|182:311|195:266,1,99.0000030212403,2|0,1:2|0:0,0:0:0:0:
1,194,82117,2,0,P|14:241|29:288,1,99.0000030212403,2|8,1:2|0:0,0:0:0:0:
131,92,82480,5,2,0:0:0:0:
131,92,82571,1,8,0:0:0:0:
131,92,82662,2,0,B|244:49|216:146|330:117,1,198.000006042481,2|8,1:2|0:0,0:0:0:0:
497,187,83208,1,0,0:0:0:0:
375,63,83389,1,0,1:2:0:0:
392,269,83571,1,0,1:2:0:0:
499,98,83753,1,10,0:0:0:0:
499,97,83935,1,2,0:0:0:0:
301,207,84117,6,0,P|240:189|197:180,1,99.0000030212403,2|0,1:2|1:2,0:0:0:0:
65,36,84480,1,10,0:0:0:0:
0,158,84662,2,0,P|60:125|116:131,1,99.0000030212403,2|0,0:0|1:2,0:0:0:0:
210,40,85026,1,10,0:0:0:0:
101,240,85208,1,12,0:0:0:0:
192,16,85389,1,6,3:0:0:0:
257,130,85571,6,0,B|285:124|285:124|354:144,1,90,6|0,1:2|1:2,0:0:0:0:
434,218,85935,1,0,1:2:0:0:
434,218,86117,1,0,1:2:0:0:
285,213,86298,2,0,B|296:271|296:271|283:297|283:297|298:365,1,135,8|0,0:0|0:0,0:0:0:0:
310,378,86662,2,0,P|363:351|360:289,1,90,2|0,2:0|0:0,0:0:0:0:
359,160,87026,5,2,1:2:0:0:
359,160,87208,2,0,B|245:177|280:90|154:128,1,180,0|0,1:2|1:2,0:0:0:0:
63,67,87753,2,0,P|103:22|143:23,1,90,8|0,0:0|1:2,0:0:0:0:
190,120,88117,1,2,0:0:0:0:
63,175,88298,5,10,0:0:0:0:
63,175,88389,1,8,0:0:0:0:
63,175,88480,1,6,1:2:0:0:
164,223,88662,2,0,P|151:278|142:315,1,90,0|0,1:2|0:0,0:0:0:0:
59,252,89026,1,0,1:2:0:0:
263,222,89208,2,0,L|458:246,1,180,8|2,0:0|0:0,0:0:0:0:
503,144,89753,1,0,1:2:0:0:
340,101,89935,5,2,1:2:0:0:
399,224,90117,2,0,P|416:161|428:127,1,90,0|0,1:2|0:0,0:0:0:0:
506,51,90480,1,0,1:2:0:0:
340,101,90662,2,0,P|286:129|246:109,1,90,8|0,0:0|1:2,0:0:0:0:
144,24,91026,1,10,0:0:0:0:
185,194,91208,5,10,0:0:0:0:
185,194,91298,1,8,0:0:0:0:
185,194,91389,2,0,B|261:165|260:230|350:195,1,148.50000453186,6|0,1:2|0:0,0:0:0:0:
352,205,91753,1,8,0:0:0:0:
219,283,91935,1,8,0:0:0:0:
168,115,92117,1,8,0:0:0:0:
320,285,92298,1,8,0:0:0:0:
113,297,92480,1,8,0:0:0:0:
331,291,92662,1,8,0:0:0:0:
70,187,92844,5,8,0:0:0:0:
260,362,93026,1,8,0:0:0:0:
167,130,93208,1,8,0:0:0:0:
12,343,93389,1,8,0:0:0:0:
261,223,93571,1,8,0:0:0:0:
19,101,93753,1,8,0:0:0:0:
149,305,93935,1,8,0:0:0:0:
276,53,94117,1,8,0:0:0:0:
0,233,94298,5,12,0:0:0:0:
319,314,94480,1,0,1:2:0:0:
135,80,94662,1,0,1:2:0:0:
17,330,94844,5,12,0:0:0:0:
135,80,95026,1,0,1:2:0:0:
149,328,95208,1,0,1:2:0:0:
57,62,95389,6,0,P|86:11|130:0,1,99.0000030212403,14|0,0:0|1:2,0:0:0:0:
395,155,95753,5,2,1:2:0:0:
135,80,95935,1,8,0:0:0:0:
450,0,96117,1,10,0:0:0:0:
177,203,96298,5,6,1:2:0:0:
479,295,96662,5,6,1:2:0:0:
296,115,97026,5,2,0:0:0:0:
296,115,97208,2,0,B|398:81|392:155|470:124,1,180,6|8,1:2|0:0,0:0:0:0:
320,248,97753,1,0,0:0:0:0:
408,304,97935,2,0,L|393:198,1,90,0|0,1:2|0:0,0:0:0:0:
235,261,98298,2,0,P|261:312|304:328,1,90,8|0,0:0|0:0,0:0:0:0:
253,149,98662,6,0,B|181:166|181:166|158:195|158:195|84:212,1,180,2|8,1:2|0:0,0:0:0:0:
0,119,99208,2,0,P|11:183|16:218,1,90,2|0,0:0|1:2,0:0:0:0:
126,101,99571,1,0,0:0:0:0:
0,42,99753,2,0,P|58:27|99:18,1,90,10|0,0:0|0:0,0:0:0:0:
262,37,100117,6,0,B|318:70|318:70|284:200,1,180,2|8,1:2|0:0,0:0:0:0:
199,98,100662,1,0,0:0:0:0:
265,248,100844,2,0,P|316:249|349:217,1,90,0|0,1:2|0:0,0:0:0:0:
440,123,101208,1,10,0:0:0:0:
511,342,101389,6,0,P|463:328|337:316,1,135,14|0,0:0|0:0,0:0:0:0:
344,321,101753,1,8,0:0:0:0:
212,148,101935,1,8,0:0:0:0:
153,376,102117,1,8,0:0:0:0:
397,222,102298,1,8,0:0:0:0:
110,129,102480,1,8,0:0:0:0:
259,375,102662,1,8,0:0:0:0:
405,69,102844,1,8,0:0:0:0:
234,224,103026,6,0,P|186:205|140:207,1,72,6|2,1:2|0:0,0:0:0:0:
183,85,103389,2,0,P|231:104|265:98,1,72,2|2,1:2|0:0,0:0:0:0:
326,23,103753,1,2,1:2:0:0:
343,113,103935,1,2,0:0:0:0:
443,61,104117,1,2,1:2:0:0:
426,151,104299,1,2,0:0:0:0:
343,113,104480,6,0,B|260:93|283:168|185:151,1,144,2|2,1:2|1:2,0:0:0:0:
101,96,105026,2,0,P|141:146|131:182,1,72,2|0,0:0|1:2,0:0:0:0:
21,121,105389,2,0,P|18:71|107:17,1,144,2|2,0:0|0:0,0:0:0:0:
201,63,105935,6,0,P|263:42|287:26,1,72,2|2,1:2|0:0,0:0:0:0:
363,44,106298,2,0,P|379:80|387:112,1,72,2|2,1:2|0:0,0:0:0:0:
326,184,106662,1,2,1:2:0:0:
421,257,106844,1,2,0:0:0:0:
405,182,107026,1,2,1:2:0:0:
314,303,107208,1,2,0:0:0:0:
386,342,107389,5,2,1:2:0:0:
254,364,107571,2,0,L|173:340,1,72,2|2,0:0|1:2,0:0:0:0:
119,274,107935,2,0,B|150:258|150:258|216:263,1,72,2|2,0:0|1:2,0:0:0:0:
264,198,108298,2,0,P|261:150|160:117,1,144,2|0,0:0|0:0,0:0:0:0:
72,42,108844,6,0,B|88:114|88:114|79:140|79:140|93:207,1,144,6|0,1:2|1:2,0:0:0:0:
155,239,109389,1,0,0:0:0:0:
61,281,109571,2,0,B|146:245|122:314|216:299,1,144,2|0,1:2|1:2,0:0:0:0:
266,351,110117,1,0,0:0:0:0:
355,271,110298,6,0,L|350:192,2,72,2|0|0,1:2|0:0|1:2,0:0:0:0:
432,313,110844,1,0,0:0:0:0:
277,250,111026,2,0,L|190:230,2,72,2|0|0,1:2|0:0|1:2,0:0:0:0:
350,199,111571,1,2,0:0:0:0:
206,233,111753,6,0,P|186:186|255:101,1,144,2|0,1:2|1:2,0:0:0:0:
384,104,112298,1,0,0:0:0:0:
319,43,112480,2,0,P|307:97|297:125,1,72,0|2,1:2|0:0,0:0:0:0:
352,190,112844,2,0,P|364:244|373:272,1,72,2|2,1:2|0:0,0:0:0:0:
267,361,113208,5,2,1:2:0:0:
341,337,113389,1,0,0:0:0:0:
241,287,113571,1,2,1:2:0:0:
315,263,113752,1,0,0:0:0:0:
176,189,113935,5,2,1:2:0:0:
160,273,114117,1,0,0:0:0:0:
241,287,114298,1,2,1:2:0:0:
259,203,114480,1,0,0:0:0:0:
160,273,114662,6,0,P|98:283|34:210,1,161.999995056153,6|2,1:2|1:2,0:0:0:0:
148,131,115208,1,2,0:0:0:0:
118,204,115389,1,2,1:2:0:0:
118,204,115571,1,2,0:0:0:0:
18,140,115753,2,0,P|15:89|13:50,1,80.9999975280763,2|0,1:2|0:0,0:0:0:0:
154,32,116117,6,0,P|124:90|93:96,2,80.9999975280763,2|2|2,1:2|0:0|1:2,0:0:0:0:
215,113,116662,2,0,L|305:98,1,80.9999975280763,2|0,0:0|1:2,0:0:0:0:
327,215,117026,2,0,L|237:200,1,80.9999975280763,2|0,0:0|1:2,0:0:0:0:
247,201,117389,1,2,0:0:0:0:
145,254,117571,6,0,P|177:218|162:179,1,80.9999975280763,2|2,1:2|0:0,0:0:0:0:
45,210,117935,2,0,L|62:299,1,80.9999975280763,2|2,1:2|0:0,0:0:0:0:
203,315,118298,1,2,1:2:0:0:
145,254,118480,1,2,0:0:0:0:
127,375,118662,1,2,1:2:0:0:
160,234,118844,6,0,L|75:207,1,80.9999975280763,2|2,0:0|1:2,0:0:0:0:
184,128,119208,1,2,0:0:0:0:
258,211,119389,1,2,1:2:0:0:
316,153,119571,2,0,P|370:162|407:173,1,80.9999975280763,2|0,0:0|1:2,0:0:0:0:
342,35,119935,2,0,P|288:44|251:55,1,80.9999975280763,2|0,0:0|1:2,0:0:0:0:
262,51,120298,1,0,0:0:0:0:
152,0,120480,6,0,B|133:89|203:81|179:181,1,161.999995056153,6|0,1:2|1:2,0:0:0:0:
41,227,121026,1,0,0:0:0:0:
104,133,121208,2,0,L|123:228,1,80.9999975280763,2|0,1:2|0:0,0:0:0:0:
204,281,121571,2,0,L|185:376,1,80.9999975280763,0|0,1:2|0:0,0:0:0:0:
317,329,121935,6,0,B|364:286|364:286|319:180,1,161.999995056153,2|0,1:2|1:2,0:0:0:0:
413,130,122480,1,0,0:0:0:0:
496,202,122662,2,0,P|430:224|393:238,1,80.9999975280763,2|0,1:2|0:0,0:0:0:0:
336,103,123026,2,0,B|400:124|402:125|439:139,1,80.9999975280763,0|0,1:2|0:0,0:0:0:0:
353,13,123389,6,0,B|289:22|289:22|211:92,1,161.999995056153,6|0,1:2|1:2,0:0:0:0:
142,179,123935,1,0,0:0:0:0:
80,137,124117,2,0,L|-11:127,2,80.9999975280763,2|0|0,1:2|0:0|1:2,0:0:0:0:
0,208,124662,1,0,0:0:0:0:
112,267,124844,6,0,B|178:260|178:260|209:278|209:278|278:273,1,161.999995056153,2|0,1:2|1:2,0:0:0:0:
403,338,125389,1,0,0:0:0:0:
363,234,125571,2,0,P|344:282|331:316,1,80.9999975280763,2|0,1:2|0:0,0:0:0:0:
478,384,125935,1,0,1:2:0:0:
478,384,126117,1,0,0:0:0:0:
380,151,126298,6,0,P|329:150|286:202,1,121.499996292114,6|0,1:2|0:0,0:0:0:0:
271,229,126662,1,8,0:0:0:0:
106,137,126844,1,8,0:0:0:0:
126,312,127026,1,8,0:0:0:0:
221,132,127208,1,8,0:0:0:0:
40,232,127389,1,8,0:0:0:0:
233,335,127571,1,8,0:0:0:0:
166,79,127753,5,8,0:0:0:0:
120,312,127935,1,8,0:0:0:0:
304,127,128117,1,8,0:0:0:0:
354,384,128298,1,8,0:0:0:0:
106,183,128480,1,8,0:0:0:0:
382,107,128662,1,8,0:0:0:0:
169,240,128844,1,10,0:0:0:0:
462,343,129026,1,8,0:0:0:0:
329,177,129208,6,0,P|310:229|296:262,1,80.9999975280763,6|0,1:2|0:0,0:0:0:0:
414,192,129571,2,0,P|395:244|381:277,1,80.9999975280763,2|0,1:2|0:0,0:0:0:0:
504,127,129935,2,0,B|443:120|443:120|411:96|411:96|328:84,1,161.999995056153,10|2,0:0|1:2,0:0:0:0:
253,17,130480,5,8,0:0:0:0:
253,17,130571,1,8,0:0:0:0:
253,17,130662,1,0,1:2:0:0:
192,144,130844,1,8,0:0:0:0:
106,89,131026,2,0,P|168:71|196:61,1,80.9999975280763,2|0,1:2|0:0,0:0:0:0:
278,153,131389,2,0,P|251:211|214:221,1,80.9999975280763,10|0,0:0|0:0,0:0:0:0:
370,272,131753,2,0,P|435:261|468:261,1,80.9999975280763,2|0,1:2|0:0,0:0:0:0:
443,101,132117,6,0,P|424:162|401:191,1,80.9999975280763,2|0,1:2|0:0,0:0:0:0:
362,65,132480,2,0,P|343:126|320:155,1,80.9999975280763,2|0,1:2|0:0,0:0:0:0:
208,69,132844,2,0,P|265:29|249:96,1,161.999995056153,10|2,0:0|1:2,0:0:0:0:
172,173,133389,5,8,0:0:0:0:
172,173,133480,1,8,0:0:0:0:
172,173,133571,1,0,1:2:0:0:
291,166,133753,1,8,0:0:0:0:
129,234,133935,2,0,P|87:183|99:144,1,80.9999975280763,2|8,1:2|0:0,0:0:0:0:
91,137,134208,1,8,0:0:0:0:
91,137,134298,1,2,1:2:0:0:
0,221,134480,1,8,3:0:0:0:
44,291,134662,2,0,L|33:384,1,80.9999975280763,0|4,1:2|3:0,0:0:0:0:
222,298,135026,6,0,B|229:279|229:279|215:289|215:289|202:284|202:284|208:300|208:300|203:308|203:308|215:307|215:307|228:316|228:316|223:302|223:302|241:297|241:297|228:296,1,144,6|2,1:2|0:0,0:0:0:0:
435,205,136298,5,2,0:0:0:0:
435,205,136389,1,2,0:0:0:0:
435,205,136480,2,0,B|424:187|424:187|437:197|437:197|451:192|451:192|446:208|446:208|450:216|450:216|435:216|435:216|425:224|425:224|426:211|426:211|412:205|412:205|426:200,1,144,2|2,0:0|1:2,0:0:0:0:
53,86,137935,6,0,B|77:71|77:71|152:78,1,90,14|0,0:0|0:0,0:0:0:0:
279,222,138298,1,8,0:0:0:0:
111,157,138480,1,8,0:0:0:0:
294,89,138662,1,8,0:0:0:0:
175,267,138844,1,8,0:0:0:0:
194,71,139026,1,10,0:0:0:0:
379,205,139208,1,10,0:0:0:0:
220,358,139389,5,10,0:0:0:0:
258,182,139571,1,8,0:0:0:0:
117,368,139753,5,10,0:0:0:0:
168,129,139935,1,10,0:0:0:0:
19,375,140117,5,8,0:0:0:0:
79,90,140299,1,10,0:0:0:0:
258,182,140480,1,8,0:0:0:0:
50,285,140662,1,10,0:0:0:0:
44,1,140844,6,0,B|50:43|40:89|40:89|63:128|63:128|53:166|54:218,1,198.000006042481,6|8,1:2|0:0,0:0:0:0:
200,111,141389,1,0,0:0:0:0:
254,228,141571,1,0,1:2:0:0:
118,74,141753,1,0,1:2:0:0:
63,256,141935,2,0,P|121:261|172:280,1,99.0000030212403,10|0,0:0|0:0,0:0:0:0:
360,169,142298,6,0,B|245:124|245:124|182:140|185:199,1,198.000006042481,2|10,1:2|0:0,0:0:0:0:
303,342,142844,2,0,P|342:286|337:241,1,99.0000030212403,2|0,1:2|0:0,0:0:0:0:
114,286,143208,2,0,L|130:400,1,99.0000030212403,2|8,1:2|0:0,0:0:0:0:
0,164,143571,5,2,0:0:0:0:
0,164,143662,1,8,0:0:0:0:
0,164,143753,2,0,B|116:150|55:82|190:68,1,198.000006042481,2|8,1:2|0:0,0:0:0:0:
341,155,144298,1,0,0:0:0:0:
193,4,144480,1,0,1:2:0:0:
150,203,144662,1,0,1:2:0:0:
320,56,144844,2,0,P|375:54|415:87,1,99.0000030212403,10|0,0:0|0:0,0:0:0:0:
261,269,145208,6,0,L|243:153,1,99.0000030212403,2|0,1:2|1:2,0:0:0:0:
120,285,145571,1,10,0:0:0:0:
345,353,145753,2,0,L|363:237,1,99.0000030212403,2|0,0:0|1:2,0:0:0:0:
168,142,146117,1,10,0:0:0:0:
250,331,146298,1,12,0:0:0:0:
402,180,146480,1,6,3:0:0:0:
205,58,146662,6,0,P|127:62|88:192,1,198.000006042481,6|8,1:2|0:0,0:0:0:0:
234,333,147208,1,0,0:0:0:0:
168,142,147389,1,0,1:2:0:0:
56,288,147571,1,0,1:2:0:0:
261,172,147753,2,0,B|271:148|271:148|253:68,1,99.0000030212403,8|0,0:0|0:0,0:0:0:0:
398,164,148117,5,0,1:2:0:0:
191,234,148298,1,0,1:2:0:0:
415,168,148480,2,0,P|427:221|445:268,1,99.0000030212403,8|8,0:0|0:0,0:0:0:0:
443,316,148753,5,8,0:0:0:0:
443,316,148844,2,0,P|382:297|397:361,1,121.499996292114,6|0,1:2|0:0,0:0:0:0:
253,303,149208,6,0,P|321:277|297:362,1,161.999995056153,14|0,0:0|0:0,0:0:0:0:
167,362,149571,6,0,B|151:339|151:339|149:264,1,99.0000030212403,6|0,1:2|1:2,0:0:0:0:
281,122,149935,1,8,0:0:0:0:
85,189,150117,1,2,0:0:0:0:
85,189,150208,1,8,0:0:0:0:
85,189,150298,2,0,P|155:198|201:206,1,99.0000030212403,6|0,1:2|1:2,0:0:0:0:
281,38,150662,1,8,0:0:0:0:
387,218,150844,5,2,0:0:0:0:
387,218,150935,1,8,0:0:0:0:
387,218,151026,2,0,P|414:163|398:118,1,99.0000030212403,6|0,1:2|1:2,0:0:0:0:
170,58,151389,1,8,0:0:0:0:
251,220,151571,1,0,0:0:0:0:
409,49,151753,1,2,1:2:0:0:
409,49,151844,1,8,0:2:0:0:
409,49,151935,2,0,L|467:59,1,49.5000015106202,8|8,0:2|0:2,0:0:0:0:
264,126,152117,2,0,L|206:136,3,49.5000015106202,10|4|10|8,0:2|3:0|3:0|3:0,0:0:0:0:
160,206,152480,6,0,P|230:180|307:266,1,198.000006042481,6|8,1:2|0:0,0:0:0:0:
178,81,153026,1,0,0:0:0:0:
178,81,153117,1,8,0:0:0:0:
178,81,153208,1,0,1:2:0:0:
114,283,153389,1,0,1:2:0:0:
270,82,153571,2,0,P|255:27|198:0,1,99.0000030212403,10|0,0:0|0:0,0:0:0:0:
21,192,153935,6,0,B|93:173|93:173|141:191|141:191|218:174,1,198.000006042481,2|10,1:2|0:0,0:0:0:0:
424,236,154480,2,0,P|399:297|389:334,1,99.0000030212403,2|0,1:2|0:0,0:0:0:0:
211,175,154844,2,0,P|236:236|246:273,1,99.0000030212403,2|8,1:2|0:0,0:0:0:0:
334,72,155208,5,2,0:0:0:0:
334,72,155298,1,8,0:0:0:0:
334,72,155389,2,0,B|279:49|279:49|333:-19|429:40,1,198.000006042481,2|8,1:2|0:0,0:0:0:0:
496,211,155935,1,0,0:0:0:0:
274,141,156117,1,0,1:2:0:0:
497,76,156298,1,0,1:2:0:0:
334,212,156480,2,0,B|282:233|282:233|226:217,1,99.0000030212403,10|0,0:0|0:0,0:0:0:0:
82,172,156844,6,0,P|128:137|192:153,1,99.0000030212403,2|0,1:2|1:2,0:0:0:0:
334,212,157208,1,10,0:0:0:0:
221,326,157389,2,0,L|235:228,1,99.0000030212403,2|0,0:0|1:2,0:0:0:0:
149,371,157753,1,10,0:0:0:0:
333,300,157935,1,12,0:0:0:0:
99,179,158117,1,2,0:0:0:0:
338,325,158298,6,0,P|359:259|367:226,1,90,6|0,1:2|1:2,0:0:0:0:
407,121,158662,1,0,1:2:0:0:
407,121,158844,1,0,1:2:0:0:
260,224,159026,2,0,P|243:170|228:43,1,180,8|2,0:0|0:0,0:0:0:0:
142,126,159571,5,8,0:0:0:0:
142,126,159662,1,8,0:0:0:0:
142,126,159753,1,2,1:2:0:0:
21,86,159935,2,0,B|36:152|36:152|24:195|24:195|49:279,1,180,0|0,1:2|1:2,0:0:0:0:
178,314,160480,2,0,P|187:250|195:212,1,90,8|0,0:0|1:2,0:0:0:0:
316,148,160844,1,2,0:0:0:0:
290,280,161026,5,10,0:0:0:0:
290,280,161117,1,8,0:0:0:0:
290,280,161208,1,6,1:2:0:0:
388,218,161389,2,0,P|374:273|362:317,1,90,0|0,1:2|0:0,0:0:0:0:
466,254,161753,1,0,1:2:0:0:
292,196,161935,2,0,B|224:205|224:205|191:235|191:235|103:247,1,180,8|2,0:0|0:0,0:0:0:0:
0,126,162480,1,0,1:2:0:0:
146,165,162662,5,2,1:2:0:0:
94,49,162844,2,0,P|78:107|68:138,1,90,0|0,1:2|0:0,0:0:0:0:
0,227,163208,1,0,1:2:0:0:
146,165,163389,2,0,P|162:223|172:254,1,90,8|2,0:0|1:2,0:0:0:0:
252,148,163753,1,8,0:0:0:0:
123,74,163935,5,10,0:0:0:0:
123,74,164026,1,8,0:0:0:0:
123,74,164117,2,0,B|187:55|187:55|209:28|209:28|270:15,1,148.50000453186,6|0,1:2|0:0,0:0:0:0:
279,23,164480,1,8,0:0:0:0:
171,166,164662,1,8,0:0:0:0:
328,84,164844,1,8,0:0:0:0:
121,79,165026,1,8,0:0:0:0:
336,184,165208,1,8,0:0:0:0:
189,6,165389,1,8,0:0:0:0:
222,258,165571,5,8,0:0:0:0:
422,64,165753,1,8,0:0:0:0:
184,134,165935,1,8,0:0:0:0:
453,240,166117,1,8,0:0:0:0:
252,14,166298,1,8,0:0:0:0:
303,258,166480,1,8,0:0:0:0:
510,73,166662,1,8,0:0:0:0:
205,198,166844,1,8,0:0:0:0:
475,349,167026,5,12,0:0:0:0:
284,99,167208,1,0,1:2:0:0:
173,368,167389,1,0,1:2:0:0:
434,174,167571,5,12,0:0:0:0:
146,86,167753,1,0,1:2:0:0:
450,194,167935,1,0,1:2:0:0:
100,155,168117,6,0,P|60:102|75:47,1,99.0000030212403,14|0,0:0|1:2,0:0:0:0:
322,11,168480,5,14,0:2:0:0:
203,273,168662,1,0,1:2:0:0:
0,45,168844,1,10,0:0:0:0:
283,207,169026,5,6,1:2:0:0:
0,339,169389,5,6,1:2:0:0:
361,239,169753,5,2,0:0:0:0:
361,239,169935,2,0,P|380:180|393:138,1,90,14|0,0:0|1:2,0:0:0:0:
425,61,170298,1,0,1:2:0:0:
253,225,170480,6,0,P|234:166|221:124,1,90,14|0,0:0|1:2,0:0:0:0:
183,0,170843,1,0,1:2:0:0:
91,243,171026,6,0,P|145:256|189:230,1,90,14|0,0:0|1:2,0:0:0:0:
380,154,171389,1,0,1:2:0:0:
130,96,171571,6,0,P|117:150|143:194,1,90,14|0,0:0|1:2,0:0:0:0:
395,319,171934,1,0,1:2:0:0:
368,60,172117,5,10,3:0:0:0:
368,60,172208,1,8,3:0:0:0:
368,60,172298,2,0,L|294:76,1,45,0|4,1:0|3:3,0:0:0:0:
270,185,172480,2,0,L|369:204,1,90,10|0,3:0|1:0,0:0:0:0:
190,120,172844,5,12,0:0:0:0:
305,285,173026,1,0,1:2:0:0:
284,84,173208,1,0,1:2:0:0:
187,309,173389,5,14,0:0:0:0:
100,114,173571,1,0,1:2:0:0:
339,146,173753,1,0,1:2:0:0:
23,294,173935,5,14,0:0:0:0:
181,60,174117,1,0,1:2:0:0:
305,285,174298,1,0,1:2:0:0:
0,160,174480,5,14,0:0:0:0:
314,74,174662,1,0,1:2:0:0:
208,384,174844,1,0,1:2:0:0:
50,51,175026,5,10,1:2:0:0:
89,81,175117,1,8,0:0:0:0:
138,82,175208,1,8,0:0:0:0:
181,60,175298,1,8,0:0:0:0:
226,39,175389,1,10,1:2:0:0:
275,44,175480,1,8,0:0:0:0:
314,74,175571,1,8,0:0:0:0:
332,119,175662,1,8,0:0:0:0:
318,166,175753,1,4,1:2:0:0:
318,166,176117,6,0,L|307:208,6,36,2|2|2|2|2|2|2,0:0|0:0|0:0|0:0|0:0|0:0|0:0,0:0:0:0:
115,165,178480,5,4,1:2:0:0:
390,88,178662,1,4,1:2:0:0:
288,359,178844,1,4,1:2:0:0:
255,193,179026,6,0,L|214:204,6,36,2|2|2|2|2|2|2,0:0|0:0|0:0|0:0|0:0|0:0|0:0,0:0:0:0:
429,252,181571,5,6,1:2:0:0:
294,366,181753,2,0,P|241:365|208:329,1,80.9999975280763,0|0,1:2|0:0,0:0:0:0:
143,266,182117,1,0,1:2:0:0:
277,293,182298,2,0,P|304:199|332:130,1,161.999995056153,8|0,0:0|0:0,0:0:0:0:
370,33,182844,1,0,1:2:0:0:
413,157,183026,5,2,1:2:0:0:
269,56,183208,2,0,B|232:71|232:71|169:68,1,80.9999975280763,0|0,1:2|0:0,0:0:0:0:
115,8,183571,1,0,1:2:0:0:
157,148,183753,2,0,P|141:215|130:252,1,80.9999975280763,8|0,0:0|0:0,0:0:0:0:
52,279,184117,1,0,0:0:0:0:
52,279,184298,1,2,0:0:0:0:
1,177,184480,5,6,1:2:0:0:
137,226,184662,2,0,P|153:293|164:330,1,80.9999975280763,0|0,1:2|0:0,0:0:0:0:
86,375,185026,1,0,1:2:0:0:
241,349,185208,2,0,P|251:309|271:178,1,161.999995056153,8|0,0:0|0:0,0:0:0:0:
210,93,185753,1,0,1:2:0:0:
329,132,185935,5,0,1:2:0:0:
167,156,186117,1,2,1:2:0:0:
167,156,186480,6,0,L|171:191,2,26.9999991760254,2|2|2,1:2|0:0|0:0,0:0:0:0:
74,123,186662,2,0,L|57:214,1,80.9999975280763,10|2,0:0|0:0,0:0:0:0:
151,310,187026,1,8,0:0:0:0:
185,289,187117,1,8,0:0:0:0:
203,253,187208,1,8,0:0:0:0:
197,213,187298,1,8,0:0:0:0:
170,182,187389,6,0,B|230:152|228:201|320:159,1,121.499996292114,4|0,1:2|0:0,0:0:0:0:
331,158,187753,2,0,P|311:224|311:250,1,80.9999975280763,2|2,1:2|1:2,0:0:0:0:
396,290,188117,1,14,0:0:0:0:
396,290,188298,1,2,1:2:0:0:
321,373,188480,2,0,P|368:334|430:353,1,121.499996292114,2|0,0:0|0:0,0:0:0:0:
456,344,188844,5,6,1:2:0:0:
488,273,189026,1,2,1:2:0:0:
408,193,189208,5,2,0:0:0:0:
376,122,189390,1,2,1:2:0:0:
490,87,189571,6,0,P|508:106|469:111,1,80.9999975280763,14|2,0:0|0:0,0:0:0:0:
387,36,189935,2,0,B|329:39|329:39|306:53|306:53|250:57,1,121.499996292114,2|0,0:0|0:0,0:0:0:0:
231,42,190298,5,4,1:2:0:0:
182,184,190480,1,0,1:2:0:0:
135,119,190662,2,0,P|221:113|261:199,1,161.999995056153,2|14,0:0|0:0,0:0:0:0:
397,238,191208,1,0,0:0:0:0:
331,142,191389,2,0,P|321:212|305:226,1,80.9999975280763,2|2,0:0|1:2,0:0:0:0:
182,184,191753,6,0,P|195:253|199:278,1,80.9999975280763,6|2,1:2|1:2,0:0:0:0:
290,297,192117,1,2,0:0:0:0:
164,363,192298,2,0,P|114:332|82:333,1,80.9999975280763,2|12,1:2|0:0,0:0:0:0:
93,331,192662,1,2,0:0:0:0:
3,262,192844,2,0,P|35:251|17:291,1,80.9999975280763,10|2,0:0|0:0,0:0:0:0:
144,226,193208,6,0,L|131:144,1,72,6|0,1:2|0:0,0:0:0:0:
267,96,193571,2,0,L|255:167,1,72,0|0,1:2|0:0,0:0:0:0:
132,238,193935,2,0,L|119:156,1,72,0|0,1:2|0:0,0:0:0:0:
282,84,194298,2,0,L|270:155,1,72,0|0,1:2|0:0,0:0:0:0:
422,269,194662,6,0,P|482:280|512:265,1,80.9999975280763,2|0,1:2|0:0,0:0:0:0:
429,137,195026,2,0,P|369:126|339:141,1,80.9999975280763,0|0,1:2|0:0,0:0:0:0:
280,288,195389,2,0,P|316:241|309:198,1,80.9999975280763,2|0,1:2|0:0,0:0:0:0:
194,106,195753,2,0,P|213:158|247:176,1,80.9999975280763,2|0,1:2|0:0,0:0:0:0:
108,274,196117,6,0,P|42:258|22:179,1,135,6|0,1:2|0:0,0:0:0:0:
19,174,196480,2,0,L|106:154,1,90,8|8,0:0|0:0,0:0:0:0:
43,7,196844,2,0,L|-1:88,1,90,8|8,0:0|0:0,0:0:0:0:
202,110,197208,2,0,L|159:30,1,90,8|8,0:0|0:0,0:0:0:0:
160,185,197571,5,8,0:0:0:0:
276,59,197753,1,8,0:0:0:0:
153,36,197935,1,8,0:0:0:0:
294,193,198117,1,8,0:0:0:0:
91,243,198298,1,8,0:0:0:0:
199,99,198480,1,8,0:0:0:0:
270,302,198662,2,0,P|209:306|167:314,1,90,10|8,0:0|0:0,0:0:0:0:
294,193,199026,5,14,0:0:0:0:
337,384,199208,1,8,0:0:0:0:
193,173,199389,1,8,0:0:0:0:
414,241,199571,1,8,0:0:0:0:
200,383,199753,1,8,0:0:0:0:
249,115,199935,1,8,0:0:0:0:
400,329,200117,1,8,0:0:0:0:
327,72,200298,1,8,0:0:0:0:
144,298,200480,5,10,0:0:0:0:
364,211,200662,1,8,0:0:0:0:
137,44,200844,1,8,0:0:0:0:
245,289,201026,1,8,0:0:0:0:
414,91,201208,1,10,0:0:0:0:
143,217,201389,1,8,0:0:0:0:
470,258,201571,1,8,0:0:0:0:
246,56,201753,1,8,0:0:0:0:
423,340,201935,5,8,0:0:0:0:
460,307,202026,1,8,0:0:0:0:
470,258,202117,1,8,0:0:0:0:
449,213,202208,1,8,0:0:0:0:
401,149,202298,5,8,0:0:0:0:
389,111,202389,1,8,0:0:0:0:
402,73,202480,1,8,0:0:0:0:
437,54,202571,1,8,0:0:0:0:
452,57,202666,6,0,P|462:108|476:149,1,90,6|0,1:2|0:0,0:0:0:0:
297,13,203029,2,0,P|287:64|271:108,1,90,10|0,0:0|0:0,0:0:0:0:
119,224,203393,1,2,1:2:0:0:
271,170,203575,1,0,1:2:0:0:
56,177,203756,2,0,P|36:234|73:281,1,90,10|0,0:0|0:0,0:0:0:0:
189,320,204120,6,0,P|157:263|109:267,2,90,2|0|8,1:2|1:2|0:0,0:0:0:0:
339,252,204666,2,0,P|292:308|296:349,1,90,2|0,0:0|1:2,0:0:0:0:
417,225,205029,1,0,1:2:0:0:
225,151,205211,2,0,L|238:255,1,90,10|0,0:0|0:0,0:0:0:0:
286,84,205575,6,0,P|351:59|394:82,2,90,2|0|8,1:2|1:2|0:0,0:0:0:0:
137,128,206120,2,0,P|79:120|36:14,1,180,2|0,0:0|1:2,0:0:0:0:
213,0,206666,2,0,L|215:95,1,90,10|2,0:0|0:0,0:0:0:0:
345,196,207029,5,2,1:2:0:0:
305,63,207211,1,2,1:2:0:0:
210,239,207393,1,8,0:0:0:0:
170,106,207575,1,0,0:0:0:0:
345,196,207756,2,0,P|383:178|435:184,1,90,2|0,1:2|1:2,0:0:0:0:
503,283,208120,2,0,P|465:301|412:292,1,90,10|0,0:0|0:0,0:0:0:0:
255,186,208484,5,6,1:2:0:0:
333,354,208666,1,2,1:2:0:0:
345,196,208847,1,10,0:0:0:0:
235,345,209029,2,0,P|187:361|144:339,1,90,2|0,0:0|1:2,0:0:0:0:
78,169,209393,1,2,1:2:0:0:
197,273,209575,1,10,0:0:0:0:
3,206,209756,6,0,P|-3:141|23:99,1,90,2|0,0:0|1:2,0:0:0:0:
181,111,210120,1,2,1:2:0:0:
181,111,210211,1,2,0:0:0:0:
181,111,210302,2,0,L|152:202,1,90,10|0,0:0|0:0,0:0:0:0:
50,48,210666,2,0,P|94:39|136:23,1,90,2|0,1:2|1:2,0:0:0:0:
163,11,210938,1,2,0:0:0:0:
163,11,211029,2,0,P|234:31|256:68,1,90,8|2,0:0|0:0,0:0:0:0:
279,166,211393,5,2,1:2:0:0:
279,166,211575,1,0,1:2:0:0:
404,69,211756,2,0,B|436:61|436:61|490:78,1,90,8|2,0:0|0:0,0:0:0:0:
501,113,212029,1,2,0:0:0:0:
501,113,212120,2,0,L|481:192,1,45,2|2,1:2|0:0,0:0:0:0:
429,243,212302,2,0,L|439:287,1,45,2|2,1:2|0:0,0:0:0:0:
353,363,212484,1,10,0:0:0:0:
322,373,212575,1,2,0:0:0:0:
289,374,212666,1,10,0:0:0:0:
259,360,212756,1,10,0:0:0:0:
240,333,212847,5,14,0:0:0:0:
375,122,213029,1,2,1:2:0:0:
375,122,213393,5,8,0:0:0:0:
375,122,213484,1,8,0:0:0:0:
375,122,213575,1,14,0:0:0:0:
461,384,213756,1,2,1:2:0:0:
196,75,214302,6,0,P|214:120|234:162,1,90,6|0,1:2|1:2,0:0:0:0:
285,45,214666,1,10,0:0:0:0:
130,1,214847,2,0,P|112:46|91:87,1,90,2|0,1:2|1:2,0:0:0:0:
39,207,215211,1,2,1:2:0:0:
231,157,215393,2,0,P|192:127|131:153,1,90,10|0,0:0|1:2,0:0:0:0:
139,272,215756,1,2,1:2:0:0:
301,200,215938,2,0,P|312:136|276:99,1,90,2|8,1:2|0:0,0:0:0:0:
214,234,216302,5,2,1:2:0:0:
382,285,216484,1,2,1:2:0:0:
421,138,216666,1,2,1:2:0:0:
253,87,216848,1,10,0:0:0:0:
301,200,217029,1,10,3:0:0:0:
342,16,217211,5,2,1:2:0:0:
180,129,217393,1,2,1:2:0:0:
347,116,217575,1,10,0:0:0:0:
141,50,217756,2,0,P|99:94|102:145,1,90,2|2,1:2|1:2,0:0:0:0:
253,87,218120,1,2,1:2:0:0:
140,211,218302,2,0,P|89:191|52:183,1,90,10|0,0:0|0:0,0:0:0:0:
180,129,218666,5,2,1:2:0:0:
201,281,218847,1,2,1:2:0:0:
371,260,219029,1,10,0:0:0:0:
350,108,219210,1,2,0:0:0:0:
274,237,219393,2,0,P|292:296|305:333,1,90,2|2,1:2|1:2,0:0:0:0:
126,188,219756,2,0,P|108:247|95:284,1,90,10|0,0:0|0:0,0:0:0:0:
219,45,220120,5,14,0:0:0:0:
193,242,220302,1,0,1:2:0:0:
8,125,220484,1,0,1:2:0:0:
248,180,220666,6,0,P|277:224|273:276,1,99.0000030212403,14|0,0:0|1:2,0:0:0:0:
104,208,221029,1,0,1:2:0:0:
300,66,221211,2,0,B|333:56|333:56|406:76,1,99.0000030212403,14|0,0:0|1:2,0:0:0:0:
291,318,221575,5,14,0:0:0:0:
158,115,221756,1,0,1:2:0:0:
411,183,221938,1,0,1:2:0:0:
183,340,222120,6,0,P|158:274|177:238,1,99.0000030212403,14|0,0:0|1:2,0:0:0:0:
407,373,222484,1,0,1:2:0:0:
271,177,222666,2,0,P|247:244|232:280,1,99.0000030212403,14|0,0:0|1:2,0:0:0:0:
411,183,223029,6,0,P|392:137|378:93,2,90,6|0|8,1:2|1:2|0:0,0:0:0:0:
211,123,223575,2,0,P|260:97|305:106,1,90,2|0,0:0|1:2,0:0:0:0:
210,235,223938,1,2,1:2:0:0:
86,102,224120,2,0,P|82:146|75:191,1,90,10|0,0:0|0:0,0:0:0:0:
211,123,224484,5,2,1:2:0:0:
114,267,224666,2,0,P|117:311|124:356,1,90,2|8,1:2|0:0,0:0:0:0:
18,319,225029,1,2,0:0:0:0:
151,190,225211,2,0,P|218:202|245:204,1,90,2|0,1:2|1:2,0:0:0:0:
294,50,225575,2,0,P|246:12|200:18,1,90,10|0,0:0|0:0,0:0:0:0:
151,190,225938,6,0,P|126:257|111:294,1,99.0000030212403,14|2,0:0|0:0,0:0:0:0:
45,118,226302,1,10,0:0:0:0:
260,211,226484,1,10,0:0:0:0:
154,60,226666,1,10,0:0:0:0:
195,284,226847,1,10,0:0:0:0:
317,57,227029,1,10,0:0:0:0:
152,185,227211,1,10,0:0:0:0:
398,319,227393,5,10,0:0:0:0:
241,124,227575,1,10,0:0:0:0:
122,381,227756,1,10,0:0:0:0:
350,211,227938,1,10,0:0:0:0:
74,108,228120,1,10,0:0:0:0:
233,370,228302,1,10,0:0:0:0:
161,39,228484,1,10,0:0:0:0:
20,340,228666,1,10,0:0:0:0:
124,214,228847,5,2,0:0:0:0:
274,113,240484,6,0,P|326:102|404:96,2,125.999996154785,6|0|8,1:2|1:2|0:0,0:0:0:0:
152,72,241575,1,2,1:2:0:0:
91,128,241756,5,10,0:0:0:0:
91,128,241847,1,8,0:0:0:0:
91,128,241938,2,0,P|98:162|90:194,1,62.9999980773926,0|8,1:2|0:0,0:0:0:0:
12,218,242302,2,0,B|88:193|70:248|156:236,1,125.999996154785,0|8,1:2|0:0,0:0:0:0:
259,294,242847,1,8,0:0:0:0:
205,226,243029,1,2,1:2:0:0:
174,348,243211,5,8,0:0:0:0:
174,348,243302,1,8,0:0:0:0:
174,348,243393,2,0,P|123:331|100:327,1,62.9999980773926,2|8,1:2|0:0,0:0:0:0:
259,294,243756,2,0,P|302:285|388:267,1,125.999996154785,0|8,1:2|0:0,0:0:0:0:
485,215,244484,1,2,1:2:0:0:
444,141,244666,5,10,0:0:0:0:
444,141,244756,1,8,0:0:0:0:
444,141,244847,2,0,P|456:100|472:78,1,62.9999980773926,0|8,1:2|0:0,0:0:0:0:
362,89,245211,2,0,P|350:48|334:26,1,62.9999980773926,0|8,1:2|0:0,0:0:0:0:
306,20,245484,1,8,0:0:0:0:
306,20,245575,1,0,1:2:0:0:
239,112,245756,1,8,3:0:0:0:
140,53,245938,1,0,1:2:0:0:
58,79,246120,1,4,3:0:0:0:
1,38,246302,5,2,1:2:0:0:
109,181,246666,2,0,B|174:164|165:207|241:184,1,125.999996154785
232,186,247393,2,0,L|243:116,1,62.9999980773926,2|2,0:0|0:0,0:0:0:0:
241,123,247756,1,0,0:0:0:0:
388,86,248120,2,0,L|374:218,1,125.999996154785
374,211,248847,1,2,0:0:0:0:
243,290,249211,6,0,P|277:278|281:328,1,90,2|2,0:0|0:0,0:0:0:0:
221,365,250302,1,2,0:0:0:0:
221,365,250484,1,2,0:0:0:0:
141,313,250666,6,0,P|123:307|103:351,1,72,2|8,0:0|0:0,0:0:0:0:
41,74,251575,1,8,0:0:0:0:
41,74,252120,6,0,P|108:66|138:94,1,80.9999975280763,4|0,1:2|0:0,0:0:0:0:
182,177,252484,2,0,P|115:185|85:157,1,80.9999975280763,0|0,1:2|0:0,0:0:0:0:
270,95,252847,2,0,L|279:194,1,80.9999975280763,0|0,1:2|0:0,0:0:0:0:
394,67,253211,2,0,L|385:166,1,80.9999975280763,2|0,1:2|0:0,0:0:0:0:
336,239,253575,6,0,P|379:189|457:241,1,161.999995056153,2|2,1:2|1:2,0:0:0:0:
325,322,254120,2,0,P|278:308|255:264,1,80.9999975280763,2|0,0:0|1:2,0:0:0:0:
165,223,254484,2,0,L|149:315,1,80.9999975280763,2|0,0:0|1:2,0:0:0:0:
55,205,254847,5,10,0:0:0:0:
55,205,254938,1,8,0:0:0:0:
55,205,255029,2,0,P|134:188|224:158,1,161.999995056153,6|0,1:2|1:2,0:0:0:0:
135,46,255575,2,0,P|109:85|115:127,1,80.9999975280763,0|0,0:0|1:2,0:0:0:0:
242,88,255938,1,0,0:0:0:0:
242,88,256120,2,0,L|321:104,1,80.9999975280763,2|0,1:2|0:0,0:0:0:0:
442,24,256484,6,0,B|395:62|395:62|425:174,1,161.999995056153,2|2,1:2|1:2,0:0:0:0:
374,267,257029,2,0,P|413:256|453:249,1,80.9999975280763,2|0,0:0|1:2,0:0:0:0:
275,293,257393,2,0,P|227:303|193:313,1,80.9999975280763,2|0,0:0|1:2,0:0:0:0:
45,253,257756,5,10,0:0:0:0:
45,253,257847,1,8,0:0:0:0:
45,253,257938,2,0,B|79:170|-47:115|64:-8|152:58|152:58,1,270,4|8,1:2|0:0,0:0:0:0:
161,31,258575,1,8,0:0:0:0:
161,31,258666,2,0,L|259:48,1,90,8|8,0:0|0:0,0:0:0:0:
334,102,259029,2,0,L|378:95,3,45,8|8|8|8,0:0|0:0|0:0|0:0,0:0:0:0:
477,62,259393,5,10,0:0:0:0:
500,100,259484,1,8,0:0:0:0:
498,145,259575,1,8,0:0:0:0:
476,184,259666,1,8,0:0:0:0:
433,197,259756,1,8,0:0:0:0:
391,178,259847,1,8,0:0:0:0:
352,153,259938,1,8,0:0:0:0:
310,154,260029,1,8,0:0:0:0:
272,178,260120,1,8,0:0:0:0:
247,215,260211,1,8,0:0:0:0:
243,259,260302,1,8,0:0:0:0:
264,298,260393,1,8,0:0:0:0:
302,321,260484,1,10,0:0:0:0:
346,327,260575,1,8,0:0:0:0:
389,313,260666,1,10,0:0:0:0:
418,279,260756,1,8,0:0:0:0:
418,233,260847,5,6,1:2:0:0:
195,352,261029,1,8,0:0:0:0:
195,352,261120,1,8,0:0:0:0:
195,352,261211,1,8,0:0:0:0:
135,121,261393,1,4,1:2:0:0:
331,237,261575,1,8,0:0:0:0:
331,237,261666,1,8,0:0:0:0:
331,237,261756,1,8,0:0:0:0:
43,234,261938,2,0,P|25:184|40:141,1,90,6|8,1:2|0:0,0:0:0:0:
73,83,262211,5,8,0:0:0:0:
73,83,262302,2,0,L|200:105,1,90,10|4,0:0|1:2,0:0:0:0:
322,6,262666,1,8,0:0:0:0:
322,6,262756,1,8,0:0:0:0:
322,6,262847,1,8,0:0:0:0:
298,223,263029,2,0,P|246:256|219:252,1,90,12|8,0:0|0:0,0:0:0:0:
181,233,263302,1,8,0:0:0:0:
141,211,263393,1,8,3:0:0:0:
116,172,263484,1,8,3:0:0:0:
72,162,263575,1,4,3:0:0:0:
30,179,263666,1,4,3:0:0:0:
10,219,263756,6,0,P|28:121|5:97,1,125.999996154785,6|0,1:2|1:2,0:0:0:0:
18,108,264847,1,2,1:2:0:0:
18,108,265211,2,0,P|82:89|121:18,1,125.999996154785,2|2,0:0|1:2,0:0:0:0:
115,43,266302,1,0,1:2:0:0:
115,43,266666,6,0,L|255:50,1,125.999996154785,2|0,0:0|1:2,0:0:0:0:
240,49,267756,1,2,1:2:0:0:
240,49,268120,2,0,P|261:121|235:170,1,125.999996154785,2|2,0:0|1:2,0:0:0:0:
240,164,269211,1,0,1:2:0:0:
240,164,269575,6,0,B|319:151|298:189|370:187,1,125.999996154785,6|0,0:0|1:2,0:0:0:0:
433,188,270120,1,2,0:0:0:0:
433,188,270666,1,2,1:2:0:0:
433,188,271393,1,0,1:2:0:0:
433,188,271756,2,0,P|461:151|422:140,1,94.499997116089,2|0,0:0|0:0,0:0:0:0:
387,70,272120,2,0,P|415:102|477:90,1,94.499997116089,2|0,1:2|0:0,0:0:0:0:
372,48,272484,6,0,P|319:68|237:62,1,125.999996154785,6|0,0:0|1:2,0:0:0:0:
250,65,273211,1,2,0:0:0:0:
250,65,273575,1,0,1:2:0:0:
166,22,273756,1,2,0:0:0:0:
166,22,273938,2,0,L|150:161,1,125.999996154785,6|0,0:0|1:2,0:0:0:0:
66,158,274484,1,2,0:0:0:0:
66,158,274666,2,0,L|74:225,1,62.9999980773926,2|0,0:0|0:0,0:0:0:0:
16,291,275029,1,2,1:2:0:0:
16,291,275211,1,2,0:0:0:0:
142,288,275393,6,0,B|223:266|216:319|291:297,1,144,6|0,1:2|1:2,0:0:0:0:
373,339,275938,2,0,P|387:293|328:216,1,144,8|0,3:0|0:0,0:0:0:0:
264,147,276484,2,0,P|315:126|339:119,1,72,2|0,1:2|0:0,0:0:0:0:
460,118,276847,2,0,P|433:56|400:100,1,144,2|2,1:2|1:2,0:0:0:0:
312,36,277393,2,0,P|256:24|197:88,1,144,10|10,3:0|3:0,0:0:0:0:
159,163,277938,1,0,1:2:0:0:
159,163,278302,6,0,L|141:313,1,144,4|0,1:2|1:2,0:0:0:0:
59,347,278847,2,0,P|12:319|28:231,1,144,8|0,3:0|0:0,0:0:0:0:
78,166,279393,2,0,P|91:121|79:82,1,72,2|0,1:2|0:0,0:0:0:0:
21,34,279756,2,0,P|78:71|174:42,1,144,2|2,1:2|1:2,0:0:0:0:
226,21,280302,2,0,L|311:36,1,72,10|0,3:0|1:2,0:0:0:0:
375,89,280666,1,10,3:0:0:0:
447,59,280847,1,0,1:2:0:0:
504,136,281029,5,10,0:2:0:0:
504,136,281120,1,8,0:2:0:0:
504,136,281211,2,0,L|482:283,1,144,4|0,1:2|1:2,0:0:0:0:
400,324,281756,2,0,P|334:327|289:250,1,144,8|0,3:0|0:0,0:0:0:0:
213,213,282302,2,0,B|175:211|175:211|170:215|170:215|138:213,1,72,2|0,1:2|0:0,0:0:0:0:
65,278,282666,2,0,P|31:227|81:147,1,144,2|2,1:2|1:2,0:0:0:0:
122,82,283211,2,0,P|67:72|46:47,1,72,10|0,3:0|1:2,0:0:0:0:
162,12,283575,2,0,L|248:39,1,72,10|0,3:0|1:2,0:0:0:0:
230,33,283938,1,2,0:0:0:0:
333,127,284120,6,0,B|281:114|281:114|177:175,1,144,4|0,1:2|1:2,0:0:0:0:
215,265,284666,2,0,P|256:245|261:218,1,72,8|0,3:0|1:2,0:0:0:0:
261,222,285029,1,0,0:0:0:0:
116,218,285211,2,0,L|141:294,1,72,2|0,1:2|0:0,0:0:0:0:
8,274,285575,2,0,L|30:205,1,72,2|0,1:2|0:0,0:0:0:0:
0,133,285938,1,2,1:2:0:0:
69,63,286120,2,0,L|163:81,1,72,10|0,3:0|1:2,0:0:0:0:
231,28,286484,1,10,3:0:0:0:
276,122,286666,1,0,1:2:0:0:
243,192,286847,5,10,0:0:0:0:
243,192,286938,1,8,0:0:0:0:
243,192,287029,2,0,P|290:200|322:209,1,80.9999975280763,4|8,1:2|0:0,0:0:0:0:
121,127,287393,2,0,P|81:137|41:144,1,80.9999975280763,0|8,1:2|0:0,0:0:0:0:
241,104,287756,2,0,P|255:37|266:9,1,80.9999975280763,0|8,1:2|0:0,0:0:0:0:
146,215,288120,2,0,P|157:253|164:293,1,80.9999975280763,2|8,1:2|0:0,0:0:0:0:
304,237,288484,6,0,P|250:192|213:196,1,80.9999975280763,2|8,1:2|0:0,0:0:0:0:
164,293,288847,1,2,1:2:0:0:
299,320,289029,2,0,L|387:304,1,80.9999975280763,10|0,0:0|1:2,0:0:0:0:
453,194,289393,2,0,L|365:178,1,80.9999975280763,10|0,0:0|1:2,0:0:0:0:
279,78,289756,1,10,0:0:0:0:
362,87,289938,6,0,P|410:73|454:62,1,80.9999975280763,2|8,1:2|0:0,0:0:0:0:
259,2,290302,2,0,P|217:26|203:77,1,80.9999975280763,0|8,1:2|0:0,0:0:0:0:
283,171,290666,1,0,1:2:0:0:
209,125,290847,1,8,0:0:0:0:
126,223,291029,2,0,L|216:219,1,80.9999975280763,2|8,1:2|0:0,0:0:0:0:
74,150,291393,6,0,P|34:192|30:236,1,80.9999975280763,2|8,1:2|0:0,0:0:0:0:
151,78,291756,1,2,1:2:0:0:
0,72,291938,2,0,P|8:127|13:159,1,80.9999975280763,10|0,0:0|1:2,0:0:0:0:
98,10,292302,1,10,0:0:0:0:
193,153,292484,1,0,1:2:0:0:
319,17,292666,1,10,0:0:0:0:
152,89,292847,6,0,P|116:126|118:185,1,90,4|8,1:2|0:0,0:0:0:0:
301,227,293211,1,8,0:0:0:0:
235,79,293393,1,8,0:0:0:0:
182,303,293575,1,8,0:0:0:0:
349,134,293756,1,8,0:0:0:0:
120,237,293938,1,10,0:0:0:0:
391,289,294120,1,8,0:0:0:0:
304,50,294302,5,10,0:0:0:0:
320,328,294484,1,8,0:0:0:0:
457,84,294666,1,10,0:0:0:0:
147,155,294847,1,10,0:0:0:0:
391,289,295029,1,8,0:0:0:0:
172,54,295211,1,10,0:0:0:0:
130,342,295393,1,8,0:0:0:0:
461,201,295575,1,10,0:0:0:0:
144,146,295756,5,14,0:0:0:0:
144,146,295847,1,8,0:0:0:0:
144,146,295938,1,0,1:2:0:0:
312,358,296120,1,0,1:2:0:0:
404,72,296302,1,8,0:0:0:0:
404,72,296393,1,8,0:0:0:0:
404,72,296484,2,0,P|349:65|308:96,1,90,6|0,1:2|1:2,0:0:0:0:
160,260,296847,2,0,P|235:273|266:280,1,90,8|0,0:0|1:2,0:0:0:0:
155,55,297211,5,6,1:2:0:0:
0,245,297393,1,8,0:0:0:0:
0,245,297484,1,8,0:0:0:0:
0,245,297575,1,0,1:2:0:0:
263,173,297756,1,0,1:2:0:0:
22,32,297938,2,0,P|64:72|114:68,1,90,14|8,0:0|0:0,0:0:0:0:
131,70,298211,1,8,0:0:0:0:
173,55,298302,1,8,0:0:0:0:
207,26,298393,1,8,0:0:0:0:
249,11,298484,1,8,0:0:0:0:
293,19,298575,1,8,0:0:0:0:
330,44,298666,6,0,L|307:162,1,99.0000030212403,6|0,1:2|1:2,0:0:0:0:
312,335,299029,1,8,0:0:0:0:
468,173,299211,1,0,0:0:0:0:
468,173,299302,1,8,0:0:0:0:
468,173,299393,1,0,1:2:0:0:
229,230,299575,1,0,1:2:0:0:
410,368,299756,2,0,P|416:332|407:249,1,99.0000030212403,10|0,0:0|0:0,0:0:0:0:
223,149,300120,6,0,P|156:181|147:224,1,99.0000030212403,2|0,1:2|1:2,0:0:0:0:
28,106,300484,1,10,0:0:0:0:
42,333,300666,2,0,P|59:248|63:219,1,99.0000030212403,2|0,1:2|0:0,0:0:0:0:
201,56,301029,2,0,P|209:104|219:153,1,99.0000030212403,2|8,1:2|0:0,0:0:0:0:
365,280,301393,5,2,1:2:0:0:
365,280,301484,1,8,0:2:0:0:
365,280,301575,2,0,B|425:169|425:169|407:126|370:132,1,198.000006042481,2|8,1:2|0:0,0:0:0:0:
199,43,302120,1,0,0:0:0:0:
318,200,302302,1,0,1:2:0:0:
394,7,302484,1,0,1:2:0:0:
176,145,302666,2,0,P|109:123|77:137,1,99.0000030212403,10|0,0:0|0:0,0:0:0:0:
210,310,303029,6,0,L|230:204,1,99.0000030212403,2|0,1:2|1:2,0:0:0:0:
324,347,303393,1,10,0:0:0:0:
95,259,303575,2,0,L|-9:286,1,99.0000030212403,2|0,0:0|1:2,0:0:0:0:
190,180,303938,1,10,0:0:0:0:
97,372,304120,1,12,0:0:0:0:
0,124,304302,1,2,1:2:0:0:
249,291,304484,6,0,P|331:310|346:302,1,90,6|0,1:2|1:2,0:0:0:0:
432,176,304847,1,0,0:0:0:0:
432,176,305029,1,0,1:2:0:0:
304,229,305211,2,0,B|293:185|280:136,1,90,8|0,0:0|0:0,0:0:0:0:
404,61,305575,2,0,P|375:120|342:127,1,90,0|0,0:0|1:2,0:0:0:0:
250,47,305938,5,2,1:2:0:0:
250,47,306120,2,0,B|208:58|170:42|170:42|142:71|142:71|101:76|76:91,1,180,0|0,1:2|1:2,0:0:0:0:
0,192,306666,2,0,P|63:210|93:216,1,90,8|0,0:0|1:2,0:0:0:0:
221,177,307029,1,2,0:0:0:0:
146,276,307211,1,2,1:2:0:0:
294,349,307393,5,6,1:2:0:0:
229,268,307575,2,0,P|170:285|47:319,1,180,0|0,1:2|1:2,0:0:0:0:
0,174,308120,2,0,P|60:196|87:206,1,90,8|0,0:0|0:0,0:0:0:0:
148,61,308484,2,0,P|88:83|61:93,1,90,2|0,0:0|1:2,0:0:0:0:
210,172,308847,5,2,1:2:0:0:
210,172,309029,2,0,P|233:111|248:82,1,90,0|0,1:2|0:0,0:0:0:0:
365,1,309393,1,0,1:2:0:0:
346,146,309575,2,0,P|323:85|308:56,1,90,12|2,0:0|1:2,0:0:0:0:
305,227,309938,1,10,0:0:0:0:
345,247,310029,1,8,0:0:0:0:
389,239,310120,1,10,0:0:0:0:
419,205,310211,1,8,0:0:0:0:
420,155,310302,5,6,1:2:0:0:
464,287,310484,1,8,0:0:0:0:
318,135,310666,1,8,0:0:0:0:
290,337,310847,1,8,0:0:0:0:
191,99,311029,1,8,0:0:0:0:
367,305,311211,1,8,0:0:0:0:
446,64,311393,1,8,0:0:0:0:
199,195,311575,1,8,0:0:0:0:
509,277,311756,5,8,0:0:0:0:
309,40,311938,1,8,0:0:0:0:
219,326,312120,1,8,0:0:0:0:
393,160,312302,1,8,0:0:0:0:
117,26,312484,1,8,0:0:0:0:
310,219,312666,1,8,0:0:0:0:
0,308,312847,1,8,0:0:0:0:
214,68,313029,1,8,0:0:0:0:
138,380,313211,5,12,0:0:0:0:
23,91,313393,1,0,1:2:0:0:
30,78,313575,1,0,1:2:0:0:
71,303,313756,5,12,0:0:0:0:
186,13,313938,1,0,1:2:0:0:
179,0,314120,1,0,1:2:0:0:
322,328,314302,5,14,0:0:0:0:
99,197,314484,1,0,1:2:0:0:
464,25,314666,1,14,0:0:0:0:
372,326,316120,6,0,P|415:239|351:158,1,180,6|8,1:2|0:0,0:0:0:0:
224,243,316666,2,0,L|345:258,1,90,0|0,0:0|1:2,0:0:0:0:
231,101,317029,1,0,0:0:0:0:
117,202,317211,2,0,P|95:144|84:112,1,90,8|0,0:0|0:0,0:0:0:0:
204,19,317575,6,0,B|306:6|283:73|391:55,1,180,2|8,1:2|0:0,0:0:0:0:
484,165,318120,2,0,P|496:88|501:53,1,90,2|0,0:0|1:2,0:0:0:0:
315,131,318484,1,0,0:0:0:0:
426,247,318666,2,0,B|453:260|453:260|536:251,1,90,10|0,0:0|0:0,0:0:0:0:
315,131,319029,6,0,P|331:231|339:321,1,180,2|8,1:2|0:0,0:0:0:0:
237,383,319575,1,0,0:0:0:0:
125,249,319756,2,0,P|193:274|220:280,1,90,0|0,1:2|0:0,0:0:0:0:
153,114,320120,2,0,P|109:125|68:143,1,90,8|0,0:0|0:0,0:0:0:0:
235,22,320484,6,0,B|263:47|296:62|296:62|271:171,1,180,2|8,1:2|0:0,0:0:0:0:
414,224,321029,2,0,P|428:169|446:132,1,90,2|0,0:0|1:2,0:0:0:0:
512,210,321393,1,0,0:0:0:0:
315,227,321575,2,0,P|332:268|342:311,1,90,10|0,0:0|0:0,0:0:0:0:
167,320,321938,6,0,P|226:273|229:359,1,180,6|8,1:2|0:0,0:0:0:0:
159,177,322484,1,0,0:0:0:0:
42,276,322666,2,0,P|4:235|3:183,1,90,0|0,1:2|0:0,0:0:0:0:
91,67,323029,2,0,L|76:170,1,90,8|0,0:0|0:0,0:0:0:0:
287,76,323393,6,0,B|183:44|183:44|242:31|258:3,1,180,2|8,1:2|0:0,0:0:0:0:
403,112,323938,2,0,P|382:169|366:204,1,90,2|0,0:0|1:2,0:0:0:0:
336,309,324302,1,0,0:0:0:0:
255,162,324484,2,0,P|276:219|292:254,1,90,10|0,0:0|0:0,0:0:0:0:
466,303,324847,6,0,P|415:259|374:263,1,90,2|0,1:2|0:0,0:0:0:0:
214,343,325211,2,0,L|320:354,1,90,8|0,0:0|0:0,0:0:0:0:
170,224,325575,1,2,1:2:0:0:
101,376,325756,1,2,0:0:0:0:
255,243,325938,1,10,0:0:0:0:
49,172,326120,1,10,0:0:0:0:
214,343,326302,5,6,1:2:0:0:
244,96,326484,1,10,0:0:0:0:
59,295,326666,1,10,0:0:0:0:
153,36,326847,1,10,0:0:0:0:
368,281,327029,1,10,0:0:0:0:
49,172,327211,1,10,0:0:0:0:
360,17,327393,1,10,0:0:0:0:
214,343,327575,1,10,0:0:0:0:
214,343,328484,6,0,B|215:303|173:271|144:247|91:304|58:317|7:264|-13:203|-8:153|20:89|84:107|123:118|123:118|131:80|152:29|208:23|256:32|295:68|310:119|309:193|238:170|209:250|245:314|296:342|296:342|338:287|432:288|446:348|451:366|528:348|532:332|532:332|478:325|432:283|441:238|441:238|458:278|487:287|487:287,1,1390.27503394226,6|0,1:2|1:2,0:0:0:0:
