osu file format v14

[General]
AudioFilename: audio.mp3
AudioLeadIn: 0
PreviewTime: 54162
Countdown: 0
SampleSet: Normal
StackLeniency: 0.7
Mode: 0
LetterboxInBreaks: 0
WidescreenStoryboard: 0

[Editor]
DistanceSpacing: 1
BeatDivisor: 4
GridSize: 4
TimelineZoom: 2.6

[Metadata]
Title:Blaze Heatnix Stage
TitleUnicode:Blaze Heatnix Stage
Artist:Capcom Sound Team
ArtistUnicode:Capcom Sound Team
Creator:Dino99
Version:Burning
Source:Mega Man X6
Tags:Rock Man _kotachi_ Left Garden
BeatmapID:1281347
BeatmapSetID:606569

[Difficulty]
HPDrainRate:7
CircleSize:4
OverallDifficulty:8.2
ApproachRate:9.3
SliderMultiplier:1.8
SliderTickRate:1

[Events]
//Background and Video events
0,0,"Hot BG.png",0,0
//Break Periods
2,12008,12667
//Storyboard Layer 0 (Background)
//Storyboard Layer 1 (Fail)
//Storyboard Layer 2 (Pass)
//Storyboard Layer 3 (Foreground)
//Storyboard Sound Samples

[TimingPoints]
515.383126934984,352.941176470588,4,1,1,90,1,0
4750,-66.6666666666667,4,1,1,90,0,0
6162,-100,4,1,1,90,0,0
10397,-66.6666666666667,4,1,1,90,0,0
11809,-100,4,1,1,90,0,0
13221,-100,4,1,1,30,0,0
13397,-100,4,1,1,40,0,0
13574,-100,4,1,1,50,0,0
13750,-100,4,1,1,60,0,0
13927,-66.6666666666667,4,1,1,70,0,0
14103,-66.6666666666667,4,1,1,80,0,0
14280,-66.6666666666667,4,1,1,90,0,0
14456,-66.6666666666667,4,1,1,100,0,0
14633,-100,4,1,1,70,0,0
26456,-200,4,1,1,80,0,0
27338,-100,4,1,1,80,0,0
27868,-200,4,1,1,80,0,0
28397,-100,4,1,1,80,0,0
28927,-133.333333333333,4,1,1,80,0,0
29456,-80,4,1,1,80,0,0
30338,-133.333333333333,4,1,1,80,0,0
30868,-80,4,1,1,80,0,0
31574,-100,4,1,1,80,0,1
40044,-200,4,1,1,70,0,1
40397,-200,4,1,1,65,0,1
40750,-200,4,1,1,60,0,1
41103,-200,4,1,1,55,0,1
41456,-200,4,1,1,45,0,1
41809,-200,4,1,1,35,0,1
42162,-100,4,1,1,25,0,1
42427,-100,4,1,1,10,0,1
42515,-100,4,1,1,70,0,1
42868,-133.333333333333,4,1,1,50,0,0
44544,-133.333333333333,4,1,1,10,0,0
44633,-133.333333333333,4,1,1,50,0,0
47368,-133.333333333333,4,1,1,10,0,0
47456,-133.333333333333,4,1,1,50,0,0
48515,-133.333333333333,4,1,1,40,0,0
49221,-133.333333333333,4,1,1,45,0,0
49927,-133.333333333333,4,1,1,50,0,0
50633,-133.333333333333,4,1,1,55,0,0
51338,-133.333333333333,4,1,1,75,0,0
52044,-133.333333333333,4,1,1,80,0,0
52750,-133.333333333333,4,1,1,85,0,0
53456,-133.333333333333,4,1,1,90,0,0
54162,-80,4,1,2,90,0,1
65985,-200,4,1,2,90,0,1
66515,-80,4,1,2,90,0,1
67397,-200,4,1,2,90,0,1
67927,-80,4,1,2,90,0,1
68809,-200,4,1,2,90,0,1
69338,-80,4,1,2,90,0,1
70221,-200,4,1,2,90,0,1
70750,-80,4,1,2,90,0,1
71103,-200,4,1,2,90,0,0
72427,-200,4,1,1,30,0,0
72515,-80,4,1,1,33,0,0
72603,-80,4,1,1,36,0,0
72691,-80,4,1,1,39,0,0
72780,-80,4,1,1,42,0,0
72868,-66.6666666666667,4,1,1,45,0,0
72956,-66.6666666666667,4,1,1,48,0,0
73044,-66.6666666666667,4,1,1,51,0,0
73133,-66.6666666666667,4,1,1,54,0,0
73221,-57.1428571428571,4,1,1,67,0,0
73309,-57.1428571428571,4,1,1,70,0,0
73397,-57.1428571428571,4,1,1,73,0,0
73485,-57.1428571428571,4,1,1,76,0,0
73574,-57.1428571428571,4,1,1,79,0,0
73662,-57.1428571428571,4,1,1,82,0,0
73750,-57.1428571428571,4,1,1,85,0,0
73838,-57.1428571428571,4,1,1,88,0,0
73927,-57.1428571428571,4,1,1,91,0,0

[Colours]
Combo1 : 240,181,0
Combo2 : 255,0,0
Combo3 : 242,85,0
Combo4 : 172,0,0

[HitObjects]
120,308,515,5,4,0:0:0:0:
88,80,691,1,8,0:0:0:0:
132,80,780,1,0,0:0:0:0:
168,108,868,1,0,0:0:0:0:
188,148,956,1,0,0:0:0:0:
224,172,1044,1,8,0:0:0:0:
268,164,1132,1,0,0:0:0:0:
292,124,1221,5,0,0:0:0:0:
272,84,1309,1,0,0:0:0:0:
228,68,1397,1,8,0:0:0:0:
192,96,1485,1,0,0:0:0:0:
188,140,1574,1,0,0:0:0:0:
216,176,1662,1,0,0:0:0:0:
260,176,1750,1,8,0:0:0:0:
300,160,1838,1,0,0:0:0:0:
336,136,1927,6,0,L|432:148,1,90,0|8,0:0|0:0,0:0:0:0:
452,184,2191,1,0,0:0:0:0:
452,228,2280,1,0,0:0:0:0:
436,272,2368,1,0,0:0:0:0:
400,300,2456,1,8,0:0:0:0:
356,312,2544,1,0,0:0:0:0:
312,304,2632,5,0,0:0:0:0:
276,280,2721,1,0,0:0:0:0:
236,296,2809,1,8,0:0:0:0:
224,340,2897,1,0,0:0:0:0:
252,376,2985,1,0,0:0:0:0:
296,376,3074,1,0,0:0:0:0:
328,344,3162,1,8,0:0:0:0:
320,300,3250,1,0,0:0:0:0:
284,272,3338,6,0,L|192:256,1,90,0|8,0:0|0:0,0:0:0:0:
104,208,3603,1,0,0:0:0:0:
104,208,3691,2,0,L|108:256,1,45
192,152,3868,2,0,L|196:104,1,45,8|0,0:0|0:0,0:0:0:0:
248,264,4044,6,0,L|252:312,1,45
308,92,4221,2,0,L|312:44,1,45,8|0,0:0|0:0,0:0:0:0:
440,192,4397,1,0,0:0:0:0:
440,192,4485,1,0,0:0:0:0:
440,192,4574,1,8,0:0:0:0:
440,192,4662,1,0,0:0:0:0:
440,192,4750,6,0,B|432:312|432:312|412:300,1,135.000005149842,4|8,0:0|0:0,0:0:0:0:
200,172,5103,1,0,0:0:0:0:
244,140,5191,1,0,0:0:0:0:
288,108,5280,1,8,0:0:0:0:
332,76,5368,1,0,0:0:0:0:
376,44,5456,6,0,L|308:164,1,135.000005149842,4|8,0:0|0:0,0:0:0:0:
68,332,5809,2,0,L|136:340,1,67.5000025749208,8|8,0:0|0:0,0:0:0:0:
200,248,5985,2,0,L|132:256,1,67.5000025749208,8|8,0:0|0:0,0:0:0:0:
236,348,6162,5,4,0:0:0:0:
236,348,6338,2,0,L|280:336,1,45,8|0,0:0|0:0,0:0:0:0:
388,284,6515,2,0,L|344:272,1,45
200,248,6691,2,0,L|244:236,1,45,8|0,0:0|0:0,0:0:0:0:
420,168,6868,6,0,L|376:156,1,45
236,88,7044,2,0,L|256:140,1,45,8|0,0:0|0:0,0:0:0:0:
344,272,7221,2,0,L|352:228,1,45
440,24,7397,2,0,L|388:40,1,45,8|0,0:0|0:0,0:0:0:0:
236,88,7574,5,0,0:0:0:0:
236,88,7750,2,0,L|188:80,1,45,8|0,0:0|0:0,0:0:0:0:
308,200,7927,2,0,L|328:160,1,45
164,224,8103,2,0,L|176:272,1,45,8|0,0:0|0:0,0:0:0:0:
340,352,8280,6,0,L|348:304,1,45
192,208,8456,2,0,L|204:272,1,45,8|0,0:0|0:0,0:0:0:0:
368,368,8632,2,0,L|380:304,1,45
460,152,8809,2,0,L|472:216,1,45,8|0,0:0|0:0,0:0:0:0:
348,80,8985,5,0,0:0:0:0:
348,80,9162,1,8,0:0:0:0:
272,56,9250,1,0,0:0:0:0:
200,92,9338,2,0,P|144:104|124:96,1,45
60,140,9515,2,0,P|98:182|101:203,1,45,8|0,0:0|0:0,0:0:0:0:
172,236,9691,6,0,P|189:181|206:168,1,45
216,316,9868,2,0,P|160:328|140:320,1,45,8|0,0:0|0:0,0:0:0:0:
264,240,10044,2,0,P|302:282|305:303,1,45
344,360,10221,1,8,0:0:0:0:
344,360,10309,1,0,0:0:0:0:
440,356,10397,6,0,P|472:300|452:232,1,135.000005149842,4|8,0:0|0:0,0:0:0:0:
256,60,10750,1,0,0:0:0:0:
220,100,10838,1,0,0:0:0:0:
208,152,10927,1,0,0:0:0:0:
224,204,11015,1,0,0:0:0:0:
284,272,11103,6,0,P|312:220|296:148,1,135.000005149842,4|8,0:0|0:0,0:0:0:0:
57,235,11456,1,8,0:0:0:0:
42,265,11544,1,8,0:0:0:0:
39,298,11632,1,8,0:0:0:0:
50,330,11720,1,8,0:0:0:0:
72,356,11808,5,4,0:0:0:0:
148,364,13221,6,0,L|196:376,1,45
120,276,13397,2,0,L|168:288,1,45
92,188,13574,2,0,L|140:200,1,45
64,100,13750,2,0,L|112:112,1,45
380,160,13927,6,0,P|384:192|372:232,1,67.5000025749208
260,144,14103,2,0,P|256:112|268:72,1,67.5000025749208,8|8,0:0|0:0,0:0:0:0:
416,196,14280,2,0,P|408:248|372:306,1,67.5000025749208
228,120,14456,2,0,P|235:67|271:9,1,67.5000025749208,8|8,0:0|0:0,0:0:0:0:
484,256,14633,6,0,P|468:304|436:336,1,90,4|8,0:0|0:0,0:0:0:0:
396,340,14897,1,0,0:0:0:0:
352,348,14985,1,0,0:0:0:0:
168,216,15162,1,8,0:0:0:0:
356,56,15338,2,0,L|340:160,1,90,0|8,0:0|0:0,0:0:0:0:
336,192,15603,1,0,0:0:0:0:
332,240,15691,1,0,0:0:0:0:
208,76,15868,6,0,P|160:64|56:132,1,180,10|8,0:0|0:0,0:0:0:0:
196,276,16397,1,0,0:0:0:0:
284,124,16574,2,0,P|296:68|288:36,1,90,8|0,0:0|0:0,0:0:0:0:
392,180,16927,1,8,0:0:0:0:
408,224,17015,1,0,0:0:0:0:
400,268,17103,1,0,0:0:0:0:
196,256,17280,6,0,B|332:228|332:228|304:260,1,180,10|8,0:0|0:0,0:0:0:0:
64,344,17809,1,0,0:0:0:0:
84,196,17985,1,8,0:0:0:0:
264,220,18162,1,0,0:0:0:0:
244,72,18338,1,8,0:0:0:0:
420,132,18515,6,0,P|432:180|424:220,1,90,2|8,0:0|0:0,0:0:0:0:
256,336,18868,2,0,L|448:320,1,180,2|0,0:0|0:0,0:0:0:0:
320,180,19397,1,8,0:0:0:0:
168,260,19574,2,0,L|72:248,1,90,0|8,0:0|0:0,0:0:0:0:
52,272,19838,1,0,0:0:0:0:
24,296,19927,1,0,0:0:0:0:
140,56,20103,1,8,0:0:0:0:
304,120,20280,6,0,P|304:168|316:216,1,90,4|8,0:0|0:0,0:0:0:0:
396,228,20544,1,0,0:0:0:0:
448,160,20633,2,0,P|448:112|436:64,1,90,8|8,0:0|0:0,0:0:0:0:
176,168,20985,1,0,0:0:0:0:
272,360,21162,1,8,0:0:0:0:
320,348,21250,1,0,0:0:0:0:
368,336,21338,1,0,0:0:0:0:
228,120,21515,6,0,P|152:100|108:184,1,180,10|8,0:0|0:0,0:0:0:0:
296,352,22044,1,0,0:0:0:0:
432,148,22221,2,0,B|436:92|436:92|428:56,1,90,8|0,0:0|0:0,0:0:0:0:
200,88,22574,1,8,0:0:0:0:
180,128,22662,1,0,0:0:0:0:
180,172,22750,1,0,0:0:0:0:
296,308,22927,6,0,B|400:296|400:296|404:264|404:264|360:268,1,180,10|8,0:0|0:0,0:0:0:0:
72,256,23456,2,0,L|80:352,1,90,0|8,0:0|0:0,0:0:0:0:
184,140,23809,1,0,0:0:0:0:
296,308,23985,1,8,0:0:0:0:
448,104,24162,6,0,L|460:12,1,90,2|8,0:0|0:0,0:0:0:0:
396,256,24515,2,0,L|356:80,1,180,2|0,0:0|0:0,0:0:0:0:
106,140,25044,1,8,0:0:0:0:
120,199,25132,1,0,0:0:0:0:
133,258,25221,1,0,0:0:0:0:
391,184,25397,1,8,0:0:0:0:
151,144,25574,6,0,L|100:139,1,45
89,270,25750,2,0,L|138:256,1,45,8|0,0:0|0:0,0:0:0:0:
170,127,25927,5,4,0:0:0:0:
40,343,26103,1,8,0:0:0:0:
183,97,26280,1,0,0:0:0:0:
424,268,26456,6,0,P|440:232|444:180,1,90,10|8,0:0|0:0,0:0:0:0:
396,116,26897,1,8,0:0:0:0:
348,132,26985,1,0,0:0:0:0:
300,148,27074,1,0,0:0:0:0:
252,136,27162,1,8,0:0:0:0:
204,124,27250,1,8,0:0:0:0:
156,140,27338,6,0,P|144:188|152:236,1,90,4|8,0:0|0:0,0:0:0:0:
276,284,27691,1,0,0:0:0:0:
192,72,27868,6,0,P|140:64|108:80,1,90,10|8,0:0|0:0,0:0:0:0:
92,216,28309,1,8,0:0:0:0:
92,216,28397,6,0,L|136:224,1,45
252,320,28574,2,0,L|296:312,1,45,8|8,0:0|0:0,0:0:0:0:
420,240,28750,1,0,0:0:0:0:
420,240,28927,6,0,B|384:208|412:136|376:112,1,135.000005149842,6|0,0:0|0:0,0:0:0:0:
328,56,29368,1,0,0:0:0:0:
252,80,29456,6,0,P|192:88|144:68,1,112.5,2|0,0:0|0:0,0:0:0:0:
379,114,29809,2,0,P|439:106|487:126,1,112.5
312,304,30162,1,0,0:0:0:0:
132,152,30338,6,0,P|80:160|96:239,1,135.000005149842,6|0,0:0|0:0,0:0:0:0:
160,268,30780,1,0,0:0:0:0:
204,196,30868,6,0,L|215:85,1,112.5,2|0,0:0|0:0,0:0:0:0:
388,188,31221,1,8,0:0:0:0:
400,232,31309,1,8,0:0:0:0:
400,276,31397,1,8,0:0:0:0:
388,320,31485,1,8,0:0:0:0:
360,356,31574,6,0,L|316:348,1,45,4|0,0:0|0:0,0:0:0:0:
156,284,31750,2,0,L|200:276,1,45,8|0,0:0|0:0,0:0:0:0:
32,336,31927,1,0,0:0:0:0:
16,296,32015,1,0,0:0:0:0:
16,252,32103,1,8,0:0:0:0:
24,208,32191,1,0,0:0:0:0:
52,172,32280,6,0,L|100:184,1,45,2|0,0:0|0:0,0:0:0:0:
308,180,32456,2,0,L|260:168,1,45,8|0,0:0|0:0,0:0:0:0:
144,76,32633,2,0,L|192:88,1,45
376,52,32809,2,0,L|328:40,1,45,8|0,0:0|0:0,0:0:0:0:
476,120,32985,5,2,0:0:0:0:
492,164,33074,1,0,0:0:0:0:
492,208,33162,1,8,0:0:0:0:
476,248,33250,1,0,0:0:0:0:
440,272,33338,1,0,0:0:0:0:
396,264,33427,1,0,0:0:0:0:
356,244,33515,1,8,0:0:0:0:
340,200,33603,1,0,0:0:0:0:
316,164,33691,5,2,0:0:0:0:
272,148,33780,1,0,0:0:0:0:
228,164,33868,1,8,0:0:0:0:
204,204,33956,1,0,0:0:0:0:
208,248,34044,1,0,0:0:0:0:
236,284,34132,1,0,0:0:0:0:
280,292,34221,1,8,0:0:0:0:
320,272,34309,1,0,0:0:0:0:
340,232,34397,5,2,0:0:0:0:
332,188,34485,1,0,0:0:0:0:
300,156,34574,1,8,0:0:0:0:
256,148,34662,1,0,0:0:0:0:
212,160,34750,1,0,0:0:0:0:
176,188,34838,1,0,0:0:0:0:
152,228,34927,1,8,0:0:0:0:
156,272,35015,1,0,0:0:0:0:
116,252,35103,5,2,0:0:0:0:
76,268,35191,1,0,0:0:0:0:
48,304,35280,1,8,0:0:0:0:
28,264,35368,1,0,0:0:0:0:
40,220,35456,1,0,0:0:0:0:
72,188,35544,1,0,0:0:0:0:
104,156,35632,1,8,0:0:0:0:
100,112,35721,1,0,0:0:0:0:
44,16,35809,6,0,L|0:20,1,45,4|0,0:0|0:0,0:0:0:0:
200,60,35985,2,0,L|244:64,1,45,8|0,0:0|0:0,0:0:0:0:
372,196,36162,2,0,L|364:248,1,45
192,344,36338,2,0,L|188:296,1,45,8|0,0:0|0:0,0:0:0:0:
44,156,36515,6,0,L|36:208,1,45,2|0,0:0|0:0,0:0:0:0:
208,104,36691,2,0,L|196:40,1,45,8|0,0:0|0:0,0:0:0:0:
104,232,36868,2,0,L|100:276,1,45
284,168,37044,2,0,L|292:124,1,45,8|0,0:0|0:0,0:0:0:0:
184,276,37221,6,0,L|192:328,1,45,2|0,0:0|0:0,0:0:0:0:
376,216,37397,2,0,L|364:168,1,45,8|0,0:0|0:0,0:0:0:0:
264,300,37574,2,0,L|296:332,1,45
464,152,37750,2,0,L|428:120,1,45,8|0,0:0|0:0,0:0:0:0:
208,272,37927,6,0,L|264:264,1,45,2|0,0:0|0:0,0:0:0:0:
284,52,38103,2,0,L|232:68,1,45,8|0,0:0|0:0,0:0:0:0:
181,308,38280,2,0,L|217:260,1,45
88,96,38456,2,0,L|84:144,1,45,8|0,0:0|0:0,0:0:0:0:
292,284,38632,6,0,L|280:232,1,45,2|0,0:0|0:0,0:0:0:0:
72,212,38809,2,0,L|96:256,1,45,8|0,0:0|0:0,0:0:0:0:
284,80,38985,2,0,L|232:92,1,45
276,344,39162,2,0,L|312:300,1,45,8|0,0:0|0:0,0:0:0:0:
236,88,39338,6,0,L|228:140,1,45,2|0,0:0|0:0,0:0:0:0:
448,280,39515,2,0,L|440:232,1,45,8|0,0:0|0:0,0:0:0:0:
356,16,39691,1,2,0:0:0:0:
336,48,39780,1,0,0:0:0:0:
332,84,39868,1,10,0:0:0:0:
340,120,39956,1,0,0:0:0:0:
360,148,40044,6,2,B|268:112|200:164|200:164|144:156|136:112|144:68|184:44|224:40|248:76|280:128|268:220|224:212|196:232|216:316|272:336,1,607.5,2|14,0:0|3:3,0:0:0:0:
196,228,42515,6,0,L|144:232,1,45,8|8,0:0|0:0,0:0:0:0:
300,264,42691,2,0,L|352:268,1,45,8|8,0:0|0:0,0:0:0:0:
188,148,42868,6,0,P|144:120|72:152,1,135.000005149842,4|0,0:0|0:0,0:0:0:0:
68,176,43574,2,0,L|96:168,1,16.8750006437302,12|0,0:0|2:0,0:0:0:0:
371,124,43750,2,0,L|399:116,1,16.8750006437302,0|0,3:3|2:0,0:0:0:0:
388,120,44280,6,0,B|396:160|396:160|384:176|384:176|392:216,1,101.250003862381
416,288,44633,1,8,0:0:0:0:
504,164,44809,1,0,0:0:0:0:
316,60,44985,2,0,L|320:84,1,16.8750006437302,8|0,0:0|2:0,0:0:0:0:
357,323,45162,2,0,L|361:347,1,16.8750006437302,0|0,3:3|2:0,0:0:0:0:
360,340,45691,6,0,B|312:312|280:352|216:344,1,135.000005149842,4|0,0:0|0:0,0:0:0:0:
212,328,46397,2,0,L|220:304,1,16.8750006437302,12|0,0:0|2:0,0:0:0:0:
264,104,46574,2,0,L|272:80,1,16.8750006437302,0|0,3:3|2:0,0:0:0:0:
269,87,47103,6,0,B|225:95|225:95|213:111|213:111|177:119,1,101.250003862381
101,139,47456,1,8,0:0:0:0:
213,11,47632,1,0,0:0:0:0:
365,151,47809,2,0,L|385:155,1,16.8750006437302,8|0,0:0|2:0,0:0:0:0:
80,320,47985,2,0,L|60:324,1,16.8750006437302,0|0,3:3|2:0,0:0:0:0:
64,324,48515,5,12,0:0:0:0:
64,324,48603,1,0,0:0:0:0:
64,324,48691,2,0,L|76:288,1,33.7500012874604
164,192,48868,1,8,0:0:0:0:
164,192,48956,1,0,0:0:0:0:
164,192,49044,2,0,L|152:156,1,33.7500012874604
52,40,49221,5,12,0:0:0:0:
52,40,49309,1,0,0:0:0:0:
52,40,49397,2,0,L|92:48,1,33.7500012874604,8|0,0:0|0:0,0:0:0:0:
244,112,49574,1,0,0:0:0:0:
244,112,49662,1,0,0:0:0:0:
244,112,49750,2,0,L|284:104,1,33.7500012874604
428,16,49927,5,0,0:0:0:0:
444,52,50015,1,0,0:0:0:0:
448,92,50103,1,0,0:0:0:0:
436,132,50191,1,0,0:0:0:0:
408,160,50280,2,0,L|372:168,1,33.7500012874604,8|0,0:0|0:0,0:0:0:0:
336,304,50456,2,0,L|372:296,1,33.7500012874604
252,216,50632,5,8,0:0:0:0:
212,204,50721,1,0,0:0:0:0:
172,208,50809,1,8,0:0:0:0:
136,228,50897,1,0,0:0:0:0:
112,260,50985,2,0,L|132:304,1,33.7500012874604
248,368,51162,2,0,L|256:336,1,33.7500012874604
284,148,51338,5,4,0:0:0:0:
248,164,51427,1,0,0:0:0:0:
240,204,51515,1,0,0:0:0:0:
264,236,51603,1,0,0:0:0:0:
304,240,51691,1,0,0:0:0:0:
340,220,51780,1,0,0:0:0:0:
368,192,51868,1,0,0:0:0:0:
376,152,51956,1,0,0:0:0:0:
368,112,52044,5,12,0:0:0:0:
340,80,52132,1,0,0:0:0:0:
304,60,52221,1,8,0:0:0:0:
264,56,52309,1,0,0:0:0:0:
224,72,52397,1,0,0:0:0:0:
192,96,52485,1,0,0:0:0:0:
172,132,52574,1,0,0:0:0:0:
168,172,52662,1,0,0:0:0:0:
180,212,52750,5,0,0:0:0:0:
200,248,52838,1,0,0:0:0:0:
236,268,52927,1,0,0:0:0:0:
276,276,53015,1,0,0:0:0:0:
316,268,53103,1,8,0:0:0:0:
352,252,53191,1,0,0:0:0:0:
380,224,53280,1,0,0:0:0:0:
396,188,53368,1,0,0:0:0:0:
400,148,53456,5,8,0:0:0:0:
392,108,53544,1,0,0:0:0:0:
372,72,53633,1,8,0:0:0:0:
344,44,53721,1,0,0:0:0:0:
308,28,53809,1,0,0:0:0:0:
268,24,53897,1,0,0:0:0:0:
228,32,53985,1,0,0:0:0:0:
192,52,54074,1,0,0:0:0:0:
164,84,54162,6,0,B|136:80|136:80|112:96|112:96|84:80|48:80,1,112.5,12|0,0:0|0:0,0:0:0:0:
316,152,54515,1,8,0:0:0:0:
392,132,54603,1,0,0:0:0:0:
468,112,54691,1,0,0:0:0:0:
176,208,54868,2,0,B|160:240|160:240|188:312,1,112.5,10|0,0:0|0:0,0:0:0:0:
388,212,55221,1,8,0:0:0:0:
388,212,55309,1,0,0:0:0:0:
388,212,55397,1,0,0:0:0:0:
256,48,55574,6,0,P|196:48|156:80,1,112.5,10|0,0:0|0:0,0:0:0:0:
236,320,55927,1,8,0:0:0:0:
292,320,56015,1,0,0:0:0:0:
336,284,56103,1,0,0:0:0:0:
68,172,56280,2,0,P|68:254|111:308,1,112.5,10|0,0:0|0:0,0:0:0:0:
440,199,56632,1,8,0:0:0:0:
440,122,56721,1,0,0:0:0:0:
391,62,56809,1,0,0:0:0:0:
166,170,56985,5,10,0:0:0:0:
314,150,57162,1,0,0:0:0:0:
257,288,57338,1,8,0:0:0:0:
201,98,57515,5,2,0:0:0:0:
358,216,57691,1,8,0:0:0:0:
177,293,57868,1,0,0:0:0:0:
268,56,58044,5,10,0:0:0:0:
360,296,58221,1,0,0:0:0:0:
107,255,58397,1,8,0:0:0:0:
268,56,58574,6,0,B|360:24|404:108|492:60,1,225,2|0,0:0|0:0,0:0:0:0:
220,184,59103,2,0,L|332:196,1,112.5,8|0,0:0|0:0,0:0:0:0:
164,316,59456,1,8,0:0:0:0:
164,316,59809,5,12,0:0:0:0:
244,112,59985,1,0,0:0:0:0:
424,220,60162,1,8,0:0:0:0:
424,220,60250,1,0,0:0:0:0:
424,220,60338,1,0,0:0:0:0:
140,204,60515,2,0,B|68:200|68:200|32:216,1,112.5,10|0,0:0|0:0,0:0:0:0:
240,340,60868,1,8,0:0:0:0:
272,292,60956,1,0,0:0:0:0:
276,236,61044,1,0,0:0:0:0:
152,48,61221,5,10,0:0:0:0:
272,292,61397,1,0,0:0:0:0:
488,152,61574,1,8,0:0:0:0:
488,152,61662,1,0,0:0:0:0:
488,152,61750,1,0,0:0:0:0:
208,236,61927,2,0,P|192:296|208:348,1,112.5,10|0,0:0|0:0,0:0:0:0:
452,232,62280,1,8,0:0:0:0:
456,148,62368,1,0,0:0:0:0:
420,72,62456,1,0,0:0:0:0:
128,256,62632,6,0,B|113:267|113:267|205:283,1,112.5,10|0,0:0|0:0,0:0:0:0:
384,188,62985,1,8,0:0:0:0:
164,288,63162,2,0,B|72:272|72:272|92:256,1,112.5,2|8,0:0|0:0,0:0:0:0:
220,56,63515,1,0,0:0:0:0:
400,216,63691,2,0,P|408:268|392:324,1,112.5,10|0,0:0|0:0,0:0:0:0:
184,332,64044,5,10,0:0:0:0:
104,88,64221,2,0,P|168:80|124:176,1,225
20,56,64750,1,8,0:0:0:0:
280,168,64927,1,0,0:0:0:0:
96,336,65103,1,8,0:0:0:0:
96,336,65456,6,0,L|216:324,1,112.5,14|0,0:0|0:0,0:0:0:0:
412,304,65809,1,8,0:0:0:0:
48,232,65985,6,0,B|88:228|112:244|112:244|132:232|164:232,1,112.5,2|0,0:0|0:0,0:0:0:0:
280,180,66515,6,0,L|272:124,1,56.25,8|8,0:0|0:0,0:0:0:0:
384,280,66691,2,0,L|376:336,1,56.25,8|8,0:0|0:0,0:0:0:0:
424,84,66868,5,14,0:0:0:0:
288,208,67044,1,0,0:0:0:0:
168,40,67221,1,8,0:0:0:0:
72,256,67397,6,0,P|60:304|96:356,1,112.5,2|0,0:0|0:0,0:0:0:0:
248,236,67927,6,0,L|188:224,1,56.25,8|8,0:0|0:0,0:0:0:0:
280,344,68103,2,0,L|340:332,1,56.25,8|8,0:0|0:0,0:0:0:0:
392,112,68280,6,0,P|368:160|372:232,1,112.5,14|0,0:0|0:0,0:0:0:0:
492,240,68632,1,8,0:0:0:0:
380,88,68809,6,0,B|344:88|316:112|316:112|264:104,1,112.5,2|0,0:0|0:0,0:0:0:0:
88,32,69338,6,0,L|96:92,1,56.25,8|8,0:0|0:0,0:0:0:0:
176,184,69515,2,0,L|168:244,1,56.25,8|8,0:0|0:0,0:0:0:0:
56,376,69691,6,0,L|172:364,1,112.5,14|0,0:0|0:0,0:0:0:0:
64,244,70044,1,8,0:0:0:0:
432,296,70221,6,0,L|320:280,1,112.5,2|0,0:0|0:0,0:0:0:0:
188,200,70750,6,0,P|184:172|192:140,1,56.25,8|8,0:0|0:0,0:0:0:0:
336,80,70927,2,0,P|340:108|332:140,1,56.25,8|8,0:0|0:0,0:0:0:0:
132,332,71103,6,0,B|80:308|72:252|92:212|92:212|52:168|52:72|124:44,1,337.5,6|0,0:0|0:0,0:0:0:0:
264,64,72515,6,0,L|256:120,1,56.25
192,284,72691,2,0,L|184:228,1,56.25,8|8,0:0|0:0,0:0:0:0:
356,48,72868,6,0,L|348:116,1,67.5000025749208
284,308,73044,2,0,L|276:240,1,67.5000025749208,8|8,0:0|0:0,0:0:0:0:
448,32,73221,6,0,L|440:112,1,78.7500007510185
376,332,73397,2,0,L|368:252,1,78.7500007510185,8|8,0:0|0:0,0:0:0:0:
256,119,73574,5,0,0:0:0:0:
184,111,73662,1,0,0:0:0:0:
116,135,73750,1,8,0:0:0:0:
68,187,73838,1,8,0:0:0:0:
48,255,73927,5,4,0:0:0:0:
