osu file format v14

[General]
AudioFilename: audio.mp3
AudioLeadIn: 0
PreviewTime: 54162
Countdown: 0
SampleSet: Normal
StackLeniency: 0.7
Mode: 0
LetterboxInBreaks: 0
WidescreenStoryboard: 0

[Editor]
DistanceSpacing: 0.9
BeatDivisor: 4
GridSize: 4
TimelineZoom: 2.6

[Metadata]
Title:Blaze Heatnix Stage
TitleUnicode:Blaze Heatnix Stage
Artist:Capcom Sound Team
ArtistUnicode:Capcom Sound Team
Creator:Dino99
Version:Basic
Source:Mega Man X6
Tags:Rock Man _kotachi_ Left Garden
BeatmapID:1282611
BeatmapSetID:606569

[Difficulty]
HPDrainRate:2
CircleSize:2.5
OverallDifficulty:3
ApproachRate:4
SliderMultiplier:0.96
SliderTickRate:1

[Events]
//Background and Video events
0,0,"Hot BG.png",0,0
//Break Periods
//Storyboard Layer 0 (Background)
//Storyboard Layer 1 (Fail)
//Storyboard Layer 2 (Pass)
//Storyboard Layer 3 (Foreground)
//Storyboard Sound Samples

[TimingPoints]
515.383126934984,352.941176470588,4,1,1,90,1,0
11809,-100,4,1,1,40,0,0
14633,-100,4,1,1,70,0,0
25927,-100,4,1,1,80,0,0
31574,-100,4,1,1,90,0,1
42868,-100,4,1,1,60,0,0
54162,-100,4,1,1,90,0,1
71103,-100,4,1,1,50,0,0
72515,-100,4,1,1,70,0,0
73927,-100,4,1,1,90,0,0

[Colours]
Combo1 : 240,181,0
Combo2 : 255,0,0
Combo3 : 242,85,0
Combo4 : 172,0,0

[HitObjects]
112,344,515,6,0,B|168:320|224:364|304:336,1,192,4|0,0:0|0:0,0:0:0:0:
340,260,1574,1,0,0:0:0:0:
276,204,1927,2,0,B|198:176|142:220|86:196,1,192
16,148,2985,1,0,0:0:0:0:
80,88,3338,6,0,P|124:44|244:56,1,192
296,128,4397,1,0,0:0:0:0:
296,216,4750,2,0,L|288:264,1,48,4|8,0:0|0:0,0:0:0:0:
404,324,5456,2,0,L|412:276,1,48,4|8,0:0|0:0,0:0:0:0:
436,148,6162,6,0,B|384:140|360:104|360:104|316:128|260:108,1,192,4|0,0:0|0:0,0:0:0:0:
208,40,7221,1,0,0:0:0:0:
176,120,7574,2,0,B|144:152|100:152|100:152|68:180|72:256,1,192
96,336,8633,1,0,0:0:0:0:
156,276,8985,6,0,B|212:264|212:264|356:284,1,192
432,296,10044,1,0,0:0:0:0:
400,216,10397,2,0,L|384:168,1,48,4|8,0:0|0:0,0:0:0:0:
292,80,11103,2,0,L|276:125,1,48,4|8,0:0|0:0,0:0:0:0:
256,192,11809,12,0,13221,0:0:0:0:
52,324,14633,6,0,B|76:304|84:280|84:280|96:304|120:320|148:328|176:324|204:308,1,192,4|0,0:0|0:0,0:0:0:0:
156,236,15691,1,2,0:0:0:0:
244,232,16044,2,0,B|288:236|288:236|336:260|336:260|396:248,2,144,0|2|0,0:0|0:0|0:0,0:0:0:0:
156,236,17456,6,0,B|152:156|152:156|160:136|160:136|156:44,1,192
72,36,18515,1,2,0:0:0:0:
60,120,18868,2,0,L|256:136,1,192,2|0,0:0|0:0,0:0:0:0:
304,68,19927,1,0,0:0:0:0:
380,108,20280,6,0,P|428:148|400:272,1,192,4|0,0:0|0:0,0:0:0:0:
332,304,21338,1,2,0:0:0:0:
268,244,21691,2,0,B|252:196|304:160|288:92,2,144,0|2|0,0:0|0:0|0:0,0:0:0:0:
332,304,23103,6,0,B|264:288|264:288|140:304,1,192
60,324,24162,1,2,0:0:0:0:
84,240,24515,2,0,P|88:200|80:144,1,96,2|2,0:0|0:0,0:0:0:0:
120,68,25221,2,0,P|172:56|220:64,1,96
280,116,25927,6,0,B|325:127|356:112|356:112|388:116|418:97,2,144,4|2|0,0:0|0:0|0:0,0:0:0:0:
208,164,27338,2,0,B|196:220|220:256|204:308,2,144,4|2|0,0:0|0:0|0:0,0:0:0:0:
280,116,28750,5,4,0:0:0:0:
360,148,29103,2,0,P|380:184|380:240,1,96
332,312,29809,1,0,0:0:0:0:
252,344,30162,2,0,L|156:332,1,96,2|0,0:0|0:0,0:0:0:0:
148,244,30868,2,0,L|60:204,1,96,2|8,0:0|0:0,0:0:0:0:
84,120,31574,6,0,P|120:76|248:72,1,192,4|0,0:0|0:0,0:0:0:0:
300,140,32633,1,0,0:0:0:0:
288,224,32985,2,0,P|252:268|124:272,1,192,2|0,0:0|0:0,0:0:0:0:
76,204,34044,1,0,0:0:0:0:
84,120,34397,6,0,B|124:96|208:128|276:100,1,192,2|0,0:0|0:0,0:0:0:0:
328,32,35456,1,0,0:0:0:0:
360,112,35809,2,0,B|336:188|392:212|356:304,1,192,4|0,0:0|0:0,0:0:0:0:
280,340,36868,1,0,0:0:0:0:
212,288,37221,6,0,P|156:264|64:344,1,192,2|0,0:0|0:0,0:0:0:0:
152,352,38280,1,0,0:0:0:0:
212,288,38633,2,0,B|204:216|204:216|180:196|180:196|192:108,1,192,2|0,0:0|0:0,0:0:0:0:
260,56,39691,1,0,0:0:0:0:
256,192,40044,12,0,41456,0:0:0:0:
56,88,42868,6,0,P|100:72|152:88,1,96,4|0,0:0|0:0,0:0:0:0:
204,148,43574,2,0,L|196:200,1,48,12|0,0:0|3:3,0:0:0:0:
180,324,44280,2,0,B|224:308|224:308|276:312,1,96,0|8,0:0|0:0,0:0:0:0:
360,320,44985,2,0,L|364:268,1,48,8|0,0:0|3:3,0:0:0:0:
404,148,45691,6,0,P|360:148|320:112,1,96,4|0,0:0|0:0,0:0:0:0:
288,36,46397,2,0,L|240:48,1,48,12|0,0:0|3:3,0:0:0:0:
120,88,47103,2,0,P|132:128|124:192,1,96,0|8,0:0|0:0,0:0:0:0:
120,268,47809,2,0,P|120:304|132:336,1,48,8|0,0:0|3:3,0:0:0:0:
252,324,48515,6,0,B|296:300|336:320|336:320|352:304|352:304|388:328|440:320,1,192,4|12,0:0|0:0,0:0:0:0:
496,264,49574,1,0,0:0:0:0:
436,200,49927,2,0,P|384:176|384:48,1,192,0|8,0:0|0:0,0:0:0:0:
444,112,50985,1,0,0:0:0:0:
436,200,51338,6,0,L|244:172,1,192,4|12,0:0|0:0,0:0:0:0:
200,100,52397,1,0,0:0:0:0:
132,152,52750,2,0,L|36:160,1,96,0|8,0:0|0:0,0:0:0:0:
12,244,53456,2,0,L|108:252,1,96,8|0,0:0|0:0,0:0:0:0:
188,220,54162,5,12,0:0:0:0:
252,276,54515,2,0,P|256:316|236:368,2,96,8|10|8,0:0|0:0|0:0,0:0:0:0:
188,220,55574,1,10,0:0:0:0:
128,160,55927,2,0,B|116:116|116:116|120:64,2,96,8|10|8,0:0|0:0|0:0,0:0:0:0:
188,220,56985,6,0,P|256:216|308:160,2,144,10|2|10,0:0|0:0|0:0,0:0:0:0:
164,136,58397,2,0,P|200:104|248:96,2,96,10|8|8,0:0|0:0|0:0,0:0:0:0:
144,220,59456,1,8,0:0:0:0:
180,300,59809,6,0,L|88:328,2,96,12|8|10,0:0|0:0|0:0,0:0:0:0:
232,228,60868,1,8,0:0:0:0:
308,272,61221,2,0,P|352:284|412:264,1,96,10|8,0:0|0:0,0:0:0:0:
444,196,61927,2,0,P|400:184|340:204,1,96,10|8,0:0|0:0,0:0:0:0:
308,272,62633,6,0,L|292:124,2,144,10|2|10,0:0|0:0|0:0,0:0:0:0:
392,296,64044,2,0,L|412:196,1,96,10|8,0:0|0:0,0:0:0:0:
408,116,64750,2,0,P|372:76|336:52,1,96,8|8,0:0|0:0,0:0:0:0:
256,84,65456,6,0,B|156:80|156:80|112:56,2,144,12|2|8,0:0|0:0|0:0,0:0:0:0:
324,136,66868,2,0,B|388:116|388:116|480:144,2,144,12|2|8,0:0|0:0|0:0,0:0:0:0:
256,192,68280,6,0,B|200:200|144:160|96:200,2,144,12|2|8,0:0|0:0|0:0,0:0:0:0:
320,252,69691,2,0,P|336:316|276:364,2,144,12|2|8,0:0|0:0|0:0,0:0:0:0:
256,192,71103,5,6,0:0:0:0:
256,192,71191,12,4,73927,0:0:0:0:
