osu file format v14

[General]
AudioFilename: audio.mp3
AudioLeadIn: 0
PreviewTime: 54162
Countdown: 0
SampleSet: Normal
StackLeniency: 0.7
Mode: 0
LetterboxInBreaks: 0
WidescreenStoryboard: 0

[Editor]
DistanceSpacing: 1
BeatDivisor: 4
GridSize: 4
TimelineZoom: 2.6

[Metadata]
Title:Blaze Heatnix Stage
TitleUnicode:Blaze Heatnix Stage
Artist:Capcom Sound Team
ArtistUnicode:Capcom Sound Team
Creator:Dino99
Version:Advanced
Source:Mega Man X6
Tags:Rock Man _kotachi_ Left Garden
BeatmapID:1281803
BeatmapSetID:606569

[Difficulty]
HPDrainRate:4
CircleSize:3.5
OverallDifficulty:4
ApproachRate:5.5
SliderMultiplier:1.2
SliderTickRate:1

[Events]
//Background and Video events
0,0,"Hot BG.png",0,0
//Break Periods
//Storyboard Layer 0 (Background)
//Storyboard Layer 1 (Fail)
//Storyboard Layer 2 (Pass)
//Storyboard Layer 3 (Foreground)
//Storyboard Sound Samples

[TimingPoints]
515.383126934984,352.941176470588,4,1,1,90,1,0
13927,-100,4,1,1,40,0,0
14633,-100,4,1,1,70,0,0
25927,-100,4,1,1,80,0,0
31574,-100,4,1,1,90,0,1
42162,-100,4,1,1,60,0,1
42868,-100,4,1,1,60,0,0
54162,-100,4,1,2,90,0,1
71103,-100,4,1,2,50,0,0
72515,-100,4,1,2,70,0,0
73927,-100,4,1,2,90,0,0

[Colours]
Combo1 : 240,181,0
Combo2 : 255,0,0
Combo3 : 242,85,0
Combo4 : 172,0,0

[HitObjects]
232,204,515,6,0,P|240:260|200:316,1,120,4|0,0:0|0:0,0:0:0:0:
92,284,1221,2,0,P|84:228|124:172,1,120
172,156,1750,1,8,0:0:0:0:
172,156,1927,6,0,B|240:180|240:180|296:164,1,120
368,76,2633,2,0,L|384:196,1,120
428,236,3162,1,8,0:0:0:0:
428,236,3338,6,0,B|364:232|364:232|312:252,1,120
200,292,4044,2,0,L|80:284,1,120
44,236,4574,1,8,0:0:0:0:
44,236,4750,6,0,L|36:168,1,60,4|8,0:0|0:0,0:0:0:0:
20,56,5280,1,8,0:0:0:0:
20,56,5456,2,0,L|80:68,1,60,4|8,0:0|0:0,0:0:0:0:
192,108,5985,1,8,0:0:0:0:
192,108,6162,6,0,P|244:124|308:112,1,120,4|0,0:0|0:0,0:0:0:0:
412,48,6868,2,0,L|400:172,1,120
420,224,7397,1,8,0:0:0:0:
444,280,7574,6,0,L|324:268,1,120
228,196,8280,1,0,0:0:0:0:
124,256,8633,2,0,L|104:312,1,60,0|8,0:0|0:0,0:0:0:0:
64,356,8985,6,0,L|44:236,1,120
28,120,9691,2,0,P|72:92|144:96,1,120
196,116,10221,1,8,0:0:0:0:
196,116,10397,6,0,P|232:120|260:116,1,60,4|8,0:0|0:0,0:0:0:0:
368,76,10927,1,8,0:0:0:0:
368,76,11103,2,0,P|364:112|368:140,1,60,4|8,0:0|0:0,0:0:0:0:
256,192,11809,12,0,13927,0:0:0:0:
80,56,14633,6,0,P|60:100|76:176,1,120,4|0,0:0|0:0,0:0:0:0:
148,260,15338,1,0,0:0:0:0:
248,192,15691,1,0,0:0:0:0:
248,192,15868,2,0,P|292:160|360:176,1,120,10|8,0:0|0:0,0:0:0:0:
404,140,16397,2,0,L|416:204,1,60,0|10,0:0|0:0,0:0:0:0:
468,224,16750,2,0,L|484:136,2,90,0|0|2,0:0|0:0|0:0,0:0:0:0:
452,280,17456,6,0,B|368:268|368:268|336:284,1,120
228,332,18162,2,0,L|156:324,1,60,0|8,0:0|0:0,0:0:0:0:
116,296,18515,2,0,P|92:244|112:188,1,120,2|0,0:0|0:0,0:0:0:0:
92,68,19221,1,0,0:0:0:0:
92,68,19397,2,0,P|156:96|216:60,1,120,10|8,0:0|0:0,0:0:0:0:
252,52,19927,2,0,P|276:44|312:48,1,60,0|8,0:0|0:0,0:0:0:0:
368,60,20280,6,0,L|340:184,1,120,4|0,0:0|0:0,0:0:0:0:
324,296,20985,2,0,L|400:288,2,60,0|8|0,0:0|0:0|0:0,0:0:0:0:
264,292,21515,2,0,P|220:268|156:288,1,120,10|8,0:0|0:0,0:0:0:0:
108,324,22044,2,0,L|96:264,1,60,0|10,0:0|0:0,0:0:0:0:
80,208,22397,2,0,B|52:236|52:236|-4:236,2,90,0|0|10,0:0|0:0|0:0,0:0:0:0:
108,156,23103,6,0,P|116:120|100:36,1,120
212,84,23809,2,0,L|220:144,1,60,0|8,0:0|0:0,0:0:0:0:
260,188,24162,2,0,L|244:316,2,120,2|0|0,0:0|0:0|0:0,0:0:0:0:
316,212,25044,2,0,B|300:128|300:128|316:84,1,120,10|8,0:0|0:0,0:0:0:0:
352,52,25574,2,0,P|376:40|412:36,1,60,0|8,0:0|0:0,0:0:0:0:
460,68,25927,6,0,P|424:120|436:176,1,120,6|0,0:0|0:0,0:0:0:0:
460,228,26456,2,0,B|416:220|416:220|344:248,1,120,10|8,0:0|0:0,0:0:0:0:
296,216,26985,2,0,L|284:280,1,60,0|8,0:0|0:0,0:0:0:0:
252,324,27338,6,0,P|188:336|136:308,1,120,6|0,0:0|0:0,0:0:0:0:
120,256,27868,2,0,B|112:208|148:176|120:132,1,120,10|8,0:0|0:0,0:0:0:0:
80,96,28397,2,0,L|20:104,2,60,0|8|0,0:0|0:0|0:0,0:0:0:0:
116,44,28927,6,0,L|236:60,1,120,14|10,0:0|0:0,0:0:0:0:
280,100,29456,2,0,L|344:92,1,60,0|8,0:0|0:0,0:0:0:0:
392,64,29809,2,0,P|396:48|392:0,2,60,0|8|0,0:0|0:0|0:0,0:0:0:0:
384,124,30338,6,0,P|372:176|412:244,1,120,14|10,0:0|0:0,0:0:0:0:
436,284,30868,2,0,L|376:292,1,60,0|8,0:0|0:0,0:0:0:0:
320,316,31221,2,0,L|260:308,1,60,0|8,0:0|0:0,0:0:0:0:
224,264,31574,6,0,P|176:296|116:288,1,120,4|0,0:0|0:0,0:0:0:0:
68,180,32280,2,0,P|68:148|76:120,2,60,0|8|0,0:0|0:0|0:0,0:0:0:0:
188,160,32985,5,0,0:0:0:0:
120,60,33338,2,0,P|60:48|12:80,1,120
12,140,33868,2,0,L|32:204,1,60,8|0,0:0|0:0,0:0:0:0:
72,308,34397,5,0,0:0:0:0:
156,220,34750,2,0,P|220:208|280:232,1,120
308,272,35280,2,0,L|296:336,2,60,8|0|8,0:0|0:0|0:0,0:0:0:0:
332,216,35809,6,0,P|388:232|444:204,1,120
428,88,36515,2,0,P|396:76|356:76,1,60,0|8,0:0|0:0,0:0:0:0:
312,88,36868,1,0,0:0:0:0:
224,172,37221,2,0,B|192:112|192:112|140:96,1,120
36,40,37927,2,0,L|24:104,1,60,0|8,0:0|0:0,0:0:0:0:
12,160,38280,1,0,0:0:0:0:
92,248,38633,6,0,L|104:368,1,120
208,308,39338,2,0,P|240:300|272:304,1,60,0|8,0:0|0:0,0:0:0:0:
320,332,39691,2,0,P|352:340|384:336,1,60,0|8,0:0|0:0,0:0:0:0:
432,308,40044,1,2,0:0:0:0:
256,192,40133,12,0,42162,0:0:0:0:
124,56,42868,6,0,B|100:100|136:128|116:176,1,120,4|0,0:0|0:0,0:0:0:0:
44,268,43574,1,8,0:0:0:0:
44,268,43750,2,0,P|132:220|200:252,1,180,0|0,3:3|0:0,0:0:0:0:
292,324,44633,2,0,L|360:316,1,60,8|0,0:0|0:0,0:0:0:0:
404,344,44985,1,8,0:0:0:0:
404,344,45162,2,0,L|384:224,1,120,0|0,3:3|0:0,0:0:0:0:
344,180,45691,6,0,P|396:176|416:116,1,120,4|0,0:0|0:0,0:0:0:0:
320,48,46397,1,8,0:0:0:0:
320,48,46574,2,0,B|248:36|212:104|140:80,1,180,0|0,3:3|0:0,0:0:0:0:
40,24,47456,2,0,L|44:88,1,60,8|0,0:0|0:0,0:0:0:0:
16,136,47809,1,8,0:0:0:0:
16,136,47985,2,0,L|48:252,1,120,0|0,3:3|0:0,0:0:0:0:
36,312,48515,6,0,P|104:272|164:292,1,120,4|0,0:0|0:0,0:0:0:0:
260,304,49221,2,0,P|288:312|328:316,1,60,8|0,0:0|3:3,0:0:0:0:
376,328,49574,2,0,L|344:208,1,120
428,124,50280,2,0,L|368:112,1,60,8|0,0:0|0:0,0:0:0:0:
328,72,50633,1,8,0:0:0:0:
328,72,50809,2,0,B|248:88|248:88|212:68,1,120
160,40,51338,6,0,L|184:172,1,120,4|0,0:0|0:0,0:0:0:0:
124,264,52044,2,0,L|60:256,2,60,8|0|0,0:0|3:3|0:0,0:0:0:0:
204,352,52750,2,0,P|248:328|316:336,1,120,0|8,0:0|0:0,0:0:0:0:
364,372,53280,1,0,0:0:0:0:
364,372,53456,2,0,L|376:312,1,60,8|0,0:0|3:3,0:0:0:0:
432,288,53809,2,0,L|420:228,1,60,8|0,0:0|3:3,0:0:0:0:
440,172,54162,6,0,B|396:188|396:188|328:156,1,120,12|8,0:0|0:0,0:0:0:0:
220,104,54868,2,0,B|176:88|176:88|108:120,1,120,10|8,0:0|0:0,0:0:0:0:
68,164,55397,1,0,0:0:0:0:
68,164,55574,2,0,P|60:232|88:288,1,120,10|8,0:0|0:0,0:0:0:0:
188,332,56280,2,0,B|280:316|280:316|312:324,1,120,10|8,0:0|0:0,0:0:0:0:
364,336,56809,1,0,0:0:0:0:
424,348,56985,6,0,B|396:312|444:276|404:232,1,120,10|8,0:0|0:0,0:0:0:0:
356,200,57515,2,0,P|412:180|416:116,1,120,2|0,0:0|0:0,0:0:0:0:
392,72,58044,2,0,P|360:60|332:60,1,60,10|0,0:0|0:0,0:0:0:0:
276,76,58397,2,0,P|220:88|156:80,1,120,8|8,0:0|0:0,0:0:0:0:
116,36,58927,2,0,P|128:100|108:156,1,120
84,204,59456,1,8,0:0:0:0:
12,300,59809,6,0,P|60:280|116:312,1,120,12|8,0:0|0:0,0:0:0:0:
224,364,60515,2,0,L|356:344,1,120,10|8,0:0|0:0,0:0:0:0:
388,304,61044,1,0,0:0:0:0:
388,304,61221,2,0,B|376:272|376:272|400:188,1,120,10|8,0:0|0:0,0:0:0:0:
436,76,61927,2,0,B|380:68|380:68|340:72|340:72|308:60,1,120,10|8,0:0|0:0,0:0:0:0:
260,56,62456,1,0,0:0:0:0:
260,56,62633,6,0,P|272:104|252:172,1,120,10|8,0:0|0:0,0:0:0:0:
216,216,63162,2,0,B|172:192|140:228|84:196,1,120,2|0,0:0|0:0,0:0:0:0:
56,164,63691,2,0,P|52:128|56:100,1,60,10|0,0:0|0:0,0:0:0:0:
84,52,64044,2,0,P|140:40|184:80,1,120,10|8,0:0|0:0,0:0:0:0:
176,140,64574,2,0,L|148:256,1,120
128,316,65103,1,8,0:0:0:0:
248,300,65456,6,0,L|308:288,1,60,12|0,0:0|0:0,0:0:0:0:
364,308,65809,1,8,0:0:0:0:
420,332,65985,2,0,B|440:276|440:276|432:212,1,120,2|0,0:0|0:0,0:0:0:0:
424,156,66515,1,8,0:0:0:0:
340,68,66868,6,0,P|300:72|268:68,1,60,12|0,0:0|0:0,0:0:0:0:
220,60,67221,1,8,0:0:0:0:
160,48,67397,2,0,P|112:36|52:76,1,120,2|0,0:0|0:0,0:0:0:0:
28,124,67927,2,0,L|40:184,1,60,8|0,0:0|0:0,0:0:0:0:
88,220,68280,6,0,L|76:280,1,60,12|0,0:0|0:0,0:0:0:0:
44,332,68633,1,8,0:0:0:0:
44,332,68809,2,0,L|164:316,1,120,2|0,0:0|0:0,0:0:0:0:
224,308,69338,1,8,0:0:0:0:
336,348,69691,6,0,P|332:316|332:284,1,60,12|0,0:0|0:0,0:0:0:0:
364,236,70044,1,8,0:0:0:0:
396,184,70221,2,0,P|344:156|280:176,1,120,2|0,0:0|0:0,0:0:0:0:
244,208,70750,1,8,0:0:0:0:
188,104,71103,5,4,0:0:0:0:
256,192,71191,12,4,74015,0:0:0:0:
