osu file format v14

[General]
AudioFilename: audio.mp3
AudioLeadIn: 0
PreviewTime: 51610
Countdown: 0
SampleSet: Soft
StackLeniency: 0.7
Mode: 0
LetterboxInBreaks: 0
WidescreenStoryboard: 0

[Editor]
DistanceSpacing: 0.8
BeatDivisor: 4
GridSize: 32
TimelineZoom: 1

[Metadata]
Title:Strider Hiryu OST
TitleUnicode:Strider Hiryu OST
Artist:Capcom
ArtistUnicode:Capcom
Creator:vmj2017
Version:Easy
Source:Marvel Vs Capcom: Infiniti
Tags:Marvel Vs Capcom Infiniti, Strider Hiryu
BeatmapID:1741449
BeatmapSetID:831214

[Difficulty]
HPDrainRate:4
CircleSize:2
OverallDifficulty:1
ApproachRate:2
SliderMultiplier:1.4
SliderTickRate:1

[Events]
//Background and Video events
0,0,"Wallpaper x2.jpg",0,0
//Break Periods
2,18381,19072
2,51381,53786
2,67238,67929
2,100238,102643
//Storyboard Layer 0 (Background)
//Storyboard Layer 1 (Fail)
//Storyboard Layer 2 (Pass)
//Storyboard Layer 3 (Foreground)
//Storyboard Sound Samples

[TimingPoints]
181,428.571428571429,4,2,0,60,1,0
7038,-125,4,2,0,60,0,0
20752,-125,4,2,0,60,0,1
37895,-125,4,2,0,60,0,0
55466,-125,4,2,0,30,0,1
55681,-125,4,2,0,60,0,0
69609,-125,4,2,0,60,0,1
86752,-125,4,2,0,60,0,0
104323,-125,4,2,0,30,0,1
104538,-125,4,2,0,60,0,0

[Colours]
Combo1 : 209,1,32
Combo2 : 176,176,179
Combo3 : 33,1,182

[HitObjects]
214,138,7038,6,0,B|269:133|269:133|346:147,1,112,0|8,0:0|0:0,0:0:0:0:
408,175,7895,2,0,P|415:244|396:304,1,112,0|8,0:0|0:0,0:0:0:0:
327,329,8752,6,0,B|271:338|271:338|202:329,1,112,0|8,0:0|0:0,0:0:0:0:
156,263,9609,1,0,0:0:0:0:
197,183,10038,1,8,0:0:0:0:
195,93,10466,6,0,P|262:62|474:179,1,336,0|0,0:2|0:2,2:2:0:0:
461,264,12181,2,0,B|438:323|438:323|389:348,1,112,0|8,0:0|0:0,0:0:0:0:
304,342,13038,2,0,P|238:342|176:320,1,112,0|8,0:0|0:0,0:0:0:0:
140,257,13895,6,0,P|131:195|141:134,1,112,0|8,0:0|0:0,0:0:0:0:
204,86,14752,1,0,0:0:0:0:
258,157,15181,1,8,0:0:0:0:
344,122,15609,6,0,P|430:186|305:329,1,336,0|8,0:0|0:0,0:0:0:0:
227,324,17323,1,0,0:0:0:0:
179,248,17752,1,8,0:0:0:0:
130,323,18181,1,4,0:0:0:0:
297,72,20752,6,0,P|429:148|326:257,1,336,4|0,0:0|0:0,0:0:0:0:
320,345,22466,6,0,P|188:269|291:160,1,336,4|0,0:0|0:0,0:0:0:0:
303,73,24181,6,2,P|416:139|290:258,1,336,6|10,0:0|0:0,0:0:0:0:
222,262,25895,2,0,P|185:236|151:173,1,112,0|8,0:0|0:0,0:0:0:0:
169,90,26752,2,0,B|228:82|228:82|306:90,1,112,0|8,0:0|0:0,0:0:0:0:
355,136,27609,5,0,0:0:0:0:
356,225,28038,2,8,L|355:282,1,56
292,345,28681,2,8,L|246:310,1,56
210,229,29323,5,8,0:0:0:0:
210,139,29752,2,8,L|245:84,1,56
329,92,30395,2,2,L|375:144,1,56
372,223,31038,5,2,0:0:0:0:
372,223,31466,1,2,0:0:0:0:
372,223,31895,2,2,B|331:264|331:264|275:264,1,112
187,260,32752,5,2,0:0:0:0:
231,181,33181,1,2,0:0:0:0:
176,110,33609,1,2,0:0:0:0:
234,41,34038,1,2,0:0:0:0:
312,87,34466,6,2,L|371:190,3,112
256,192,36181,12,4,37895,0:0:0:0:
246,232,38323,5,8,0:0:0:0:
246,50,39181,1,8,0:0:0:0:
359,188,40038,5,8,0:0:0:0:
252,332,40895,1,8,0:0:0:0:
140,191,41752,5,8,0:0:0:0:
260,58,42609,1,8,0:0:0:0:
373,196,43466,5,8,0:0:0:0:
266,340,44323,1,8,0:0:0:0:
205,274,44752,5,4,0:0:0:0:
204,184,45181,2,0,L|204:111,1,56,8|0,0:0|0:0,0:0:0:0:
204,38,45823,6,0,L|270:38,2,56,0|8|0,0:0|0:0|0:0,0:0:0:0:
203,127,46681,2,0,L|137:127,2,56,0|8|0,0:0|0:0|0:0,0:0:0:0:
208,216,47538,6,0,L|285:216,2,56,0|8|0,0:0|0:0|0:0,0:0:0:0:
102,299,48609,1,8,0:0:0:0:
173,134,49466,5,8,0:0:0:0:
352,139,50323,1,8,0:0:0:0:
425,302,51181,1,8,0:0:0:0:
191,133,55466,5,2,0:0:0:0:
191,133,55895,2,0,B|246:126|246:126|313:134,1,112,0|8,0:0|0:0,0:0:0:0:
385,166,56752,2,0,B|407:204|392:226|382:246|397:282,1,112,0|8,0:0|0:0,0:0:0:0:
311,308,57609,6,0,B|269:308|269:308|243:295|243:295|200:295,1,112,0|8,0:0|0:0,0:0:0:0:
119,260,58466,1,0,0:0:0:0:
185,200,58895,1,8,0:0:0:0:
126,131,59323,6,0,P|246:58|388:164,1,336,0|8,0:0|0:0,0:0:0:0:
393,251,61038,2,0,B|353:298|353:298|285:298,1,112,0|8,0:0|0:0,0:0:0:0:
218,268,61895,2,0,P|177:264|155:191,1,112,0|8,0:0|0:0,0:0:0:0:
159,115,62752,6,0,B|208:89|208:89|277:89,1,112,0|8,0:0|0:0,0:0:0:0:
314,163,63609,1,0,0:0:0:0:
385,109,64038,1,8,0:0:0:0:
458,160,64466,6,0,P|454:258|244:277,1,336,0|8,0:0|0:0,0:0:0:0:
236,202,66181,1,0,0:0:0:0:
307,148,66609,1,8,0:0:0:0:
358,221,67038,1,4,0:0:0:0:
93,153,69609,6,0,P|206:58|321:180,1,336,4|0,0:0|0:0,0:0:0:0:
393,220,71323,6,0,P|317:311|175:197,1,336,4|0,0:0|0:0,0:0:0:0:
106,143,73038,6,2,P|158:60|343:140,1,336,4|8,0:0|0:0,0:0:0:0:
344,237,74752,2,0,P|308:289|250:308,1,112,0|8,0:0|0:0,0:0:0:0:
174,308,75609,2,0,B|129:274|129:274|129:214,1,112,0|8,0:0|0:0,0:0:0:0:
135,128,76466,5,0,0:0:0:0:
224,128,76895,2,8,L|282:129,1,56
369,135,77538,2,8,L|370:202,1,56
374,280,78181,5,8,0:0:0:0:
284,284,78609,2,8,L|223:253,1,56
238,169,79252,2,2,L|294:142,1,56
368,103,79895,5,2,0:0:0:0:
368,103,80323,1,2,0:0:0:0:
368,103,80752,2,2,B|408:150|408:150|408:211,1,112
360,276,81609,5,2,0:0:0:0:
288,330,82038,1,2,0:0:0:0:
221,270,82466,1,2,0:0:0:0:
151,326,82895,1,2,0:0:0:0:
87,263,83323,6,2,L|89:144,3,112
256,192,85038,12,4,86752,0:0:0:0:
254,190,87181,5,8,0:0:0:0:
254,10,88038,1,8,0:0:0:0:
365,150,88895,5,8,0:0:0:0:
251,288,89752,1,8,0:0:0:0:
130,155,90609,5,8,0:0:0:0:
308,164,91466,1,8,0:0:0:0:
128,161,92323,5,8,0:0:0:0:
259,282,93181,1,8,0:0:0:0:
334,234,93609,5,4,0:0:0:0:
402,175,94038,2,0,L|401:118,1,56,8|0,0:0|0:0,0:0:0:0:
333,60,94681,6,0,L|270:60,2,56,0|8|0,0:0|0:0|0:0,0:0:0:0:
401,119,95538,2,0,L|466:117,2,56,0|8|0,0:0|0:0|0:0,0:0:0:0:
336,181,96395,6,0,L|274:182,2,56,0|8|0,0:0|0:0|0:0,0:0:0:0:
391,303,97466,1,8,0:0:0:0:
347,129,98323,5,8,0:0:0:0:
167,123,99181,1,8,0:0:0:0:
120,296,100038,1,8,0:0:0:0:
232,195,104323,5,2,0:0:0:0:
232,195,104752,2,0,B|248:140|248:140|304:111,1,112,0|8,0:0|0:0,0:0:0:0:
386,114,105609,2,0,B|413:145|408:168|400:198|419:224,1,112,0|8,0:0|0:0,0:0:0:0:
455,300,106466,6,0,B|400:322|400:322|337:322,1,112,0|8,0:0|0:0,0:0:0:0:
272,272,107323,1,0,0:0:0:0:
195,317,107752,1,8,0:0:0:0:
128,257,108181,6,0,P|101:198|287:90,1,336,0|8,0:0|0:0,0:0:0:0:
366,117,109895,2,0,B|403:158|403:158|403:240,1,112,0|8,0:0|0:0,0:0:0:0:
398,304,110752,2,0,P|359:331|289:297,1,112,0|8,0:0|0:0,0:0:0:0:
251,238,111609,6,0,B|250:203|250:203|245:182|245:182|251:160|251:160|251:118,1,112,0|8,0:0|0:0,0:0:0:0:
307,58,112466,1,0,0:0:0:0:
370,121,112895,1,8,0:0:0:0:
424,191,113323,6,0,P|444:266|245:318,1,336,0|8,0:0|0:0,0:0:0:0:
223,240,115038,1,0,0:0:0:0:
226,150,115466,1,8,0:0:0:0:
311,176,115895,1,4,0:0:0:0:
