osu file format v14

[General]
AudioFilename: audio.mp3
AudioLeadIn: 0
PreviewTime: 89609
Countdown: 0
SampleSet: None
StackLeniency: 0.4
Mode: 0
LetterboxInBreaks: 0
WidescreenStoryboard: 0

[Editor]
DistanceSpacing: 0.3
BeatDivisor: 4
GridSize: 8
TimelineZoom: 1

[Metadata]
Title:Twinkle!!
TitleUnicode:Twinkle!!
Artist:Capchii
ArtistUnicode:カプチー
Creator:Log Off Now
Version:Caffeine Breaker!!
Source:
Tags:extended-stay records everywhere こだまてこ f-15b exstay-000 rieri proezreal yukiyo
BeatmapID:1676707
BeatmapSetID:798459

[Difficulty]
HPDrainRate:6
CircleSize:4
OverallDifficulty:8
ApproachRate:9
SliderMultiplier:1.4
SliderTickRate:1

[Events]
//Background and Video events
0,0,"twinkle-bg.jpg",0,0
//Break Periods
//Storyboard Layer 0 (Background)
//Storyboard Layer 1 (Fail)
//Storyboard Layer 2 (Pass)
//Storyboard Layer 3 (Foreground)
//Storyboard Sound Samples

[TimingPoints]
195,468.75,4,2,1,60,1,0
195,-83.3333333333333,4,2,1,60,0,0
22695,-71.4285714285714,4,2,1,60,0,0
30195,-62.5,4,2,1,65,0,0
56445,-71.4285714285714,4,2,1,65,0,0
58320,-62.5,4,2,1,65,0,0
60195,-100,4,2,1,60,0,0
61132,-76.9230769230769,4,2,1,60,0,0
61835,-100,4,2,1,60,0,0
63007,-76.9230769230769,4,2,1,60,0,0
63476,-100,4,2,1,60,0,0
64882,-76.9230769230769,4,2,1,60,0,0
65585,-100,4,2,1,60,0,0
66757,-76.9230769230769,4,2,1,60,0,0
67695,-100,4,2,1,60,0,0
68632,-76.9230769230769,4,2,1,60,0,0
69335,-100,4,2,1,60,0,0
70507,-76.9230769230769,4,2,1,60,0,0
70976,-100,4,2,1,60,0,0
72382,-76.9230769230769,4,2,1,60,0,0
73085,-100,4,2,1,60,0,0
74257,-76.9230769230769,4,2,1,60,0,0
75195,-62.5,4,2,1,65,0,0
78476,-71.4285714285714,4,2,1,65,0,0
78945,-62.5,4,2,1,65,0,0
82226,-71.4285714285714,4,2,1,65,0,0
89726,-71.4285714285714,4,1,2,70,0,0
90195,-47.6190476190476,4,3,1,75,0,1
90663,-58.8235294117647,4,3,1,75,0,1
91132,-41.6666666666667,4,3,1,75,0,1
91601,-35.7142857142857,4,3,1,75,0,1
91835,-43.4782608695652,4,3,1,75,0,1
92070,-47.6190476190476,4,3,1,75,0,1
92538,-37.037037037037,4,3,1,75,0,1
93007,-41.6666666666667,4,3,1,75,0,1
93476,-47.6190476190476,4,3,1,75,0,1
94413,-40,4,3,1,75,0,1
95351,-37.037037037037,4,3,1,75,0,1
95820,-47.6190476190476,4,3,1,75,0,1
96288,-52.6315789473684,4,3,1,75,0,1
97695,-47.6190476190476,4,3,1,75,0,1
98163,-43.4782608695652,4,3,1,75,0,1
98632,-35.7142857142857,4,3,1,75,0,1
99101,-40,4,3,1,75,0,1
99335,-43.4782608695652,4,3,1,75,0,1
99570,-47.6190476190476,4,3,1,75,0,1
101913,-40,4,3,1,75,0,1
102382,-45.4545454545455,4,3,1,75,0,1
103320,-47.6190476190476,4,3,1,75,0,1
103788,-35.7142857142857,4,3,1,75,0,1
104726,-71.4285714285714,4,1,2,75,0,1
105195,-47.6190476190476,4,3,1,75,0,1
105663,-58.8235294117647,4,3,1,75,0,1
106132,-41.6666666666667,4,3,1,75,0,1
106601,-35.7142857142857,4,3,1,75,0,1
106835,-43.4782608695652,4,3,1,75,0,1
107070,-47.6190476190476,4,3,1,75,0,1
107538,-37.037037037037,4,3,1,75,0,1
108007,-41.6666666666667,4,3,1,75,0,1
108476,-47.6190476190476,4,3,1,75,0,1
109413,-40,4,3,1,75,0,1
110351,-37.037037037037,4,3,1,75,0,1
110820,-47.6190476190476,4,3,1,75,0,1
111288,-33.3333333333333,4,3,1,75,0,1
112226,-47.6190476190476,4,3,1,75,0,1
113163,-43.4782608695652,4,3,1,75,0,1
113632,-35.7142857142857,4,3,1,75,0,1
114101,-40,4,3,1,75,0,1
114335,-43.4782608695652,4,3,1,75,0,1
114570,-47.6190476190476,4,3,1,75,0,1
116913,-40,4,3,1,75,0,1
117382,-45.4545454545455,4,3,1,75,0,1
118320,-47.6190476190476,4,3,1,75,0,1
120195,-76.9230769230769,4,2,1,65,0,0
133320,-66.6666666666667,4,2,1,55,0,0
135195,-100,4,2,1,45,0,0
138827,-100,4,2,1,5,0,0

[Colours]
Combo1 : 252,176,63
Combo2 : 214,243,95
Combo3 : 85,152,253
Combo4 : 169,137,254

[HitObjects]
167,209,195,6,0,L|93:201,2,41.9999987182618,4|0|0,1:0|0:0|0:0,0:0:0:0:
237,147,546,2,0,L|320:137,1,83.9999974365235
424,123,898,2,0,L|412:245,1,83.9999974365235
339,318,1249,2,0,L|327:196,1,83.9999974365235
320,137,1601,1,8,0:2:0:0:
247,307,1835,1,0,0:0:0:0:
247,307,1952,1,0,0:0:0:0:
247,307,2070,6,0,L|255:381,2,41.9999987182618,0|0|0,1:0|0:0|0:0,0:0:0:0:
185,243,2421,2,0,P|140:213|80:222,1,83.9999974365235
148,129,2773,2,0,P|151:75|113:27,1,83.9999974365235,0|0,0:0|0:0,0:0:0:0:
232,30,3124,2,0,P|276:59|336:50,1,83.9999974365235,0|0,0:0|0:0,0:0:0:0:
374,20,3476,1,8,0:2:0:0:
336,144,3710,1,0,0:0:0:0:
336,144,3827,1,0,0:0:0:0:
336,144,3945,6,0,P|328:194|347:244,1,83.9999974365235,0|0,1:0|0:0,0:0:0:0:
370,317,4296,2,0,L|287:307,1,83.9999974365235,0|0,0:0|0:0,0:0:0:0:
220,244,4648,2,0,L|137:254,1,83.9999974365235,0|0,0:0|0:0,0:0:0:0:
75,327,4999,2,0,B|46:273|46:273|59:189,1,125.999996154785,0|8,0:0|0:2,0:0:0:0:
75,74,5585,1,0,0:0:0:0:
75,74,5702,1,0,0:0:0:0:
75,74,5820,6,0,L|67:0,2,41.9999987182618,0|0|0,1:0|0:0|0:0,0:0:0:0:
153,130,6171,2,0,L|138:235,1,83.9999974365235
57,265,6523,2,0,L|72:370,1,83.9999974365235
154,383,6874,2,0,L|259:368,1,83.9999974365235
330,356,7226,1,8,0:2:0:0:
271,227,7460,1,0,0:0:0:0:
271,227,7577,1,0,0:0:0:0:
271,227,7695,6,0,L|265:281,2,41.9999987182618,0|0|0,1:0|0:0|0:0,0:0:0:0:
339,165,8046,2,0,P|321:116|332:66,1,83.9999974365235
379,14,8398,2,0,P|330:-4|280:7,1,83.9999974365235
230,60,8749,2,0,P|181:78|131:67,1,83.9999974365235
76,24,9101,1,8,0:2:0:0:
107,154,9335,1,0,0:0:0:0:
107,154,9452,1,0,0:0:0:0:
107,154,9570,6,0,L|101:209,2,41.9999987182618,0|0|0,1:0|0:0|0:0,0:0:0:0:
12,226,9921,2,0,L|22:322,1,83.9999974365235
111,359,10273,2,0,L|121:263,1,83.9999974365235,0|0,0:0|0:0,0:0:0:0:
205,207,10624,2,0,L|215:303,1,83.9999974365235
223,378,10976,1,8,0:2:0:0:
342,306,11210,1,0,0:0:0:0:
342,306,11327,1,0,0:0:0:0:
342,306,11445,6,0,P|405:327|427:320,1,83.9999974365235,0|0,1:0|0:0,0:0:0:0:
485,258,11796,2,0,P|469:210|475:161,1,83.9999974365235,0|0,0:0|0:0,0:0:0:0:
505,84,12148,2,0,P|505:42|490:3,1,83.9999974365235,0|0,0:0|0:0,0:0:0:0:
413,68,12499,2,0,B|359:97|359:97|295:87,1,125.999996154785,0|8,0:0|0:2,0:0:0:0:
148,68,13085,1,0,0:0:0:0:
148,68,13202,1,0,0:0:0:0:
148,68,13320,6,0,L|74:60,2,41.9999987182618,0|0|0,1:0|0:0|0:0,0:0:0:0:
205,152,13671,2,0,L|97:163,1,83.9999974365235,0|0,0:0|0:0,0:0:0:0:
68,245,14023,2,0,L|151:254,1,83.9999974365235,0|0,0:0|0:0,0:0:0:0:
213,341,14374,2,0,L|105:352,1,83.9999974365235,0|0,0:0|0:0,0:0:0:0:
39,363,14726,1,8,0:2:0:0:
171,235,14960,1,0,0:0:0:0:
200,238,15077,1,0,0:0:0:0:
229,241,15195,6,0,P|270:249|336:256,1,83.9999974365235,6|0,1:2|0:0,0:0:0:0:
440,264,15663,1,8,0:2:0:0:
362,147,15898,2,0,P|320:152|279:160,1,83.9999974365235,2|0,0:0|0:0,0:0:0:0:
154,178,16366,1,0,0:0:0:0:
215,14,16601,2,0,B|226:57|226:57|217:107,1,83.9999974365235,10|0,0:2|0:2,0:2:0:0:
154,178,16952,1,0,0:0:0:0:
154,178,17070,6,0,B|146:216|146:216|157:259,1,83.9999974365235,2|0,1:2|0:0,0:0:0:0:
199,375,17538,1,8,0:2:0:0:
332,285,17773,2,0,B|294:277|294:277|251:288,1,83.9999974365235,2|0,0:0|0:0,0:0:0:0:
109,329,18241,1,0,0:0:0:0:
39,226,18476,2,0,P|80:234|146:241,1,83.9999974365235,10|0,0:2|0:0,0:0:0:0:
202,193,18827,1,0,0:0:0:0:
202,193,18945,6,0,P|243:185|308:191,1,83.9999974365235,2|0,1:2|0:0,0:0:0:0:
395,202,19413,1,8,0:2:0:0:
246,81,19648,2,0,P|289:92|344:129,1,83.9999974365235,2|0,0:0|0:0,0:0:0:0:
395,202,20116,1,0,0:0:0:0:
444,20,20351,2,0,B|418:59|418:59|412:108,1,83.9999974365235,10|0,0:2|0:0,0:0:0:0:
481,159,20702,1,0,0:0:0:0:
481,159,20820,6,0,B|506:198|506:198|512:247,1,83.9999974365235,2|0,1:2|0:0,0:0:0:0:
445,347,21288,1,8,0:2:0:0:
345,191,21523,2,0,B|389:204|389:204|425:238,1,83.9999974365235,2|0,0:0|0:0,0:0:0:0:
338,298,21991,1,0,0:0:0:0:
244,221,22226,2,0,L|191:225,1,41.9999987182618,10|0,0:2|0:0,0:0:0:0:
126,287,22460,1,2,0:0:0:0:
97,284,22577,1,2,0:0:0:0:
70,280,22695,6,0,P|52:232|53:182,1,97.9999970092774,2|0,1:2|0:0,0:0:0:0:
117,85,23163,1,8,0:2:0:0:
217,149,23398,2,0,P|259:173|307:180,1,97.9999970092774,2|0,0:0|0:0,0:0:0:0:
421,108,23866,1,0,0:0:0:0:
308,0,24101,2,0,B|282:37|282:37|288:103,1,97.9999970092774,10|0,0:2|0:0,0:0:0:0:
348,178,24452,1,0,0:0:0:0:
348,178,24570,6,0,B|374:215|374:215|368:281,1,97.9999970092774,2|0,1:2|0:0,0:0:0:0:
288,371,25038,1,8,0:2:0:0:
188,277,25273,2,0,B|135:272|135:272|98:298,1,97.9999970092774,2|0,0:0|0:0,0:0:0:0:
1,372,25741,1,0,0:0:0:0:
24,247,25976,2,0,P|35:179|36:130,1,97.9999970092774,10|0,0:2|0:0,0:0:0:0:
22,53,26327,1,0,0:0:0:0:
22,53,26445,6,0,L|142:72,1,97.9999970092774,2|0,1:2|0:0,0:0:0:0:
245,88,26913,1,8,0:2:0:0:
93,192,27148,2,0,L|189:176,1,97.9999970092774,2|0,0:0|0:0,0:0:0:0:
316,157,27616,1,0,0:0:0:0:
403,277,27851,2,0,L|307:261,1,97.9999970092774,10|0,0:2|0:0,0:0:0:0:
226,319,28202,1,0,0:0:0:0:
226,319,28320,6,0,P|166:309|120:319,1,97.9999970092774,2|0,1:2|0:0,0:0:0:0:
26,374,28788,1,8,0:2:0:0:
59,252,29023,2,0,B|68:203|68:203|62:134,1,97.9999970092774,2|0,0:0|1:0,0:0:0:0:
61,125,29374,1,8,0:2:0:0:
58,95,29491,1,2,1:0:0:0:
230,185,29726,1,8,0:2:0:0:
169,18,29960,1,0,1:0:0:0:
166,47,30077,1,8,0:2:0:0:
163,76,30195,6,0,L|150:189,1,112,4|0,1:0|0:0,0:0:0:0:
136,304,30546,1,0,0:0:0:0:
136,304,30663,2,0,P|190:281|206:282,1,56,8|0,0:2|0:0,0:0:0:0:
256,332,30898,2,0,B|298:345|298:345|372:327,1,112,0|0,0:0|1:0,0:0:0:0:
364,328,31249,1,0,0:0:0:0:
364,328,31366,1,0,0:0:0:0:
462,197,31601,2,0,L|334:229,1,112,8|0,0:2|0:0,0:0:0:0:
326,232,31952,1,0,0:0:0:0:
299,240,32070,6,0,P|278:174|298:118,1,112,0|0,1:0|0:0,0:0:0:0:
336,47,32421,1,0,0:0:0:0:
336,47,32538,2,0,L|255:40,1,56,8|0,0:2|0:0,0:0:0:0:
199,99,32773,2,0,L|79:109,1,112,0|0,0:0|1:0,0:0:0:0:
87,108,33124,1,0,0:0:0:0:
87,108,33241,1,0,0:0:0:0:
187,230,33476,2,0,L|298:239,1,112,8|0,0:2|0:0,0:0:0:0:
326,241,33827,1,0,0:0:0:0:
353,245,33945,6,0,P|374:311|354:367,1,112,0|0,1:0|0:0,0:0:0:0:
277,372,34296,1,0,0:0:0:0:
277,372,34413,2,0,B|223:356|223:356|167:367,1,112,8|0,0:2|0:0,0:0:0:0:
184,225,34882,2,0,L|190:159,2,56,0|0|0,1:0|0:0|0:0,0:0:0:0:
31,180,35351,2,0,L|40:291,1,112,8|0,3:2|0:0,0:0:0:0:
42,319,35702,1,0,0:0:0:0:
45,346,35820,6,0,P|102:321|155:334,1,112,0|0,1:0|0:0,0:0:0:0:
232,379,36171,1,0,0:0:0:0:
232,379,36288,2,0,L|224:246,1,112,8|0,0:2|0:0,0:0:0:0:
333,156,36757,1,0,1:0:0:0:
330,185,36874,1,0,0:0:0:0:
327,214,36991,1,0,0:0:0:0:
222,126,37226,2,0,B|181:119|181:119|150:126|150:126|107:117,1,112,8|0,0:2|0:0,0:0:0:0:
84,112,37577,1,0,0:0:0:0:
55,108,37695,6,0,L|64:229,1,112,0|0,1:0|0:0,0:0:0:0:
142,259,38046,1,0,0:0:0:0:
142,259,38163,2,0,P|183:238|223:241,1,56,8|0,0:2|0:0,0:0:0:0:
279,265,38398,2,0,L|266:379,1,112,0|0,0:0|1:0,0:0:0:0:
266,376,38749,1,0,0:0:0:0:
266,376,38866,1,0,0:0:0:0:
372,296,39101,2,0,P|426:269|484:276,1,112,8|0,0:2|0:0,0:0:0:0:
473,245,39452,1,0,0:0:0:0:
470,216,39570,6,0,B|465:158|465:158|477:93,1,112,0|0,1:0|0:0,0:0:0:0:
401,35,39921,1,0,0:0:0:0:
401,35,40038,2,0,P|365:61|329:64,1,56,8|0,0:2|0:0,0:0:0:0:
258,25,40273,2,0,P|201:11|145:27,1,112,0|0,0:0|1:0,0:0:0:0:
150,24,40624,1,0,0:0:0:0:
150,24,40741,1,0,0:0:0:0:
169,149,40976,2,0,L|180:264,1,112,8|0,0:2|0:0,0:0:0:0:
184,288,41327,1,0,0:0:0:0:
188,315,41445,6,0,P|254:294|310:314,1,112,0|0,1:0|0:0,0:0:0:0:
383,351,41796,1,0,0:0:0:0:
383,351,41913,2,0,L|375:216,1,112,8|0,0:2|0:0,0:0:0:0:
483,147,42382,2,0,L|477:236,2,56,0|0|0,1:0|0:0|0:0,0:0:0:0:
384,76,42851,2,0,P|320:94|269:80,1,112,8|0,0:2|0:0,0:0:0:0:
251,71,43202,1,0,0:0:0:0:
225,58,43320,6,0,L|235:179,1,112,0|0,1:0|0:0,0:0:0:0:
187,249,43671,1,0,0:0:0:0:
187,249,43788,2,0,P|152:232|112:234,1,56,8|0,0:2|0:0,0:0:0:0:
56,260,44023,2,0,P|46:197|57:125,1,112,0|0,0:0|1:0,0:0:0:0:
50,149,44374,1,0,0:0:0:0:
50,149,44491,1,0,0:0:0:0:
234,169,44726,2,0,B|275:176|275:176|306:169|306:169|349:178,1,112,8|0,0:2|0:0,0:0:0:0:
372,183,45077,1,0,0:0:0:0:
399,189,45195,6,0,L|381:52,1,112,8|0,0:1|0:0,0:0:0:0:
489,9,45663,2,0,L|471:146,1,112,8|0,0:1|0:0,0:0:0:0:
383,204,46132,2,0,L|363:56,1,112,8|0,0:1|0:0,0:0:0:0:
512,0,46600,2,0,L|492:147,1,112,8|0,0:1|0:0,0:0:0:0:
464,199,46952,1,0,0:0:0:0:
464,199,47070,6,0,L|477:313,1,112,8|0,0:1|0:0,0:0:0:0:
373,372,47538,2,0,P|317:343|252:344,1,112,8|0,0:1|0:0,0:0:0:0:
127,259,48007,2,0,L|140:373,1,112,8|0,0:1|0:0,0:0:0:0:
221,199,48476,1,8,0:1:0:0:
41,141,48710,1,0,0:0:0:0:
41,141,48827,1,0,0:0:0:0:
41,141,48945,6,0,L|28:255,1,112,8|0,0:1|0:0,0:0:0:0:
150,98,49413,2,0,L|163:212,1,112,8|0,0:1|0:0,0:0:0:0:
23,153,49882,2,0,L|8:281,1,112,8|0,0:1|0:0,0:0:0:0:
172,85,50350,2,0,L|186:213,1,112,8|0,0:1|0:0,0:0:0:0:
151,303,50702,1,0,0:0:0:0:
151,303,50820,6,0,P|219:275|274:289,1,112,8|0,0:1|0:0,0:0:0:0:
382,362,51288,2,0,L|395:248,1,112,8|0,0:1|0:0,0:0:0:0:
418,82,51757,2,0,P|350:110|295:96,1,112,8|0,0:1|0:0,0:0:0:0:
135,61,52226,1,8,0:1:0:0:
279,243,52460,1,0,0:0:0:0:
279,243,52577,1,0,0:0:0:0:
279,243,52695,5,8,0:1:0:0:
248,31,52929,1,8,0:1:0:0:
173,182,53163,1,8,3:1:0:0:
418,121,53398,1,8,3:1:0:0:
103,116,53632,5,8,3:1:0:0:
348,177,53867,1,8,3:1:0:0:
69,200,54101,1,8,3:1:0:0:
330,88,54336,1,8,3:1:0:0:
330,88,54452,1,8,0:1:0:0:
330,88,54570,5,8,0:1:0:0:
231,325,54804,1,8,0:1:0:0:
180,112,55038,1,8,0:1:0:0:
70,231,55272,1,8,0:1:0:0:
167,14,55507,5,8,0:1:0:0:
266,173,55741,1,8,0:1:0:0:
73,118,55976,1,8,0:1:0:0:
123,309,56210,1,8,0:1:0:0:
289,156,56445,6,0,L|300:107,3,48.9999985046387,8|8|8|8,0:1|0:1|0:1|0:1,0:0:0:0:
364,230,56913,2,0,L|375:279,3,48.9999985046387,8|8|8|8,0:1|0:1|0:1|0:1,0:0:0:0:
268,242,57382,5,8,0:1:0:0:
237,236,57499,1,8,0:1:0:0:
205,237,57616,1,8,0:1:0:0:
175,249,57733,1,8,0:1:0:0:
148,266,57850,1,8,0:1:0:0:
119,279,57967,1,8,0:1:0:0:
87,282,58085,1,8,0:1:0:0:
56,275,58202,1,8,0:1:0:0:
32,258,58320,6,0,P|51:197|33:122,1,112,2|0,1:0|0:0,0:0:0:0:
106,88,58671,2,0,P|149:134|223:156,1,112,2|0,0:0|0:0,0:0:0:0:
219,237,59023,2,0,P|156:251|100:304,1,112,2|0,0:0|0:0,0:0:0:0:
131,357,59374,1,8,0:1:0:0:
137,383,59491,1,0,1:0:0:0:
274,304,59726,1,8,0:1:0:0:
139,188,59960,1,0,1:0:0:0:
133,162,60077,1,8,0:1:0:0:
127,133,60195,6,0,B|175:101|175:101|327:125,1,210,4|0,1:0|0:0,0:0:0:0:
183,277,61132,2,0,L|207:157,1,90.9999958343508,8|0,3:1|0:0,0:0:0:0:
232,30,61601,1,0,1:0:0:0:
279,198,61835,6,0,B|350:210|350:210|418:172|418:172|498:183,1,210,0|0,1:0|0:0,0:0:0:0:
331,123,62773,1,0,1:0:0:0:
421,345,63007,2,0,L|445:225,1,90.9999958343508,8|0,3:1|0:1,0:1:0:0:
489,104,63476,6,0,B|365:84|365:84,1,105,0|0,1:0|0:0,0:0:0:0:
332,19,63945,6,0,B|299:67|299:67|323:218,1,210,0|0,1:0|0:0,0:0:0:0:
141,182,64882,2,0,L|261:206,1,90.9999958343508,8|0,3:1|0:0,0:0:0:0:
415,231,65351,1,0,1:0:0:0:
371,91,65585,6,0,B|300:79|300:79|232:117|232:117|149:102,1,210,0|0,1:0|0:0,0:0:0:0:
22,77,66523,1,0,1:0:0:0:
106,242,66757,2,0,L|82:122,1,90.9999958343508,8|0,3:1|0:0,0:0:0:0:
210,59,67226,2,0,L|183:213,1,136.499993751526,0|0,1:0|0:0,0:0:0:0:
106,242,67695,6,0,B|154:210|154:210|306:234,1,210,0|0,1:0|0:0,0:0:0:0:
196,384,68632,2,0,L|178:294,1,90.9999958343508,8|0,3:1|0:0,0:0:0:0:
150,129,69101,1,0,1:0:0:0:
308,154,69335,6,0,B|368:163|368:163|436:125|436:125|507:137,1,210,0|0,1:0|0:0,0:0:0:0:
347,80,70273,1,0,1:0:0:0:
379,242,70507,2,0,L|397:332,1,90.9999958343508,8|0,3:1|0:0,0:0:0:0:
506,136,70976,6,0,B|486:260|486:260,1,105,0|0,1:0|0:0,0:0:0:0:
420,171,71445,6,0,B|372:138|372:138|221:162,1,210,0|0,1:0|0:0,0:0:0:0:
333,316,72382,2,0,L|357:196,1,90.9999958343508,8|0,3:1|0:0,0:0:0:0:
384,56,72851,1,0,1:0:0:0:
232,96,73085,6,0,B|161:109|161:109|110:167|110:167|50:180,1,210,0|0,1:0|0:0,0:0:0:0:
215,186,74023,1,0,1:0:0:0:
48,6,74257,2,0,L|72:126,1,90.9999958343508,8|0,3:1|0:0,0:0:0:0:
164,174,74726,2,0,L|136:320,1,136.499993751526,0|0,1:0|0:0,0:0:0:0:
132,340,75195,5,14,0:1:0:0:
317,259,75429,1,2,0:0:0:0:
130,134,75663,1,8,0:1:0:0:
130,134,75780,2,0,L|138:192,1,56,2|0,0:0|0:0,0:0:0:0:
219,330,76015,1,2,0:0:0:0:
219,330,76132,2,0,L|240:217,1,112,8|0,3:1|0:0,0:0:0:0:
275,57,76601,1,10,1:1:0:0:
333,241,76835,1,2,1:0:0:0:
423,122,77070,6,0,L|286:145,1,112,10|0,0:1|0:0,0:0:0:0:
224,236,77421,1,2,0:0:0:0:
224,236,77538,2,0,L|113:217,1,112,10|0,0:1|1:0,0:0:0:0:
193,24,78007,2,0,L|212:135,1,112,10|0,3:1|0:0,0:0:0:0:
251,342,78476,6,0,P|274:311|382:317,1,146.999995513916,10|0,0:1|0:0,0:0:0:0:
418,238,78945,6,0,B|406:186|406:186|420:98,1,112,10|0,0:1|0:0,0:0:0:0:
311,65,79296,1,2,0:0:0:0:
311,65,79413,2,0,L|319:123,1,56,10|0,0:1|0:0,0:0:0:0:
218,229,79648,2,0,L|225:173,1,56,2|0,0:0|0:0,0:0:0:0:
114,44,79882,2,0,L|129:187,1,112,10|0,0:1|0:0,0:0:0:0:
152,354,80351,1,10,1:1:0:0:
29,219,80585,1,0,1:0:0:0:
203,252,80820,6,0,L|345:279,1,112,10|0,0:1|0:0,0:0:0:0:
404,151,81171,1,2,0:0:0:0:
404,151,81288,2,0,L|293:170,1,112,10|0,0:1|1:0,0:0:0:0:
435,347,81757,2,0,L|416:236,1,112,10|0,3:1|0:0,0:0:0:0:
384,50,82226,6,0,P|314:64|260:17,1,146.999995513916,10|0,0:1|0:0,0:0:0:0:
242,35,82695,5,8,0:1:0:0:
280,257,82929,1,8,0:1:0:0:
143,126,83163,1,8,3:1:0:0:
365,88,83398,1,8,3:1:0:0:
161,11,83632,5,8,3:1:0:0:
123,233,83866,1,8,3:1:0:0:
38,103,84101,1,8,1:1:0:0:
260,141,84335,1,8,1:1:0:0:
150,361,84570,5,8,3:1:0:0:
112,139,84804,1,8,3:1:0:0:
243,259,85038,1,8,3:1:0:0:
276,33,85273,1,8,1:1:0:0:
135,97,85507,5,8,3:1:0:0:
371,57,85741,1,8,3:1:0:0:
184,26,85976,1,8,1:1:0:0:
429,129,86210,1,8,3:1:0:0:
157,200,86445,6,8,L|107:209,3,48.9999985046387,8|8|8|8,0:1|0:1|0:1|0:1,0:1:0:0:
188,280,86913,1,8,0:1:0:0:
219,288,87030,1,8,0:1:0:0:
251,297,87148,1,8,0:1:0:0:
283,305,87265,1,8,0:1:0:0:
314,312,87382,6,8,L|365:325,1,48.9999985046387,8|8,0:1|0:1,0:1:0:0:
468,235,87616,2,8,L|417:247,1,48.9999985046387,8|8,0:1|0:1,0:1:0:0:
269,150,87851,6,8,L|319:162,1,48.9999985046387,8|8,0:1|0:1,0:1:0:0:
501,62,88085,2,8,L|450:74,1,48.9999985046387,8|8,0:1|0:1,0:1:0:0:
332,3,88320,5,0,1:0:0:0:
332,3,88437,1,8,0:2:0:0:
332,3,88554,2,0,L|337:51,1,48.9999985046387,0|0,0:0|1:0,0:0:0:0:
409,143,88788,2,0,L|397:241,1,97.9999970092774,8|0,0:2|1:0,0:0:0:0:
295,346,89140,6,0,L|290:298,1,48.9999985046387,8|0,0:2|1:0,0:0:0:0:
185,222,89374,1,8,0:2:0:0:
185,222,89491,2,0,L|180:270,1,48.9999985046387,8|0,0:2|1:0,0:0:0:0:
260,44,89726,6,0,L|276:197,1,146.999995513916,8|0,2:1|2:0,2:0:0:0:
125,77,90195,6,0,P|48:58|111:131,1,220.499993270874,4|0,1:0|0:0,0:0:0:0:
253,195,90663,6,0,B|207:205|167:165|167:165|147:217|89:227,1,178.500003404617,8|0,1:3|0:0,0:0:0:0:
283,55,91132,6,0,B|233:69|235:125,1,83.9999974365235,4|0,1:3|0:0,0:0:0:0:
275,280,91366,1,2,0:0:0:0:
275,280,91484,1,2,0:0:0:0:
109,221,91601,6,0,B|75:213|75:213|47:221|47:221|11:212,1,97.9999970092774,2|0,1:0|0:0,0:0:0:0:
180,331,91835,6,0,L|191:214,1,80.5000015354157,2|0,0:0|0:0,0:0:0:0:
301,73,92070,6,0,B|259:132|259:132|275:283,1,220.499993270874,0|0,1:0|0:0,0:0:0:0:
390,124,92538,6,0,B|251:225|251:74|119:147,1,283.500001081467,8|0,1:3|0:0,0:0:0:0:
168,314,93007,6,0,P|181:274|186:233,1,83.9999974365235,4|0,1:3|0:0,0:0:0:0:
124,144,93241,1,2,0:0:0:0:
33,181,93359,1,2,0:0:0:0:
145,140,93476,6,0,B|225:154|225:154|282:220|282:220|350:234,1,220.499993270874,0|0,1:0|3:0,3:0:0:0:
346,218,93945,2,0,B|294:207|294:207|237:141|237:141|157:127,1,220.499993270874,0|0,1:0|3:0,3:0:0:0:
372,52,94413,6,0,B|362:98|362:98|326:131,1,87.5,2|0,1:2|3:0,3:0:0:0:
289,51,94648,1,2,0:0:0:0:
346,218,94765,2,0,B|350:262|350:262|332:310,1,87.5,2|0,0:2|1:0,0:0:0:0:
263,241,94999,1,2,0:2:0:0:
432,292,95116,5,2,0:0:0:0:
432,292,95234,1,2,0:0:0:0:
319,338,95351,6,0,B|267:308|221:334|221:334|182:323|182:323|122:342,1,189.000000720978,8|0,1:3|0:0,0:0:0:0:
206,183,95820,6,0,P|219:100|76:110,1,220.499993270874,0|0,1:0|0:0,0:0:0:0:
131,196,96288,6,0,P|131:163|147:134,1,66.4999982242585,2|0,1:2|0:0,0:0:0:0:
186,265,96523,2,0,P|185:297|170:327,1,66.4999982242585,2|0,0:2|0:0,0:0:0:0:
101,277,96757,5,0,0:0:0:0:
87,263,96875,1,0,0:0:0:0:
72,277,96992,1,0,0:0:0:0:
87,292,97109,1,0,0:0:0:0:
205,237,97226,5,2,1:2:0:0:
243,230,97343,1,2,0:2:0:0:
281,225,97460,1,2,0:2:0:0:
315,221,97577,1,2,0:2:0:0:
399,285,97695,6,0,P|354:350|444:316,1,220.499993270874,0|0,1:0|3:0,3:0:0:0:
426,202,98163,6,0,B|412:120|412:120|446:39,1,161.000003070831,8|0,1:3|0:0,0:0:0:0:
503,131,98515,1,0,0:0:0:0:
338,68,98632,6,0,B|295:71|295:71|275:85|275:85|238:89,1,97.9999970092774,4|0,1:3|0:0,0:0:0:0:
95,110,98866,1,2,0:0:0:0:
95,110,98984,1,2,0:0:0:0:
159,244,99101,6,0,P|179:204|162:140,1,87.5,0|0,1:0|0:0,0:0:0:0:
19,182,99335,6,0,L|112:193,1,80.5000015354157,2|0,0:0|0:0,0:0:0:0:
265,308,99570,6,0,B|206:266|206:266|55:282,1,220.499993270874,0|0,1:0|3:0,3:0:0:0:
155,351,100038,5,0,1:0:0:0:
168,236,100155,1,2,0:0:0:0:
171,199,100273,1,2,0:0:0:0:
175,162,100390,1,2,0:0:0:0:
277,204,100507,5,0,1:0:0:0:
264,93,100624,1,2,0:0:0:0:
261,56,100741,1,2,0:0:0:0:
257,19,100859,1,2,0:0:0:0:
412,102,100976,6,0,B|406:183|406:183|346:246|346:246|339:315,1,220.499993270874,0|0,1:0|3:0,3:0:0:0:
355,310,101445,2,0,B|360:257|360:257|420:193|420:193|425:112,1,220.499993270874,0|0,1:0|3:0,3:0:0:0:
297,45,101913,6,0,P|333:127|183:135,1,262.5,8|0,1:3|0:0,0:0:0:0:
44,108,102382,6,0,B|71:138|157:165|140:57|221:84|266:117,1,231.000007049561,4|0,1:3|0:0,0:0:0:0:
167,21,102851,6,0,P|129:34|96:54,1,77.0000023498536,2|0,1:0|0:0,0:0:0:0:
207,243,103085,2,0,L|200:145,1,77.0000023498536,2|0,0:0|0:0,0:0:0:0:
10,226,103320,6,0,P|108:220|125:321,1,220.499993270874,0|0,1:0|0:0,0:0:0:0:
55,375,103788,6,0,B|44:324|44:324|60:281,1,97.9999970092774,2|0,1:2|0:0,0:0:0:0:
300,248,104023,2,0,B|257:231|257:231|206:242,1,97.9999970092774,2|0,3:0|3:0,3:0:0:0:
126,78,104257,2,0,B|137:129|137:129|121:172,1,97.9999970092774,2|0,1:2|0:0,0:0:0:0:
142,348,104491,1,2,0:0:0:0:
295,152,104726,6,0,L|310:5,1,146.999995513916,8|0,2:1|2:0,2:0:0:0:
451,135,105195,6,0,P|504:65|417:71,1,220.499993270874,4|0,1:0|0:0,0:0:0:0:
290,187,105663,6,0,B|332:202|375:159|375:159|389:208|453:217,1,178.500003404617,8|0,1:3|0:0,0:0:0:0:
260,51,106132,6,0,B|306:69|308:121,1,83.9999974365235,4|0,1:3|0:0,0:0:0:0:
265,277,106366,1,2,0:0:0:0:
265,277,106484,1,2,0:0:0:0:
136,130,106601,6,0,B|168:121|168:121|196:129|196:129|230:121,1,97.9999970092774,0|0,1:0|0:0,0:0:0:0:
69,18,106835,6,0,L|58:135,1,80.5000015354157,2|0,0:0|0:0,0:0:0:0:
109,336,107070,6,0,B|151:277|151:277|135:129,1,220.499993270874,0|0,1:0|0:0,0:0:0:0:
36,273,107538,6,0,B|171:201|171:338|312:263,1,283.500001081467,8|0,1:3|0:0,0:0:0:0:
253,110,108007,6,0,P|239:150|235:192,1,83.9999974365235,4|0,1:3|0:0,0:0:0:0:
289,357,108241,1,2,0:0:0:0:
306,266,108359,1,2,0:0:0:0:
334,121,108476,6,0,B|340:174|340:174|400:237|400:237|406:318,1,220.499993270874,0|0,1:0|3:0,3:0:0:0:
418,306,108945,2,0,B|414:227|414:227|354:163|354:163|349:110,1,220.499993270874,0|0,1:0|3:0,3:0:0:0:
512,66,109413,6,0,B|476:85|476:85|429:79,1,87.5,2|0,1:2|3:0,3:0:0:0:
266,62,109648,1,2,0:0:0:0:
336,186,109765,2,0,B|339:227|339:227|321:276,1,87.5,2|0,0:2|1:0,0:0:0:0:
236,373,109999,1,2,0:2:0:0:
385,326,110116,5,2,0:0:0:0:
385,326,110234,1,2,0:0:0:0:
254,224,110351,6,0,B|210:207|210:207|171:218|171:218|122:190|73:220,1,189.000000720978,8|0,1:3|0:0,0:0:0:0:
137,19,110820,6,0,P|236:33|235:134,1,220.499993270874,0|0,1:0|0:0,0:0:0:0:
208,304,111288,6,0,B|197:267|197:267|206:235|206:235|197:197,1,105.000004005432,2|0,1:2|3:0,3:0:0:0:
76,94,111523,2,0,B|109:86|109:86|141:95|141:95|177:84,1,105.000004005432,2|0,3:0|3:0,3:0:0:0:
335,125,111757,2,0,B|299:136|299:136|267:127|267:127|229:136,1,105.000004005432,2|0,1:2|3:0,3:0:0:0:
122,180,111991,1,2,0:0:0:0:
122,180,112109,1,2,0:0:0:0:
287,270,112226,6,0,L|511:304,1,220.499993270874,2|0,1:2|0:0,0:0:0:0:
339,150,112695,6,0,P|329:71|393:143,1,220.499993270874,0|0,1:0|3:0,3:0:0:0:
254,194,113163,6,0,B|177:180|177:180|100:212,1,161.000003070831,8|0,1:3|3:0,3:0:0:0:
148,98,113515,1,0,3:0:0:0:
185,274,113632,6,0,B|188:317|188:317|202:337|202:337|206:374,1,97.9999970092774,4|0,1:3|3:0,3:0:0:0:
106,321,113866,1,2,0:0:0:0:
106,321,113984,1,2,0:0:0:0:
272,278,114101,6,0,P|316:285|370:315,1,87.5,0|0,1:0|3:0,3:0:0:0:
439,249,114335,6,0,L|448:169,1,80.5000015354157,2|0,3:0|3:0,3:0:0:0:
369,4,114570,6,0,B|327:63|327:63|343:211,1,220.499993270874,0|0,1:0|0:0,0:0:0:0:
423,88,115038,5,0,1:0:0:0:
308,101,115155,1,2,3:0:0:0:
271,104,115273,1,2,3:0:0:0:
234,108,115390,1,2,3:0:0:0:
153,190,115507,5,0,1:0:0:0:
268,203,115624,1,2,3:0:0:0:
305,206,115741,1,2,3:0:0:0:
342,210,115859,1,2,3:0:0:0:
241,313,115976,6,0,B|160:319|160:319|97:379|97:379|28:386,1,220.499993270874,0|0,1:0|3:0,3:0:0:0:
33,370,116445,2,0,B|86:365|86:365|150:305|150:305|231:300,1,220.499993270874,0|0,1:0|3:0,3:0:0:0:
128,203,116913,6,0,P|92:121|242:113,1,262.5,8|0,1:3|0:0,0:0:0:0:
381,140,117382,6,0,B|354:110|268:83|285:191|204:164|159:131,1,231.000007049561,4|0,1:3|0:0,0:0:0:0:
302,265,117851,2,0,P|324:226|329:194,1,77.0000023498536,2|0,1:0|0:0,0:0:0:0:
224,283,118085,6,0,P|245:321|274:340,1,77.0000023498536,2|0,3:0|3:0,3:0:0:0:
402,213,118320,6,0,P|355:123|261:159,1,220.499993270874,0|0,1:0|0:0,0:0:0:0:
196,293,118788,6,0,P|163:293|122:276,1,73.4999977569581,2|0,1:2|0:0,0:0:0:0:
268,239,119023,2,0,P|300:240|341:263,1,73.4999977569581,2|0,0:2|0:0,0:0:0:0:
419,325,119257,5,2,1:2:0:0:
421,306,119374,1,2,0:2:0:0:
424,285,119491,1,2,0:2:0:0:
423,264,119609,1,2,0:2:0:0:
391,195,119726,5,2,1:2:0:0:
384,156,119843,1,2,0:2:0:0:
379,119,119960,1,2,0:2:0:0:
375,85,120077,1,2,0:2:0:0:
371,51,120195,6,0,L|366:-14,2,45.4999979171754,6|0|0,1:0|0:0|0:0,0:0:0:0:
275,103,120546,2,0,L|270:168,2,45.4999979171754,2|8|0,0:0|0:0|0:0,0:0:0:0:
169,71,120898,2,0,L|166:26,1,45.4999979171754,2|0,0:0|0:0,0:0:0:0:
64,92,121132,5,0,1:0:0:0:
62,119,121249,1,0,0:0:0:0:
60,146,121366,1,0,0:0:0:0:
58,173,121483,1,0,0:0:0:0:
56,200,121601,2,0,P|110:182|161:195,1,90.9999958343508,10|0,0:0|0:0,0:0:0:0:
206,269,121952,1,0,0:0:0:0:
206,269,122070,6,0,L|201:334,2,45.4999979171754,2|0|0,1:0|0:0|0:0,0:0:0:0:
279,188,122421,2,0,L|274:123,2,45.4999979171754,2|8|0,0:0|0:0|0:0,0:0:0:0:
362,250,122773,2,0,L|359:295,1,45.4999979171754,2|0,0:0|0:0,0:0:0:0:
383,150,123007,5,0,1:0:0:0:
356,148,123124,1,0,0:0:0:0:
329,146,123241,1,0,0:0:0:0:
302,144,123359,1,0,0:0:0:0:
275,142,123476,2,0,P|257:196|270:247,1,90.9999958343508,10|0,0:0|0:0,0:0:0:0:
296,338,123827,1,0,0:0:0:0:
296,338,123945,6,0,L|238:327,2,45.4999979171754,2|0|0,1:0|0:0|0:0,0:0:0:0:
158,372,124296,2,0,L|113:380,2,45.4999979171754,2|8|0,0:0|0:0|0:0,0:0:0:0:
52,307,124648,2,0,P|40:251|45:191,1,90.9999958343508,2|0,0:0|1:0,0:0:0:0:
46,190,124999,1,0,0:0:0:0:
53,164,125116,1,0,0:0:0:0:
182,301,125351,1,10,0:0:0:0:
294,197,125585,1,0,0:0:0:0:
294,197,125702,1,0,0:0:0:0:
294,197,125820,6,0,L|287:122,2,45.4999979171754,2|0|0,1:0|0:0|0:0,0:0:0:0:
186,255,126171,2,0,L|179:330,2,45.4999979171754,2|8|0,0:0|0:0|0:0,0:0:0:0:
295,354,126523,2,0,L|288:279,1,45.4999979171754,2|0,0:0|0:0,0:0:0:0:
399,257,126757,5,0,1:0:0:0:
401,230,126874,1,0,0:0:0:0:
403,203,126991,1,0,0:0:0:0:
405,176,127108,1,0,0:0:0:0:
407,149,127226,2,0,P|353:167|302:154,1,90.9999958343508,10|0,0:0|0:0,0:0:0:0:
222,94,127577,1,2,0:0:0:0:
222,94,127695,6,0,L|165:101,2,45.4999979171754,2|0|0,1:0|0:0|0:0,0:0:0:0:
315,23,128046,2,0,L|360:28,2,45.4999979171754,2|8|0,0:0|0:0|0:0,0:0:0:0:
411,114,128398,2,0,L|456:109,1,45.4999979171754,2|0,0:0|0:0,0:0:0:0:
387,208,128632,5,0,1:0:0:0:
360,206,128749,1,0,0:0:0:0:
333,204,128866,1,0,0:0:0:0:
305,202,128983,1,0,0:0:0:0:
279,200,129101,2,0,P|297:254|284:305,1,90.9999958343508,10|0,0:0|0:0,0:0:0:0:
183,343,129452,1,0,0:0:0:0:
183,343,129570,6,0,L|190:283,2,45.4999979171754,2|0|0,1:0|0:0|0:0,0:0:0:0:
92,260,129921,2,0,L|85:200,2,45.4999979171754,2|8|0,0:0|0:0|0:0,0:0:0:0:
180,169,130273,2,0,L|187:109,1,45.4999979171754,2|0,0:0|0:0,0:0:0:0:
88,13,130507,5,0,1:0:0:0:
91,40,130624,1,0,0:0:0:0:
94,67,130741,1,0,0:0:0:0:
97,94,130858,1,0,0:0:0:0:
99,121,130976,2,0,P|137:97|182:92,1,90.9999958343508,10|0,0:0|0:0,0:0:0:0:
273,173,131327,1,0,0:0:0:0:
273,173,131445,6,0,L|344:163,2,45.4999979171754,2|0|0,1:0|0:0|0:0,0:0:0:0:
192,231,131796,2,0,L|121:221,2,45.4999979171754,2|8|0,0:0|0:0|0:0,0:0:0:0:
297,276,132148,2,0,L|415:263,1,90.9999958343508,2|0,0:0|1:0,0:0:0:0:
414,262,132499,1,0,0:0:0:0:
441,260,132616,1,0,0:0:0:0:
346,382,132851,1,10,0:0:0:0:
370,170,133085,1,0,0:0:0:0:
370,170,133202,1,0,0:0:0:0:
370,170,133320,6,0,P|380:106|377:40,1,105.000004005432,2|0,1:0|0:0,0:0:0:0:
263,121,133671,2,0,P|211:136|133:122,1,105.000004005432,2|0,0:0|0:0,0:0:0:0:
78,55,134023,1,2,0:0:0:0:
100,228,134257,2,0,L|108:290,2,52.5000020027161,0|0|0,1:0|0:0|0:0,0:0:0:0:
263,121,134726,1,10,0:0:0:0:
245,271,134960,1,0,0:0:0:0:
245,271,135077,1,0,0:0:0:0:
245,271,135195,6,0,L|236:349,2,70,6|0|0,1:0|0:0|0:0,0:0:0:0:
305,188,135898,2,0,L|296:110,2,70,2|0|0,0:0|0:0|0:0,0:0:0:0:
378,248,136601,2,0,L|369:326,1,70,2|0,0:0|0:0,0:0:0:0:
471,204,137070,6,0,L|462:282,2,70,2|0|0,0:0|0:0|0:0,0:0:0:0:
385,139,137773,2,0,L|376:61,2,70,2|0|0,0:0|0:0|0:0,0:0:0:0:
305,188,138476,1,2,0:0:0:0:
222,137,138710,1,2,0:0:0:0:
256,192,138827,12,0,140820,2:0:0:0:
