osu file format v14

[General]
AudioFilename: audio.mp3
AudioLeadIn: 0
PreviewTime: 77479
Countdown: 1
SampleSet: None
StackLeniency: 0.7
Mode: 0
LetterboxInBreaks: 0
WidescreenStoryboard: 1

[Editor]
Bookmarks: 10219,17419,19819,29419
DistanceSpacing: 0.8
BeatDivisor: 16
GridSize: 4
TimelineZoom: 1.9

[Metadata]
Title:IKENAI BORDER LINE(Batsu 200EDIT)
TitleUnicode:IKΣNAI BORDΣR LINΣ(Batsu 200EDIT)
Artist:Cantabil
ArtistUnicode:CantabilΣ
Creator:doKXiD
Version:GIRI GIRI AAAA
Source:
Tags:
BeatmapID:1139068
BeatmapSetID:537548

[Difficulty]
HPDrainRate:8
CircleSize:4
OverallDifficulty:8
ApproachRate:10
SliderMultiplier:1.5
SliderTickRate:1

[Events]
//Background and Video events
//Break Periods
2,5319,9769
2,20019,28969
//Storyboard Layer 0 (Background)
//Storyboard Layer 1 (Fail)
//Storyboard Layer 2 (Pass)
//Storyboard Layer 3 (Foreground)
//Storyboard Sound Samples

[TimingPoints]
619,300,4,1,0,100,1,0
17419,1200,4,1,0,100,1,0
19819,300,4,1,0,100,1,0
29419,1200,4,1,0,100,1,0

[HitObjects]
148,88,619,5,0,0:0:0:0:
284,104,769,2,0,P|336:164|396:208,1,150
112,280,1219,1,0,0:0:0:0:
232,52,1369,1,0,0:0:0:0:
348,284,1519,1,0,0:0:0:0:
96,128,1669,1,0,0:0:0:0:
368,124,1819,1,0,0:0:0:0:
368,124,2119,1,0,0:0:0:0:
368,124,2419,1,0,0:0:0:0:
368,124,2719,1,0,0:0:0:0:
120,88,3019,5,0,0:0:0:0:
244,304,3169,2,0,P|296:244|356:200,1,150
120,88,3619,1,0,0:0:0:0:
272,336,3769,1,0,0:0:0:0:
120,88,3919,1,0,0:0:0:0:
376,228,4069,1,0,0:0:0:0:
364,24,4219,1,0,0:0:0:0:
152,264,4519,1,0,0:0:0:0:
152,264,4819,1,0,0:0:0:0:
152,264,5119,1,0,0:0:0:0:
192,44,10219,5,0,0:0:0:0:
360,348,10369,1,0,0:0:0:0:
360,348,10444,1,0,0:0:0:0:
360,348,10519,1,0,0:0:0:0:
116,268,10669,1,0,0:0:0:0:
416,88,10819,1,0,0:0:0:0:
84,132,10969,1,0,0:0:0:0:
84,132,11044,1,0,0:0:0:0:
84,132,11119,1,0,0:0:0:0:
416,312,11269,1,0,0:0:0:0:
48,260,11419,1,0,0:0:0:0:
356,336,11569,1,0,0:0:0:0:
356,336,11644,1,0,0:0:0:0:
356,336,11719,1,0,0:0:0:0:
280,40,11869,1,0,0:0:0:0:
424,352,12019,1,0,0:0:0:0:
72,244,12169,1,0,0:0:0:0:
72,244,12244,1,0,0:0:0:0:
72,244,12319,1,0,0:0:0:0:
448,224,12469,1,0,0:0:0:0:
124,32,12619,1,0,0:0:0:0:
384,104,12769,1,0,0:0:0:0:
384,104,12844,1,0,0:0:0:0:
384,104,12919,1,0,0:0:0:0:
224,280,13069,1,0,0:0:0:0:
168,132,13219,1,0,0:0:0:0:
356,320,13369,1,0,0:0:0:0:
356,320,13444,1,0,0:0:0:0:
356,320,13519,1,0,0:0:0:0:
92,272,17419,2,0,L|388:356,1,300
164,60,17719,1,0,0:0:0:0:
164,288,18019,1,0,0:0:0:0:
256,72,18319,1,0,0:0:0:0:
236,312,18619,1,0,0:0:0:0:
288,140,18769,1,0,0:0:0:0:
272,324,18919,1,0,0:0:0:0:
348,124,19069,1,0,0:0:0:0:
308,332,19219,1,0,0:0:0:0:
400,108,19369,1,0,0:0:0:0:
352,344,19519,1,0,0:0:0:0:
452,92,19669,1,0,0:0:0:0:
392,360,19819,1,0,0:0:0:0:
75,267,29419,6,0,L|211:171,1,150
56,196,29494,1,0,0:0:0:0:
64,120,29569,1,0,0:0:0:0:
104,56,29644,1,0,0:0:0:0:
164,16,29719,2,0,L|269:150,1,150
244,0,29794,1,0,0:0:0:0:
324,12,29869,1,0,0:0:0:0:
388,48,29944,1,0,0:0:0:0:
432,104,30019,2,0,L|296:197,1,150
448,180,30094,1,0,0:0:0:0:
440,252,30169,1,0,0:0:0:0:
400,320,30244,1,0,0:0:0:0:
336,364,30319,2,0,L|244:236,1,150
252,380,30394,1,0,0:0:0:0:
164,360,30469,1,0,0:0:0:0:
208,208,30544,1,0,0:0:0:0:
200,164,30694,1,0,0:0:0:0:
212,144,30769,1,0,0:0:0:0:
240,132,30844,1,0,0:0:0:0:
280,136,30994,1,0,0:0:0:0:
300,148,31069,1,0,0:0:0:0:
308,176,31144,1,0,0:0:0:0:
312,200,31294,1,0,0:0:0:0:
296,216,31369,1,0,0:0:0:0:
272,232,31444,1,0,0:0:0:0:
