osu file format v14

[General]
AudioFilename: audio.mp3
AudioLeadIn: 0
PreviewTime: -1
Countdown: 1
SampleSet: Normal
StackLeniency: 0.7
Mode: 0
LetterboxInBreaks: 0
WidescreenStoryboard: 1

[Editor]
DistanceSpacing: 1.5
BeatDivisor: 4
GridSize: 4
TimelineZoom: 1

[Metadata]
Title:Mighty & High
TitleUnicode:Mighty & High
Artist:Cant Stop Wont Stop (feat. Fresh Big Mouf)
ArtistUnicode:Cant Stop Wont Stop (feat. Fresh Big Mouf)
Creator:Sindricus
Version:Normal
Source:
Tags:Mighty And High, Sindricus
BeatmapID:1117461
BeatmapSetID:524118

[Difficulty]
HPDrainRate:7
CircleSize:6
OverallDifficulty:7
ApproachRate:7
SliderMultiplier:1.60000000596046
SliderTickRate:3

[Events]
//Background and Video events
0,0,"yxOD-0Y9.png",0,0
//Break Periods
2,187938,202425
//Storyboard Layer 0 (Background)
//Storyboard Layer 1 (Fail)
//Storyboard Layer 2 (Pass)
//Storyboard Layer 3 (Foreground)
//Storyboard Sound Samples

[TimingPoints]
24164,508.390122933446,4,1,0,100,1,0

[Colours]
Combo1 : 255,128,0
Combo2 : 0,128,255
Combo3 : 255,50,0
Combo4 : 0,255,64

[HitObjects]
256,192,24164,5,0,0:0:0:0:
256,52,24672,1,0,0:0:0:0:
352,52,25180,5,0,0:0:0:0:
356,192,25689,1,0,0:0:0:0:
356,280,26197,2,0,B|76:284|76:284|80:64,1,480.000001788138
224,192,28739,5,0,0:0:0:0:
288,192,29247,1,0,0:0:0:0:
256,140,29756,1,0,0:0:0:0:
256,244,30264,1,0,0:0:0:0:
256,192,30773,5,0,0:0:0:0:
256,132,31027,1,0,0:0:0:0:
316,132,31281,1,0,0:0:0:0:
316,192,31535,1,0,0:0:0:0:
316,252,31789,1,0,0:0:0:0:
256,252,32044,1,0,0:0:0:0:
196,252,32298,1,0,0:0:0:0:
256,192,32806,6,0,B|120:192|120:192|300:44,1,360.000001341104
344,76,34840,2,0,B|420:192|420:192|192:192,1,360.000001341104
256,132,36365,1,0,0:0:0:0:
256,192,36873,1,0,0:0:0:0:
256,192,37127,1,0,0:0:0:0:
256,192,37382,1,0,0:0:0:0:
320,192,37890,5,0,0:0:0:0:
380,192,38144,1,0,0:0:0:0:
380,252,38398,1,0,0:0:0:0:
168,192,38907,5,0,0:0:0:0:
168,132,39415,1,0,0:0:0:0:
168,72,39924,1,0,0:0:0:0:
228,72,40178,1,0,0:0:0:0:
288,72,40432,1,0,0:0:0:0:
348,72,40940,2,0,B|352:264|352:264|272:108,1,360.000001341104
276,56,42974,5,0,0:0:0:0:
216,56,43228,1,0,0:0:0:0:
216,116,43482,1,0,0:0:0:0:
276,116,43737,1,0,0:0:0:0:
336,116,43991,1,0,0:0:0:0:
336,176,44245,1,0,0:0:0:0:
276,176,44499,1,0,0:0:0:0:
276,116,44753,1,0,0:0:0:0:
216,116,45007,2,0,B|76:116|76:116|296:288,1,400.000001490115
296,228,47041,5,0,0:0:0:0:
296,168,47295,1,0,0:0:0:0:
256,192,48058,1,0,0:0:0:0:
184,192,48312,1,0,0:0:0:0:
108,192,48566,1,0,0:0:0:0:
256,56,49075,6,0,L|256:192,3,120.000000447035
192,176,51108,6,0,L|192:48,3,120.000000447035
256,56,53142,2,0,B|392:80|392:80|252:160|252:160|428:208,1,480.000001788138
368,212,55684,2,0,L|128:216,1,240.000000894069
256,192,57209,12,0,59751,0:0:0:0:
256,64,61276,5,0,0:0:0:0:
316,64,61784,1,0,0:0:0:0:
316,124,62293,1,0,0:0:0:0:
316,184,62801,2,0,B|320:328|320:328|88:328,1,360.000001341104
104,264,65343,2,0,B|104:64|104:64|500:64,1,560.000002086161
464,124,69410,2,0,B|464:316|464:316|264:316|264:316|264:112|264:112|92:112,1,760.000002831219
256,40,73477,6,0,L|256:200,1,160.000000596046
312,192,74494,2,0,L|312:40,1,120.000000447035
372,44,75511,2,0,L|372:204,1,160.000000596046
376,256,77036,2,0,L|244:256,1,120.000000447035
256,196,78053,1,0,0:0:0:0:
256,136,78307,1,0,0:0:0:0:
200,136,78561,1,0,0:0:0:0:
200,196,78815,1,0,0:0:0:0:
260,196,79070,2,0,L|408:196,1,120.000000447035
380,140,80086,1,0,0:0:0:0:
320,140,80595,1,0,0:0:0:0:
260,140,81103,6,0,L|116:140,1,120.000000447035
140,80,82120,2,0,B|140:192|140:192|272:192,1,240.000000894069
268,136,83645,1,0,0:0:0:0:
268,76,84154,1,0,0:0:0:0:
208,76,84662,1,0,0:0:0:0:
208,136,85170,1,0,0:0:0:0:
208,196,85679,5,0,0:0:0:0:
208,256,86187,1,0,0:0:0:0:
268,256,86695,1,0,0:0:0:0:
268,196,87204,1,0,0:0:0:0:
328,196,87712,1,0,0:0:0:0:
328,256,88221,1,0,0:0:0:0:
388,256,88729,2,0,B|388:72|388:72|320:72,1,240.000000894069
272,72,90000,2,0,L|60:72,2,200.000000745058
272,128,92288,2,0,L|272:272,3,120.000000447035
328,248,94321,2,0,B|448:248|448:248|448:108,1,240.000000894069
388,128,95847,2,0,B|264:128|264:128|264:328|264:328|208:328,1,360.000001341104
168,328,97880,2,0,B|168:192|168:192|44:192|44:192|44:88,1,360.000001341104
104,92,99659,2,0,B|256:92|256:92|256:192|256:192|440:192,1,400.000001490115
424,132,101947,2,0,B|352:132|352:132|352:244|352:244|268:244|268:244|268:120|268:120|172:120,1,480.000001788138
180,180,104489,2,0,B|180:280|180:280|320:280,1,240.000000894069
256,192,106014,12,0,108556,0:0:0:0:
256,80,109573,5,0,0:0:0:0:
256,140,110081,5,0,0:0:0:0:
256,200,110590,5,0,0:0:0:0:
256,260,111098,5,0,0:0:0:0:
316,260,111607,6,0,B|316:68|316:68|192:72,1,280.000001043081
208,132,114149,2,0,B|208:312|208:312|352:312|352:312|352:120|352:120|244:120,1,600.000002235173
256,28,118216,2,0,B|256:312|256:312|56:48|56:48|56:300,1,840.000003129242
136,276,122283,2,0,L|284:280,1,120.000000447035
316,280,123300,2,0,B|448:200|448:200|304:116,2,320.000001192092
324,200,126350,5,0,0:0:0:0:
264,200,126858,1,0,0:0:0:0:
204,200,127367,1,0,0:0:0:0:
144,200,127875,1,0,0:0:0:0:
116,144,128383,1,0,0:0:0:0:
160,100,128892,1,0,0:0:0:0:
200,148,129400,1,0,0:0:0:0:
256,104,129909,5,0,0:0:0:0:
256,160,130417,2,0,L|256:304,3,120.000000447035
320,280,132451,2,0,L|320:140,4,120.000000447035
380,280,134993,1,0,0:0:0:0:
380,220,135501,1,0,0:0:0:0:
380,160,136009,1,0,0:0:0:0:
380,100,136518,1,0,0:0:0:0:
320,104,137026,1,0,0:0:0:0:
260,104,137534,1,0,0:0:0:0:
200,104,138043,2,0,B|200:288|200:288|392:288|392:288|392:64,1,600.000002235173
332,64,141093,6,0,B|88:64|88:64|88:304,1,480.000001788138
148,300,143635,2,0,B|392:300|392:300|392:56|392:56|272:56,1,600.000002235173
280,116,146686,2,0,B|280:316|280:316|148:120|148:120|352:24|352:24|356:208,1,840.000003129242
356,264,150753,2,0,B|488:192|488:192|336:72|336:72|336:212|336:212|96:212|96:212|96:92,1,840.000003129242
256,192,154820,12,0,157362,0:0:0:0:
256,192,158378,12,0,161429,0:0:0:0:
256,192,162954,6,0,B|256:72|256:72|164:200|164:200|164:56|164:56|80:172,1,560.000002086161
120,212,166513,2,0,B|120:324|120:324|368:324|368:324|368:64|368:64|244:64,1,720.000002682207
256,192,171088,5,0,0:0:0:0:
256,128,172105,1,0,0:0:0:0:
256,68,173122,1,0,0:0:0:0:
320,68,174139,1,0,0:0:0:0:
320,128,175155,1,0,0:0:0:0:
320,188,176172,1,0,0:0:0:0:
320,248,177189,1,0,0:0:0:0:
380,248,177697,5,0,0:0:0:0:
380,188,178206,1,0,0:0:0:0:
380,128,178714,1,0,0:0:0:0:
380,68,179731,5,0,0:0:0:0:
320,72,180748,1,0,0:0:0:0:
256,72,181764,1,0,0:0:0:0:
196,72,182781,1,0,0:0:0:0:
136,72,183798,1,0,0:0:0:0:
136,132,184815,1,0,0:0:0:0:
136,192,185832,2,0,L|136:340,2,120.000000447035
196,192,187357,2,0,L|196:328,1,120.000000447035
256,192,203625,12,0,207184,0:0:0:0:
256,192,207692,12,0,211251,0:0:0:0:
256,192,211759,6,0,B|256:36|256:36|64:36|64:36|64:324|64:324|168:324,1,720.000002682207
208,324,215827,2,0,B|396:324|396:324|392:84|392:84|80:84|80:84|80:196,1,840.000003129242
256,192,219385,1,0,0:0:0:0:
