osu file format v14

[General]
AudioFilename: audio.mp3
AudioLeadIn: 0
PreviewTime: 92407
Countdown: 0
SampleSet: Normal
StackLeniency: 0.7
Mode: 1
LetterboxInBreaks: 0
WidescreenStoryboard: 1

[Editor]
DistanceSpacing: 0.8
BeatDivisor: 4
GridSize: 32
TimelineZoom: 5.400002

[Metadata]
Title:Train of Thought
TitleUnicode:Train of Thought
Artist:Cansol
ArtistUnicode:Cansol
Creator:Nurend
Version:Last Stop
Source:osu!taiko World Cup 2024
Tags:osu! original featured artist fa taiko world cup twc 2024 round of 16 ro16 tiebreaker tb jazz instrumental uone sakura006 panthullu ricess
BeatmapID:4543467
BeatmapSetID:2155531

[Difficulty]
HPDrainRate:4
CircleSize:2
OverallDifficulty:6.5
ApproachRate:9
SliderMultiplier:1.4
SliderTickRate:1

[Events]
//Background and Video events
0,0,"Train of Thought BG.jpg",0,0
//Break Periods
2,176607,180141
2,255482,256807
//Storyboard Layer 0 (Background)
//Storyboard Layer 1 (Fail)
//Storyboard Layer 2 (Pass)
//Storyboard Layer 3 (Foreground)
//Storyboard Layer 4 (Overlay)
//Storyboard Sound Samples

[TimingPoints]
408,333.333333333333,4,1,0,60,1,0
408,-133.333333333333,4,1,0,60,0,0
1866,-124.063474335707,4,1,0,85,0,0
2053,-115.953375086987,4,1,0,85,0,0
2220,-108.83853847724,4,1,0,85,0,0
2303,-105.61762142461,4,1,0,85,0,0
2470,-99.682183585717,4,1,0,85,0,0
2553,-96.973665066201,4,1,0,85,0,0
2637,-94.408442225291,4,1,0,85,0,0
2720,-91.946887394378,4,1,0,85,0,0
2887,-87.441372298206,4,1,0,85,0,0
2970,-85.325652104337,4,1,0,85,0,0
3053,-83.333333333333,4,1,0,85,0,0
3116,-111.887378314871,4,1,0,70,0,0
3720,-112.676949080921,4,1,0,70,0,0
4053,-113.475328212439,4,1,0,70,0,0
4387,-114.285102005829,4,1,0,70,0,0
4553,-114.695571757318,4,1,0,70,0,0
4720,-115.109000647529,4,1,0,70,0,0
5053,-115.942344065917,4,1,0,70,0,0
5387,-116.787841625788,4,1,0,70,0,0
5553,-117.216519770534,4,1,0,70,0,0
5637,-117.430748227419,4,1,0,70,0,0
5720,-117.648356496801,4,1,0,70,0,0
5887,-118.080772296519,4,1,0,70,0,0
6053,-118.519012378603,4,1,0,70,0,0
6220,-118.960517510596,4,1,0,70,0,0
6387,-119.402650904532,4,1,0,70,0,0
6720,-120.302278366794,4,1,0,70,0,0
7053,-121.212809964316,4,1,0,70,0,0
7220,-121.674652064796,4,1,0,70,0,0
7387,-122.137229754489,4,1,0,70,0,0
7720,-123.078698361412,4,1,0,70,0,0
7887,-123.552034102493,4,1,0,70,0,0
8053,-124.031909202968,4,1,0,70,0,0
8220,-124.515526500117,4,1,0,70,0,0
8387,-125,4,1,0,70,0,0
8408,-83.333333333333,4,1,0,70,0,0
9720,-121.212121212121,4,1,0,70,0,0
9742,-83.333333333333,4,1,0,70,0,0
11053,-117.647058823529,4,1,0,70,0,0
11075,-83.333333333333,4,1,0,70,0,0
12387,-114.285714285714,4,1,0,70,0,0
12408,-83.333333333333,4,1,0,70,0,0
13387,-93.320549696389,4,1,0,70,0,0
13470,-97.236097236097,4,1,0,70,0,0
13553,-101.44172311968,4,1,0,70,0,0
13637,-106.027596223675,4,1,0,70,0,0
13720,-111.111111111111,4,1,0,70,0,0
13887,-111.49672806339,4,1,0,70,0,0
14053,-111.887378314871,4,1,0,70,0,0
14220,-112.280775627934,4,1,0,70,0,0
14553,-113.073530658977,4,1,0,70,0,0
14720,-113.475328212439,4,1,0,70,0,0
15053,-114.285102005829,4,1,0,70,0,0
15220,-114.695571757318,4,1,0,70,0,0
15470,-115.315588038143,4,1,0,70,0,0
15553,-115.522918291309,4,1,0,70,0,0
15720,-115.942344065917,4,1,0,70,0,0
15887,-116.362287534638,4,1,0,70,0,0
16220,-117.216519770534,4,1,0,70,0,0
16387,-117.645761178884,4,1,0,70,0,0
16720,-118.519012378603,4,1,0,70,0,0
16887,-118.957863978051,4,1,0,70,0,0
17220,-119.85077645684,4,1,0,70,0,0
17553,-120.754460646681,4,1,0,70,0,0
17720,-121.212809964316,4,1,0,70,0,0
17887,-121.671876069449,4,1,0,70,0,0
18220,-90.909090909091,4,1,0,70,0,0
18303,-93.448507964999,4,1,0,70,0,0
18387,-96.133871898442,4,1,0,70,0,0
18470,-99.013431593962,4,1,0,70,0,0
18553,-102.03331700147,4,1,0,70,0,0
18637,-105.243209096652,4,1,0,70,0,0
18720,-108.704162860498,4,1,0,70,0,0
18803,-112.355004046399,4,1,0,70,0,0
18887,-116.25959525471,4,1,0,70,0,0
18970,-120.497613192536,4,1,0,70,0,0
19053,-125,4,1,0,70,0,0
19387,-121.216253067903,4,1,0,70,0,0
19553,-119.403653295129,4,1,0,70,0,0
19720,-117.644464049404,4,1,0,70,0,0
19803,-116.789280084078,4,1,0,70,0,0
19887,-115.946439440049,4,1,0,70,0,0
20220,-112.674271229404,4,1,0,70,0,0
20387,-111.11574035497,4,1,0,70,0,0
20553,-109.590729783037,4,1,0,70,0,0
20720,-108.107012565869,4,1,0,70,0,0
20887,-106.671466282697,4,1,0,70,0,0
20970,-105.95947556615,4,1,0,70,0,0
21053,-105.265235238396,4,1,0,70,0,0
21137,-104.580032938593,4,1,0,70,0,0
21220,-103.895597974289,4,1,0,70,0,0
21303,-103.228053878309,4,1,0,70,0,0
21387,-102.569033151296,4,1,0,70,0,0
21553,-101.26822600243,4,1,0,70,0,0
21699,-100,4,1,0,85,0,0
21887,-98.166623716084,4,1,0,85,0,0
21970,-97.264271384279,4,1,0,85,0,0
22053,-96.388808559861,4,1,0,85,0,0
22137,-95.528964998388,4,1,0,85,0,0
22220,-94.674241079354,4,1,0,85,0,0
22387,-93.029340962216,4,1,0,85,0,0
22470,-92.218571675601,4,1,0,85,0,0
22553,-91.431216568372,4,1,0,85,0,0
22637,-90.657192397919,4,1,0,85,0,0
22720,-89.887072307433,4,1,0,85,0,0
22803,-89.138864745604,4,1,0,85,0,0
22887,-88.403010310645,4,1,0,85,0,0
22970,-87.67055729081,4,1,0,85,0,0
23053,-86.958648578137,4,1,0,85,0,0
23220,-85.560725172469,4,1,0,85,0,0
23303,-84.882536448717,4,1,0,85,0,0
23470,-83.550054833151,4,1,0,85,0,0
23553,-82.903245864942,4,1,0,85,0,0
23637,-82.266374602783,4,1,0,85,0,0
23720,-81.631715903873,4,1,0,85,0,0
23803,-81.014158109011,4,1,0,85,0,0
23887,-80.405874016223,4,1,0,85,0,0
23970,-79.799491246446,4,1,0,85,0,0
24053,-79.209244296578,4,1,0,85,0,0
24220,-78.047709644373,4,1,0,85,0,0
24387,-76.926405677524,4,1,0,85,0,0
24553,-75.830394721875,4,1,0,85,0,0
24637,-75.297207240279,4,1,0,85,0,0
24720,-74.765175942801,4,1,0,85,0,0
24803,-74.246811828256,4,1,0,85,0,0
24887,-73.735586096286,4,1,0,85,0,0
24970,-73.225319236578,4,1,0,85,0,0
25053,-72.728016583024,4,1,0,85,0,0
25137,-72.237423130063,4,1,0,85,0,0
25220,-71.747612000538,4,1,0,85,0,0
25303,-71.270112792003,4,1,0,85,0,0
25387,-70.798927329209,4,1,0,85,0,0
25470,-70.328366082026,4,1,0,85,0,0
25553,-69.869510533487,4,1,0,85,0,0
25637,-69.416603753937,4,1,0,85,0,0
25720,-68.964179490495,4,1,0,85,0,0
25782,-68.671130569148,4,1,0,85,0,0
25845,-68.375301297502,4,1,0,85,0,0
25887,-68.087225187039,4,1,0,85,0,0
25970,-67.651909171635,4,1,0,85,0,0
26053,-67.227208551835,4,1,0,85,0,0
26116,-66.943663386222,4,1,0,85,0,0
26178,-66.667500062505,4,1,0,85,0,0
26220,-66.388646831819,4,1,0,85,0,0
26303,-65.979611025882,4,1,0,85,0,0
26387,-65.575584683865,4,1,0,85,0,0
26449,-65.305772574759,4,1,0,85,0,0
26512,-65.038171662723,4,1,0,85,0,0
26553,-64.777475463998,4,1,0,85,0,0
26616,-64.514177876706,4,1,0,85,0,0
26678,-64.257657180037,4,1,0,85,0,0
26720,-63.998559942398,4,1,0,85,0,0
26803,-63.61836140669,4,1,0,85,0,0
26887,-63.242653511373,4,1,0,85,0,0
26949,-62.991660957691,4,1,0,85,0,0
27012,-62.7426527683,4,1,0,85,0,0
27053,-62.5,4,1,0,85,0,0
27116,-100.000000000001,4,1,0,70,0,0
27220,-92.372187153665,4,1,0,70,0,0
27303,-93.117015592364,4,1,0,70,0,0
27470,-94.652644052733,4,1,0,70,0,0
27553,-95.434858366107,4,1,0,70,0,0
27887,-98.7075845734,4,1,0,70,0,0
27949,-99.280128437516,4,1,0,70,0,0
28012,-99.85935302391,4,1,0,70,0,0
28053,-100.43485094567,4,1,0,70,0,0
28137,-101.315998097352,4,1,0,70,0,0
28220,-102.223644216925,4,1,0,70,0,0
28303,-103.136600850056,4,1,0,70,0,0
28387,-104.066011617176,4,1,0,70,0,0
28470,-105.023831698899,4,1,0,70,0,0
28553,-105.987725991043,4,1,0,70,0,0
28637,-106.969477149713,4,1,0,70,0,0
28803,-109.000966623074,4,1,0,70,0,0
28970,-111.111111111111,4,1,0,70,0,0
29137,-108.444187391556,4,1,0,70,0,0
29220,-107.142857142857,4,1,0,70,0,0
29303,-105.887335874629,4,1,0,70,0,0
29387,-104.66089868825,4,1,0,70,0,0
29470,-103.448275862069,4,1,0,70,0,0
29553,-102.277376244375,4,1,0,70,0,0
29637,-101.132686084142,4,1,0,70,0,0
29720,-100,4,1,0,70,0,0
29887,-101.261014889091,4,1,0,70,0,0
29970,-101.911314984709,4,1,0,70,0,0
30137,-103.221310205978,4,1,0,70,0,0
30220,-103.897116134061,4,1,0,70,0,0
30470,-105.961844197138,4,1,0,70,0,0
30553,-106.665599743939,4,1,0,70,0,0
30637,-107.378765909457,4,1,0,70,0,0
30720,-108.110300081103,4,1,0,70,0,0
30782,-108.594704684318,4,1,0,70,0,0
30845,-109.092397086505,4,1,0,70,0,0
30887,-109.585662610983,4,1,0,70,0,0
30970,-110.347682119205,4,1,0,70,0,0
31053,-111.111111111111,4,1,0,70,0,0
31137,-109.594672367015,4,1,0,70,0,0
31220,-108.101532722407,4,1,0,70,0,0
31303,-106.665599743939,4,1,0,70,0,0
31387,-105.267314222538,4,1,0,70,0,0
31470,-103.889018782636,4,1,0,70,0,0
31553,-102.562129722244,4,1,0,70,0,0
31637,-101.268707741396,4,1,0,70,0,0
31720,-99.99249868727,4,1,0,70,0,0
31803,-98.762688004742,4,1,0,70,0,0
31887,-97.562760740687,4,1,0,70,0,0
31970,-96.377702263032,4,1,0,70,0,0
32053,-95.234693148532,4,1,0,70,0,0
32137,-94.118477723646,4,1,0,70,0,0
32220,-93.01514199986,4,1,0,70,0,0
32282,-92.306626964892,4,1,0,70,0,0
32345,-91.596234453377,4,1,0,70,0,0
32387,-90.909090909091,4,1,0,70,0,0
32553,-92.38099195302,4,1,0,70,0,0
32637,-93.13041049986,4,1,0,70,0,0
32803,-94.675732069098,4,1,0,70,0,0
32887,-95.463002719336,4,1,0,70,0,0
33053,-97.087378640777,4,1,0,70,0,0
33137,-97.915443335291,4,1,0,70,0,0
33178,-98.3398696665,4,1,0,70,0,0
33220,-98.76799147071,4,1,0,70,0,0
33303,-99.625098952966,4,1,0,70,0,0
33387,-100.497212596052,4,1,0,70,0,0
33470,-101.395518530905,4,1,0,70,0,0
33553,-102.299044493183,4,1,0,70,0,0
33637,-103.218817703497,4,1,0,70,0,0
33699,-94.339622641509,4,1,0,100,0,0
33803,-90.106325464048,4,1,0,100,0,0
33887,-86.236633321835,4,1,0,100,0,0
33970,-82.644628099174,4,1,0,100,0,0
34053,-79.377678996666,4,1,0,100,0,0
34137,-76.359193646915,4,1,0,100,0,0
34220,-73.529411764706,4,1,0,100,0,0
34282,-100,4,1,0,70,0,0
34553,-100,4,1,0,70,0,0
34616,-100.752283718431,4,1,0,70,0,0
34678,-101.502233049127,4,1,0,70,0,0
34720,-102.277376244375,4,1,0,70,0,0
34803,-103.448275862069,4,1,0,70,0,0
34887,-104.646295521139,4,1,0,70,0,0
34970,-105.887335874629,4,1,0,70,0,0
35053,-107.142857142857,4,1,0,70,0,0
35303,-111.111111111111,4,1,0,70,0,0
35887,-105.263157894737,4,1,0,70,0,0
35949,-106.097043429056,4,1,0,70,0,0
36012,-106.944246399544,4,1,0,70,0,0
36053,-107.789594711124,4,1,0,70,0,0
36137,-109.090909090909,4,1,0,70,0,0
36220,-110.440288617288,4,1,0,70,0,0
36303,-111.806797853309,4,1,0,70,0,0
36387,-113.207547169811,4,1,0,70,0,0
36637,-117.647058823529,4,1,0,70,0,0
37032,-90.909090909091,4,1,0,70,0,0
37699,-111.111111111111,4,1,0,70,0,0
37866,-90.909090909091,4,1,0,85,0,0
37970,-88.478676002546,4,1,0,85,0,0
38137,-84.03869407497,4,1,0,85,0,0
38303,-80,4,1,0,85,0,0
38470,-83.333333333333,4,1,0,85,0,0
38553,-85.358711566618,4,1,0,85,0,0
38637,-87.484993997599,4,1,0,85,0,0
38720,-89.747536945813,4,1,0,85,0,0
38845,-92.923175007969,4,1,0,85,0,0
38949,-96.331791143424,4,1,0,85,0,0
39074,-100,4,1,0,85,0,1
39470,-98.347757671125,4,1,0,85,0,1
39532,-97.295193617435,4,1,0,85,0,1
39595,-96.246390760346,4,1,0,85,0,1
39637,-95.238095238095,4,1,0,85,0,1
39803,-93.457943925234,4,1,0,85,0,1
39887,-94.336569579288,4,1,0,85,0,1
39970,-95.242762856956,4,1,0,85,0,1
40053,-96.155432039716,4,1,0,85,0,1
40220,-98.045810769903,4,1,0,85,0,1
40303,-99.013264041032,4,1,0,85,0,1
40387,-83.333333333333,4,1,0,85,0,1
40470,-84.217171717172,4,1,0,85,0,1
40553,-85.109097869083,4,1,0,85,0,1
40637,-86.02011864844,4,1,0,85,0,1
40720,-86.962190352021,4,1,0,85,0,1
40803,-87.913536312113,4,1,0,85,0,1
40887,-88.88592750533,4,1,0,85,0,1
40970,-89.89218328841,4,1,0,85,0,1
41053,-90.909090909091,4,1,0,85,0,1
41137,-91.949269368624,4,1,0,85,0,1
41220,-93.02649930265,4,1,0,85,0,1
41303,-94.115987018485,4,1,0,85,0,1
41387,-95.231296402056,4,1,0,85,0,1
41470,-96.387283236994,4,1,0,85,0,1
41553,-97.55740821998,4,1,0,85,0,1
41637,-98.756292567367,4,1,0,85,0,1
41720,-100,4,1,0,85,0,1
42137,-98.36710603974,4,1,0,85,0,1
42199,-97.295193617435,4,1,0,85,0,1
42262,-96.246390760346,4,1,0,85,0,1
42303,-95.256239283673,4,1,0,85,0,1
42470,-93.457943925234,4,1,0,85,0,1
42554,-94.336569579288,4,1,0,85,0,1
42637,-95.242762856956,4,1,0,85,0,1
42720,-96.155432039716,4,1,0,85,0,1
42887,-98.045810769903,4,1,0,85,0,1
42970,-99.013264041032,4,1,0,85,0,1
43053,-83.333333333333,4,1,0,85,0,1
43137,-84.207201516109,4,1,0,85,0,1
43220,-85.110458434427,4,1,0,85,0,1
43303,-86.022199277233,4,1,0,85,0,1
43387,-86.953685583823,4,1,0,85,0,1
43470,-87.917161324364,4,1,0,85,0,1
43553,-88.890370765537,4,1,0,85,0,1
43637,-89.885367498314,4,1,0,85,0,1
43720,-90.915291229027,4,1,0,85,0,1
43803,-91.956401766004,4,1,0,85,0,1
43887,-93.021632937893,4,1,0,85,0,1
43970,-94.125123570117,4,1,0,85,0,1
44053,-95.241497570734,4,1,0,85,0,1
44137,-96.384671005061,4,1,0,85,0,1
44220,-97.569901917728,4,1,0,85,0,1
44303,-98.770005927682,4,1,0,85,0,1
44387,-100,4,1,0,85,0,1
44637,-98.625860315508,4,1,0,85,0,1
44720,-97.273087779048,4,1,0,85,0,1
44782,-96.407268691913,4,1,0,85,0,1
44845,-95.541401273885,4,1,0,85,0,1
44887,-94.706002589085,4,1,0,85,0,1
44970,-93.457943925234,4,1,0,85,0,1
45221,-94.336569579288,4,1,0,85,0,1
45304,-95.242762856956,4,1,0,85,0,1
45387,-96.155432039716,4,1,0,85,0,1
45554,-98.045810769903,4,1,0,85,0,1
45637,-99.013264041032,4,1,0,85,0,1
45720,-83.333333333333,4,1,0,85,0,1
45803,-84.207201516109,4,1,0,85,0,1
45887,-85.099591419816,4,1,0,85,0,1
45970,-86.022199277233,4,1,0,85,0,1
46053,-86.953685583823,4,1,0,85,0,1
46137,-87.905565813769,4,1,0,85,0,1
46220,-88.890370765537,4,1,0,85,0,1
46303,-89.885367498314,4,1,0,85,0,1
46387,-90.902891434806,4,1,0,85,0,1
46470,-91.956401766004,4,1,0,85,0,1
46553,-93.021632937893,4,1,0,85,0,1
46637,-94.111832815589,4,1,0,85,0,1
46720,-95.241497570734,4,1,0,85,0,1
46803,-96.384671005061,4,1,0,85,0,1
46887,-97.555620608899,4,1,0,85,0,1
46970,-98.770005927682,4,1,0,85,0,1
47053,-100,4,1,0,85,0,1
47054,-100,4,1,0,85,0,1
47303,-98.625860315508,4,1,0,85,0,1
47386,-97.273087779048,4,1,0,85,0,1
47448,-96.407268691913,4,1,0,85,0,1
47511,-95.541401273885,4,1,0,85,0,1
47553,-94.706002589085,4,1,0,85,0,1
47636,-93.457943925234,4,1,0,85,0,1
47845,-93.900494467441,4,1,0,85,0,1
47887,-94.336569579288,4,1,0,85,0,1
47970,-95.242762856956,4,1,0,85,0,1
48053,-96.155432039716,4,1,0,85,0,1
48137,-97.085761865112,4,1,0,85,0,1
48220,-98.045810769903,4,1,0,85,0,1
48360,-100,4,1,0,70,0,1
48407,-100,4,1,0,70,0,0
49532,-117.647058823529,4,1,0,70,0,0
54637,-116.50937900501,4,1,0,70,0,0
54720,-115.380177685474,4,1,0,70,0,0
54803,-114.285714285714,4,1,0,70,0,0
54887,-113.211819313936,4,1,0,70,0,0
54970,-112.145340361108,4,1,0,70,0,0
55053,-111.111111111111,4,1,0,70,0,0
57387,-113.636363636364,4,1,0,70,0,0
57449,-110.683987274655,4,1,0,70,0,0
57512,-107.881136950904,4,1,0,70,0,0
57553,-105.263157894737,4,1,0,70,0,0
57699,-108.695652173913,4,1,0,70,0,0
58053,-111.111111111111,4,1,0,70,0,0
58116,-108.286862923097,4,1,0,70,0,0
58178,-105.649395837287,4,1,0,70,0,0
58220,-103.092783505155,4,1,0,70,0,0
58553,-106.382978723404,4,1,0,70,0,0
58720,-105.03883788964,4,1,0,70,0,0
58887,-103.73599003736,4,1,0,70,0,0
58970,-103.088955992278,4,1,0,70,0,0
59053,-102.45750412044,4,1,0,70,0,0
59137,-101.833740831296,4,1,0,70,0,0
59220,-101.210147744946,4,1,0,70,0,0
59387,-100,4,1,0,70,0,0
59532,-90.909090909091,4,1,0,70,0,0
59887,-105.263157894737,4,1,0,70,0,0
59970,-103.434009102193,4,1,0,70,0,0
60053,-101.688021151108,4,1,0,70,0,0
60137,-100,4,1,0,70,0,0
60220,-98.347757671125,4,1,0,70,0,0
60303,-96.767950454809,4,1,0,70,0,0
60366,-95.238095238095,4,1,0,85,0,0
62803,-94.120972300735,4,1,0,85,0,0
62887,-93.029752758765,4,1,0,85,0,0
62970,-91.950849095679,4,1,0,85,0,0
63053,-90.909090909091,4,1,0,85,0,0
63220,-90.22420715478,4,1,0,85,0,0
63303,-89.887640449438,4,1,0,85,0,0
63387,-89.553575426499,4,1,0,85,0,0
63470,-89.218004193246,4,1,0,85,0,0
63553,-88.888888888889,4,1,0,85,0,0
63637,-88.562192799894,4,1,0,85,0,0
63720,-88.233996558874,4,1,0,85,0,0
63803,-87.912087912088,4,1,0,85,0,0
63887,-87.592519598826,4,1,0,85,0,0
63970,-87.271457869704,4,1,0,85,0,0
64053,-86.95652173913,4,1,0,85,0,0
64220,-84.745762711864,4,1,0,85,0,0
64303,-86.053719008264,4,1,0,85,0,0
64387,-87.402681887814,4,1,0,85,0,0
64470,-88.8116510651,4,1,0,85,0,0
64553,-90.249187432286,4,1,0,85,0,0
64637,-91.734026385922,4,1,0,85,0,0
64720,-93.287342934576,4,1,0,85,0,0
64803,-94.874715261959,4,1,0,85,0,0
64887,-96.51704400621,4,1,0,85,0,0
64970,-98.238082883223,4,1,0,85,0,0
65053,-100,4,1,0,85,0,0
65220,-105.263157894737,4,1,0,85,0,0
65303,-103.455410717981,4,1,0,85,0,0
65387,-101.708706265256,4,1,0,85,0,0
65470,-100,4,1,0,85,0,0
65553,-98.36710603974,4,1,0,85,0,0
65637,-96.786682152536,4,1,0,85,0,0
65720,-95.238095238095,4,1,0,85,0,0
65887,-99.102508650519,4,1,0,85,0,0
65970,-98.654467168999,4,1,0,85,0,0
66053,-98.215720945186,4,1,0,85,0,0
66220,-97.344662772172,4,1,0,85,0,0
66303,-96.917464178079,4,1,0,85,0,0
66387,-96.493998736576,4,1,0,85,0,0
66470,-96.069182389937,4,1,0,85,0,0
66553,-95.653081459062,4,1,0,85,0,0
66720,-94.826694257631,4,1,0,85,0,0
66887,-94.019286007386,4,1,0,85,0,0
66970,-93.615934627171,4,1,0,85,0,0
67053,-93.220769974063,4,1,0,85,0,0
67116,-92.956032253157,4,1,0,85,0,0
67178,-92.697481541418,4,1,0,85,0,0
67220,-92.435703479576,4,1,0,85,0,0
67303,-92.05041932406,4,1,0,85,0,0
67387,-91.668333666733,4,1,0,85,0,0
67470,-91.284860557769,4,1,0,85,0,0
67553,-90.909090909091,4,1,0,85,0,0
67720,-86.95652173913,4,1,0,85,0,0
67803,-88.393390404141,4,1,0,85,0,0
67887,-89.878542510121,4,1,0,85,0,0
67970,-91.433278418451,4,1,0,85,0,0
68053,-93.023255813953,4,1,0,85,0,0
68137,-94.669509594883,4,1,0,85,0,0
68220,-96.375081397873,4,1,0,85,0,0
68303,-98.164934777802,4,1,0,85,0,0
68387,-100,4,1,0,85,0,0
68553,-101.267744629166,4,1,0,85,0,0
68637,-101.909854851031,4,1,0,85,0,0
68803,-103.226804921458,4,1,0,85,0,0
68887,-103.894080996885,4,1,0,85,0,0
69053,-95.238095238095,4,1,0,85,0,0
69116,-96.394248139316,4,1,0,85,0,0
69178,-97.55740821998,4,1,0,85,0,0
69220,-98.770916629646,4,1,0,85,0,0
69282,-99.992504310022,4,1,0,85,0,0
69345,-101.267744629166,4,1,0,85,0,0
69387,-102.552275522755,4,1,0,85,0,0
69449,-103.894080996885,4,1,0,85,0,0
69512,-105.271464646465,4,1,0,85,0,0
69553,-106.660270248661,4,1,0,85,0,0
69637,-108.826888562571,4,1,0,85,0,0
69720,-111.111111111111,4,1,0,85,0,0
69887,-110.172939979654,4,1,0,85,0,0
69970,-109.704213938412,4,1,0,85,0,0
70053,-109.244968981692,4,1,0,85,0,0
70137,-108.789552988448,4,1,0,85,0,0
70303,-107.884644120137,4,1,0,85,0,0
70387,-107.440476190476,4,1,0,85,0,0
70470,-106.994665085951,4,1,0,85,0,0
70553,-106.557780292222,4,1,0,85,0,0
70637,-106.124448799608,4,1,0,85,0,0
70720,-105.689470088806,4,1,0,85,0,0
70782,-105.263157894737,4,1,0,100,0,0
70970,-92.284976005906,4,1,0,100,0,0
71053,-71.428571428571,4,1,0,100,0,0
71137,-72.721325774095,4,1,0,100,0,0
71220,-74.078187472235,4,1,0,100,0,0
71303,-75.469563249604,4,1,0,100,0,0
71470,-78.43367826905,4,1,0,100,0,0
71637,-81.620166421929,4,1,0,100,0,0
71720,-83.333333333333,4,1,0,100,0,0
71782,-100,4,1,0,70,0,0
72470,-101.459346768589,4,1,0,70,0,0
72637,-104.472271914132,4,1,0,70,0,0
72720,-106.066109698511,4,1,0,70,0,0
72887,-109.36329588015,4,1,0,70,0,0
72970,-111.111111111111,4,1,0,70,0,0
73449,-105.263157894737,4,1,0,100,0,0
73553,-98.386462022826,4,1,0,100,0,0
73637,-92.35315847802,4,1,0,100,0,0
73720,-71.428571428571,4,1,0,100,0,0
73803,-72.459986082116,4,1,0,100,0,0
73887,-73.521624007061,4,1,0,100,0,0
73970,-74.628202831034,4,1,0,100,0,0
74053,-75.754819934522,4,1,0,100,0,0
74220,-78.127930969799,4,1,0,100,0,0
74303,-79.363567073171,4,1,0,100,0,0
74470,-81.972052745523,4,1,0,100,0,0
74553,-83.333333333333,4,1,0,100,0,0
74616,-100,4,1,0,70,0,0
75137,-102.182104986417,4,1,0,70,0,0
75221,-104.48964961018,4,1,0,70,0,0
75304,-106.874427131072,4,1,0,70,0,0
75387,-109.370603132914,4,1,0,70,0,0
75554,-114.763779527559,4,1,0,70,0,0
75637,-117.647058823529,4,1,0,70,0,0
75804,-113.199003848766,4,1,0,70,0,0
75887,-111.111111111111,4,1,0,70,0,0
75971,-109.075043630017,4,1,0,70,0,0
76054,-107.135204628241,4,1,0,70,0,0
76137,-105.263157894737,4,1,0,70,0,0
76221,-103.434009102193,4,1,0,70,0,0
76304,-101.688021151108,4,1,0,70,0,0
76387,-100,4,1,0,70,0,0
80470,-99.285349668198,4,1,0,70,0,0
80553,-98.589169553096,4,1,0,70,0,0
80637,-97.902684563758,4,1,0,70,0,0
80720,-97.217594135288,4,1,0,70,0,0
80803,-96.550012410027,4,1,0,70,0,0
80887,-95.891536565325,4,1,0,70,0,0
80970,-95.2342092378,4,1,0,70,0,0
81053,-94.593499229959,4,1,0,70,0,0
81220,-93.330134357006,4,1,0,70,0,0
81303,-92.714705648685,4,1,0,70,0,0
81387,-92.107340173639,4,1,0,70,0,0
81470,-91.500705660969,4,1,0,70,0,0
81553,-90.909090909091,4,1,0,70,0,0
81699,-71.428571428571,4,1,0,100,0,0
81824,-73.550212164074,4,1,0,100,0,0
81907,-75.774134790528,4,1,0,100,0,0
81970,-78.136739293764,4,1,0,100,0,0
82137,-71.428571428571,4,1,0,100,0,0
82220,-74.9850029994,4,1,0,100,0,0
82303,-78.914141414141,4,1,0,100,0,0
82387,-83.333333333333,4,1,0,100,0,0
82449,-88.276836158192,4,1,0,85,0,0
82553,-93.77344336084,4,1,0,85,0,0
82637,-92.592592592593,4,1,0,85,0,0
82699,-71.428571428571,4,1,0,100,0,0
82803,-74.9850029994,4,1,0,100,0,0
82887,-78.914141414141,4,1,0,100,0,0
82970,-83.333333333333,4,1,0,100,0,0
83053,-88.888888888889,4,1,0,100,0,0
83137,-71.428571428571,4,1,0,100,0,0
83220,-74.9850029994,4,1,0,100,0,0
83303,-78.914141414141,4,1,0,100,0,0
83387,-83.333333333333,4,1,0,100,0,0
83449,-71.459135643988,4,1,0,100,0,0
83553,-90.909090909091,4,1,0,100,0,0
83637,-86.970139903947,4,1,0,100,0,0
83720,-83.316663332667,4,1,0,100,0,0
83803,-79.996158647844,4,1,0,100,0,0
83887,-76.930181012191,4,1,0,100,0,0
83970,-74.057610241821,4,1,0,100,0,0
84053,-71.422447054789,4,1,0,100,0,0
84137,-68.968372247061,4,1,0,100,0,0
84220,-66.650664106257,4,1,0,100,0,0
84303,-64.508634709208,4,1,0,100,0,0
84387,-62.5,4,1,0,100,0,0
84449,-63.5,4,1,0,85,0,0
84657,-65.586267951997,4,1,0,85,0,0
84720,-66.675,4,1,0,85,0,0
84803,-67.800488102502,4,1,0,85,0,0
84887,-68.964625568887,4,1,0,85,0,0
84970,-70.184210526316,4,1,0,85,0,0
85053,-71.43239768588,4,1,0,85,0,0
85137,-72.725785340314,4,1,0,85,0,0
85303,-75.475435816165,4,1,0,85,0,0
85387,-76.920858329488,4,1,0,85,0,0
85470,-78.441176470588,4,1,0,85,0,0
85553,-80.003599712023,4,1,0,85,0,0
85637,-81.629529872674,4,1,0,85,0,0
85720,-83.34375,4,1,0,85,0,0
85887,-86.952269170579,4,1,0,85,0,0
85970,-88.9,4,1,0,85,0,0
86053,-90.912189800927,4,1,0,85,0,0
86116,-92.322071448352,4,1,0,85,0,0
86178,-93.75,4,1,0,85,0,0
86220,-95.25,4,1,0,85,0,0
86282,-96.770682148041,4,1,0,85,0,0
86345,-98.369725582768,4,1,0,85,0,0
86387,-99.9925014997,4,1,0,85,0,0
86512,-103.46834264432,4,1,0,85,0,0
86616,-107.160077145612,4,1,0,85,0,0
86720,-111.125,4,1,0,85,0,0
86845,-115.394600207684,4,1,0,85,0,0
86949,-120.005399568035,4,1,0,85,0,0
87053,-125,4,1,0,85,0,0
87116,-142.857142857143,4,1,0,60,0,0
88366,-142.857142857143,4,1,0,70,0,0
89553,-136.976170912079,4,1,0,70,0,0
89637,-134.229809163379,4,1,0,70,0,0
89720,-131.560255701997,4,1,0,70,0,0
89887,-126.585162123168,4,1,0,70,0,0
89970,-124.208330228746,4,1,0,70,0,0
90053,-121.945866861741,4,1,0,70,0,0
90220,-117.634605885259,4,1,0,70,0,0
90387,-113.641011657236,4,1,0,70,0,0
90470,-111.721734468199,4,1,0,70,0,0
90553,-109.887936717205,4,1,0,70,0,0
90720,-106.37483249314,4,1,0,70,0,0
90887,-103.098521862824,4,1,0,70,0,0
90970,-101.516351013946,4,1,0,70,0,0
91032,-76.923076923077,4,1,0,85,0,0
91220,-80.469289164941,4,1,0,85,0,0
91387,-84.333863734992,4,1,0,85,0,0
91553,-88.615291077671,4,1,0,85,0,0
91637,-90.909090909091,4,1,0,85,0,0
91699,-105.263157894737,4,1,0,70,0,0
91887,-102.948966978633,4,1,0,70,0,0
91970,-100.708239765072,4,1,0,70,0,0
92053,-98.587976663566,4,1,0,70,0,0
92137,-96.555150712156,4,1,0,70,0,0
92220,-94.581440622972,4,1,0,70,0,0
92303,-92.708913095333,4,1,0,70,0,0
92366,-92.708913095333,4,1,0,85,0,0
92407,-83.333333333333,4,1,0,85,0,1
92553,-90.909090909091,4,1,0,85,0,1
96553,-89.886126271815,4,1,0,85,0,1
96637,-89.386223532565,4,1,0,85,0,1
96720,-88.88592750533,4,1,0,85,0,1
96887,-87.913536312113,4,1,0,85,0,1
96970,-87.429545156639,4,1,0,85,0,1
97053,-86.95652173913,4,1,0,85,0,1
97137,-86.488589211618,4,1,0,85,0,1
97220,-86.02011864844,4,1,0,85,0,1
97303,-85.562183310884,4,1,0,85,0,1
97387,-85.109097869083,4,1,0,85,0,1
97470,-84.655413123493,4,1,0,85,0,1
97553,-84.211855312165,4,1,0,85,0,1
97616,-83.915204126565,4,1,0,85,0,1
97678,-83.625877632899,4,1,0,85,0,1
97720,-80,4,1,0,85,0,1
97887,-90.909090909091,4,1,0,85,0,1
99032,-86.206896551724,4,1,0,100,0,1
99220,-79.352483732741,4,1,0,100,0,1
99303,-76.335877862595,4,1,0,100,0,1
99470,-70.911927386186,4,1,0,100,0,1
99574,-68.493150684932,4,1,0,100,0,0
99616,-111.111111111111,4,1,0,70,0,0
99949,-111.489361702128,4,1,0,70,0,0
100012,-111.870196413322,4,1,0,70,0,0
100053,-112.246771528245,4,1,0,70,0,0
100137,-112.819881889764,4,1,0,70,0,0
100220,-113.405886717784,4,1,0,70,0,0
100303,-113.990925477034,4,1,0,70,0,0
100387,-114.582031738098,4,1,0,70,0,0
100553,-115.790138266305,4,1,0,70,0,0
100637,-116.400101548616,4,1,0,70,0,0
100887,-118.276796078937,4,1,0,70,0,0
101053,-119.564508768499,4,1,0,70,0,0
101220,-120.880569470076,4,1,0,70,0,0
101282,-121.320367797843,4,1,0,70,0,0
101345,-121.771462718279,4,1,0,70,0,0
101387,-122.217779554845,4,1,0,70,0,0
101470,-122.905776705535,4,1,0,70,0,0
101553,-123.593234045421,4,1,0,70,0,0
101637,-124.288425047438,4,1,0,70,0,0
101699,-125,4,1,0,85,0,0
101803,-121.182743577315,4,1,0,85,0,0
101969,-114.285714285714,4,1,0,85,0,0
102053,-111.086425238836,4,1,0,85,0,0
102136,-108.096422008432,4,1,0,85,0,0
102219,-105.263157894737,4,1,0,85,0,0
102470,-83.333333333333,4,1,0,85,0,0
102553,-85.358711566618,4,1,0,85,0,0
102637,-87.484993997599,4,1,0,85,0,0
102720,-89.747536945813,4,1,0,85,0,0
102845,-92.923175007969,4,1,0,85,0,0
102949,-96.331791143424,4,1,0,85,0,0
103074,-100,4,1,0,85,0,1
103470,-98.347757671125,4,1,0,85,0,1
103532,-97.295193617435,4,1,0,85,0,1
103595,-96.246390760346,4,1,0,85,0,1
103637,-95.238095238095,4,1,0,85,0,1
103803,-93.457943925234,4,1,0,85,0,1
103887,-94.336569579288,4,1,0,85,0,1
103970,-95.242762856956,4,1,0,85,0,1
104053,-96.155432039716,4,1,0,85,0,1
104220,-98.045810769903,4,1,0,85,0,1
104303,-99.013264041032,4,1,0,85,0,1
104387,-83.333333333333,4,1,0,85,0,1
104470,-84.217171717172,4,1,0,85,0,1
104553,-85.109097869083,4,1,0,85,0,1
104637,-86.02011864844,4,1,0,85,0,1
104720,-86.962190352021,4,1,0,85,0,1
104803,-87.913536312113,4,1,0,85,0,1
104887,-88.88592750533,4,1,0,85,0,1
104970,-89.89218328841,4,1,0,85,0,1
105053,-90.909090909091,4,1,0,85,0,1
105137,-91.949269368624,4,1,0,85,0,1
105220,-93.02649930265,4,1,0,85,0,1
105303,-94.115987018485,4,1,0,85,0,1
105387,-95.231296402056,4,1,0,85,0,1
105470,-96.387283236994,4,1,0,85,0,1
105553,-97.55740821998,4,1,0,85,0,1
105637,-98.756292567367,4,1,0,85,0,1
105720,-100,4,1,0,85,0,1
106136,-98.347757671125,4,1,0,85,0,1
106198,-97.295193617435,4,1,0,85,0,1
106261,-96.246390760346,4,1,0,85,0,1
106303,-95.238095238095,4,1,0,85,0,1
106470,-93.457943925234,4,1,0,85,0,1
106554,-94.336569579288,4,1,0,85,0,1
106637,-95.242762856956,4,1,0,85,0,1
106720,-96.155432039716,4,1,0,85,0,1
106887,-98.045810769903,4,1,0,85,0,1
106970,-99.013264041032,4,1,0,85,0,1
107053,-83.333333333333,4,1,0,85,0,1
107137,-84.207201516109,4,1,0,85,0,1
107220,-85.110458434427,4,1,0,85,0,1
107303,-86.022199277233,4,1,0,85,0,1
107387,-86.953685583823,4,1,0,85,0,1
107470,-87.917161324364,4,1,0,85,0,1
107553,-88.890370765537,4,1,0,85,0,1
107637,-89.885367498314,4,1,0,85,0,1
107720,-90.915291229027,4,1,0,85,0,1
107803,-91.956401766004,4,1,0,85,0,1
107887,-93.021632937893,4,1,0,85,0,1
107970,-94.125123570117,4,1,0,85,0,1
108053,-95.241497570734,4,1,0,85,0,1
108137,-96.384671005061,4,1,0,85,0,1
108220,-97.569901917728,4,1,0,85,0,1
108303,-98.770005927682,4,1,0,85,0,1
108387,-100,4,1,0,85,0,1
108637,-98.625860315508,4,1,0,85,0,1
108720,-97.273087779048,4,1,0,85,0,1
108782,-96.407268691913,4,1,0,85,0,1
108845,-95.541401273885,4,1,0,85,0,1
108887,-94.706002589085,4,1,0,85,0,1
108970,-93.457943925234,4,1,0,85,0,1
109137,-93.457943925234,4,1,0,85,0,1
109221,-94.336569579288,4,1,0,85,0,1
109304,-95.242762856956,4,1,0,85,0,1
109387,-96.155432039716,4,1,0,85,0,1
109554,-98.045810769903,4,1,0,85,0,1
109637,-99.013264041032,4,1,0,85,0,1
109720,-83.333333333333,4,1,0,85,0,1
109803,-84.207201516109,4,1,0,85,0,1
109887,-85.099591419816,4,1,0,85,0,1
109970,-86.022199277233,4,1,0,85,0,1
110053,-86.953685583823,4,1,0,85,0,1
110137,-87.905565813769,4,1,0,85,0,1
110220,-88.890370765537,4,1,0,85,0,1
110303,-89.885367498314,4,1,0,85,0,1
110387,-90.902891434806,4,1,0,85,0,1
110470,-91.956401766004,4,1,0,85,0,1
110553,-93.021632937893,4,1,0,85,0,1
110637,-94.111832815589,4,1,0,85,0,1
110720,-95.241497570734,4,1,0,85,0,1
110803,-96.384671005061,4,1,0,85,0,1
110887,-97.555620608899,4,1,0,85,0,1
110970,-98.770005927682,4,1,0,85,0,1
111053,-100,4,1,0,85,0,1
111054,-100,4,1,0,85,0,1
111303,-98.625860315508,4,1,0,85,0,1
111386,-97.273087779048,4,1,0,85,0,1
111448,-96.407268691913,4,1,0,85,0,1
111511,-95.541401273885,4,1,0,85,0,1
111553,-94.706002589085,4,1,0,85,0,1
111636,-93.457943925234,4,1,0,85,0,1
111845,-93.900494467441,4,1,0,85,0,1
111887,-94.336569579288,4,1,0,85,0,1
111970,-95.242762856956,4,1,0,85,0,1
112053,-96.155432039716,4,1,0,85,0,1
112137,-97.085761865112,4,1,0,85,0,1
112220,-98.045810769903,4,1,0,85,0,1
112366,-100,4,1,0,70,0,1
112407,-100,4,1,0,70,0,0
112470,-101.275432736107,4,1,0,70,0,0
112553,-102.568045517453,4,1,0,70,0,0
112637,-103.894080996885,4,1,0,70,0,0
112720,-105.271464646465,4,1,0,70,0,0
112803,-106.668798976491,4,1,0,70,0,0
112887,-108.103727714749,4,1,0,70,0,0
112970,-109.595793624712,4,1,0,70,0,0
113053,-111.111111111111,4,1,0,70,0,0
113137,-112.668918918919,4,1,0,70,0,0
113220,-114.290610006854,4,1,0,70,0,0
113303,-115.939509820963,4,1,0,70,0,0
113512,-120.007196833393,4,1,0,70,0,0
113616,-122.452726271342,4,1,0,70,0,0
113720,-125,4,1,0,70,0,0
117720,-111.111111111111,4,1,0,70,0,0
117803,-111.885177102568,4,1,0,70,0,0
117887,-112.670103964162,4,1,0,70,0,0
117970,-113.475781050481,4,1,0,70,0,0
118053,-114.283264746228,4,1,0,70,0,0
118137,-115.102322770054,4,1,0,70,0,0
118303,-116.786402663396,4,1,0,70,0,0
118470,-118.52049435405,4,1,0,70,0,0
118553,-119.401648154783,4,1,0,70,0,0
118637,-120.296002165869,4,1,0,70,0,0
118845,-122.450854308286,4,1,0,70,0,0
118949,-123.712296983759,4,1,0,70,0,0
119053,-125,4,1,0,70,0,0
119220,-123.549440622611,4,1,0,70,0,0
119387,-122.140550937693,4,1,0,70,0,0
119449,-121.672483405187,4,1,0,70,0,0
119512,-121.207989638012,4,1,0,70,0,0
119553,-120.755229557186,4,1,0,70,0,0
119637,-120.078341325049,4,1,0,70,0,0
119803,-118.739147856284,4,1,0,70,0,0
119887,-118.084611808461,4,1,0,70,0,0
119970,-117.429496070273,4,1,0,70,0,0
120053,-116.789280084078,4,1,0,70,0,0
120178,-115.943919139224,4,1,0,70,0,0
120282,-115.110708273987,4,1,0,70,0,0
120387,-114.289387414026,4,1,0,70,0,0
120470,-113.675596189502,4,1,0,70,0,0
120553,-113.075553294327,4,1,0,70,0,0
120637,-112.481811855507,4,1,0,70,0,0
120803,-111.305872042068,4,1,0,70,0,0
120887,-110.730522513545,4,1,0,70,0,0
121053,-109.590729783037,4,1,0,70,0,0
121137,-109.032930643282,4,1,0,70,0,0
121220,-108.474162650235,4,1,0,70,0,0
121303,-107.927643559548,4,1,0,70,0,0
121470,-106.844540592512,4,1,0,70,0,0
121553,-106.314278880651,4,1,0,70,0,0
121720,-100,4,1,0,70,0,0
121803,-100.942788989436,4,1,0,70,0,0
121887,-101.903524195398,4,1,0,70,0,0
121970,-102.894635275955,4,1,0,70,0,0
122137,-104.911065638281,4,1,0,70,0,0
122220,-105.961844197138,4,1,0,70,0,0
122387,-108.101532722407,4,1,0,70,0,0
122470,-109.217533797624,4,1,0,70,0,0
122553,-110.343114937296,4,1,0,70,0,0
122720,-112.679628064243,4,1,0,70,0,0
122803,-113.878091495451,4,1,0,70,0,0
122887,-115.102322770054,4,1,0,70,0,0
122970,-116.368398079441,4,1,0,70,0,0
123053,-117.647058823529,4,1,0,70,0,0
123199,-105.263157894737,4,1,0,85,0,0
123387,-86.956521739131,4,1,0,85,0,0
123449,-111.111111111111,4,1,0,70,0,0
123637,-109.894459102902,4,1,0,70,0,0
123720,-108.689979123173,4,1,0,70,0,0
123887,-106.385696040868,4,1,0,70,0,0
123970,-105.256507455143,4,1,0,70,0,0
124053,-104.164061523071,4,1,0,70,0,0
124220,-102.03331700147,4,1,0,70,0,0
124387,-100,4,1,0,70,0,0
124553,-104.119216502896,4,1,0,70,0,0
124637,-103.559870550162,4,1,0,70,0,0
124803,-102.452455657297,4,1,0,70,0,0
124887,-101.910828025478,4,1,0,70,0,0
124970,-101.36847440446,4,1,0,70,0,0
125053,-100.838217684502,4,1,0,70,0,0
125220,-99.787950604964,4,1,0,70,0,0
125303,-99.274058447602,4,1,0,70,0,0
125470,-98.255956767379,4,1,0,70,0,0
125553,-97.75768314291,4,1,0,70,0,0
125720,-96.770291520503,4,1,0,70,0,0
125803,-96.286935066498,4,1,0,70,0,0
125970,-95.32888465205,4,1,0,70,0,0
126053,-94.859785379736,4,1,0,70,0,0
126220,-93.929787483856,4,1,0,70,0,0
126303,-93.474323771689,4,1,0,70,0,0
126470,-92.571164082388,4,1,0,70,0,0
126553,-92.128749928024,4,1,0,70,0,0
126637,-91.690544412607,4,1,0,70,0,0
126720,-91.25128322117,4,1,0,70,0,0
126803,-90.821365726287,4,1,0,70,0,0
126887,-90.395480225989,4,1,0,70,0,0
126970,-89.968511021143,4,1,0,70,0,0
127053,-89.550568086416,4,1,0,70,0,0
127220,-88.721304203172,4,1,0,70,0,0
127303,-88.314842413203,4,1,0,70,0,0
127387,-87.912087912088,4,1,0,70,0,0
127470,-87.508203894115,4,1,0,70,0,0
127553,-87.112756574291,4,1,0,70,0,0
127637,-86.720867208672,4,1,0,70,0,0
127720,-86.327829934175,4,1,0,70,0,0
127803,-85.942955363378,4,1,0,70,0,0
127887,-85.561497326203,4,1,0,70,0,0
127970,-85.178875638842,4,1,0,70,0,0
128053,-84.804155403615,4,1,0,70,0,0
128137,-84.4327176781,4,1,0,70,0,0
128220,-84.060102973626,4,1,0,70,0,0
128303,-83.695140450908,4,1,0,70,0,0
128387,-71.428571428571,4,1,0,70,0,0
128470,-72.604529616725,4,1,0,70,0,0
128637,-75.046144149822,4,1,0,70,0,0
128803,-77.673974326119,4,1,0,70,0,0
128887,-79.049696509863,4,1,0,70,0,0
128970,-80.492515692902,4,1,0,70,0,0
129178,-84.034884307103,4,1,0,70,0,0
129282,-86.205559146736,4,1,0,70,0,0
129387,-88.491347276781,4,1,0,70,0,0
129512,-90.923966401222,4,1,0,70,0,0
129616,-93.470520620146,4,1,0,70,0,0
129720,-96.163830400923,4,1,0,70,0,0
130053,-105.263157894737,4,1,0,70,0,0
130220,-105.883598630572,4,1,0,70,0,0
130303,-106.194690265487,4,1,0,70,0,0
130387,-106.507615294494,4,1,0,70,0,0
130553,-107.142857142857,4,1,0,70,0,0
130720,-107.785721984694,4,1,0,70,0,0
130887,-108.432428524958,4,1,0,70,0,0
130970,-108.762643657325,4,1,0,70,0,0
131053,-109.090909090909,4,1,0,70,0,0
131137,-109.421162052741,4,1,0,70,0,0
131220,-109.757436066293,4,1,0,70,0,0
131303,-110.091743119266,4,1,0,70,0,0
131387,-110.428092906836,4,1,0,70,0,0
131470,-110.77059409962,4,1,0,70,0,0
131553,-111.111111111111,4,1,0,70,0,0
131637,-111.453728127206,4,1,0,70,0,0
131803,-112.14953271028,4,1,0,70,0,0
131887,-112.498593767578,4,1,0,70,0,0
131970,-112.85407967498,4,1,0,70,0,0
132053,-113.207547169811,4,1,0,70,0,0
132220,-113.925492727756,4,1,0,70,0,0
132303,-114.285714285714,4,1,0,70,0,0
132387,-114.64822104177,4,1,0,70,0,0
132470,-115.017444312387,4,1,0,70,0,0
132553,-115.384615384615,4,1,0,70,0,0
132637,-115.754138210441,4,1,0,70,0,0
132720,-116.130530716525,4,1,0,70,0,0
132887,-116.881598940274,4,1,0,70,0,0
133053,-105.362182502352,4,1,0,70,0,0
133116,-107.245451643792,4,1,0,70,0,0
133178,-109.16179337232,4,1,0,70,0,0
133220,-111.184645929848,4,1,0,70,0,0
133282,-113.24570273003,4,1,0,70,0,0
133345,-115.424252834078,4,1,0,70,0,0
133387,-117.647058823529,4,1,0,70,0,0
133470,-112.647554806071,4,1,0,70,0,0
133553,-108.108108108108,4,1,0,70,0,0
133637,-103.92034847542,4,1,0,70,0,0
133699,-83.333333333333,4,1,0,85,0,0
134053,-90.909090909091,4,1,0,85,0,0
137887,-90.909090909091,4,1,0,85,0,0
138053,-89.741617963703,4,1,0,85,0,0
138137,-89.172461221059,4,1,0,85,0,0
138303,-88.04889090086,4,1,0,85,0,0
138387,-87.500937242258,4,1,0,85,0,0
138553,-86.418838862559,4,1,0,85,0,0
138637,-85.89092514904,4,1,0,85,0,0
138720,-85.363177529076,4,1,0,85,0,0
138803,-84.848044205322,4,1,0,85,0,0
138887,-84.339090843391,4,1,0,85,0,0
138970,-83.830184613174,4,1,0,85,0,0
139053,-83.333333333333,4,1,0,85,0,0
139387,-90.909090909091,4,1,0,85,0,0
143637,-91.740088105727,4,1,0,85,0,0
143720,-92.596709648733,4,1,0,85,0,0
143803,-93.45899248289,4,1,0,85,0,0
143887,-94.337485843715,4,1,0,85,0,0
143970,-95.243539903956,4,1,0,85,0,0
144053,-96.156066027935,4,1,0,85,0,0
144116,-96.781689322644,4,1,0,85,0,0
144178,-97.404115996258,4,1,0,85,0,0
144220,-98.046139359699,4,1,0,85,0,0
144387,-100,4,1,0,85,0,0
144699,-111.111111111111,4,1,0,85,0,0
144887,-110.554885404101,4,1,0,85,0,0
144970,-110.275538443027,4,1,0,85,0,0
145053,-110.000900171032,4,1,0,85,0,0
145220,-109.452439242849,4,1,0,85,0,0
145303,-109.181880453882,4,1,0,85,0,0
145387,-108.912655971479,4,1,0,85,0,0
145470,-108.641536273115,4,1,0,85,0,0
145553,-108.374966742543,4,1,0,85,0,0
145720,-107.842560451844,4,1,0,85,0,0
145887,-107.31850117096,4,1,0,85,0,0
145970,-107.055250554842,4,1,0,85,0,0
146053,-106.7963993358,4,1,0,85,0,0
146137,-106.538796861378,4,1,0,85,0,0
146220,-106.279352930945,4,1,0,85,0,0
146303,-106.024235763658,4,1,0,85,0,0
146387,-105.770340450087,4,1,0,85,0,0
146470,-105.514621229565,4,1,0,85,0,0
146553,-105.263157894737,4,1,0,85,0,0
146720,-104.76081613991,4,1,0,85,0,0
146803,-104.512928699718,4,1,0,85,0,0
146887,-104.266211604096,4,1,0,85,0,0
146970,-104.017705141301,4,1,0,85,0,0
147053,-103.773317858861,4,1,0,85,0,0
147220,-103.285062264045,4,1,0,85,0,0
147387,-102.804262478968,4,1,0,85,0,0
147553,-102.325062104,4,1,0,85,0,0
147637,-102.088554720134,4,1,0,85,0,0
147720,-101.850308384731,4,1,0,85,0,0
147887,-101.382743362832,4,1,0,85,0,0
147970,-101.147776183644,4,1,0,85,0,0
148053,-100.9166735486,4,1,0,85,0,0
148137,-100.686624553694,4,1,0,85,0,0
148220,-100.454869293583,4,1,0,85,0,0
148303,-100.226918555376,4,1,0,85,0,0
148387,-100,4,1,0,85,0,0
148553,-71.428571428571,4,1,0,85,0,0
148637,-74.521201281765,4,1,0,85,0,0
148720,-77.936248149014,4,1,0,85,0,0
148803,-81.632653061224,4,1,0,85,0,0
148887,-85.697146285029,4,1,0,85,0,0
148970,-90.244562765093,4,1,0,85,0,0
149053,-95.238095238095,4,1,0,85,0,0
149137,-96.382054992764,4,1,0,85,0,0
149220,-97.568121886903,4,1,0,85,0,0
149387,-100,4,1,0,85,0,0
149470,-99.613864116944,4,1,0,85,0,0
149553,-99.235242936301,4,1,0,85,0,0
149637,-98.859489051095,4,1,0,85,0,0
149720,-98.482094164697,4,1,0,85,0,0
149887,-97.744700045106,4,1,0,85,0,0
149970,-97.375752673677,4,1,0,85,0,0
150137,-96.654772524532,4,1,0,85,0,0
150220,-96.293992179168,4,1,0,85,0,0
150303,-95.94014255988,4,1,0,85,0,0
150387,-95.588883987649,4,1,0,85,0,0
150553,-94.889871699435,4,1,0,85,0,0
150720,-94.201008520257,4,1,0,85,0,0
150803,-93.862346775241,4,1,0,85,0,0
150970,-93.188268684957,4,1,0,85,0,0
151053,-92.856836782791,4,1,0,85,0,0
151137,-92.527754056362,4,1,0,85,0,0
151220,-92.197072838666,4,1,0,85,0,0
151303,-91.872641709416,4,1,0,85,0,0
151387,-91.550485847064,4,1,0,85,0,0
151470,-91.226740759451,4,1,0,85,0,0
151553,-90.909090909091,4,1,0,85,0,0
151721,-92.856836782791,4,1,0,85,0,0
151805,-92.527754056362,4,1,0,85,0,0
151888,-92.197072838666,4,1,0,85,0,0
151971,-91.872641709416,4,1,0,85,0,0
152055,-91.550485847064,4,1,0,85,0,0
152138,-91.226740759451,4,1,0,85,0,0
152221,-90.909090909091,4,1,0,85,0,0
152387,-92.592592592593,4,1,0,85,0,0
152470,-92.002318168647,4,1,0,85,0,0
152553,-91.42641664667,4,1,0,85,0,0
152637,-90.857680148261,4,1,0,85,0,0
152720,-90.289250602605,4,1,0,85,0,0
152803,-89.734531139598,4,1,0,85,0,0
152887,-89.18658623042,4,1,0,85,0,0
152970,-88.638810970341,4,1,0,85,0,0
153053,-88.104126061247,4,1,0,85,0,0
153220,-87.047626507912,4,1,0,85,0,0
153303,-86.531910061322,4,1,0,85,0,0
153387,-86.022268381736,4,1,0,85,0,0
153470,-85.51256236293,4,1,0,85,0,0
153553,-85.014822606866,4,1,0,85,0,0
153637,-84.522843669185,4,1,0,85,0,0
153720,-84.030700980516,4,1,0,85,0,0
153803,-83.550014097303,4,1,0,85,0,0
153887,-83.074795350054,4,1,0,85,0,0
153970,-82.59932359609,4,1,0,85,0,0
154053,-82.13482800037,4,1,0,85,0,0
154137,-81.675527353799,4,1,0,85,0,0
154220,-81.215893587995,4,1,0,85,0,0
154303,-80.766784773326,4,1,0,85,0,0
154387,-80.322615619993,4,1,0,85,0,0
154470,-79.878041475482,4,1,0,85,0,0
154553,-79.44356736469,4,1,0,85,0,0
154637,-79.013794084187,4,1,0,85,0,0
154720,-78.583551375433,4,1,0,85,0,0
154803,-78.163008118168,4,1,0,85,0,0
154887,-77.746942011917,4,1,0,85,0,0
154970,-77.330348754944,4,1,0,85,0,0
155053,-76.923076923077,4,1,0,85,0,0
155116,-66.666666666667,4,1,0,100,0,0
155282,-100,4,1,0,70,0,0
156512,-102.055800293686,4,1,0,70,0,0
156616,-104.178377365561,4,1,0,70,0,0
156720,-106.391121316494,4,1,0,70,0,0
156845,-108.699902248289,4,1,0,70,0,0
156949,-111.111111111111,4,1,0,70,0,0
157220,-100,4,1,0,70,0,0
157303,-100.556412147215,4,1,0,70,0,0
157387,-101.119050829176,4,1,0,70,0,0
157470,-101.694915254237,4,1,0,70,0,0
157553,-102.270402945388,4,1,0,70,0,0
157637,-102.852441031267,4,1,0,70,0,0
157720,-103.448275862069,4,1,0,70,0,0
157887,-104.646295521139,4,1,0,70,0,0
157970,-105.263157894737,4,1,0,70,0,0
158053,-105.879861650314,4,1,0,70,0,0
158137,-106.503834138029,4,1,0,70,0,0
158220,-107.142857142857,4,1,0,70,0,0
158387,-108.428509469423,4,1,0,70,0,0
158553,-109.753420648277,4,1,0,70,0,0
158713,-111.111111111111,4,1,0,85,0,0
158782,-105.313092979127,4,1,0,85,0,0
158845,-100,4,1,0,85,0,0
158887,-95.278969957082,4,1,0,85,0,0
158949,-90.909090909091,4,1,0,85,0,0
159012,-86.922474549726,4,1,0,85,0,0
159053,-83.333333333333,4,1,0,85,0,0
159303,-88.88592750533,4,1,0,85,0,0
159470,-93.02649930265,4,1,0,85,0,0
159553,-95.231296402056,4,1,0,85,0,0
159720,-100,4,1,0,85,0,0
159887,-97.568121886903,4,1,0,85,0,0
159949,-96.774193548387,4,1,0,85,0,0
160012,-95.993081579706,4,1,0,85,0,0
160053,-95.238095238095,4,1,0,85,0,0
160137,-94.120972300735,4,1,0,85,0,0
160220,-93.016759776536,4,1,0,85,0,0
160303,-91.950849095679,4,1,0,85,0,0
160407,-83.333333333333,4,1,0,85,0,1
160553,-90.909090909091,4,1,0,85,0,1
164553,-89.886126271815,4,1,0,85,0,1
164637,-89.386223532565,4,1,0,85,0,1
164720,-88.88592750533,4,1,0,85,0,1
164887,-87.913536312113,4,1,0,85,0,1
164970,-87.429545156639,4,1,0,85,0,1
165053,-86.95652173913,4,1,0,85,0,1
165137,-86.488589211618,4,1,0,85,0,1
165303,-85.562183310884,4,1,0,85,0,1
165387,-85.109097869083,4,1,0,85,0,1
165470,-84.655413123493,4,1,0,85,0,1
165553,-84.211855312165,4,1,0,85,0,1
165616,-83.915204126565,4,1,0,85,0,1
165678,-83.625877632899,4,1,0,85,0,1
165720,-80,4,1,0,85,0,1
165887,-90.909090909091,4,1,0,85,0,1
167032,-86.206896551724,4,1,0,100,0,1
167220,-79.352483732741,4,1,0,100,0,1
167303,-76.335877862595,4,1,0,100,0,1
167470,-70.911927386186,4,1,0,100,0,1
167574,-68.493150684932,4,1,0,100,0,0
167616,-111.111111111111,4,1,0,70,0,0
167949,-111.489361702128,4,1,0,70,0,0
168012,-111.870196413322,4,1,0,70,0,0
168053,-112.246771528245,4,1,0,70,0,0
168137,-112.819881889764,4,1,0,70,0,0
168220,-113.405886717784,4,1,0,70,0,0
168303,-113.990925477034,4,1,0,70,0,0
168387,-114.582031738098,4,1,0,70,0,0
168553,-115.790138266305,4,1,0,70,0,0
168637,-116.400101548616,4,1,0,70,0,0
168887,-118.276796078937,4,1,0,70,0,0
169053,-119.564508768499,4,1,0,70,0,0
169220,-120.880569470076,4,1,0,70,0,0
169282,-121.320367797843,4,1,0,70,0,0
169345,-121.771462718279,4,1,0,70,0,0
169387,-122.217779554845,4,1,0,70,0,0
169470,-122.905776705535,4,1,0,70,0,0
169553,-123.593234045421,4,1,0,70,0,0
169637,-124.288425047438,4,1,0,70,0,0
169699,-125,4,1,0,85,0,0
169803,-121.182743577315,4,1,0,85,0,0
169969,-114.285714285714,4,1,0,85,0,0
170053,-111.086425238836,4,1,0,85,0,0
170136,-108.096422008432,4,1,0,85,0,0
170219,-105.263157894737,4,1,0,85,0,0
170470,-83.333333333333,4,1,0,85,0,0
170553,-85.358711566618,4,1,0,85,0,0
170637,-87.484993997599,4,1,0,85,0,0
170720,-89.747536945813,4,1,0,85,0,0
170845,-92.923175007969,4,1,0,85,0,0
170949,-96.331791143424,4,1,0,85,0,0
171053,-100,4,1,0,85,0,0
171116,-101.914478963659,4,1,0,70,0,0
171387,-103.891550777142,4,1,0,70,0,0
171470,-104.921515401865,4,1,0,70,0,0
171637,-107.018177440713,4,1,0,70,0,0
171803,-109.213759213759,4,1,0,70,0,0
171887,-110.338835794961,4,1,0,70,0,0
171970,-111.501316944688,4,1,0,70,0,0
172053,-112.674271229404,4,1,0,70,0,0
172220,-115.110708273987,4,1,0,70,0,0
172387,-117.639274844515,4,1,0,70,0,0
172470,-118.961595075606,4,1,0,70,0,0
172553,-120.297699594046,4,1,0,70,0,0
172637,-121.664157657041,4,1,0,70,0,0
172720,-123.079053025059,4,1,0,70,0,0
172845,-125,4,1,0,70,0,0
172949,-126.981859734324,4,1,0,70,0,0
173053,-129.027576197388,4,1,0,70,0,0
173303,-133.885542168675,4,1,0,70,0,0
173366,-142.857142857143,4,1,0,40,0,0
173991,-12.5,4,1,0,40,0,0
174046,-142.857142857143,4,1,0,40,0,0
180366,-142.857142857143,4,1,0,70,0,0
180720,-100,4,1,0,70,0,0
180887,-105.241001894338,4,1,0,70,0,0
181053,-111.098766803688,4,1,0,70,0,0
181220,-117.647058823529,4,1,0,70,0,0
181387,-124.968757810547,4,1,0,70,0,0
181553,-133.31555792561,4,1,0,70,0,0
181720,-142.857142857143,4,1,0,70,0,0
186553,-125,4,1,0,70,0,0
186887,-129.87012987013,4,1,0,70,0,0
186949,-125.497858270083,4,1,0,70,0,0
187012,-121.410396219557,4,1,0,70,0,0
187046,-117.647058823529,4,1,0,85,0,0
187387,-119.401648154783,4,1,0,85,0,0
187553,-120.301430440865,4,1,0,85,0,0
187887,-122.136705149349,4,1,0,85,0,0
188053,-123.078343566779,4,1,0,85,0,0
188387,-125,4,1,0,85,0,0
188637,-123.552838751505,4,1,0,85,0,0
188720,-123.074084325122,4,1,0,85,0,0
188887,-122.13880241714,4,1,0,85,0,0
189220,-120.299395797637,4,1,0,85,0,0
189387,-119.405656999642,4,1,0,85,0,0
189553,-118.519834747457,4,1,0,85,0,0
189637,-118.084447198371,4,1,0,85,0,0
189720,-117.647058823529,4,1,0,85,0,0
190053,-119.401648154783,4,1,0,85,0,0
190220,-120.301430440865,4,1,0,85,0,0
190553,-122.136705149349,4,1,0,85,0,0
190720,-123.078343566779,4,1,0,85,0,0
191053,-125,4,1,0,85,0,0
191199,-71.428571428571,4,1,0,100,0,0
191616,-125,4,1,0,70,0,0
202720,-117.633219621221,4,1,0,70,0,0
202803,-114.285714285714,4,1,0,70,0,0
202887,-111.123458162018,4,1,0,70,0,0
202949,-109.086942293008,4,1,0,70,0,0
203012,-107.123727905731,4,1,0,70,0,0
203053,-105.263157894737,4,1,0,70,0,0
204470,-95.238095238095,4,1,0,70,0,0
204553,-95.84419567551,4,1,0,70,0,0
204637,-96.458060035497,4,1,0,70,0,0
204720,-97.087378640777,4,1,0,70,0,0
204803,-97.717323327079,4,1,0,70,0,0
204887,-98.355496105122,4,1,0,70,0,0
204970,-99.009900990099,4,1,0,70,0,0
205053,-99.665125179397,4,1,0,70,0,0
205137,-100.329079380368,4,1,0,70,0,0
205220,-101.010101010101,4,1,0,70,0,0
205303,-101.692157500814,4,1,0,70,0,0
205387,-102.383487591121,4,1,0,70,0,0
205470,-103.092783505155,4,1,0,70,0,0
205553,-103.803354924431,4,1,0,70,0,0
205637,-104.523789614516,4,1,0,70,0,0
205720,-105.263157894737,4,1,0,70,0,0
205887,-105.263157894737,4,1,0,70,0,0
205963,-106.066802999318,4,1,0,85,0,0
206012,-106.463531450988,4,1,0,85,0,0
206053,-106.873025321672,4,1,0,85,0,0
206102,-107.691597840631,4,1,0,70,0,0
206220,-108.532899325738,4,1,0,70,0,0
206303,-109.377196682131,4,1,0,70,0,0
206387,-110.234732914561,4,1,0,70,0,0
206470,-111.116400856939,4,1,0,70,0,0
206553,-112.001535582322,4,1,0,70,0,0
206637,-112.900885212596,4,1,0,70,0,0
206720,-113.825896122897,4,1,0,70,0,0
207053,-117.647058823529,4,1,0,70,0,0
207303,-114.285714285714,4,1,0,70,0,0
207512,-111.794298490777,4,1,0,70,0,0
207616,-110.424028268551,4,1,0,70,0,0
207720,-109.086942293008,4,1,0,70,0,0
207803,-108.108108108108,4,1,0,70,0,0
207887,-107.146683810136,4,1,0,70,0,0
207970,-106.190931294467,4,1,0,70,0,0
208053,-105.263157894737,4,1,0,70,0,0
208116,-102.540415704388,4,1,0,70,0,0
208178,-100,4,1,0,70,0,0
208220,-97.539543057996,4,1,0,70,0,0
208282,-95.238095238095,4,1,0,70,0,0
208345,-93.003770423125,4,1,0,70,0,0
208387,-90.909090909091,4,1,0,70,0,0
208553,-104.232618126392,4,1,0,70,0,0
208637,-103.727903856251,4,1,0,70,0,0
208720,-103.22206095791,4,1,0,70,0,0
208803,-102.727062629998,4,1,0,70,0,0
208887,-102.23678914381,4,1,0,70,0,0
208970,-101.745350500715,4,1,0,70,0,0
209053,-101.264380908987,4,1,0,70,0,0
209220,-100.310296191819,4,1,0,70,0,0
209303,-99.842767295597,4,1,0,70,0,0
209387,-99.379576323291,4,1,0,70,0,0
209470,-98.915159944367,4,1,0,70,0,0
209637,-98.010032523014,4,1,0,70,0,0
209720,-97.558299039781,4,1,0,70,0,0
209887,-96.677722799195,4,1,0,70,0,0
209970,-96.238159675237,4,1,0,70,0,0
210053,-95.807737902791,4,1,0,70,0,0
210137,-95.381149079985,4,1,0,70,0,0
210220,-94.953271028037,4,1,0,70,0,0
210303,-94.534240748618,4,1,0,70,0,0
210387,-94.118892594357,4,1,0,70,0,0
210553,-93.294154685696,4,1,0,70,0,0
210637,-92.889608693381,4,1,0,70,0,0
210720,-92.483745123537,4,1,0,70,0,0
210887,-91.692022072095,4,1,0,70,0,0
210970,-91.296534017972,4,1,0,70,0,0
211053,-90.909090909091,4,1,0,70,0,0
211178,-93.021632937893,4,1,0,70,0,0
211387,-97.555620608899,4,1,0,70,0,0
211512,-100.015006002401,4,1,0,70,0,0
211616,-102.577914582532,4,1,0,70,0,0
211720,-105.275627862897,4,1,0,70,0,0
211845,-108.119068862033,4,1,0,70,0,0
212053,-114.293063534254,4,1,0,70,0,0
212178,-117.652250661959,4,1,0,70,0,0
212282,-121.214876784578,4,1,0,70,0,0
212387,-125,4,1,0,70,0,0
212553,-83.333333333333,4,1,0,70,0,0
212616,-84.516565246788,4,1,0,70,0,0
212678,-85.711836804663,4,1,0,70,0,0
212720,-86.964083833377,4,1,0,70,0,0
212782,-88.230104111523,4,1,0,70,0,0
212845,-89.557585527494,4,1,0,70,0,0
212887,-90.900827197527,4,1,0,70,0,0
212949,-92.310532631773,4,1,0,70,0,0
213012,-93.764650726676,4,1,0,70,0,0
213053,-95.238095238095,4,1,0,70,0,0
213220,-93.020012551426,4,1,0,70,0,0
213387,-90.915286580795,4,1,0,70,0,0
213553,-88.891850469781,4,1,0,70,0,0
213616,-88.233348766453,4,1,0,70,0,0
213678,-87.596033882724,4,1,0,70,0,0
213720,-86.95652173913,4,1,0,70,0,0
213887,-87.316635066361,4,1,0,70,0,0
214053,-87.681940025553,4,1,0,70,0,0
214220,-88.050314465409,4,1,0,70,0,0
214303,-88.234552650818,4,1,0,70,0,0
214470,-88.607594936709,4,1,0,70,0,0
214553,-88.794175102113,4,1,0,70,0,0
214637,-88.981542685717,4,1,0,70,0,0
214720,-89.171974522293,4,1,0,70,0,0
214803,-89.360941609008,4,1,0,70,0,0
214970,-89.74358974359,4,1,0,70,0,0
215053,-89.934989850194,4,1,0,70,0,0
215137,-90.127208116599,4,1,0,70,0,0
215220,-90.322580645161,4,1,0,70,0,0
215303,-90.516461064991,4,1,0,70,0,0
215470,-90.909090909091,4,1,0,70,0,0
215553,-90.536199654065,4,1,0,85,0,0
215637,-90.166354956196,4,1,0,85,0,0
215720,-89.795118125674,4,1,0,85,0,0
215803,-89.431291188675,4,1,0,85,0,0
215887,-89.070400622326,4,1,0,85,0,0
215970,-88.708115436762,4,1,0,85,0,0
216053,-88.353026284061,4,1,0,85,0,0
216137,-88.000768565664,4,1,0,85,0,0
216220,-87.647115108602,4,1,0,85,0,0
216303,-87.300452704313,4,1,0,85,0,0
216387,-86.95652173913,4,1,0,85,0,0
216553,-87.336930895374,4,1,0,85,0,0
216637,-87.527237405161,4,1,0,85,0,0
216720,-87.720683032073,4,1,0,85,0,0
216887,-88.105494040855,4,1,0,85,0,0
216970,-88.301507005324,4,1,0,85,0,0
217137,-88.691442100503,4,1,0,85,0,0
217220,-88.890073852881,4,1,0,85,0,0
217303,-89.087216759299,4,1,0,85,0,0
217387,-89.285236067593,4,1,0,85,0,0
217553,-89.686339914994,4,1,0,85,0,0
217637,-89.887034590601,4,1,0,85,0,0
217720,-90.091063852785,4,1,0,85,0,0
217887,-90.497000624304,4,1,0,85,0,0
218053,-90.909090909091,4,1,0,85,0,0
218137,-90.567404791016,4,1,0,85,0,0
218220,-90.22420715478,4,1,0,85,0,0
218303,-89.887640449438,4,1,0,85,0,0
218387,-89.553575426499,4,1,0,85,0,0
218470,-89.218004193246,4,1,0,85,0,0
218637,-88.562192799894,4,1,0,85,0,0
218720,-88.233996558874,4,1,0,85,0,0
218803,-87.912087912088,4,1,0,85,0,0
218887,-87.592519598826,4,1,0,85,0,0
218970,-87.271457869704,4,1,0,85,0,0
219053,-86.95652173913,4,1,0,85,0,0
219220,-87.273361988087,4,1,0,85,0,0
219387,-87.590601528456,4,1,0,85,0,0
219553,-87.912087912088,4,1,0,85,0,0
219720,-88.235942911345,4,1,0,85,0,0
219803,-88.397790055249,4,1,0,85,0,0
219887,-88.560232027808,4,1,0,85,0,0
219970,-88.725240112681,4,1,0,85,0,0
220053,-88.888888888889,4,1,0,85,0,0
220137,-89.053142462765,4,1,0,85,0,0
220303,-89.385474860335,4,1,0,85,0,0
220387,-89.551570510668,4,1,0,85,0,0
220470,-89.720296974183,4,1,0,85,0,0
220553,-89.887640449438,4,1,0,85,0,0
220637,-90.055609338767,4,1,0,85,0,0
220720,-90.226242302574,4,1,0,85,0,0
220782,-90.338316997154,4,1,0,85,0,0
220845,-90.452715842793,4,1,0,85,0,0
220887,-90.565354223742,4,1,0,85,0,0
220949,-90.680329169595,4,1,0,85,0,0
221012,-90.795596413574,4,1,0,85,0,0
221053,-90.909090909091,4,1,0,85,0,0
221220,-93.02649930265,4,1,0,85,0,0
221387,-95.231296402056,4,1,0,85,0,0
221470,-96.387283236994,4,1,0,85,0,0
221553,-97.55740821998,4,1,0,85,0,0
221637,-98.756292567367,4,1,0,85,0,0
221720,-76.923076923077,4,1,0,85,0,0
221803,-78.939059046416,4,1,0,85,0,0
221887,-81.0635538262,4,1,0,85,0,0
221970,-83.333333333333,4,1,0,85,0,0
222053,-85.704490915324,4,1,0,85,0,0
222137,-88.214537755822,4,1,0,85,0,0
222220,-76.923076923077,4,1,0,85,0,0
222303,-78.939059046416,4,1,0,85,0,0
222387,-81.0635538262,4,1,0,85,0,0
222470,-83.333333333333,4,1,0,85,0,0
222553,-85.704490915324,4,1,0,85,0,0
222637,-88.214537755822,4,1,0,85,0,0
222720,-76.923076923077,4,1,0,85,0,0
222803,-78.939059046416,4,1,0,85,0,0
222887,-81.0635538262,4,1,0,85,0,0
222970,-83.333333333333,4,1,0,85,0,0
223053,-85.704490915324,4,1,0,85,0,0
223137,-88.214537755822,4,1,0,85,0,0
223220,-90.909090909091,4,1,0,85,0,0
223303,-89.747536945813,4,1,0,85,0,0
223387,-88.615291077671,4,1,0,85,0,0
223470,-87.498123968182,4,1,0,85,0,0
223553,-86.421583160391,4,1,0,85,0,0
223637,-85.371211011861,4,1,0,85,0,0
223720,-84.333863734992,4,1,0,85,0,0
223803,-83.333333333333,4,1,0,85,0,0
223887,-82.356265009182,4,1,0,85,0,0
224053,-80.458183825559,4,1,0,85,0,0
224137,-79.547005048438,4,1,0,85,0,0
224220,-78.645622554971,4,1,0,85,0,0
224282,-78.066416711302,4,1,0,85,0,0
224345,-77.485380116959,4,1,0,85,0,0
224387,-76.923076923077,4,1,0,85,0,0
224553,-78.821373684833,4,1,0,85,0,0
224720,-80.81573285658,4,1,0,85,0,0
224887,-82.90074912188,4,1,0,85,0,0
225053,-85.109777891243,4,1,0,85,0,0
225220,-87.439756073571,4,1,0,85,0,0
225387,-89.885747025715,4,1,0,85,0,0
225553,-92.488555971702,4,1,0,85,0,0
225720,-95.246598335774,4,1,0,85,0,0
225887,-98.156122336314,4,1,0,85,0,0
226053,-101.26822600243,4,1,0,85,0,0
226282,-105.724252755094,4,1,0,85,0,0
226387,-108.102630618945,4,1,0,85,0,0
226616,-113.219561895059,4,1,0,85,0,0
226845,-118.81849772788,4,1,0,85,0,0
227053,-66.666666666667,4,1,0,85,0,0
227845,-83.389601620527,4,1,0,85,0,0
227887,-83.83436772692,4,1,0,85,0,0
227949,-84.292121684867,4,1,0,85,0,0
228012,-84.754901960784,4,1,0,85,0,0
228137,-85.917312661499,4,1,0,85,0,0
228220,-86.640609340549,4,1,0,85,0,0
228303,-87.367357251137,4,1,0,85,0,0
228387,-88.106400326131,4,1,0,85,0,0
228449,-88.612136121361,4,1,0,85,0,0
228512,-89.123711340206,4,1,0,85,0,0
228553,-89.631933644375,4,1,0,85,0,0
228616,-90.155386380227,4,1,0,85,0,0
228678,-90.675477239354,4,1,0,85,0,0
228720,-91.211225997046,4,1,0,85,0,0
228803,-92.017030335285,4,1,0,85,0,0
228887,-92.837199312715,4,1,0,85,0,0
228970,-93.682271348071,4,1,0,85,0,0
229053,-94.532531437944,4,1,0,85,0,0
229220,-96.290933392738,4,1,0,85,0,0
229303,-97.189432265318,4,1,0,85,0,0
229387,-98.104857013164,4,1,0,85,0,0
229470,-99.049037580202,4,1,0,85,0,0
229553,-100,4,1,0,85,0,0
229699,-76.923076923077,4,1,0,100,0,0
229803,-75.007500750075,4,1,0,100,0,0
229887,-73.185011709602,4,1,0,100,0,0
229970,-71.428571428571,4,1,0,100,0,0
230053,-69.773932458833,4,1,0,100,0,0
230137,-68.194217130387,4,1,0,100,0,0
230220,-66.666666666667,4,1,0,100,0,0
230282,-76.923076923077,4,1,0,85,0,0
230449,-77.286135693215,4,1,0,85,0,0
230512,-77.652637818613,4,1,0,85,0,0
230553,-78.015994555045,4,1,0,85,0,0
230616,-78.389468285177,4,1,0,85,0,0
230678,-78.759769818775,4,1,0,85,0,0
230720,-79.14041598343,4,1,0,85,0,0
230782,-79.517863336802,4,1,0,85,0,0
230845,-79.9058905542,4,1,0,85,0,0
230949,-80.686317641883,4,1,0,85,0,0
231053,-81.482139683668,4,1,0,85,0,0
231116,-81.889623146991,4,1,0,85,0,0
231178,-82.293816745939,4,1,0,85,0,0
231220,-82.709479570668,4,1,0,85,0,0
231282,-83.121827411168,4,1,0,85,0,0
231345,-83.545918367347,4,1,0,85,0,0
231387,-83.96666971889,4,1,0,85,0,0
231449,-84.399447768063,4,1,0,85,0,0
231512,-84.83671014895,4,1,0,85,0,0
231553,-85.270596987168,4,1,0,85,0,0
231616,-85.716956440456,4,1,0,85,0,0
231678,-86.159917316546,4,1,0,85,0,0
231720,-86.615660715972,4,1,0,85,0,0
231845,-87.533409698358,4,1,0,85,0,0
231949,-88.470815243608,4,1,0,85,0,0
232053,-89.42851570119,4,1,0,85,0,0
232137,-90.158293186511,4,1,0,85,0,0
232199,-76.923076923077,4,1,0,100,0,0
232303,-75.475974614687,4,1,0,100,0,0
232387,-74.082313681869,4,1,0,100,0,0
232470,-72.723302031011,4,1,0,100,0,0
232553,-71.428571428571,4,1,0,100,0,0
232637,-70.179135932561,4,1,0,100,0,0
232720,-68.958376475461,4,1,0,100,0,0
232803,-67.793159609121,4,1,0,100,0,0
232887,-66.666666666667,4,1,0,100,0,0
232949,-83.333333333333,4,1,0,85,0,0
233137,-83.913736678694,4,1,0,85,0,0
233220,-84.509422800642,4,1,0,85,0,0
233303,-85.106382978723,4,1,0,85,0,0
233387,-85.711836804663,4,1,0,85,0,0
233470,-86.333419666753,4,1,0,85,0,0
233553,-86.95652173913,4,1,0,85,0,0
233637,-87.588683542086,4,1,0,85,0,0
233720,-88.237889349687,4,1,0,85,0,0
233782,-88.668203582195,4,1,0,85,0,0
233845,-89.11067545892,4,1,0,85,0,0
233887,-89.549565684606,4,1,0,85,0,0
233949,-90.000900009,4,1,0,85,0,0
234012,-90.456806874717,4,1,0,85,0,0
234053,-90.909090909091,4,1,0,85,0,0
234137,-91.600256480718,4,1,0,85,0,0
234220,-92.310532631773,4,1,0,85,0,0
234303,-93.023255813953,4,1,0,85,0,0
234387,-93.74707040405,4,1,0,85,0,0
234428,-94.117647058824,4,1,0,85,0,0
234470,-94.491165076065,4,1,0,85,0,0
234512,-94.858660595712,4,1,0,85,0,0
234553,-95.238095238095,4,1,0,85,0,0
234637,-95.996928098301,4,1,0,85,0,0
234720,-96.777315397271,4,1,0,85,0,0
234845,-97.828213656819,4,1,0,85,0,0
234949,-98.902185738305,4,1,0,85,0,0
235032,-100,4,1,0,70,0,0
235220,-105.850761568374,4,1,0,70,0,0
235387,-106.441384410259,4,1,0,70,0,0
235553,-107.042253521127,4,1,0,70,0,0
235887,-108.260874519948,4,1,0,70,0,0
235970,-108.572669401936,4,1,0,70,0,0
236137,-109.19414719371,4,1,0,70,0,0
236220,-109.511348833992,4,1,0,70,0,0
236303,-109.826589595376,4,1,0,70,0,0
236387,-110.1436505084,4,1,0,70,0,0
236470,-110.466400772102,4,1,0,70,0,0
236553,-110.787172011662,4,1,0,70,0,0
236720,-111.438257340262,4,1,0,70,0,0
236887,-112.09307264811,4,1,0,70,0,0
237053,-112.759643916914,4,1,0,70,0,0
237137,-113.093891739384,4,1,0,70,0,0
237387,-114.11274339047,4,1,0,70,0,0
237553,-114.803625377643,4,1,0,70,0,0
237720,-115.502924047709,4,1,0,70,0,0
237887,-116.206529583736,4,1,0,70,0,0
237970,-116.565847433711,4,1,0,70,0,0
238137,-117.282502685152,4,1,0,70,0,0
238220,-117.648515771093,4,1,0,70,0,0
238470,-118.751484393555,4,1,0,70,0,0
238720,-119.875329657157,4,1,0,70,0,0
238887,-120.633388782365,4,1,0,70,0,0
238970,-121.020649944585,4,1,0,70,0,0
239053,-121.405750798722,4,1,0,70,0,0
239303,-122.58064516129,4,1,0,70,0,0
239553,-123.778501628664,4,1,0,70,0,0
239782,-125,4,1,0,85,0,0
239887,-121.750026104208,4,1,0,85,0,0
239970,-118.628548173771,4,1,0,85,0,0
240053,-115.697559039492,4,1,0,85,0,0
240137,-112.907911300474,4,1,0,85,0,0
240220,-110.218357122601,4,1,0,85,0,0
240303,-107.683782785371,4,1,0,85,0,0
240387,-105.263157894737,4,1,0,85,0,0
240553,-106.158626661912,4,1,0,85,0,0
240720,-107.069461570078,4,1,0,85,0,0
240887,-107.990465333195,4,1,0,85,0,0
241053,-108.933145157075,4,1,0,85,0,0
241137,-109.407811843763,4,1,0,85,0,0
241303,-110.375509771728,4,1,0,85,0,0
241387,-110.862857750825,4,1,0,85,0,0
241553,-111.856583114165,4,1,0,85,0,0
241637,-112.357127453095,4,1,0,85,0,0
241720,-112.86828422877,4,1,0,85,0,0
241887,-113.89222865887,4,1,0,85,0,0
242053,-114.941260824003,4,1,0,85,0,0
242220,-116.009797372523,4,1,0,85,0,0
242470,-117.647058823529,4,1,0,85,0,0
242553,-115.709040389005,4,1,0,85,0,0
242637,-113.833837742849,4,1,0,85,0,0
242720,-111.996926327922,4,1,0,85,0,0
242803,-110.239198260376,4,1,0,85,0,0
242887,-108.535790747463,4,1,0,85,0,0
242970,-106.864632022729,4,1,0,85,0,0
243053,-105.263157894737,4,1,0,85,0,0
243220,-104.346011373715,4,1,0,85,0,0
243303,-103.896103896104,4,1,0,85,0,0
243387,-103.450059483784,4,1,0,85,0,0
243470,-103.002523561827,4,1,0,85,0,0
243553,-102.564102564103,4,1,0,85,0,0
243803,-101.26582278481,4,1,0,85,0,0
244053,-100,4,1,0,85,0,0
244137,-99.586715132201,4,1,0,85,0,0
244220,-99.17191451381,4,1,0,85,0,0
244303,-98.765432098765,4,1,0,85,0,0
244387,-98.362268233905,4,1,0,85,0,0
244553,-97.560975609756,4,1,0,85,0,0
244637,-97.167565466647,4,1,0,85,0,0
244720,-96.772632699473,4,1,0,85,0,0
244887,-96.001536024576,4,1,0,85,0,0
245032,-105.263157894737,4,1,0,100,0,0
245137,-101.925427872861,4,1,0,100,0,0
245220,-98.756292567367,4,1,0,100,0,0
245303,-95.812684047978,4,1,0,100,0,0
245387,-93.039475519598,4,1,0,100,0,0
245470,-90.391651985364,4,1,0,100,0,0
245553,-87.919330389508,4,1,0,100,0,0
245637,-85.578650243777,4,1,0,100,0,0
245720,-71.428571428571,4,1,0,100,0,0
245804,-72.721325774095,4,1,0,100,0,0
245887,-74.078187472235,4,1,0,100,0,0
245970,-75.469563249604,4,1,0,100,0,0
246137,-78.43367826905,4,1,0,100,0,0
246304,-81.620166421929,4,1,0,100,0,0
246387,-83.333333333333,4,1,0,100,0,0
246449,-100,4,1,0,70,0,0
247137,-101.459346768589,4,1,0,70,0,0
247304,-104.472271914132,4,1,0,70,0,0
247387,-106.066109698511,4,1,0,70,0,0
247554,-109.36329588015,4,1,0,70,0,0
247637,-111.111111111111,4,1,0,70,0,0
247720,-112.359550561798,4,1,0,70,0,0
248053,-112.359550561798,4,1,0,70,0,0
248116,-103.384042222912,4,1,0,100,0,0
248220,-95.65117481473,4,1,0,100,0,0
248303,-89.068392756841,4,1,0,100,0,0
248387,-71.428571428571,4,1,0,100,0,0
248470,-72.459986082116,4,1,0,100,0,0
248554,-73.521624007061,4,1,0,100,0,0
248637,-74.628202831034,4,1,0,100,0,0
248720,-75.754819934522,4,1,0,100,0,0
248887,-78.127930969799,4,1,0,100,0,0
248970,-79.363567073171,4,1,0,100,0,0
249137,-81.972052745523,4,1,0,100,0,0
249220,-83.333333333333,4,1,0,100,0,0
249387,-80.891438658429,4,1,0,100,0,0
249470,-79.709514698208,4,1,0,100,0,0
249637,-77.472527472527,4,1,0,100,0,0
249720,-76.387731288548,4,1,0,100,0,0
249887,-74.330900243309,4,1,0,100,0,0
249970,-73.331733077292,4,1,0,100,0,0
250137,-71.434138737334,4,1,0,100,0,0
250220,-70.510847822742,4,1,0,100,0,0
250387,-68.754688672168,4,1,0,100,0,0
250470,-67.898947992295,4,1,0,100,0,0
250637,-66.268980477223,4,1,0,100,0,0
250720,-65.473639091299,4,1,0,100,0,0
250887,-63.956734124215,4,1,0,100,0,0
250970,-63.215615947027,4,1,0,100,0,0
251053,-62.5,4,1,0,100,0,0
251116,-98.15973500184,4,1,0,85,0,0
251387,-97.563652326602,4,1,0,85,0,0
251470,-96.967713787086,4,1,0,85,0,0
251553,-96.385977593061,4,1,0,85,0,0
251803,-94.675186368477,4,1,0,85,0,0
251887,-94.120553359684,4,1,0,85,0,0
251970,-93.565815324165,4,1,0,85,0,0
252053,-93.024066968957,4,1,0,85,0,0
252220,-91.952834091849,4,1,0,85,0,0
252387,-90.912189800927,4,1,0,85,0,0
252637,-89.388657997051,4,1,0,85,0,0
252720,-88.8881482469,4,1,0,85,0,0
252803,-88.399071925754,4,1,0,85,0,0
252887,-87.915348101266,4,1,0,85,0,0
253137,-86.4898170969,4,1,0,85,0,0
253220,-86.021158560186,4,1,0,85,0,0
253303,-85.563041385948,4,1,0,85,0,0
253387,-85.109777891243,4,1,0,85,0,0
253470,-84.655916708989,4,1,0,85,0,0
253553,-84.212188190717,4,1,0,85,0,0
253637,-83.77308707124,4,1,0,85,0,0
253699,-83.333333333333,4,1,0,70,0,0
253970,-87.432769250951,4,1,0,70,0,0
254053,-88.884443555378,4,1,0,70,0,0
254137,-90.385136967724,4,1,0,70,0,0
254220,-91.956401766004,4,1,0,70,0,0
254387,-95.227889698528,4,1,0,70,0,0
254553,-98.762688004742,4,1,0,70,0,0
254637,-100.618961352657,4,1,0,70,0,0
254720,-102.570021545091,4,1,0,70,0,0
254803,-104.573625166706,4,1,0,70,0,0
254887,-106.657065130421,4,1,0,70,0,0
255053,-111.111111111111,4,1,0,70,0,0
255137,-103.37972166998,4,1,0,70,0,0
255199,-96.744186046512,4,1,0,70,0,0
255262,-90.909090909091,4,1,0,70,0,0
255345,-111.111111111111,4,1,0,40,0,0
257366,-83.333333333333,4,1,0,70,0,0
257720,-111.111111111111,4,1,0,70,0,0
257742,-83.333333333333,4,1,0,70,0,0
259053,-111.111111111111,4,1,0,70,0,0
259075,-83.333333333333,4,1,0,70,0,0
259887,-86.408774270046,4,1,0,70,0,0
259970,-89.761354888376,4,1,0,70,0,0
260053,-93.339737431956,4,1,0,70,0,0
260137,-97.215274303819,4,1,0,70,0,0
260220,-101.47954743255,4,1,0,70,0,0
260303,-106.077147016012,4,1,0,70,0,0
260387,-111.111111111111,4,1,0,70,0,0
260553,-110.343400910219,4,1,0,70,0,0
260720,-109.586226732958,4,1,0,70,0,0
260803,-109.213759213759,4,1,0,70,0,0
260887,-108.843815043056,4,1,0,70,0,0
261053,-108.107012565869,4,1,0,70,0,0
261220,-107.380118371784,4,1,0,70,0,0
261282,-107.142857142857,4,1,0,70,0,0
261345,-106.902356902357,4,1,0,70,0,0
261387,-106.667199936008,4,1,0,70,0,0
261470,-106.310041057121,4,1,0,70,0,0
261553,-105.95947556615,4,1,0,70,0,0
261637,-105.611214509167,4,1,0,70,0,0
261720,-105.261080633066,4,1,0,70,0,0
261887,-104.575932243265,4,1,0,70,0,0
262053,-103.895597974289,4,1,0,70,0,0
262137,-103.56075020386,4,1,0,70,0,0
262220,-103.224058520726,4,1,0,70,0,0
262303,-102.893518518519,4,1,0,70,0,0
262470,-102.234829608617,4,1,0,70,0,0
262637,-101.588389898297,4,1,0,70,0,0
262720,-101.264380908987,4,1,0,70,0,0
262887,-100.630117345206,4,1,0,70,0,0
262970,-100.312182645654,4,1,0,70,0,0
263053,-100,4,1,0,70,0,0
263137,-99.689754420065,4,1,0,70,0,0
263303,-99.07132243685,4,1,0,70,0,0
263387,-98.766803688479,4,1,0,70,0,0
263470,-98.460516114741,4,1,0,70,0,0
263553,-98.15973500184,4,1,0,70,0,0
263637,-97.860785968517,4,1,0,70,0,0
263720,-97.560083403446,4,1,0,70,0,0
263803,-97.2647702407,4,1,0,70,0,0
263970,-96.675970565846,4,1,0,70,0,0
264053,-96.385977593061,4,1,0,70,0,0
264137,-96.097719165496,4,1,0,70,0,0
264303,-95.522922636103,4,1,0,70,0,0
264387,-95.239795736171,4,1,0,70,0,0
264470,-94.954961370029,4,1,0,70,0,0
264553,-94.675186368477,4,1,0,70,0,0
264637,-94.397055179981,4,1,0,70,0,0
264720,-94.117231887638,4,1,0,70,0,0
264803,-93.84236453202,4,1,0,70,0,0
264887,-93.569097989685,4,1,0,70,0,0
264970,-93.294154685696,4,1,0,70,0,0
265053,-93.024066968957,4,1,0,70,0,0
265137,-92.755538552499,4,1,0,70,0,0
265220,-92.485348683982,4,1,0,70,0,0
265303,-92.219917012448,4,1,0,70,0,0
265387,-91.956004551253,4,1,0,70,0,0
265470,-91.690445903668,4,1,0,70,0,0
265553,-91.429550908468,4,1,0,70,0,0
265637,-91.170136396267,4,1,0,70,0,0
265699,-90.909090909091,4,1,0,85,0,0
265803,-90.260465915929,4,1,0,85,0,0
265887,-89.621031068624,4,1,0,85,0,0
266053,-88.361524867458,4,1,0,85,0,0
266220,-87.136929460581,4,1,0,85,0,0
266303,-86.540839034039,4,1,0,85,0,0
266387,-85.952848722986,4,1,0,85,0,0
266470,-85.365853658537,4,1,0,85,0,0
266553,-84.793668739401,4,1,0,85,0,0
266637,-84.229103160597,4,1,0,85,0,0
266720,-83.665338645418,4,1,0,85,0,0
266803,-83.115649489432,4,1,0,85,0,0
266887,-82.573136206354,4,1,0,85,0,0
266970,-82.03125,4,1,0,85,0,0
267053,-81.502755569355,4,1,0,85,0,0
267137,-80.981027302175,4,1,0,85,0,0
267220,-80.459770114943,4,1,0,85,0,0
267387,-79.449152542373,4,1,0,85,0,0
267470,-78.947368421053,4,1,0,85,0,0
267553,-78.457744900247,4,1,0,85,0,0
267637,-77.974157136492,4,1,0,85,0,0
267803,-77.018998019511,4,1,0,85,0,0
267887,-76.55293088364,4,1,0,85,0,0
267970,-76.086956521739,4,1,0,85,0,0
268053,-75.632067996831,4,1,0,85,0,0
268137,-75.182586280968,4,1,0,85,0,0
268220,-74.733096085409,4,1,0,85,0,0
268303,-74.294205052006,4,1,0,85,0,0
268387,-73.860438942037,4,1,0,85,0,0
268470,-73.426573426573,4,1,0,85,0,0
268553,-73.002850587499,4,1,0,85,0,0
268637,-72.583990045624,4,1,0,85,0,0
268720,-72.164948453608,4,1,0,85,0,0
268803,-71.755620856967,4,1,0,85,0,0
268887,-71.350910573525,4,1,0,85,0,0
268970,-70.945945945946,4,1,0,85,0,0
269053,-70.550292279782,4,1,0,85,0,0
269137,-70.159027128157,4,1,0,85,0,0
269220,-69.767441860465,4,1,0,85,0,0
269303,-69.384788211194,4,1,0,85,0,0
269387,-69.006309148265,4,1,0,85,0,0
269470,-68.627450980392,4,1,0,85,0,0
269553,-68.257167002535,4,1,0,85,0,0
269637,-67.890857364542,4,1,0,85,0,0
269720,-67.524115755627,4,1,0,85,0,0
269782,-67.286126241589,4,1,0,85,0,0
269845,-67.045527105549,4,1,0,85,0,0
269887,-66.810893357088,4,1,0,85,0,0
269970,-66.455696202532,4,1,0,85,0,0
270053,-66.108417805201,4,1,0,85,0,0
270116,-65.876152832675,4,1,0,85,0,0
270178,-65.649618606978,4,1,0,85,0,0
270220,-65.420560747664,4,1,0,85,0,0
270303,-65.083989338623,4,1,0,85,0,0
270387,-64.750863344845,4,1,0,85,0,0
270470,-64.41717791411,4,1,0,85,0,0
270553,-64.09082585607,4,1,0,85,0,0
270616,-63.872498327149,4,1,0,85,0,0
270678,-63.659512550018,4,1,0,85,0,0
270720,-63.444108761329,4,1,0,85,0,0
270803,-63.127517585523,4,1,0,85,0,0
270887,-62.814070351759,4,1,0,85,0,0
270949,-62.5,4,1,0,100,0,0
271074,333.333333333333,7,1,0,100,1,0
271074,-62.5,7,1,0,100,0,0
271282,-100,7,1,0,85,0,0
271554,-76.923076923077,4,1,0,85,0,0
271609,-78.247261345853,4,1,0,85,0,0
271665,-79.643198470851,4,1,0,85,0,0
271720,-81.0635538262,4,1,0,85,0,0
271804,-83.333333333333,4,1,0,85,0,0
271887,-85.704490915324,4,1,0,85,0,0
271970,-88.214537755822,4,1,0,85,0,0
272054,-90.909090909091,4,1,0,85,0,0
272137,-93.738282714661,4,1,0,85,0,0
272220,-96.749226006192,4,1,0,85,0,0
272304,-100,4,1,0,85,0,0
272470,-97.025622648271,4,1,0,85,0,0
272637,-94.206680584551,4,1,0,85,0,0
272804,-91.546914623838,4,1,0,85,0,0
272887,-90.280093364455,4,1,0,85,0,0
272970,-89.047853971386,4,1,0,85,0,0
273054,-87.834549878345,4,1,0,85,0,0
273095,-87.254270061231,4,1,0,85,0,0
273137,-86.667733674776,4,1,0,85,0,0
273179,-86.089030206677,4,1,0,85,0,0
273220,-85.53151160954,4,1,0,85,0,0
273304,-84.411535463757,4,1,0,85,0,0
273386,-80,4,1,0,85,0,0
273407,333.333333333333,4,1,0,85,1,0
273407,-80,4,1,0,85,0,1
273552,-90.909090909091,4,1,0,85,0,1
274803,-90.397395903974,4,1,0,85,0,1
274887,-89.885367498314,4,1,0,85,0,1
274970,-89.385100248106,4,1,0,85,0,1
275053,-88.890370765537,4,1,0,85,0,1
275137,-88.395225464191,4,1,0,85,0,1
275220,-87.911363186704,4,1,0,85,0,1
275303,-87.432769250951,4,1,0,85,0,1
275387,-86.953685583823,4,1,0,85,0,1
275470,-86.485434373581,4,1,0,85,0,1
275553,-86.022199277233,4,1,0,85,0,1
275637,-85.558408215661,4,1,0,85,0,1
275803,-84.656420678268,4,1,0,85,0,1
275887,-84.207201516109,4,1,0,85,0,1
275942,-83.915643689015,4,1,0,85,0,1
275998,-83.620851891349,4,1,0,85,0,1
276045,-80,4,1,0,85,0,1
276219,-90.909090909091,4,1,0,85,0,1
277365,-86.206896551724,4,1,0,100,0,1
277553,-79.352483732741,4,1,0,100,0,1
277636,-76.335877862595,4,1,0,100,0,1
277803,-70.911927386186,4,1,0,100,0,1
277907,-68.493150684932,4,1,0,100,0,0
277949,-111.111111111111,4,1,0,70,0,0
278275,-111.482787981997,4,1,0,70,0,0
278331,-111.863786158916,4,1,0,70,0,0
278387,-112.247397428047,4,1,0,70,0,0
278470,-112.820828460639,4,1,0,70,0,0
278553,-113.400148478099,4,1,0,70,0,0
278637,-113.992537313433,4,1,0,70,0,0
278720,-114.583984497093,4,1,0,70,0,0
278887,-115.792798483891,4,1,0,70,0,0
278970,-116.403124404648,4,1,0,70,0,0
279137,-117.650834403081,4,1,0,70,0,0
279220,-118.280957604698,4,1,0,70,0,0
279387,-119.569471624266,4,1,0,70,0,0
279553,-120.87839620153,4,1,0,70,0,0
279609,-121.326449563145,4,1,0,70,0,0
279664,-121.769746894307,4,1,0,70,0,0
279720,-122.224444888978,4,1,0,70,0,0
279803,-122.90465334585,4,1,0,70,0,0
279887,-123.6008091706,4,1,0,70,0,0
279970,-124.29646707805,4,1,0,70,0,0
280032,-125,4,1,0,85,0,0
280137,-121.182743577315,4,1,0,85,0,0
280303,-114.285714285714,4,1,0,85,0,0
280387,-111.086425238836,4,1,0,85,0,0
280470,-108.096422008432,4,1,0,85,0,0
280553,-105.263157894737,4,1,0,85,0,0
280802,-83.333333333333,4,1,0,85,0,0
280885,-85.358711566618,4,1,0,85,0,0
280969,-87.484993997599,4,1,0,85,0,0
281052,-89.747536945813,4,1,0,85,0,0
281177,-92.923175007969,4,1,0,85,0,0
281281,-96.331791143424,4,1,0,85,0,0
281387,-76.923076923077,4,1,0,85,0,0
281442,-78.92865607964,4,1,0,85,0,0
281498,-81.081081081081,4,1,0,85,0,0
281553,-83.312484363272,4,1,0,85,0,0
281609,-85.714285714286,4,1,0,85,0,0
281664,-88.211920529801,4,1,0,85,0,0
281719,-90.909090909091,4,1,0,85,0,0
281740,-90.909090909091,4,1,0,85,0,1
281802,-92.592592592593,4,1,0,85,0,1
281886,-94.339622641509,4,1,0,85,0,1
282136,-90.909090909091,4,1,0,85,0,1
285498,-90.226072830648,4,1,0,85,0,1
285609,-89.553241518307,4,1,0,85,0,1
285720,-88.890370765537,4,1,0,85,0,1
285831,-88.237241014099,4,1,0,85,0,1
285942,-87.593639111578,4,1,0,85,0,1
286053,-86.959358079457,4,1,0,85,0,1
286275,-85.71796025979,4,1,0,85,0,1
286387,-85.105024580221,4,1,0,85,0,1
286442,-84.807227382619,4,1,0,85,0,1
286498,-84.506149359706,4,1,0,85,0,1
286553,-84.212521321625,4,1,0,85,0,1
286609,-83.915643689015,4,1,0,85,0,1
286664,-83.626097867001,4,1,0,85,0,1
286720,-80,4,1,0,85,0,1
286886,-90.909090909091,4,1,0,85,0,1
288032,-86.206896551724,4,1,0,100,0,1
288220,-79.352483732741,4,1,0,100,0,1
288303,-76.335877862595,4,1,0,100,0,1
288470,-70.911927386186,4,1,0,100,0,1
288553,-68.493150684932,4,1,0,100,0,1
288720,-72.468805394321,4,1,0,100,0,1
288803,-74.621523925414,4,1,0,100,0,1
288970,-79.365079365079,4,1,0,100,0,1
289053,-81.954325694745,4,1,0,100,0,1
289115,-87.711917883135,4,1,0,85,0,1
289303,-90.885314502419,4,1,0,85,0,1
289386,-94.339622641509,4,1,0,85,0,1
289407,-94.339622641509,4,1,0,85,0,0
289553,-95.574739015716,4,1,0,85,0,0
289637,-96.212143083985,4,1,0,85,0,0
289720,-96.850365096087,4,1,0,85,0,0
289803,-97.49711092582,4,1,0,85,0,0
289887,-98.160503100193,4,1,0,85,0,0
289970,-98.824924936057,4,1,0,85,0,0
290053,-99.4984026513,4,1,0,85,0,0
290220,-100.881674045484,4,1,0,85,0,0
290275,-101.345700600623,4,1,0,85,0,0
290331,-101.822570542494,4,1,0,85,0,0
290387,-102.303949408279,4,1,0,85,0,0
290470,-103.025853074159,4,1,0,85,0,0
290553,-103.758017311165,4,1,0,85,0,0
290637,-104.509674789099,4,1,0,85,0,0
290720,-105.263157894737,4,1,0,85,0,0
290887,-101.688021151108,4,1,0,85,0,0
290970,-100,4,1,0,85,0,0
291053,-98.36710603974,4,1,0,85,0,0
291137,-96.767950454809,4,1,0,85,0,0
291220,-95.238095238095,4,1,0,85,0,0
291387,-76.923076923077,4,1,0,85,0,0
291442,-77.663110022739,4,1,0,85,0,0
291498,-78.43137254902,4,1,0,85,0,0
291553,-79.200856225473,4,1,0,85,0,0
291637,-80.405650126766,4,1,0,85,0,0
291720,-81.632653061224,4,1,0,85,0,0
291803,-82.897684839432,4,1,0,85,0,0
291887,-84.218512898331,4,1,0,85,0,0
291970,-85.565619579881,4,1,0,85,0,0
292052,-86.95652173913,4,1,0,85,0,0
292073,-86.95652173913,4,1,0,85,0,1
293303,-86.315602521979,4,1,0,85,0,1
293387,-85.994868618951,4,1,0,85,0,1
293470,-85.680285600952,4,1,0,85,0,1
293637,-85.054252712636,4,1,0,85,0,1
293720,-84.746501591177,4,1,0,85,0,1
293803,-84.440969507428,4,1,0,85,0,1
293970,-83.832851783173,4,1,0,85,0,1
294053,-83.533860433139,4,1,0,85,0,1
294137,-83.233430381915,4,1,0,85,0,1
294220,-82.938691923717,4,1,0,85,0,1
294303,-82.646033500553,4,1,0,85,0,1
294387,-82.35194442091,4,1,0,85,0,1
294470,-82.063404955887,4,1,0,85,0,1
294553,-81.776880363453,4,1,0,85,0,1
294637,-81.48893360161,4,1,0,85,0,1
294720,-81.206399598981,4,1,0,85,0,1
294803,-80.925818000167,4,1,0,85,0,1
294887,-80.643823114577,4,1,0,85,0,1
294970,-80.367109016495,4,1,0,85,0,1
295053,-80.092287409361,4,1,0,85,0,1
295137,-79.816061750698,4,1,0,85,0,1
295220,-79.544989565858,4,1,0,85,0,1
295303,-79.275752385613,4,1,0,85,0,1
295387,-79.005120702268,4,1,0,85,0,1
295470,-78.739519624124,4,1,0,85,0,1
295553,-78.475698369126,4,1,0,85,0,1
295637,-78.210492436434,4,1,0,85,0,1
295720,-77.950198484302,4,1,0,85,0,1
295803,-77.691631364399,4,1,0,85,0,1
295887,-77.431689635944,4,1,0,85,0,1
295970,-77.1765453174,4,1,0,85,0,1
296053,-76.923076923077,4,1,0,85,0,1
296220,-78.43367826905,4,1,0,85,0,1
296303,-79.206745042157,4,1,0,85,0,1
296387,-80.004797888929,4,1,0,85,0,1
296470,-80.809304579598,4,1,0,85,0,1
296553,-81.630155427732,4,1,0,85,0,1
296637,-82.478051193273,4,1,0,85,0,1
296720,-83.333333333333,4,1,0,85,0,1
296775,-83.909925776827,4,1,0,85,0,1
296831,-84.505257823388,4,1,0,85,0,1
296887,-85.109097869083,4,1,0,85,0,1
296942,-85.710614237985,4,1,0,85,0,1
297053,-86.950853865207,4,1,0,85,0,1
297109,-87.590282337492,4,1,0,85,0,1
297164,-88.227513227513,4,1,0,85,0,1
297220,-88.88592750533,4,1,0,85,0,1
297275,-89.542220432273,4,1,0,85,0,1
297387,-76.923076923077,4,1,0,85,0,1
297470,-77.293285399513,4,1,0,85,0,1
297553,-77.667074520771,4,1,0,85,0,1
297637,-78.049066104573,4,1,0,85,0,1
297720,-78.430218875029,4,1,0,85,0,1
297803,-78.815112635251,4,1,0,85,0,1
297887,-79.20850912116,4,1,0,85,0,1
297970,-79.601098769855,4,1,0,85,0,1
298053,-79.997599471884,4,1,0,85,0,1
298137,-80.402919355812,4,1,0,85,0,1
298303,-81.216109181746,4,1,0,85,0,1
298387,-81.633902872191,4,1,0,85,0,1
298470,-82.050966391727,4,1,0,85,0,1
298553,-82.472313308173,4,1,0,85,0,1
298637,-82.903165619752,4,1,0,85,0,1
298720,-79.365079365079,4,1,0,85,0,1
298803,-76.347533974653,4,1,0,85,0,1
298887,-73.518600205852,4,1,0,85,0,1
298970,-70.921985815603,4,1,0,85,0,1
299053,-68.50253459378,4,1,0,85,0,1
299137,-66.216395179446,4,1,0,85,0,1
299220,-64.102564102564,4,1,0,85,0,1
299470,-90.909090909091,4,1,0,85,0,1
299553,-93.324795902033,4,1,0,85,0,1
299637,-95.903931567692,4,1,0,85,0,1
299720,-98.596313208185,4,1,0,85,0,1
299803,-101.444231773099,4,1,0,85,0,1
299887,-104.499014160244,4,1,0,85,0,1
299970,-107.70367633475,4,1,0,85,0,1
300032,-111.111111111111,4,1,0,70,0,1
300073,-111.111111111111,4,1,0,70,0,0
300275,-111.627420198849,4,1,0,70,0,0
300387,-111.889725783102,4,1,0,70,0,0
300609,-112.413313378723,4,1,0,70,0,0
300720,-112.676949080921,4,1,0,70,0,0
301053,-113.475328212439,4,1,0,70,0,0
301275,-114.013896312133,4,1,0,70,0,0
301386,-114.285102005829,4,1,0,70,0,0
301609,-114.833875239551,4,1,0,70,0,0
301720,-115.109000647529,4,1,0,70,0,0
301942,-115.663225470634,4,1,0,70,0,0
302053,-115.942344065917,4,1,0,70,0,0
302275,-116.504642271983,4,1,0,70,0,0
302386,-116.787841625788,4,1,0,70,0,0
302609,-117.360973570124,4,1,0,70,0,0
302720,-117.648356496801,4,1,0,70,0,0
303053,-118.519012378603,4,1,0,70,0,0
303275,-119.106644332775,4,1,0,70,0,0
303386,-119.402650904532,4,1,0,70,0,0
303720,-120.302278366794,4,1,0,70,0,0
303942,-120.907771832774,4,1,0,70,0,0
304053,-121.212809964316,4,1,0,70,0,0
304275,-121.827527127356,4,1,0,70,0,0
304386,-122.137229754489,4,1,0,70,0,0
304609,-122.76420892705,4,1,0,70,0,0
304720,-123.078698361412,4,1,0,70,0,0
304942,-123.712535956203,4,1,0,70,0,0
305053,-124.031909202968,4,1,0,70,0,0
305164,-124.352935689969,4,1,0,70,0,0
305275,-124.675628287551,4,1,0,70,0,0
305365,-125,4,1,0,85,0,0
305470,-119.362920544023,4,1,0,85,0,0
305553,-114.271029638513,4,1,0,85,0,0
305636,-109.595793624712,4,1,0,85,0,0
305720,-105.238245503313,4,1,0,85,0,0
305803,-101.260057689388,4,1,0,85,0,0
305886,-97.571679344646,4,1,0,85,0,0
306052,-83.333333333333,4,1,0,85,0,0
306220,-102.568045517453,4,1,0,85,0,0
306303,-103.894080996885,4,1,0,85,0,0
306470,-106.668798976491,4,1,0,85,0,0
306553,-108.103727714749,4,1,0,85,0,0
306636,-109.57778873008,4,1,0,85,0,0
306720,-111.111111111111,4,1,0,85,0,0
310886,-108.119068862033,4,1,0,85,0,0
311053,-105.267314222538,4,1,0,85,0,0
311220,-102.562129722244,4,1,0,85,0,0
311386,-100.007502438292,4,1,0,85,0,0
311553,-97.562760740687,4,1,0,85,0,0
311720,-95.234693148532,4,1,0,85,0,0
311886,-93.028124781911,4,1,0,85,0,0
311970,-91.950058632821,4,1,0,85,0,0
312031,-83.333333333333,4,1,0,100,0,0
312073,-83.333333333333,4,1,0,100,0,1
312220,-83.135053499936,4,1,0,100,0,1
312303,-83.036857834069,4,1,0,100,0,1
312470,-82.839984667149,4,1,0,100,0,1
312553,-82.742484401588,4,1,0,100,0,1
312720,-82.54700298499,4,1,0,100,0,1
312803,-82.450190758796,4,1,0,100,0,1
312886,-82.353605351926,4,1,0,100,0,1
312970,-82.256086386512,4,1,0,100,0,1
313053,-82.15995494227,4,1,0,100,0,1
313136,-82.064047930467,4,1,0,100,0,1
313220,-81.967213114754,4,1,0,100,0,1
313386,-80,4,1,0,100,0,1
313553,-79.817247912235,4,1,0,100,0,1
313636,-79.726729291204,4,1,0,100,0,1
313720,-79.635328879578,4,1,0,100,0,1
313803,-79.545222174509,4,1,0,100,0,1
313886,-79.455319148936,4,1,0,100,0,1
314053,-79.275044324736,4,1,0,100,0,1
314136,-79.185750636132,4,1,0,100,0,1
314220,-79.095585693662,4,1,0,100,0,1
314303,-79.006695597425,4,1,0,100,0,1
314386,-78.918005071851,4,1,0,100,0,1
314470,-78.828448491317,4,1,0,100,0,1
314553,-78.740157480315,4,1,0,100,0,1
314719,-76.923076923077,4,1,0,100,0,1
314886,-76.532174126003,4,1,0,100,0,1
314970,-76.335877862595,4,1,0,100,0,1
315053,-76.142905004112,4,1,0,100,0,1
315220,-75.757575757576,4,1,0,100,0,1
315386,-74.074074074074,4,1,0,100,0,1
315553,-73.709349293864,4,1,0,100,0,1
315636,-73.529411764706,4,1,0,100,0,1
315720,-73.348198568243,4,1,0,100,0,1
315886,-72.992700729927,4,1,0,100,0,1
316052,-71.428571428571,4,1,0,100,0,1
316220,-70.75338201166,4,1,0,100,0,1
316303,-70.422535211268,4,1,0,100,0,1
316386,-68.965517241379,4,1,0,100,0,1
316553,-68.335884539689,4,1,0,100,0,1
316636,-68.027210884354,4,1,0,100,0,1
316719,-66.666666666667,4,1,0,100,0,1
316886,-65.576998818432,4,1,0,100,0,1
316970,-65.0390625,4,1,0,100,0,1
317053,-64.516129032258,4,1,0,100,0,1
317095,-64.254703328509,4,1,0,100,0,1
317136,-64.001537574476,4,1,0,100,0,1
317178,-63.744257274119,4,1,0,100,0,1
317220,-63.489037178265,4,1,0,100,0,1
317303,-62.990636527003,4,1,0,100,0,1
317386,-62.5,4,1,0,100,0,1
317448,-76.923076923078,4,1,0,85,0,1
320164,-78.716588772777,4,1,0,85,0,1
320275,-80.595730953277,4,1,0,85,0,1
320386,-82.566786009364,4,1,0,85,0,1
320498,-84.655785847405,4,1,0,85,0,1
320609,-86.833111278457,4,1,0,85,0,1
320720,-89.125393899756,4,1,0,85,0,1
320803,-90.920118881543,4,1,0,85,0,1
320886,-92.788610337357,4,1,0,85,0,1
320970,-94.759466464378,4,1,0,85,0,1
321053,-96.790856847679,4,1,0,85,0,1
321136,-98.911250412405,4,1,0,85,0,1
321220,-101.153924016465,4,1,0,85,0,1
321303,-103.472078415131,4,1,0,85,0,1
321385,-105.898975626987,4,1,0,85,0,1
321406,333.333333333333,5,1,0,85,1,0
321406,-105.898975626987,4,1,0,85,0,1
321469,-108.442450987485,4,1,0,85,0,1
321552,-111.111111111111,4,1,0,85,0,1
321719,-102.256459199673,4,1,0,85,0,1
321802,-98.360655737705,4,1,0,85,0,1
321969,-91.357573542847,4,1,0,85,0,1
322052,-88.235294117647,4,1,0,85,0,1
322136,-85.285421878554,4,1,0,85,0,1
322219,-82.558203533491,4,1,0,85,0,1
322386,-77.567483710828,4,1,0,85,0,1
322469,-75.30498519002,4,1,0,85,0,1
322552,-73.170731707317,4,1,0,85,0,1
322636,-71.130500758725,4,1,0,85,0,1
322719,-69.223314412294,4,1,0,85,0,1
322774,-68.014872585472,4,1,0,85,0,1
322830,-66.827051590484,4,1,0,85,0,1
322886,-65.680007005867,4,1,0,85,0,1
322941,-64.591138095853,4,1,0,85,0,1
322997,-63.51894982003,4,1,0,85,0,1
323044,-62.5,4,1,0,100,0,1
323072,-62.5,5,1,0,100,0,0
323114,-100,5,1,0,40,0,0

[HitObjects]
480,352,408,5,8,0:0:0:0:
480,352,1074,1,8,0:0:0:0:
480,352,1907,1,8,0:0:0:0:
480,352,2074,1,0,0:0:0:0:
480,352,2241,1,0,0:0:0:0:
480,352,2324,1,8,0:0:0:0:
480,352,2491,1,8,0:0:0:0:
480,352,2574,1,0,0:0:0:0:
480,352,2658,1,0,0:0:0:0:
480,352,2741,1,8,0:0:0:0:
480,352,2907,1,8,0:0:0:0:
480,352,2991,1,0,0:0:0:0:
480,352,3074,1,12,0:0:0:0:
480,352,3407,1,8,0:0:0:0:
480,352,3741,1,8,0:0:0:0:
480,352,4074,1,0,0:0:0:0:
480,352,4408,1,8,0:0:0:0:
480,352,4574,1,0,0:0:0:0:
480,352,4741,1,8,0:0:0:0:
480,352,5074,1,0,0:0:0:0:
480,352,5407,1,8,0:0:0:0:
480,352,5574,1,8,0:0:0:0:
480,352,5657,1,8,0:0:0:0:
480,352,5741,1,0,0:0:0:0:
480,352,5907,1,0,0:0:0:0:
480,352,6074,1,8,0:0:0:0:
480,352,6241,1,0,0:0:0:0:
480,352,6407,1,8,0:0:0:0:
480,352,6741,1,0,0:0:0:0:
480,352,7074,1,8,0:0:0:0:
480,352,7241,1,0,0:0:0:0:
480,352,7407,1,8,0:0:0:0:
480,352,7741,1,0,0:0:0:0:
480,352,7907,1,8,0:0:0:0:
480,352,8074,1,0,0:0:0:0:
480,352,8241,1,8,0:0:0:0:
480,352,8408,1,8,0:0:0:0:
480,352,8741,1,8,0:0:0:0:
480,352,8908,1,8,0:0:0:0:
480,352,9158,1,8,0:0:0:0:
480,352,9241,1,8,0:0:0:0:
480,352,9408,1,8,0:0:0:0:
480,352,9574,1,8,0:0:0:0:
480,352,9742,1,8,0:0:0:0:
480,352,10074,1,8,0:0:0:0:
480,352,10241,1,8,0:0:0:0:
480,352,10324,1,8,0:0:0:0:
480,352,10491,1,8,0:0:0:0:
480,352,10741,1,8,0:0:0:0:
480,352,10907,1,8,0:0:0:0:
480,352,11075,1,8,0:0:0:0:
480,352,11324,1,8,0:0:0:0:
480,352,11407,1,8,0:0:0:0:
480,352,11574,1,8,0:0:0:0:
480,352,11824,1,8,0:0:0:0:
480,352,11907,1,8,0:0:0:0:
480,352,12074,1,8,0:0:0:0:
480,352,12241,1,8,0:0:0:0:
480,352,12408,1,8,0:0:0:0:
480,352,12574,1,8,0:0:0:0:
480,352,12741,1,8,0:0:0:0:
480,352,12907,1,8,0:0:0:0:
480,352,12991,1,8,0:0:0:0:
480,352,13157,1,8,0:0:0:0:
480,352,13407,1,0,0:0:0:0:
480,352,13491,1,0,0:0:0:0:
480,352,13574,1,0,0:0:0:0:
480,352,13657,1,0,0:0:0:0:
480,352,13741,1,8,0:0:0:0:
480,352,13907,1,0,0:0:0:0:
480,352,14074,1,8,0:0:0:0:
480,352,14241,1,0,0:0:0:0:
480,352,14574,1,8,0:0:0:0:
480,352,14741,1,0,0:0:0:0:
480,352,15241,1,0,0:0:0:0:
480,352,15491,1,8,0:0:0:0:
480,352,15574,1,8,0:0:0:0:
480,352,15657,1,8,0:0:0:0:
480,352,15741,1,0,0:0:0:0:
480,352,15907,1,8,0:0:0:0:
480,352,16241,1,8,0:0:0:0:
480,352,16408,1,0,0:0:0:0:
480,352,16741,1,0,0:0:0:0:
480,352,16908,1,8,0:0:0:0:
480,352,17241,1,8,0:0:0:0:
480,352,17574,1,8,0:0:0:0:
480,352,17741,1,8,0:0:0:0:
480,352,17908,1,0,0:0:0:0:
480,352,18241,1,8,0:0:0:0:
480,352,18324,1,0,0:0:0:0:
480,352,18408,1,8,0:0:0:0:
480,352,18491,1,0,0:0:0:0:
480,352,18574,1,8,0:0:0:0:
480,352,18658,1,8,0:0:0:0:
480,352,18741,1,0,0:0:0:0:
480,352,18824,1,0,0:0:0:0:
480,352,18907,1,0,0:0:0:0:
480,352,18991,1,0,0:0:0:0:
480,352,19074,1,8,0:0:0:0:
480,352,19407,1,8,0:0:0:0:
480,352,19574,1,0,0:0:0:0:
480,352,19741,1,8,0:0:0:0:
480,352,19824,1,8,0:0:0:0:
480,352,19907,1,8,0:0:0:0:
480,352,20241,1,0,0:0:0:0:
480,352,20407,1,8,0:0:0:0:
480,352,20574,1,0,0:0:0:0:
480,352,20741,1,8,0:0:0:0:
480,352,20907,1,8,0:0:0:0:
480,352,20991,1,0,0:0:0:0:
480,352,21074,1,8,0:0:0:0:
480,352,21157,1,0,0:0:0:0:
480,352,21241,1,8,0:0:0:0:
480,352,21324,1,8,0:0:0:0:
480,352,21407,1,8,0:0:0:0:
480,352,21574,1,0,0:0:0:0:
480,352,21741,1,8,0:0:0:0:
480,352,21907,1,0,0:0:0:0:
480,352,21991,1,0,0:0:0:0:
480,352,22074,1,8,0:0:0:0:
480,352,22157,1,8,0:0:0:0:
480,352,22241,1,0,0:0:0:0:
480,352,22407,1,8,0:0:0:0:
480,352,22491,1,8,0:0:0:0:
480,352,22574,1,0,0:0:0:0:
480,352,22657,1,0,0:0:0:0:
480,352,22741,1,8,0:0:0:0:
480,352,22824,1,0,0:0:0:0:
480,352,22907,1,0,0:0:0:0:
480,352,22991,1,0,0:0:0:0:
480,352,23074,1,8,0:0:0:0:
480,352,23241,1,0,0:0:0:0:
480,352,23324,1,8,0:0:0:0:
480,352,23491,1,8,0:0:0:0:
480,352,23574,1,0,0:0:0:0:
480,352,23657,1,0,0:0:0:0:
480,352,23741,1,8,0:0:0:0:
480,352,23824,1,8,0:0:0:0:
480,352,23907,1,0,0:0:0:0:
480,352,23991,1,0,0:0:0:0:
480,352,24074,1,8,0:0:0:0:
480,352,24241,1,0,0:0:0:0:
480,352,24407,1,8,0:0:0:0:
480,352,24574,1,0,0:0:0:0:
480,352,24657,1,8,0:0:0:0:
480,352,24741,1,8,0:0:0:0:
480,352,24824,1,8,0:0:0:0:
480,352,24907,1,0,0:0:0:0:
480,352,24991,1,0,0:0:0:0:
480,352,25074,1,8,0:0:0:0:
480,352,25157,1,0,0:0:0:0:
480,352,25241,1,0,0:0:0:0:
480,352,25324,1,0,0:0:0:0:
480,352,25407,1,8,0:0:0:0:
480,352,25491,1,8,0:0:0:0:
480,352,25574,1,0,0:0:0:0:
480,352,25657,1,0,0:0:0:0:
480,352,25741,1,8,0:0:0:0:
480,352,25796,1,8,0:0:0:0:
480,352,25852,1,8,0:0:0:0:
480,352,25907,1,0,0:0:0:0:
480,352,25991,1,0,0:0:0:0:
480,352,26074,1,8,0:0:0:0:
480,352,26130,1,0,0:0:0:0:
480,352,26185,1,0,0:0:0:0:
480,352,26241,1,8,0:0:0:0:
480,352,26324,1,0,0:0:0:0:
480,352,26407,1,8,0:0:0:0:
480,352,26463,1,8,0:0:0:0:
480,352,26519,1,8,0:0:0:0:
480,352,26574,1,0,0:0:0:0:
480,352,26630,1,8,0:0:0:0:
480,352,26685,1,8,0:0:0:0:
480,352,26741,1,0,0:0:0:0:
480,352,26824,1,8,0:0:0:0:
480,352,26907,1,0,0:0:0:0:
480,352,26963,1,8,0:0:0:0:
480,352,27019,1,8,0:0:0:0:
480,352,27074,1,0,0:0:0:0:
480,352,27241,1,8,0:0:0:0:
480,352,27324,1,8,0:0:0:0:
480,352,27491,1,0,0:0:0:0:
480,352,27574,1,8,0:0:0:0:
480,352,27907,1,8,0:0:0:0:
480,352,27963,1,0,0:0:0:0:
480,352,28019,1,8,0:0:0:0:
480,352,28074,1,8,0:0:0:0:
480,352,28157,1,0,0:0:0:0:
480,352,28241,1,8,0:0:0:0:
480,352,28324,1,0,0:0:0:0:
480,352,28407,1,8,0:0:0:0:
480,352,28491,1,8,0:0:0:0:
480,352,28574,1,0,0:0:0:0:
480,352,28657,1,0,0:0:0:0:
480,352,28824,1,0,0:0:0:0:
480,352,28991,1,8,0:0:0:0:
480,352,29157,1,0,0:0:0:0:
480,352,29241,1,8,0:0:0:0:
480,352,29324,1,0,0:0:0:0:
480,352,29407,1,8,0:0:0:0:
480,352,29491,1,8,0:0:0:0:
480,352,29574,1,0,0:0:0:0:
480,352,29657,1,8,0:0:0:0:
480,352,29741,1,8,0:0:0:0:
480,352,29907,1,0,0:0:0:0:
480,352,29991,1,8,0:0:0:0:
480,352,30157,1,8,0:0:0:0:
480,352,30241,1,8,0:0:0:0:
480,352,30491,1,8,0:0:0:0:
480,352,30574,1,8,0:0:0:0:
480,352,30657,1,0,0:0:0:0:
480,352,30741,1,8,0:0:0:0:
480,352,30796,1,8,0:0:0:0:
480,352,30852,1,8,0:0:0:0:
480,352,30907,1,0,0:0:0:0:
480,352,30991,1,0,0:0:0:0:
480,352,31074,1,8,0:0:0:0:
480,352,31157,1,0,0:0:0:0:
480,352,31241,1,0,0:0:0:0:
480,352,31324,1,0,0:0:0:0:
480,352,31407,1,8,0:0:0:0:
480,352,31491,1,8,0:0:0:0:
480,352,31574,1,0,0:0:0:0:
480,352,31657,1,0,0:0:0:0:
480,352,31741,1,8,0:0:0:0:
480,352,31824,1,8,0:0:0:0:
480,352,31907,1,8,0:0:0:0:
480,352,31991,1,0,0:0:0:0:
480,352,32074,1,8,0:0:0:0:
480,352,32157,1,0,0:0:0:0:
480,352,32241,1,8,0:0:0:0:
480,352,32296,1,0,0:0:0:0:
480,352,32352,1,0,0:0:0:0:
480,352,32407,1,8,0:0:0:0:
480,352,32574,1,0,0:0:0:0:
480,352,32657,1,8,0:0:0:0:
480,352,32824,1,8,0:0:0:0:
480,352,32908,1,8,0:0:0:0:
480,352,33074,1,0,0:0:0:0:
480,352,33158,1,8,0:0:0:0:
480,352,33199,1,8,0:0:0:0:
480,352,33241,1,8,0:0:0:0:
480,352,33324,1,0,0:0:0:0:
480,352,33408,1,8,0:0:0:0:
480,352,33491,1,0,0:0:0:0:
480,352,33574,1,8,0:0:0:0:
480,352,33658,1,0,0:0:0:0:
480,352,33741,1,8,0:0:0:0:
480,352,33824,1,0,0:0:0:0:
480,352,33908,1,0,0:0:0:0:
480,352,33991,1,8,0:0:0:0:
480,352,34074,1,0,0:0:0:0:
480,352,34158,1,0,0:0:0:0:
480,352,34241,1,8,0:0:0:0:
480,352,34574,1,8,0:0:0:0:
480,352,34630,1,8,0:0:0:0:
480,352,34685,1,8,0:0:0:0:
480,352,34741,1,0,0:0:0:0:
480,352,34824,1,8,0:0:0:0:
480,352,34908,1,8,0:0:0:0:
480,352,34991,1,8,0:0:0:0:
480,352,35074,1,0,0:0:0:0:
480,352,35324,1,8,0:0:0:0:
480,352,35908,1,8,0:0:0:0:
480,352,35963,1,8,0:0:0:0:
480,352,36019,1,8,0:0:0:0:
480,352,36074,1,0,0:0:0:0:
480,352,36158,1,8,0:0:0:0:
480,352,36241,1,8,0:0:0:0:
480,352,36324,1,0,0:0:0:0:
480,352,36408,1,8,0:0:0:0:
480,352,36658,1,8,0:0:0:0:
480,352,37074,1,8,0:0:0:0:
480,352,37907,1,0,0:0:0:0:
480,352,37991,1,8,0:0:0:0:
480,352,38157,1,0,0:0:0:0:
480,352,38324,1,8,0:0:0:0:
480,352,38491,1,8,0:0:0:0:
480,352,38574,1,8,0:0:0:0:
480,352,38657,1,8,0:0:0:0:
480,352,38741,1,0,0:0:0:0:
480,352,38852,1,0,0:0:0:0:
480,352,38963,1,0,0:0:0:0:
480,352,39074,1,12,0:0:0:0:
480,352,39241,1,0,0:0:0:0:
480,352,39407,1,8,0:0:0:0:
480,352,39491,1,0,0:0:0:0:
480,352,39546,1,0,0:0:0:0:
480,352,39602,1,0,0:0:0:0:
480,352,39657,1,8,0:0:0:0:
480,352,39824,1,8,0:0:0:0:
480,352,39907,1,0,0:0:0:0:
480,352,39991,1,8,0:0:0:0:
480,352,40074,1,8,0:0:0:0:
480,352,40241,1,0,0:0:0:0:
480,352,40324,1,0,0:0:0:0:
480,352,40407,1,8,0:0:0:0:
480,352,40491,1,8,0:0:0:0:
480,352,40574,1,0,0:0:0:0:
480,352,40657,1,8,0:0:0:0:
480,352,40741,1,0,0:0:0:0:
480,352,40824,1,0,0:0:0:0:
480,352,40907,1,8,0:0:0:0:
480,352,40991,1,8,0:0:0:0:
480,352,41074,1,0,0:0:0:0:
480,352,41157,1,8,0:0:0:0:
480,352,41241,1,0,0:0:0:0:
480,352,41324,1,0,0:0:0:0:
480,352,41407,1,8,0:0:0:0:
480,352,41491,1,8,0:0:0:0:
480,352,41574,1,8,0:0:0:0:
480,352,41657,1,0,0:0:0:0:
480,352,41741,1,8,0:0:0:0:
480,352,41824,1,0,0:0:0:0:
480,352,41907,1,8,0:0:0:0:
480,352,42074,1,8,0:0:0:0:
480,352,42157,1,0,0:0:0:0:
480,352,42213,1,0,0:0:0:0:
480,352,42269,1,0,0:0:0:0:
480,352,42324,1,8,0:0:0:0:
480,352,42491,1,8,0:0:0:0:
480,352,42574,1,0,0:0:0:0:
480,352,42657,1,8,0:0:0:0:
480,352,42741,1,8,0:0:0:0:
480,352,42907,1,0,0:0:0:0:
480,352,42991,1,0,0:0:0:0:
480,352,43074,1,8,0:0:0:0:
480,352,43157,1,8,0:0:0:0:
480,352,43241,1,0,0:0:0:0:
480,352,43324,1,8,0:0:0:0:
480,352,43407,1,0,0:0:0:0:
480,352,43491,1,0,0:0:0:0:
480,352,43574,1,8,0:0:0:0:
480,352,43657,1,8,0:0:0:0:
480,352,43741,1,0,0:0:0:0:
480,352,43824,1,8,0:0:0:0:
480,352,43907,1,0,0:0:0:0:
480,352,43991,1,0,0:0:0:0:
480,352,44074,1,8,0:0:0:0:
480,352,44157,1,8,0:0:0:0:
480,352,44241,1,8,0:0:0:0:
480,352,44324,1,0,0:0:0:0:
480,352,44407,1,8,0:0:0:0:
480,352,44574,1,0,0:0:0:0:
480,352,44657,1,8,0:0:0:0:
480,352,44741,1,0,0:0:0:0:
480,352,44796,1,0,0:0:0:0:
480,352,44852,1,0,0:0:0:0:
480,352,44907,1,0,0:0:0:0:
480,352,44991,1,8,0:0:0:0:
480,352,45157,1,8,0:0:0:0:
480,352,45241,1,8,0:0:0:0:
480,352,45324,1,0,0:0:0:0:
480,352,45407,1,8,0:0:0:0:
480,352,45574,1,0,0:0:0:0:
480,352,45657,1,0,0:0:0:0:
480,352,45741,1,8,0:0:0:0:
480,352,45824,1,8,0:0:0:0:
480,352,45907,1,0,0:0:0:0:
480,352,45991,1,8,0:0:0:0:
480,352,46074,1,0,0:0:0:0:
480,352,46157,1,0,0:0:0:0:
480,352,46241,1,8,0:0:0:0:
480,352,46324,1,8,0:0:0:0:
480,352,46407,1,0,0:0:0:0:
480,352,46491,1,8,0:0:0:0:
480,352,46574,1,0,0:0:0:0:
480,352,46657,1,0,0:0:0:0:
480,352,46741,1,8,0:0:0:0:
480,352,46824,1,8,0:0:0:0:
480,352,46907,1,8,0:0:0:0:
480,352,46991,1,0,0:0:0:0:
480,352,47074,1,8,0:0:0:0:
480,352,47241,1,0,0:0:0:0:
480,352,47324,1,0,0:0:0:0:
480,352,47407,1,8,0:0:0:0:
480,352,47463,1,0,0:0:0:0:
480,352,47519,1,0,0:0:0:0:
480,352,47574,1,0,0:0:0:0:
480,352,47657,1,8,0:0:0:0:
480,352,47824,1,8,0:0:0:0:
480,352,47866,1,8,0:0:0:0:
480,352,47907,1,8,0:0:0:0:
480,352,47991,1,0,0:0:0:0:
480,352,48074,1,8,0:0:0:0:
480,352,48157,1,0,0:0:0:0:
480,352,48241,1,8,0:0:0:0:
480,352,48407,1,0,0:0:0:0:
480,352,49574,1,8,0:0:0:0:
480,352,49657,1,8,0:0:0:0:
480,352,49741,1,0,0:0:0:0:
480,352,49907,1,0,0:0:0:0:
480,352,50074,1,8,0:0:0:0:
480,352,50241,1,0,0:0:0:0:
480,352,50741,1,8,0:0:0:0:
480,352,50907,1,0,0:0:0:0:
480,352,51074,1,8,0:0:0:0:
480,352,51157,1,8,0:0:0:0:
480,352,51241,1,0,0:0:0:0:
480,352,51324,1,8,0:0:0:0:
480,352,51491,1,0,0:0:0:0:
480,352,51574,1,8,0:0:0:0:
480,352,51907,1,8,0:0:0:0:
480,352,52074,1,8,0:0:0:0:
480,352,52241,1,8,0:0:0:0:
480,352,52407,1,0,0:0:0:0:
480,352,52574,1,8,0:0:0:0:
480,352,52657,1,8,0:0:0:0:
480,352,52741,1,0,0:0:0:0:
480,352,52824,1,8,0:0:0:0:
480,352,52907,1,8,0:0:0:0:
480,352,53241,1,0,0:0:0:0:
480,352,53407,1,0,0:0:0:0:
480,352,53574,1,8,0:0:0:0:
480,352,53907,1,8,0:0:0:0:
480,352,54074,1,0,0:0:0:0:
480,352,54241,1,8,0:0:0:0:
480,352,54574,1,8,0:0:0:0:
480,352,54657,1,0,0:0:0:0:
480,352,54741,1,8,0:0:0:0:
480,352,54824,1,8,0:0:0:0:
480,352,54907,1,8,0:0:0:0:
480,352,54991,1,8,0:0:0:0:
480,352,55074,1,0,0:0:0:0:
480,352,55241,1,8,0:0:0:0:
480,352,55407,1,0,0:0:0:0:
480,352,55574,1,8,0:0:0:0:
480,352,55907,1,0,0:0:0:0:
480,352,56074,1,8,0:0:0:0:
480,352,56130,1,8,0:0:0:0:
480,352,56185,1,8,0:0:0:0:
480,352,56241,1,0,0:0:0:0:
480,352,56407,1,8,0:0:0:0:
480,352,56491,1,0,0:0:0:0:
480,352,56574,1,0,0:0:0:0:
480,352,56657,1,8,0:0:0:0:
480,352,56824,1,8,0:0:0:0:
480,352,56907,1,8,0:0:0:0:
480,352,57241,1,0,0:0:0:0:
480,352,57407,1,0,0:0:0:0:
480,352,57463,1,0,0:0:0:0:
480,352,57519,1,0,0:0:0:0:
480,352,57574,1,8,0:0:0:0:
480,352,57907,1,0,0:0:0:0:
480,352,58074,1,0,0:0:0:0:
480,352,58130,1,0,0:0:0:0:
480,352,58185,1,8,0:0:0:0:
480,352,58241,1,8,0:0:0:0:
480,352,58574,1,0,0:0:0:0:
480,352,58741,1,8,0:0:0:0:
480,352,58907,1,0,0:0:0:0:
480,352,58991,1,0,0:0:0:0:
480,352,59074,1,8,0:0:0:0:
480,352,59157,1,0,0:0:0:0:
480,352,59241,1,8,0:0:0:0:
480,352,59407,1,8,0:0:0:0:
480,352,59574,1,0,0:0:0:0:
480,352,59657,1,8,0:0:0:0:
480,352,59741,1,0,0:0:0:0:
480,352,59907,1,0,0:0:0:0:
480,352,59991,1,0,0:0:0:0:
480,352,60074,1,0,0:0:0:0:
480,352,60157,1,8,0:0:0:0:
480,352,60241,1,8,0:0:0:0:
480,352,60324,1,8,0:0:0:0:
480,352,60407,1,4,0:0:0:0:
480,352,60574,1,0,0:0:0:0:
480,352,60657,1,0,0:0:0:0:
480,352,60741,1,8,0:0:0:0:
480,352,60824,1,0,0:0:0:0:
480,352,60907,1,8,0:0:0:0:
479,352,60991,1,0,0:0:0:0:
480,352,61157,1,0,0:0:0:0:
480,352,61241,1,8,0:0:0:0:
480,352,61407,1,8,0:0:0:0:
480,352,61491,1,0,0:0:0:0:
480,352,61574,1,0,0:0:0:0:
480,352,61741,1,8,0:0:0:0:
480,352,61824,1,8,0:0:0:0:
480,352,61907,1,0,0:0:0:0:
480,352,61991,1,8,0:0:0:0:
480,352,62157,1,8,0:0:0:0:
480,352,62241,1,0,0:0:0:0:
480,352,62324,1,8,0:0:0:0:
480,352,62491,1,0,0:0:0:0:
480,352,62574,1,8,0:0:0:0:
480,352,62741,1,8,0:0:0:0:
480,352,62824,1,8,0:0:0:0:
480,352,62907,1,0,0:0:0:0:
480,352,62991,1,0,0:0:0:0:
480,352,63074,1,8,0:0:0:0:
480,352,63241,1,0,0:0:0:0:
480,352,63324,1,0,0:0:0:0:
480,352,63407,1,8,0:0:0:0:
480,352,63491,1,0,0:0:0:0:
480,352,63574,1,8,0:0:0:0:
480,352,63657,1,8,0:0:0:0:
480,352,63741,1,8,0:0:0:0:
480,352,63824,1,0,0:0:0:0:
480,352,63907,1,8,0:0:0:0:
480,352,63991,1,0,0:0:0:0:
480,352,64074,1,8,0:0:0:0:
480,352,64241,1,8,0:0:0:0:
480,352,64324,1,8,0:0:0:0:
480,352,64407,1,0,0:0:0:0:
480,352,64491,1,8,0:0:0:0:
480,352,64574,1,8,0:0:0:0:
480,352,64657,1,0,0:0:0:0:
480,352,64741,1,8,0:0:0:0:
480,352,64824,1,8,0:0:0:0:
480,352,64907,1,0,0:0:0:0:
480,352,64991,1,0,0:0:0:0:
480,352,65074,1,8,0:0:0:0:
480,352,65241,1,8,0:0:0:0:
480,352,65324,1,8,0:0:0:0:
480,352,65407,1,8,0:0:0:0:
480,352,65491,1,0,0:0:0:0:
480,352,65574,1,0,0:0:0:0:
480,352,65658,1,0,0:0:0:0:
480,352,65741,1,12,0:0:0:0:
480,352,65908,1,0,0:0:0:0:
480,352,65991,1,0,0:0:0:0:
480,352,66074,1,8,0:0:0:0:
480,352,66241,1,8,0:0:0:0:
480,352,66324,1,8,0:0:0:0:
480,352,66408,1,0,0:0:0:0:
480,352,66491,1,0,0:0:0:0:
480,352,66574,1,8,0:0:0:0:
480,352,66741,1,8,0:0:0:0:
480,352,66908,1,0,0:0:0:0:
480,352,66991,1,8,0:0:0:0:
480,352,67074,1,8,0:0:0:0:
480,352,67130,1,8,0:0:0:0:
480,352,67185,1,8,0:0:0:0:
480,352,67241,1,0,0:0:0:0:
480,352,67324,1,0,0:0:0:0:
480,352,67408,1,8,0:0:0:0:
480,352,67491,1,8,0:0:0:0:
480,352,67574,1,0,0:0:0:0:
480,352,67741,1,8,0:0:0:0:
480,352,67824,1,0,0:0:0:0:
480,352,67908,1,8,0:0:0:0:
480,352,67991,1,0,0:0:0:0:
480,352,68074,1,8,0:0:0:0:
480,352,68158,1,0,0:0:0:0:
480,352,68241,1,8,0:0:0:0:
480,352,68324,1,0,0:0:0:0:
480,352,68408,1,8,0:0:0:0:
480,352,68574,1,8,0:0:0:0:
480,352,68658,1,0,0:0:0:0:
480,352,68824,1,0,0:0:0:0:
480,352,68908,1,8,0:0:0:0:
480,352,69074,1,0,0:0:0:0:
480,352,69130,1,8,0:0:0:0:
480,352,69185,1,0,0:0:0:0:
480,352,69241,1,8,0:0:0:0:
480,352,69296,1,0,0:0:0:0:
480,352,69352,1,8,0:0:0:0:
480,352,69408,1,0,0:0:0:0:
480,352,69463,1,8,0:0:0:0:
480,352,69519,1,0,0:0:0:0:
480,352,69574,1,8,0:0:0:0:
480,352,69658,1,8,0:0:0:0:
480,352,69741,1,0,0:0:0:0:
480,352,69908,1,8,0:0:0:0:
480,352,69991,1,8,0:0:0:0:
480,352,70074,1,0,0:0:0:0:
480,352,70158,1,8,0:0:0:0:
480,352,70324,1,8,0:0:0:0:
480,352,70408,1,0,0:0:0:0:
480,352,70491,1,8,0:0:0:0:
480,352,70574,1,8,0:0:0:0:
480,352,70658,1,8,0:0:0:0:
480,352,70741,1,0,0:0:0:0:
480,352,70824,1,8,0:0:0:0:
480,352,70991,1,0,0:0:0:0:
480,352,71074,1,8,0:0:0:0:
480,352,71158,1,0,0:0:0:0:
480,352,71241,1,8,0:0:0:0:
480,352,71324,1,0,0:0:0:0:
480,352,71491,1,0,0:0:0:0:
480,352,71658,1,0,0:0:0:0:
480,352,71741,1,8,0:0:0:0:
480,352,72408,1,8,0:0:0:0:
480,352,72491,1,0,0:0:0:0:
480,352,72658,1,8,0:0:0:0:
480,352,72741,1,0,0:0:0:0:
480,352,72908,1,8,0:0:0:0:
480,352,72991,1,0,0:0:0:0:
480,352,73491,1,8,0:0:0:0:
480,352,73574,1,0,0:0:0:0:
480,352,73657,1,0,0:0:0:0:
480,352,73741,1,8,0:0:0:0:
480,352,73824,1,0,0:0:0:0:
480,352,73907,1,8,0:0:0:0:
480,352,73991,1,0,0:0:0:0:
480,352,74074,1,8,0:0:0:0:
480,352,74241,1,8,0:0:0:0:
480,352,74324,1,8,0:0:0:0:
480,352,74491,1,8,0:0:0:0:
480,352,74574,1,0,0:0:0:0:
480,352,75074,1,8,0:0:0:0:
480,352,75157,1,8,0:0:0:0:
480,352,75241,1,0,0:0:0:0:
480,352,75324,1,8,0:0:0:0:
480,352,75407,1,0,0:0:0:0:
480,352,75574,1,8,0:0:0:0:
480,352,75657,1,0,0:0:0:0:
480,352,75824,1,0,0:0:0:0:
480,352,75907,1,8,0:0:0:0:
480,352,75991,1,0,0:0:0:0:
480,352,76074,1,0,0:0:0:0:
480,352,76157,1,0,0:0:0:0:
480,352,76241,1,8,0:0:0:0:
480,352,76324,1,8,0:0:0:0:
480,352,76407,1,0,0:0:0:0:
480,352,76574,1,8,0:0:0:0:
480,352,76741,1,0,0:0:0:0:
480,352,76824,1,0,0:0:0:0:
480,352,76907,1,8,0:0:0:0:
480,352,76991,1,8,0:0:0:0:
480,352,77157,1,0,0:0:0:0:
480,352,77241,1,8,0:0:0:0:
480,352,77324,1,8,0:0:0:0:
480,352,77407,1,8,0:0:0:0:
480,352,77491,1,0,0:0:0:0:
480,352,77574,1,0,0:0:0:0:
480,352,77657,1,0,0:0:0:0:
480,352,77741,1,8,0:0:0:0:
480,352,77907,1,0,0:0:0:0:
480,352,77991,1,8,0:0:0:0:
480,352,78157,1,8,0:0:0:0:
480,352,78241,1,0,0:0:0:0:
480,352,78407,1,8,0:0:0:0:
480,352,78491,1,8,0:0:0:0:
480,352,78574,1,8,0:0:0:0:
480,352,78657,1,8,0:0:0:0:
480,352,78741,1,0,0:0:0:0:
480,352,78824,1,0,0:0:0:0:
480,352,78907,1,0,0:0:0:0:
480,352,78991,1,0,0:0:0:0:
480,352,79074,1,8,0:0:0:0:
480,352,79241,1,0,0:0:0:0:
480,352,79324,1,0,0:0:0:0:
480,352,79407,1,8,0:0:0:0:
480,352,79574,1,8,0:0:0:0:
480,352,79630,1,8,0:0:0:0:
480,352,79685,1,8,0:0:0:0:
480,352,79741,1,8,0:0:0:0:
480,352,79824,1,8,0:0:0:0:
480,352,79907,1,0,0:0:0:0:
480,352,79991,1,0,0:0:0:0:
480,352,80074,1,8,0:0:0:0:
480,352,80157,1,0,0:0:0:0:
480,352,80241,1,8,0:0:0:0:
480,352,80324,1,8,0:0:0:0:
480,352,80491,1,0,0:0:0:0:
480,352,80574,1,8,0:0:0:0:
480,352,80657,1,8,0:0:0:0:
480,352,80741,1,0,0:0:0:0:
480,352,80824,1,0,0:0:0:0:
480,352,80907,1,8,0:0:0:0:
480,352,80991,1,0,0:0:0:0:
480,352,81074,1,8,0:0:0:0:
480,352,81241,1,0,0:0:0:0:
480,352,81324,1,0,0:0:0:0:
480,352,81407,1,8,0:0:0:0:
480,352,81491,1,0,0:0:0:0:
480,352,81574,1,8,0:0:0:0:
480,352,81657,1,8,0:0:0:0:
480,352,81741,1,0,0:0:0:0:
480,352,81824,1,8,0:0:0:0:
480,352,81907,1,0,0:0:0:0:
480,352,81991,1,8,0:0:0:0:
480,352,82157,1,0,0:0:0:0:
480,352,82241,1,8,0:0:0:0:
480,352,82324,1,8,0:0:0:0:
480,352,82407,1,0,0:0:0:0:
480,352,82574,1,8,0:0:0:0:
480,352,82657,1,8,0:0:0:0:
480,352,82741,1,0,0:0:0:0:
480,352,82824,1,8,0:0:0:0:
480,352,82907,1,0,0:0:0:0:
480,352,82991,1,8,0:0:0:0:
480,352,83157,1,0,0:0:0:0:
480,352,83241,1,8,0:0:0:0:
480,352,83324,1,8,0:0:0:0:
480,352,83407,1,0,0:0:0:0:
480,352,83574,1,8,0:0:0:0:
480,352,83657,1,0,0:0:0:0:
480,352,83741,1,8,0:0:0:0:
480,352,83824,1,8,0:0:0:0:
480,352,83907,1,0,0:0:0:0:
480,352,83991,1,0,0:0:0:0:
480,352,84074,1,8,0:0:0:0:
480,352,84157,1,0,0:0:0:0:
480,352,84241,1,8,0:0:0:0:
480,352,84324,1,8,0:0:0:0:
480,352,84407,1,0,0:0:0:0:
480,352,84491,1,8,0:0:0:0:
480,352,84657,1,8,0:0:0:0:
480,352,84741,1,8,0:0:0:0:
480,352,84907,1,8,0:0:0:0:
480,352,84991,1,0,0:0:0:0:
480,352,85074,1,0,0:0:0:0:
480,352,85157,1,8,0:0:0:0:
480,352,85324,1,0,0:0:0:0:
480,352,85407,1,8,0:0:0:0:
480,352,85491,1,8,0:0:0:0:
480,352,85574,1,0,0:0:0:0:
480,352,85657,1,0,0:0:0:0:
480,352,85741,1,8,0:0:0:0:
480,352,85907,1,0,0:0:0:0:
480,352,85991,1,0,0:0:0:0:
480,352,86074,1,8,0:0:0:0:
480,352,86130,1,0,0:0:0:0:
480,352,86185,1,8,0:0:0:0:
480,352,86241,1,0,0:0:0:0:
480,352,86296,1,8,0:0:0:0:
480,352,86352,1,0,0:0:0:0:
480,352,86407,1,8,0:0:0:0:
480,352,86519,1,0,0:0:0:0:
480,352,86630,1,8,0:0:0:0:
480,352,86741,1,8,0:0:0:0:
480,352,86852,1,0,0:0:0:0:
480,352,86963,1,0,0:0:0:0:
480,352,87074,1,8,0:0:0:0:
480,352,88407,1,0,0:0:0:0:
480,352,88741,1,8,0:0:0:0:
480,352,88907,1,0,0:0:0:0:
480,352,89241,1,8,0:0:0:0:
480,352,89407,1,0,0:0:0:0:
480,352,89574,1,0,0:0:0:0:
480,352,89657,1,0,0:0:0:0:
480,352,89741,1,8,0:0:0:0:
480,352,89907,1,0,0:0:0:0:
480,352,89991,1,0,0:0:0:0:
480,352,90074,1,0,0:0:0:0:
480,352,90241,1,8,0:0:0:0:
480,352,90407,1,0,0:0:0:0:
480,352,90491,1,8,0:0:0:0:
480,352,90574,1,8,0:0:0:0:
480,352,90741,1,8,0:0:0:0:
480,352,90907,1,8,0:0:0:0:
480,352,90991,1,8,0:0:0:0:
480,352,91074,1,4,0:0:0:0:
480,352,91241,1,8,0:0:0:0:
480,352,91407,1,4,0:0:0:0:
480,352,91574,1,8,0:0:0:0:
480,352,91657,1,4,0:0:0:0:
480,352,91824,5,0,0:0:0:0:
480,352,91907,1,8,0:0:0:0:
480,352,91991,1,8,0:0:0:0:
480,352,92074,1,8,0:0:0:0:
480,352,92157,1,0,0:0:0:0:
480,352,92241,1,8,0:0:0:0:
480,352,92324,1,8,0:0:0:0:
480,352,92407,1,4,0:0:0:0:
480,352,92574,1,0,0:0:0:0:
480,352,92657,1,8,0:0:0:0:
480,352,92824,1,0,0:0:0:0:
480,352,92907,1,8,0:0:0:0:
480,352,92991,1,8,0:0:0:0:
480,352,93074,1,0,0:0:0:0:
480,352,93241,1,8,0:0:0:0:
480,352,93296,1,0,0:0:0:0:
480,352,93352,1,8,0:0:0:0:
480,352,93407,1,8,0:0:0:0:
480,352,93491,1,0,0:0:0:0:
480,352,93574,1,8,0:0:0:0:
480,352,93657,1,0,0:0:0:0:
480,352,93741,1,0,0:0:0:0:
480,352,93824,1,8,0:0:0:0:
480,352,93907,1,8,0:0:0:0:
480,352,93991,1,0,0:0:0:0:
480,352,94157,1,8,0:0:0:0:
480,352,94324,1,8,0:0:0:0:
480,352,94491,1,8,0:0:0:0:
480,352,94574,1,0,0:0:0:0:
480,352,94657,1,0,0:0:0:0:
480,352,94741,1,8,0:0:0:0:
480,352,94824,1,8,0:0:0:0:
480,352,94907,1,0,0:0:0:0:
480,352,94991,1,8,0:0:0:0:
480,352,95074,1,0,0:0:0:0:
480,352,95157,1,0,0:0:0:0:
480,352,95324,1,8,0:0:0:0:
480,352,95491,1,0,0:0:0:0:
480,352,95574,1,8,0:0:0:0:
480,352,95657,1,0,0:0:0:0:
480,352,95741,1,0,0:0:0:0:
480,352,95824,1,8,0:0:0:0:
480,352,95907,1,8,0:0:0:0:
480,352,95991,1,0,0:0:0:0:
480,352,96074,1,8,0:0:0:0:
480,352,96130,1,8,0:0:0:0:
480,352,96185,1,8,0:0:0:0:
480,352,96241,1,0,0:0:0:0:
480,352,96324,1,0,0:0:0:0:
480,352,96407,1,8,0:0:0:0:
480,352,96574,1,0,0:0:0:0:
480,352,96657,1,0,0:0:0:0:
480,352,96741,1,8,0:0:0:0:
480,352,96907,1,0,0:0:0:0:
480,352,96991,1,0,0:0:0:0:
480,352,97074,1,8,0:0:0:0:
480,352,97157,1,8,0:0:0:0:
480,352,97241,1,0,0:0:0:0:
480,352,97324,1,0,0:0:0:0:
480,352,97407,1,8,0:0:0:0:
480,352,97491,1,0,0:0:0:0:
480,352,97574,1,8,0:0:0:0:
480,352,97630,1,8,0:0:0:0:
480,352,97685,1,8,0:0:0:0:
480,352,97741,1,4,0:0:0:0:
480,352,97907,1,0,0:0:0:0:
480,352,97991,1,8,0:0:0:0:
480,352,98157,1,0,0:0:0:0:
480,352,98241,1,8,0:0:0:0:
480,352,98324,1,8,0:0:0:0:
480,352,98407,1,0,0:0:0:0:
480,352,98491,1,8,0:0:0:0:
480,352,98532,1,8,0:0:0:0:
480,352,98574,1,8,0:0:0:0:
480,352,98657,1,0,0:0:0:0:
480,352,98741,1,8,0:0:0:0:
480,352,98824,1,0,0:0:0:0:
480,352,98907,1,8,0:0:0:0:
480,352,98991,1,8,0:0:0:0:
480,352,99074,1,4,0:0:0:0:
480,352,99241,1,0,0:0:0:0:
480,352,99324,1,12,0:0:0:0:
480,352,99491,1,0,0:0:0:0:
480,352,99574,1,12,0:0:0:0:
480,352,99907,1,8,0:0:0:0:
480,352,99963,1,8,0:0:0:0:
480,352,100019,1,8,0:0:0:0:
480,352,100074,1,0,0:0:0:0:
480,352,100157,1,8,0:0:0:0:
480,352,100241,1,8,0:0:0:0:
480,352,100324,1,8,0:0:0:0:
480,352,100407,1,0,0:0:0:0:
480,352,100574,1,0,0:0:0:0:
480,352,100657,1,0,0:0:0:0:
480,352,100907,1,0,0:0:0:0:
480,352,101074,1,8,0:0:0:0:
480,352,101241,1,8,0:0:0:0:
480,352,101296,1,8,0:0:0:0:
480,352,101352,1,8,0:0:0:0:
480,352,101407,1,0,0:0:0:0:
480,352,101491,1,8,0:0:0:0:
480,352,101574,1,8,0:0:0:0:
480,352,101657,1,0,0:0:0:0:
480,352,101741,1,0,0:0:0:0:
480,352,101824,1,0,0:0:0:0:
480,352,101991,1,8,0:0:0:0:
480,352,102074,1,0,0:0:0:0:
480,352,102157,1,0,0:0:0:0:
480,352,102241,1,8,0:0:0:0:
480,352,102491,1,8,0:0:0:0:
480,352,102574,1,8,0:0:0:0:
480,352,102657,1,8,0:0:0:0:
480,352,102741,1,0,0:0:0:0:
480,352,102852,1,0,0:0:0:0:
480,352,102963,1,0,0:0:0:0:
480,352,103074,1,12,0:0:0:0:
480,352,103241,1,0,0:0:0:0:
480,352,103407,1,8,0:0:0:0:
480,352,103491,1,0,0:0:0:0:
480,352,103546,1,0,0:0:0:0:
480,352,103602,1,0,0:0:0:0:
480,352,103657,1,8,0:0:0:0:
480,352,103824,1,8,0:0:0:0:
480,352,103907,1,0,0:0:0:0:
480,352,103991,1,8,0:0:0:0:
480,352,104074,1,8,0:0:0:0:
480,352,104241,1,0,0:0:0:0:
480,352,104324,1,0,0:0:0:0:
480,352,104407,1,8,0:0:0:0:
480,352,104491,1,8,0:0:0:0:
480,352,104574,1,0,0:0:0:0:
480,352,104657,1,8,0:0:0:0:
480,352,104741,1,0,0:0:0:0:
480,352,104824,1,0,0:0:0:0:
480,352,104907,1,8,0:0:0:0:
480,352,104991,1,8,0:0:0:0:
480,352,105074,1,0,0:0:0:0:
480,352,105157,1,8,0:0:0:0:
480,352,105241,1,0,0:0:0:0:
480,352,105324,1,0,0:0:0:0:
480,352,105407,1,8,0:0:0:0:
480,352,105491,1,8,0:0:0:0:
480,352,105574,1,8,0:0:0:0:
480,352,105657,1,0,0:0:0:0:
480,352,105741,1,8,0:0:0:0:
480,352,105824,1,0,0:0:0:0:
480,352,105907,1,8,0:0:0:0:
480,352,106074,1,8,0:0:0:0:
480,352,106157,1,0,0:0:0:0:
480,352,106213,1,0,0:0:0:0:
480,352,106269,1,0,0:0:0:0:
480,352,106324,1,8,0:0:0:0:
480,352,106491,1,8,0:0:0:0:
480,352,106574,1,0,0:0:0:0:
480,352,106657,1,8,0:0:0:0:
480,352,106741,1,8,0:0:0:0:
480,352,106907,1,0,0:0:0:0:
480,352,106991,1,0,0:0:0:0:
480,352,107074,1,8,0:0:0:0:
480,352,107157,1,8,0:0:0:0:
480,352,107241,1,0,0:0:0:0:
480,352,107324,1,8,0:0:0:0:
480,352,107407,1,0,0:0:0:0:
480,352,107491,1,0,0:0:0:0:
480,352,107574,1,8,0:0:0:0:
480,352,107657,1,8,0:0:0:0:
480,352,107741,1,0,0:0:0:0:
480,352,107824,1,8,0:0:0:0:
480,352,107907,1,0,0:0:0:0:
480,352,107991,1,0,0:0:0:0:
480,352,108074,1,8,0:0:0:0:
480,352,108157,1,8,0:0:0:0:
480,352,108241,1,8,0:0:0:0:
480,352,108324,1,0,0:0:0:0:
480,352,108407,1,8,0:0:0:0:
480,352,108574,1,0,0:0:0:0:
480,352,108657,1,8,0:0:0:0:
480,352,108741,1,0,0:0:0:0:
480,352,108796,1,0,0:0:0:0:
480,352,108852,1,0,0:0:0:0:
480,352,108907,1,0,0:0:0:0:
480,352,108991,1,8,0:0:0:0:
480,352,109157,1,8,0:0:0:0:
480,352,109241,1,8,0:0:0:0:
480,352,109324,1,0,0:0:0:0:
480,352,109407,1,8,0:0:0:0:
480,352,109574,1,8,0:0:0:0:
480,352,109657,1,0,0:0:0:0:
480,352,109741,1,8,0:0:0:0:
480,352,109824,1,8,0:0:0:0:
480,352,109907,1,0,0:0:0:0:
480,352,109991,1,8,0:0:0:0:
480,352,110074,1,0,0:0:0:0:
480,352,110157,1,0,0:0:0:0:
480,352,110241,1,8,0:0:0:0:
480,352,110324,1,8,0:0:0:0:
480,352,110407,1,0,0:0:0:0:
480,352,110491,1,8,0:0:0:0:
480,352,110574,1,0,0:0:0:0:
480,352,110657,1,0,0:0:0:0:
480,352,110741,1,8,0:0:0:0:
480,352,110824,1,8,0:0:0:0:
480,352,110907,1,0,0:0:0:0:
480,352,110991,1,0,0:0:0:0:
480,352,111074,1,8,0:0:0:0:
480,352,111241,1,0,0:0:0:0:
480,352,111324,1,8,0:0:0:0:
480,352,111407,1,0,0:0:0:0:
480,352,111463,1,8,0:0:0:0:
480,352,111519,1,8,0:0:0:0:
480,352,111574,1,0,0:0:0:0:
480,352,111657,1,8,0:0:0:0:
480,352,111824,1,8,0:0:0:0:
480,352,111866,1,8,0:0:0:0:
480,352,111907,1,8,0:0:0:0:
480,352,111991,1,0,0:0:0:0:
480,352,112074,1,8,0:0:0:0:
480,352,112157,1,0,0:0:0:0:
480,352,112241,1,8,0:0:0:0:
480,352,112407,1,8,0:0:0:0:
480,352,112491,1,8,0:0:0:0:
480,352,112574,1,0,0:0:0:0:
480,352,112657,1,8,0:0:0:0:
480,352,112741,1,0,0:0:0:0:
480,352,112824,1,0,0:0:0:0:
480,352,112907,1,8,0:0:0:0:
480,352,112991,1,8,0:0:0:0:
480,352,113074,1,0,0:0:0:0:
480,352,113157,1,8,0:0:0:0:
480,352,113241,1,0,0:0:0:0:
480,352,113324,1,0,0:0:0:0:
480,352,113519,1,8,0:0:0:0:
480,352,113630,1,8,0:0:0:0:
480,352,113741,1,0,0:0:0:0:
480,352,114241,1,8,0:0:0:0:
480,352,115074,1,0,0:0:0:0:
480,352,115241,1,8,0:0:0:0:
480,352,115407,1,8,0:0:0:0:
480,352,115463,1,0,0:0:0:0:
480,352,115519,1,8,0:0:0:0:
480,352,115574,1,8,0:0:0:0:
480,352,115741,1,0,0:0:0:0:
480,352,115907,1,8,0:0:0:0:
480,352,115991,1,8,0:0:0:0:
480,352,116157,1,0,0:0:0:0:
480,352,116241,1,8,0:0:0:0:
480,352,116407,1,0,0:0:0:0:
480,352,116741,1,0,0:0:0:0:
480,352,116907,1,8,0:0:0:0:
480,352,116991,1,0,0:0:0:0:
480,352,117241,1,0,0:0:0:0:
480,352,117407,1,8,0:0:0:0:
480,352,117491,1,8,0:0:0:0:
480,352,117574,1,0,0:0:0:0:
480,352,117741,1,8,0:0:0:0:
480,352,117824,1,8,0:0:0:0:
480,352,117907,1,8,0:0:0:0:
480,352,117991,1,0,0:0:0:0:
480,352,118074,1,0,0:0:0:0:
480,352,118157,1,8,0:0:0:0:
480,352,118324,1,0,0:0:0:0:
480,352,118491,1,8,0:0:0:0:
480,352,118574,1,0,0:0:0:0:
480,352,118657,1,8,0:0:0:0:
480,352,118852,1,8,0:0:0:0:
480,352,118963,1,8,0:0:0:0:
480,352,119074,1,0,0:0:0:0:
480,352,119241,1,8,0:0:0:0:
480,352,119407,1,8,0:0:0:0:
480,352,119463,1,8,0:0:0:0:
480,352,119519,1,8,0:0:0:0:
480,352,119574,1,0,0:0:0:0:
480,352,119657,1,8,0:0:0:0:
480,352,119824,1,8,0:0:0:0:
480,352,119907,1,0,0:0:0:0:
480,352,119991,1,8,0:0:0:0:
480,352,120074,1,8,0:0:0:0:
480,352,120185,1,8,0:0:0:0:
480,352,120296,1,8,0:0:0:0:
480,352,120407,1,0,0:0:0:0:
480,352,120491,1,8,0:0:0:0:
480,352,120574,1,8,0:0:0:0:
480,352,120657,1,0,0:0:0:0:
480,352,120824,1,8,0:0:0:0:
480,352,120907,1,0,0:0:0:0:
480,352,121074,1,0,0:0:0:0:
480,352,121157,1,8,0:0:0:0:
480,352,121241,1,0,0:0:0:0:
480,352,121324,1,8,0:0:0:0:
480,352,121491,1,0,0:0:0:0:
480,352,121574,1,8,0:0:0:0:
480,352,121741,1,8,0:0:0:0:
480,352,121824,1,8,0:0:0:0:
480,352,121907,1,8,0:0:0:0:
480,352,121991,1,0,0:0:0:0:
480,352,122157,1,8,0:0:0:0:
480,352,122241,1,0,0:0:0:0:
480,352,122407,1,8,0:0:0:0:
480,352,122491,1,8,0:0:0:0:
480,352,122574,1,0,0:0:0:0:
480,352,122741,1,0,0:0:0:0:
480,352,122824,1,8,0:0:0:0:
480,352,122907,1,8,0:0:0:0:
480,352,122991,1,0,0:0:0:0:
480,352,123241,1,0,0:0:0:0:
480,352,123407,1,12,0:0:0:0:
480,352,123574,1,0,0:0:0:0:
480,352,123657,1,0,0:0:0:0:
480,352,123741,1,0,0:0:0:0:
480,352,123907,1,8,0:0:0:0:
480,352,123991,1,8,0:0:0:0:
480,352,124074,1,0,0:0:0:0:
480,352,124241,1,8,0:0:0:0:
480,352,124407,1,4,0:0:0:0:
480,352,124574,1,8,0:0:0:0:
480,352,124657,1,0,0:0:0:0:
480,352,124824,1,8,0:0:0:0:
480,352,124907,1,0,0:0:0:0:
480,352,124991,1,0,0:0:0:0:
480,352,125074,1,8,0:0:0:0:
480,352,125241,1,0,0:0:0:0:
480,352,125324,1,8,0:0:0:0:
480,352,125491,1,8,0:0:0:0:
480,352,125574,1,8,0:0:0:0:
480,352,125741,1,8,0:0:0:0:
480,352,125824,1,0,0:0:0:0:
480,352,125991,1,0,0:0:0:0:
480,352,126074,1,0,0:0:0:0:
480,352,126241,1,0,0:0:0:0:
480,352,126324,1,8,0:0:0:0:
480,352,126491,1,8,0:0:0:0:
480,352,126574,1,0,0:0:0:0:
480,352,126657,1,0,0:0:0:0:
480,352,126741,1,8,0:0:0:0:
480,352,126824,1,8,0:0:0:0:
480,352,126907,1,0,0:0:0:0:
480,352,126991,1,8,0:0:0:0:
480,352,127074,1,0,0:0:0:0:
480,352,127241,1,8,0:0:0:0:
480,352,127324,1,0,0:0:0:0:
480,352,127407,1,8,0:0:0:0:
480,352,127491,1,8,0:0:0:0:
480,352,127574,1,0,0:0:0:0:
480,352,127657,1,0,0:0:0:0:
480,352,127741,1,0,0:0:0:0:
480,352,127824,1,8,0:0:0:0:
480,352,127907,1,0,0:0:0:0:
480,352,127991,1,8,0:0:0:0:
480,352,128074,1,8,0:0:0:0:
480,352,128157,1,0,0:0:0:0:
480,352,128241,1,8,0:0:0:0:
480,352,128324,1,8,0:0:0:0:
480,352,128407,1,0,0:0:0:0:
480,352,128491,1,8,0:0:0:0:
480,352,128657,1,8,0:0:0:0:
480,352,128824,1,8,0:0:0:0:
480,352,128907,1,0,0:0:0:0:
480,352,128991,1,8,0:0:0:0:
480,352,129185,1,8,0:0:0:0:
480,352,129296,1,8,0:0:0:0:
480,352,129407,1,0,0:0:0:0:
480,352,129519,1,8,0:0:0:0:
480,352,129630,1,8,0:0:0:0:
480,352,129741,1,0,0:0:0:0:
480,352,130074,1,8,0:0:0:0:
480,352,130241,1,0,0:0:0:0:
480,352,130324,1,8,0:0:0:0:
480,352,130407,1,0,0:0:0:0:
480,352,130574,1,8,0:0:0:0:
480,352,130741,1,0,0:0:0:0:
480,352,130907,1,8,0:0:0:0:
480,352,130991,1,0,0:0:0:0:
480,352,131158,1,0,0:0:0:0:
480,352,131241,1,8,0:0:0:0:
480,352,131324,1,0,0:0:0:0:
480,352,131408,1,8,0:0:0:0:
480,352,131491,1,8,0:0:0:0:
480,352,131574,1,0,0:0:0:0:
480,352,131658,1,8,0:0:0:0:
480,352,131824,1,0,0:0:0:0:
480,352,131908,1,8,0:0:0:0:
480,352,131991,1,8,0:0:0:0:
480,352,132074,1,8,0:0:0:0:
480,352,132241,1,0,0:0:0:0:
480,352,132324,1,8,0:0:0:0:
480,352,132491,1,0,0:0:0:0:
480,352,132574,1,8,0:0:0:0:
480,352,132658,1,8,0:0:0:0:
480,352,132741,1,0,0:0:0:0:
480,352,132908,1,0,0:0:0:0:
480,352,133074,1,8,0:0:0:0:
480,352,133130,1,0,0:0:0:0:
480,352,133185,1,8,0:0:0:0:
480,352,133241,1,0,0:0:0:0:
480,352,133296,1,8,0:0:0:0:
480,352,133352,1,0,0:0:0:0:
480,352,133408,1,8,0:0:0:0:
480,352,133491,1,0,0:0:0:0:
480,352,133574,1,8,0:0:0:0:
480,352,133658,1,8,0:0:0:0:
480,352,133741,1,4,0:0:0:0:
480,352,134074,1,8,0:0:0:0:
480,352,134241,1,0,0:0:0:0:
480,352,134324,1,8,0:0:0:0:
480,352,134408,1,0,0:0:0:0:
480,352,134574,1,0,0:0:0:0:
480,352,134741,1,8,0:0:0:0:
480,352,134824,1,0,0:0:0:0:
480,352,134908,1,8,0:0:0:0:
480,352,134991,1,8,0:0:0:0:
480,352,135074,1,0,0:0:0:0:
480,352,135158,1,8,0:0:0:0:
480,352,135324,1,8,0:0:0:0:
480,352,135408,1,0,0:0:0:0:
480,352,135574,1,0,0:0:0:0:
480,352,135658,1,0,0:0:0:0:
480,352,135741,1,8,0:0:0:0:
480,352,135908,1,0,0:0:0:0:
480,352,136074,1,8,0:0:0:0:
480,352,136241,1,0,0:0:0:0:
480,352,136324,1,0,0:0:0:0:
480,352,136408,1,0,0:0:0:0:
480,352,136491,1,8,0:0:0:0:
480,352,136574,1,8,0:0:0:0:
480,352,136658,1,0,0:0:0:0:
480,352,136741,1,8,0:0:0:0:
480,352,136908,1,0,0:0:0:0:
480,352,136991,1,8,0:0:0:0:
480,352,137158,1,8,0:0:0:0:
480,352,137241,1,0,0:0:0:0:
480,352,137324,1,0,0:0:0:0:
480,352,137408,1,8,0:0:0:0:
480,352,137574,1,0,0:0:0:0:
480,352,137658,1,0,0:0:0:0:
480,352,137741,1,8,0:0:0:0:
480,352,137824,1,8,0:0:0:0:
480,352,137908,1,0,0:0:0:0:
480,352,138074,1,8,0:0:0:0:
480,352,138158,1,0,0:0:0:0:
480,352,138324,1,0,0:0:0:0:
480,352,138408,1,8,0:0:0:0:
480,352,138574,1,0,0:0:0:0:
480,352,138658,1,0,0:0:0:0:
480,352,138741,1,8,0:0:0:0:
480,352,138824,1,0,0:0:0:0:
480,352,138908,1,8,0:0:0:0:
480,352,138991,1,8,0:0:0:0:
480,352,139074,1,4,0:0:0:0:
480,352,139408,1,8,0:0:0:0:
480,352,139574,1,0,0:0:0:0:
480,351,139630,1,0,0:0:0:0:
480,351,139685,1,0,0:0:0:0:
480,352,139741,1,8,0:0:0:0:
480,352,139908,1,0,0:0:0:0:
480,352,139991,1,0,0:0:0:0:
480,352,140074,1,8,0:0:0:0:
480,352,140158,1,8,0:0:0:0:
480,352,140241,1,0,0:0:0:0:
480,352,140324,1,8,0:0:0:0:
480,352,140408,1,0,0:0:0:0:
480,352,140574,1,0,0:0:0:0:
480,352,140658,1,8,0:0:0:0:
480,352,140741,1,0,0:0:0:0:
480,352,140824,1,8,0:0:0:0:
480,352,140908,1,8,0:0:0:0:
480,352,140991,1,0,0:0:0:0:
480,352,141158,1,8,0:0:0:0:
480,352,141241,1,0,0:0:0:0:
480,352,141324,1,0,0:0:0:0:
480,352,141408,1,8,0:0:0:0:
480,352,141574,1,8,0:0:0:0:
480,352,141741,1,0,0:0:0:0:
480,352,141908,1,0,0:0:0:0:
480,352,141991,1,8,0:0:0:0:
480,352,142158,1,0,0:0:0:0:
480,352,142241,1,8,0:0:0:0:
480,352,142324,1,8,0:0:0:0:
480,352,142408,1,0,0:0:0:0:
480,352,142491,1,0,0:0:0:0:
480,352,142574,1,8,0:0:0:0:
480,352,142741,1,8,0:0:0:0:
480,352,142824,1,8,0:0:0:0:
480,352,142908,1,8,0:0:0:0:
480,352,142991,1,0,0:0:0:0:
480,352,143074,1,8,0:0:0:0:
480,352,143241,1,8,0:0:0:0:
480,352,143324,1,8,0:0:0:0:
480,352,143408,1,0,0:0:0:0:
480,352,143574,1,0,0:0:0:0:
480,352,143658,1,0,0:0:0:0:
480,352,143741,1,8,0:0:0:0:
480,352,143824,1,8,0:0:0:0:
480,352,143908,1,0,0:0:0:0:
480,352,143991,1,8,0:0:0:0:
480,352,144074,1,0,0:0:0:0:
480,352,144130,1,8,0:0:0:0:
480,352,144185,1,8,0:0:0:0:
480,352,144241,1,0,0:0:0:0:
480,352,144408,1,4,0:0:0:0:
480,352,144741,1,8,0:0:0:0:
480,352,144908,1,8,0:0:0:0:
480,352,144991,1,0,0:0:0:0:
480,352,145074,1,0,0:0:0:0:
480,352,145241,1,8,0:0:0:0:
480,352,145324,1,0,0:0:0:0:
480,352,145408,1,8,0:0:0:0:
480,352,145491,1,8,0:0:0:0:
480,352,145574,1,0,0:0:0:0:
480,352,145741,1,0,0:0:0:0:
480,352,145908,1,0,0:0:0:0:
480,352,145991,1,0,0:0:0:0:
480,352,146074,1,8,0:0:0:0:
480,352,146158,1,0,0:0:0:0:
480,352,146241,1,8,0:0:0:0:
480,352,146324,1,8,0:0:0:0:
480,352,146408,1,0,0:0:0:0:
480,352,146491,1,0,0:0:0:0:
480,352,146574,1,0,0:0:0:0:
480,352,146741,1,8,0:0:0:0:
480,352,146824,1,0,0:0:0:0:
480,352,146907,1,8,0:0:0:0:
480,352,146991,1,8,0:0:0:0:
480,352,147074,1,0,0:0:0:0:
480,352,147241,1,8,0:0:0:0:
480,352,147407,1,8,0:0:0:0:
480,352,147574,1,8,0:0:0:0:
480,352,147657,1,0,0:0:0:0:
480,352,147741,1,0,0:0:0:0:
480,352,147907,1,8,0:0:0:0:
480,352,147991,1,0,0:0:0:0:
480,352,148074,1,8,0:0:0:0:
480,352,148157,1,8,0:0:0:0:
480,352,148241,1,0,0:0:0:0:
480,352,148324,1,8,0:0:0:0:
480,352,148407,1,0,0:0:0:0:
480,352,148574,1,8,0:0:0:0:
480,352,148657,1,0,0:0:0:0:
480,352,148741,1,8,0:0:0:0:
480,352,148824,1,0,0:0:0:0:
480,352,148907,1,8,0:0:0:0:
480,352,148991,1,8,0:0:0:0:
480,352,149074,1,0,0:0:0:0:
480,352,149157,1,0,0:0:0:0:
480,352,149241,1,0,0:0:0:0:
480,352,149407,1,0,0:0:0:0:
480,352,149491,1,8,0:0:0:0:
480,352,149574,1,8,0:0:0:0:
480,352,149657,1,8,0:0:0:0:
480,352,149741,1,0,0:0:0:0:
480,352,149907,1,8,0:0:0:0:
480,352,149991,1,0,0:0:0:0:
480,352,150157,1,0,0:0:0:0:
480,352,150241,1,8,0:0:0:0:
480,352,150324,1,8,0:0:0:0:
480,352,150407,1,0,0:0:0:0:
480,352,150574,1,8,0:0:0:0:
480,352,150741,1,8,0:0:0:0:
480,352,150824,1,0,0:0:0:0:
480,352,150991,1,8,0:0:0:0:
480,352,151074,1,0,0:0:0:0:
480,352,151157,1,0,0:0:0:0:
480,352,151241,1,8,0:0:0:0:
480,352,151324,1,0,0:0:0:0:
480,352,151407,1,8,0:0:0:0:
480,352,151491,1,8,0:0:0:0:
480,352,151574,1,0,0:0:0:0:
480,352,151741,1,8,0:0:0:0:
480,352,151824,1,0,0:0:0:0:
480,352,151907,1,0,0:0:0:0:
480,352,151991,1,8,0:0:0:0:
480,352,152074,1,0,0:0:0:0:
480,352,152157,1,8,0:0:0:0:
480,352,152241,1,8,0:0:0:0:
480,352,152407,1,0,0:0:0:0:
480,352,152491,1,0,0:0:0:0:
480,352,152574,1,8,0:0:0:0:
480,352,152657,1,0,0:0:0:0:
480,352,152741,1,8,0:0:0:0:
480,352,152824,1,8,0:0:0:0:
480,352,152907,1,0,0:0:0:0:
480,352,152991,1,0,0:0:0:0:
480,352,153074,1,8,0:0:0:0:
480,352,153241,1,8,0:0:0:0:
480,352,153324,1,0,0:0:0:0:
480,352,153407,1,8,0:0:0:0:
480,352,153491,1,8,0:0:0:0:
480,352,153574,1,0,0:0:0:0:
480,352,153657,1,8,0:0:0:0:
480,352,153741,1,0,0:0:0:0:
480,352,153824,1,8,0:0:0:0:
480,352,153907,1,8,0:0:0:0:
480,352,153991,1,0,0:0:0:0:
480,352,154074,1,8,0:0:0:0:
480,352,154157,1,0,0:0:0:0:
480,352,154241,1,8,0:0:0:0:
480,352,154324,1,8,0:0:0:0:
480,352,154407,1,0,0:0:0:0:
480,352,154491,1,8,0:0:0:0:
480,352,154574,1,0,0:0:0:0:
480,352,154657,1,0,0:0:0:0:
480,352,154741,1,8,0:0:0:0:
480,352,154824,1,0,0:0:0:0:
480,352,154907,1,8,0:0:0:0:
480,352,154991,1,8,0:0:0:0:
480,352,155157,1,12,0:0:0:0:
480,352,155241,1,4,0:0:0:0:
480,352,155574,1,8,0:0:0:0:
480,352,155630,1,0,0:0:0:0:
480,352,155685,1,8,0:0:0:0:
480,352,155741,1,8,0:0:0:0:
480,352,155824,1,0,0:0:0:0:
480,352,155907,1,0,0:0:0:0:
480,352,155991,1,8,0:0:0:0:
480,352,156157,1,8,0:0:0:0:
480,352,156241,1,0,0:0:0:0:
480,352,156324,1,0,0:0:0:0:
480,352,156407,1,8,0:0:0:0:
480,352,156519,1,8,0:0:0:0:
480,352,156630,1,8,0:0:0:0:
480,352,156741,1,0,0:0:0:0:
480,352,156852,1,8,0:0:0:0:
480,352,156963,1,0,0:0:0:0:
480,352,157241,1,8,0:0:0:0:
480,352,157324,1,0,0:0:0:0:
480,352,157407,1,8,0:0:0:0:
480,352,157491,1,0,0:0:0:0:
480,352,157574,1,8,0:0:0:0:
480,352,157657,1,8,0:0:0:0:
480,352,157741,1,0,0:0:0:0:
480,352,157907,1,0,0:0:0:0:
480,352,157991,1,8,0:0:0:0:
480,352,158074,1,0,0:0:0:0:
480,352,158157,1,8,0:0:0:0:
480,352,158241,1,0,0:0:0:0:
480,352,158407,1,8,0:0:0:0:
480,352,158574,1,0,0:0:0:0:
480,352,158741,1,0,0:0:0:0:
480,352,158796,1,0,0:0:0:0:
480,352,158852,1,0,0:0:0:0:
480,352,158907,1,0,0:0:0:0:
480,352,158963,1,0,0:0:0:0:
480,352,159019,1,0,0:0:0:0:
480,352,159074,1,12,0:0:0:0:
480,352,159324,1,12,0:0:0:0:
480,352,159491,1,0,0:0:0:0:
480,352,159574,1,12,0:0:0:0:
480,352,159741,1,0,0:0:0:0:
480,352,159907,1,8,0:0:0:0:
480,352,159963,1,0,0:0:0:0:
480,352,160019,1,0,0:0:0:0:
480,352,160074,1,8,0:0:0:0:
480,352,160157,1,0,0:0:0:0:
480,352,160241,1,8,0:0:0:0:
480,352,160324,1,8,0:0:0:0:
480,352,160407,1,4,0:0:0:0:
480,352,160574,1,0,0:0:0:0:
480,352,160657,1,8,0:0:0:0:
480,352,160824,1,8,0:0:0:0:
480,352,160907,1,8,0:0:0:0:
480,352,160991,1,8,0:0:0:0:
480,352,161074,1,0,0:0:0:0:
480,352,161241,1,8,0:0:0:0:
480,352,161296,1,0,0:0:0:0:
480,352,161352,1,8,0:0:0:0:
480,352,161407,1,8,0:0:0:0:
480,352,161491,1,0,0:0:0:0:
480,352,161574,1,8,0:0:0:0:
480,352,161657,1,0,0:0:0:0:
480,352,161741,1,0,0:0:0:0:
480,352,161824,1,8,0:0:0:0:
480,352,161907,1,8,0:0:0:0:
480,352,161991,1,0,0:0:0:0:
480,352,162157,1,8,0:0:0:0:
480,352,162324,1,8,0:0:0:0:
480,352,162491,1,8,0:0:0:0:
480,352,162574,1,8,0:0:0:0:
480,352,162657,1,0,0:0:0:0:
480,352,162741,1,8,0:0:0:0:
480,352,162824,1,8,0:0:0:0:
480,352,162907,1,0,0:0:0:0:
480,352,162991,1,8,0:0:0:0:
480,352,163074,1,0,0:0:0:0:
480,352,163157,1,0,0:0:0:0:
480,352,163324,1,8,0:0:0:0:
480,352,163491,1,0,0:0:0:0:
480,352,163574,1,8,0:0:0:0:
480,352,163657,1,0,0:0:0:0:
480,352,163741,1,0,0:0:0:0:
480,352,163824,1,8,0:0:0:0:
480,352,163907,1,8,0:0:0:0:
480,352,163991,1,0,0:0:0:0:
480,352,164074,1,8,0:0:0:0:
480,352,164130,1,8,0:0:0:0:
480,352,164185,1,8,0:0:0:0:
480,352,164241,1,0,0:0:0:0:
480,352,164324,1,0,0:0:0:0:
480,352,164407,1,8,0:0:0:0:
480,352,164574,1,0,0:0:0:0:
480,352,164657,1,8,0:0:0:0:
480,352,164741,1,8,0:0:0:0:
480,352,164907,1,0,0:0:0:0:
480,352,164991,1,8,0:0:0:0:
480,352,165074,1,8,0:0:0:0:
480,352,165157,1,0,0:0:0:0:
480,352,165324,1,0,0:0:0:0:
480,352,165407,1,8,0:0:0:0:
480,352,165491,1,8,0:0:0:0:
480,352,165574,1,0,0:0:0:0:
480,352,165630,1,8,0:0:0:0:
480,352,165685,1,8,0:0:0:0:
480,352,165741,1,4,0:0:0:0:
480,352,165907,1,0,0:0:0:0:
480,352,165991,1,8,0:0:0:0:
480,352,166157,1,0,0:0:0:0:
480,352,166241,1,8,0:0:0:0:
480,352,166324,1,8,0:0:0:0:
480,352,166407,1,0,0:0:0:0:
480,352,166491,1,8,0:0:0:0:
480,352,166532,1,8,0:0:0:0:
480,352,166574,1,8,0:0:0:0:
480,352,166657,1,0,0:0:0:0:
480,352,166741,1,8,0:0:0:0:
480,352,166824,1,0,0:0:0:0:
480,352,166907,1,8,0:0:0:0:
480,352,166991,1,8,0:0:0:0:
480,352,167074,1,4,0:0:0:0:
480,352,167241,1,0,0:0:0:0:
480,352,167324,1,12,0:0:0:0:
480,352,167491,1,0,0:0:0:0:
480,352,167574,1,12,0:0:0:0:
480,352,167907,1,8,0:0:0:0:
480,352,167963,1,8,0:0:0:0:
480,352,168019,1,8,0:0:0:0:
480,352,168074,1,0,0:0:0:0:
480,352,168157,1,8,0:0:0:0:
480,352,168241,1,8,0:0:0:0:
480,352,168324,1,8,0:0:0:0:
480,352,168407,1,0,0:0:0:0:
480,352,168574,1,0,0:0:0:0:
480,352,168657,1,0,0:0:0:0:
480,352,168907,1,0,0:0:0:0:
480,352,169074,1,8,0:0:0:0:
480,352,169241,1,8,0:0:0:0:
480,352,169296,1,8,0:0:0:0:
480,352,169352,1,8,0:0:0:0:
480,352,169407,1,0,0:0:0:0:
480,352,169491,1,8,0:0:0:0:
480,352,169574,1,8,0:0:0:0:
480,352,169657,1,0,0:0:0:0:
480,352,169741,1,0,0:0:0:0:
480,352,169824,1,0,0:0:0:0:
480,352,169991,1,8,0:0:0:0:
480,352,170074,1,0,0:0:0:0:
480,352,170157,1,0,0:0:0:0:
480,352,170241,1,8,0:0:0:0:
480,352,170491,1,0,0:0:0:0:
480,352,170574,1,8,0:0:0:0:
480,352,170657,1,8,0:0:0:0:
480,352,170741,1,0,0:0:0:0:
480,352,170852,1,8,0:0:0:0:
480,352,170963,1,8,0:0:0:0:
480,352,171074,1,4,0:0:0:0:
480,352,171241,1,8,0:0:0:0:
480,352,171407,1,8,0:0:0:0:
480,352,171491,1,0,0:0:0:0:
480,352,171657,1,8,0:0:0:0:
480,352,171824,1,8,0:0:0:0:
480,352,171907,1,0,0:0:0:0:
480,352,171991,1,8,0:0:0:0:
480,352,172074,1,8,0:0:0:0:
480,352,172241,1,0,0:0:0:0:
480,352,172407,1,8,0:0:0:0:
480,352,172491,1,8,0:0:0:0:
480,352,172574,1,0,0:0:0:0:
480,352,172657,1,8,0:0:0:0:
480,352,172741,1,0,0:0:0:0:
480,352,172852,1,0,0:0:0:0:
480,352,172963,1,8,0:0:0:0:
480,352,173074,1,8,0:0:0:0:
480,352,173324,1,0,0:0:0:0:
256,192,174019,8,0,176407,0:0:0:0:
480,352,180741,5,0,0:0:0:0:
480,352,180907,1,0,0:0:0:0:
480,352,181074,1,8,0:0:0:0:
480,352,181241,1,8,0:0:0:0:
480,352,181407,1,8,0:0:0:0:
480,352,181574,1,0,0:0:0:0:
480,352,181741,1,0,0:0:0:0:
480,352,182074,1,8,0:0:0:0:
480,352,182241,1,0,0:0:0:0:
480,352,182741,1,8,0:0:0:0:
480,352,183074,1,0,0:0:0:0:
480,352,183407,1,8,0:0:0:0:
480,352,183574,1,0,0:0:0:0:
480,352,184074,1,8,0:0:0:0:
480,352,184407,1,0,0:0:0:0:
480,352,184741,1,8,0:0:0:0:
480,352,184907,1,0,0:0:0:0:
480,352,185407,1,8,0:0:0:0:
480,352,185741,1,0,0:0:0:0:
480,352,186241,1,0,0:0:0:0:
480,352,186574,1,8,0:0:0:0:
480,352,186907,1,0,0:0:0:0:
480,352,186963,1,8,0:0:0:0:
480,352,187019,1,8,0:0:0:0:
480,352,187074,1,0,0:0:0:0:
480,352,187407,1,8,0:0:0:0:
480,352,187574,1,0,0:0:0:0:
480,352,187907,1,0,0:0:0:0:
480,352,188074,1,8,0:0:0:0:
480,352,188407,1,0,0:0:0:0:
480,352,188657,1,8,0:0:0:0:
480,352,188741,1,8,0:0:0:0:
480,352,188907,1,0,0:0:0:0:
480,352,189241,1,0,0:0:0:0:
480,352,189407,1,8,0:0:0:0:
480,352,189574,1,8,0:0:0:0:
480,352,189657,1,8,0:0:0:0:
480,352,189741,1,0,0:0:0:0:
480,352,190074,1,8,0:0:0:0:
480,352,190241,1,0,0:0:0:0:
480,352,190574,1,8,0:0:0:0:
480,352,190741,1,8,0:0:0:0:
480,352,191074,1,0,0:0:0:0:
480,352,191241,1,12,0:0:0:0:
480,352,191574,1,12,0:0:0:0:
480,352,192407,5,4,0:0:0:0:
480,352,192907,1,8,0:0:0:0:
480,352,193241,1,0,0:0:0:0:
480,352,193407,1,8,0:0:0:0:
480,352,193574,1,0,0:0:0:0:
480,352,193741,1,8,0:0:0:0:
480,352,194074,1,0,0:0:0:0:
480,352,194241,1,0,0:0:0:0:
480,352,194407,1,8,0:0:0:0:
480,352,194519,1,0,0:0:0:0:
480,352,194574,1,0,0:0:0:0:
480,352,194685,1,8,0:0:0:0:
480,352,194852,1,8,0:0:0:0:
480,352,194907,1,0,0:0:0:0:
480,352,195074,1,8,0:0:0:0:
480,352,195574,1,8,0:0:0:0:
480,352,195918,1,8,0:0:0:0:
480,352,196012,1,0,0:0:0:0:
480,352,196116,1,8,0:0:0:0:
480,352,196199,1,8,0:0:0:0:
480,352,196314,1,0,0:0:0:0:
480,352,196408,1,8,0:0:0:0:
480,352,196574,1,0,0:0:0:0:
480,352,196657,1,8,0:0:0:0:
480,352,196838,1,0,0:0:0:0:
480,352,197005,1,8,0:0:0:0:
480,352,197185,1,0,0:0:0:0:
480,352,197241,1,8,0:0:0:0:
480,352,197352,1,8,0:0:0:0:
480,352,197407,1,0,0:0:0:0:
480,352,197519,1,0,0:0:0:0:
480,352,197574,1,8,0:0:0:0:
480,352,197685,1,8,0:0:0:0:
480,352,197741,1,0,0:0:0:0:
480,352,197907,1,8,0:0:0:0:
480,352,197991,1,0,0:0:0:0:
480,352,198074,1,8,0:0:0:0:
480,352,198157,1,0,0:0:0:0:
480,352,198241,1,8,0:0:0:0:
480,352,198324,1,8,0:0:0:0:
480,352,198407,1,0,0:0:0:0:
480,352,198574,1,0,0:0:0:0:
480,352,198685,1,8,0:0:0:0:
480,352,198741,1,0,0:0:0:0:
480,352,198852,1,8,0:0:0:0:
480,352,199019,1,0,0:0:0:0:
480,352,199074,1,8,0:0:0:0:
480,352,199241,1,0,0:0:0:0:
480,352,199338,1,8,0:0:0:0:
480,352,199505,1,0,0:0:0:0:
480,352,199685,1,0,0:0:0:0:
480,352,199741,1,0,0:0:0:0:
480,352,199852,1,8,0:0:0:0:
480,352,199907,1,8,0:0:0:0:
480,352,199991,1,0,0:0:0:0:
480,352,200074,1,8,0:0:0:0:
480,352,200157,1,0,0:0:0:0:
480,352,200241,1,0,0:0:0:0:
480,352,200324,1,0,0:0:0:0:
480,352,200407,1,8,0:0:0:0:
480,352,200574,1,8,0:0:0:0:
480,352,200657,1,0,0:0:0:0:
480,352,200741,1,8,0:0:0:0:
480,352,200824,1,0,0:0:0:0:
480,352,200907,1,8,0:0:0:0:
480,352,201074,1,8,0:0:0:0:
480,352,201157,1,0,0:0:0:0:
480,352,201324,1,0,0:0:0:0:
480,352,201407,1,8,0:0:0:0:
480,352,201491,1,0,0:0:0:0:
480,352,201574,1,8,0:0:0:0:
480,352,201657,1,0,0:0:0:0:
480,352,201741,1,8,0:0:0:0:
480,352,201796,1,8,0:0:0:0:
480,352,201852,1,8,0:0:0:0:
480,352,201907,1,0,0:0:0:0:
480,352,201991,1,8,0:0:0:0:
480,352,202157,1,8,0:0:0:0:
480,352,202324,1,8,0:0:0:0:
480,352,202491,1,0,0:0:0:0:
480,352,202574,1,8,0:0:0:0:
480,352,202741,1,8,0:0:0:0:
480,352,202824,1,0,0:0:0:0:
480,352,202907,1,8,0:0:0:0:
480,352,202963,1,0,0:0:0:0:
480,352,203019,1,0,0:0:0:0:
480,352,203074,1,8,0:0:0:0:
480,352,203269,1,0,0:0:0:0:
480,352,203407,1,8,0:0:0:0:
480,352,203574,1,8,0:0:0:0:
480,352,203741,1,0,0:0:0:0:
480,352,203907,1,0,0:0:0:0:
480,352,203991,1,8,0:0:0:0:
480,352,204074,1,8,0:0:0:0:
480,352,204157,1,0,0:0:0:0:
480,352,204324,1,0,0:0:0:0:
480,352,204491,1,0,0:0:0:0:
480,352,204574,1,8,0:0:0:0:
480,352,204657,1,0,0:0:0:0:
480,352,204741,1,8,0:0:0:0:
480,352,204824,1,8,0:0:0:0:
480,352,204907,1,0,0:0:0:0:
480,352,204991,1,8,0:0:0:0:
480,352,205074,1,0,0:0:0:0:
480,352,205157,1,0,0:0:0:0:
480,352,205241,1,8,0:0:0:0:
480,352,205324,1,8,0:0:0:0:
480,352,205407,1,0,0:0:0:0:
480,352,205491,1,8,0:0:0:0:
480,352,205574,1,0,0:0:0:0:
480,352,205657,1,0,0:0:0:0:
480,352,205741,1,8,0:0:0:0:
480,352,205907,1,0,0:0:0:0:
480,352,205991,1,8,0:0:0:0:
480,352,206032,1,8,0:0:0:0:
480,352,206074,1,8,0:0:0:0:
480,352,206157,1,0,0:0:0:0:
480,352,206241,1,8,0:0:0:0:
480,352,206324,1,0,0:0:0:0:
480,352,206407,1,0,0:0:0:0:
480,352,206491,1,8,0:0:0:0:
480,352,206574,1,8,0:0:0:0:
480,352,206657,1,0,0:0:0:0:
480,352,206741,1,8,0:0:0:0:
480,352,207324,1,8,0:0:0:0:
480,352,207519,1,8,0:0:0:0:
480,352,207630,1,8,0:0:0:0:
480,352,207741,1,0,0:0:0:0:
480,352,207824,1,0,0:0:0:0:
480,352,207907,1,8,0:0:0:0:
480,352,207991,1,0,0:0:0:0:
480,352,208074,1,8,0:0:0:0:
480,352,208130,1,8,0:0:0:0:
480,352,208185,1,8,0:0:0:0:
480,352,208241,1,0,0:0:0:0:
480,352,208296,1,0,0:0:0:0:
480,352,208352,1,0,0:0:0:0:
480,352,208407,1,8,0:0:0:0:
480,352,208574,1,8,0:0:0:0:
480,352,208657,1,8,0:0:0:0:
480,352,208741,1,0,0:0:0:0:
480,352,208824,1,0,0:0:0:0:
480,352,208907,1,8,0:0:0:0:
480,352,208991,1,0,0:0:0:0:
480,352,209074,1,8,0:0:0:0:
480,352,209241,1,8,0:0:0:0:
480,352,209324,1,0,0:0:0:0:
480,352,209407,1,8,0:0:0:0:
480,352,209491,1,0,0:0:0:0:
480,352,209657,1,8,0:0:0:0:
480,352,209741,1,8,0:0:0:0:
480,352,209907,1,8,0:0:0:0:
480,352,209991,1,8,0:0:0:0:
480,352,210074,1,8,0:0:0:0:
480,352,210157,1,0,0:0:0:0:
480,352,210241,1,0,0:0:0:0:
480,352,210324,1,0,0:0:0:0:
480,352,210407,1,8,0:0:0:0:
480,352,210574,1,8,0:0:0:0:
480,352,210657,1,8,0:0:0:0:
480,352,210741,1,0,0:0:0:0:
480,352,210907,1,0,0:0:0:0:
480,352,210991,1,0,0:0:0:0:
480,352,211074,1,8,0:0:0:0:
480,352,211185,1,8,0:0:0:0:
480,352,211407,1,8,0:0:0:0:
480,352,211519,1,8,0:0:0:0:
480,352,211630,1,0,0:0:0:0:
480,352,211741,1,0,0:0:0:0:
480,352,211852,1,8,0:0:0:0:
480,352,212074,1,8,0:0:0:0:
480,352,212185,1,8,0:0:0:0:
480,352,212296,1,0,0:0:0:0:
480,352,212574,1,8,0:0:0:0:
480,352,212630,1,8,0:0:0:0:
480,352,212685,1,8,0:0:0:0:
480,352,212741,1,0,0:0:0:0:
480,352,212796,1,0,0:0:0:0:
480,352,212852,1,0,0:0:0:0:
480,352,212907,1,8,0:0:0:0:
480,352,212963,1,8,0:0:0:0:
480,352,213019,1,0,0:0:0:0:
480,352,213074,1,8,0:0:0:0:
480,352,213241,1,0,0:0:0:0:
480,352,213407,1,8,0:0:0:0:
480,352,213574,1,8,0:0:0:0:
480,352,213630,1,8,0:0:0:0:
480,352,213685,1,0,0:0:0:0:
480,352,213741,1,8,0:0:0:0:
480,352,213907,1,0,0:0:0:0:
480,352,214074,1,8,0:0:0:0:
480,352,214241,1,8,0:0:0:0:
480,352,214324,1,0,0:0:0:0:
480,352,214491,1,8,0:0:0:0:
480,352,214574,1,8,0:0:0:0:
480,352,214657,1,0,0:0:0:0:
480,352,214741,1,0,0:0:0:0:
480,352,214824,1,8,0:0:0:0:
480,352,214991,1,8,0:0:0:0:
480,352,215074,1,8,0:0:0:0:
480,352,215157,1,0,0:0:0:0:
480,352,215241,1,8,0:0:0:0:
480,352,215324,1,8,0:0:0:0:
480,352,215491,1,8,0:0:0:0:
480,352,215574,1,8,0:0:0:0:
480,352,215657,1,0,0:0:0:0:
480,352,215741,1,8,0:0:0:0:
480,352,215824,1,0,0:0:0:0:
480,352,215907,1,8,0:0:0:0:
480,352,215991,1,8,0:0:0:0:
480,352,216074,1,0,0:0:0:0:
480,352,216157,1,8,0:0:0:0:
480,352,216241,1,0,0:0:0:0:
480,352,216324,1,0,0:0:0:0:
480,352,216407,1,8,0:0:0:0:
480,352,216574,1,0,0:0:0:0:
480,352,216657,1,0,0:0:0:0:
480,352,216741,1,8,0:0:0:0:
480,352,216907,1,8,0:0:0:0:
480,352,216991,1,8,0:0:0:0:
480,352,217157,1,8,0:0:0:0:
480,352,217241,1,8,0:0:0:0:
480,352,217324,1,0,0:0:0:0:
480,352,217407,1,8,0:0:0:0:
480,352,217574,1,0,0:0:0:0:
480,352,217657,1,8,0:0:0:0:
480,352,217741,1,0,0:0:0:0:
480,352,217907,1,8,0:0:0:0:
480,352,218074,1,8,0:0:0:0:
480,352,218157,1,8,0:0:0:0:
480,352,218241,1,0,0:0:0:0:
480,352,218324,1,0,0:0:0:0:
480,352,218407,1,0,0:0:0:0:
480,352,218491,1,8,0:0:0:0:
480,352,218657,1,8,0:0:0:0:
480,352,218741,1,0,0:0:0:0:
480,352,218824,1,0,0:0:0:0:
480,352,218907,1,8,0:0:0:0:
480,352,218991,1,0,0:0:0:0:
480,352,219074,1,8,0:0:0:0:
480,352,219241,1,0,0:0:0:0:
480,352,219407,1,8,0:0:0:0:
480,352,219574,1,0,0:0:0:0:
480,352,219741,1,8,0:0:0:0:
480,352,219824,1,8,0:0:0:0:
480,352,219907,1,0,0:0:0:0:
480,352,219991,1,8,0:0:0:0:
480,352,220074,1,0,0:0:0:0:
480,352,220157,1,8,0:0:0:0:
480,352,220324,1,8,0:0:0:0:
480,352,220407,1,0,0:0:0:0:
480,352,220491,1,8,0:0:0:0:
480,352,220574,1,8,0:0:0:0:
480,352,220657,1,0,0:0:0:0:
480,352,220741,1,8,0:0:0:0:
480,352,220796,1,8,0:0:0:0:
480,352,220852,1,8,0:0:0:0:
480,352,220907,1,0,0:0:0:0:
480,352,220963,1,0,0:0:0:0:
480,352,221019,1,0,0:0:0:0:
480,352,221074,1,8,0:0:0:0:
480,352,221241,1,8,0:0:0:0:
480,352,221407,1,8,0:0:0:0:
480,352,221491,1,0,0:0:0:0:
480,352,221574,1,8,0:0:0:0:
480,352,221657,1,0,0:0:0:0:
480,352,221741,1,8,0:0:0:0:
480,352,221824,1,8,0:0:0:0:
480,352,221907,1,8,0:0:0:0:
480,352,221991,1,8,0:0:0:0:
480,352,222074,1,0,0:0:0:0:
480,352,222157,1,0,0:0:0:0:
480,352,222241,1,8,0:0:0:0:
480,352,222324,1,8,0:0:0:0:
480,352,222407,1,8,0:0:0:0:
480,352,222491,1,8,0:0:0:0:
480,352,222574,1,0,0:0:0:0:
480,352,222657,1,0,0:0:0:0:
480,352,222741,1,8,0:0:0:0:
480,352,222824,1,8,0:0:0:0:
480,352,222907,1,0,0:0:0:0:
480,352,222991,1,0,0:0:0:0:
480,352,223074,1,0,0:0:0:0:
480,352,223157,1,0,0:0:0:0:
480,352,223241,1,8,0:0:0:0:
480,352,223324,1,8,0:0:0:0:
480,352,223407,1,0,0:0:0:0:
480,352,223491,1,8,0:0:0:0:
480,352,223574,1,0,0:0:0:0:
480,352,223657,1,0,0:0:0:0:
480,352,223741,1,8,0:0:0:0:
480,352,223824,1,0,0:0:0:0:
480,352,223907,1,8,0:0:0:0:
480,352,224074,1,8,0:0:0:0:
480,352,224157,1,0,0:0:0:0:
480,352,224241,1,8,0:0:0:0:
480,352,224296,1,0,0:0:0:0:
480,352,224352,1,0,0:0:0:0:
480,352,224407,1,8,0:0:0:0:
480,352,224574,1,8,0:0:0:0:
480,352,224741,1,0,0:0:0:0:
480,352,224907,1,8,0:0:0:0:
480,352,225074,1,0,0:0:0:0:
480,352,225241,1,8,0:0:0:0:
480,352,225407,1,0,0:0:0:0:
480,352,225574,1,8,0:0:0:0:
480,352,225741,1,0,0:0:0:0:
480,352,225907,1,8,0:0:0:0:
480,352,226074,1,0,0:0:0:0:
480,352,226296,1,8,0:0:0:0:
480,352,226407,1,0,0:0:0:0:
480,352,226630,1,0,0:0:0:0:
480,352,226852,1,8,0:0:0:0:
480,352,227074,1,0,0:0:0:0:
480,352,227574,1,0,0:0:0:0:
480,352,227852,1,8,0:0:0:0:
480,352,227907,1,8,0:0:0:0:
480,352,227963,1,8,0:0:0:0:
480,352,228019,1,0,0:0:0:0:
480,352,228157,1,8,0:0:0:0:
480,352,228241,1,0,0:0:0:0:
480,352,228324,1,8,0:0:0:0:
480,352,228407,1,0,0:0:0:0:
480,352,228463,1,0,0:0:0:0:
480,352,228519,1,0,0:0:0:0:
480,352,228574,1,8,0:0:0:0:
480,352,228630,1,8,0:0:0:0:
480,352,228685,1,8,0:0:0:0:
480,352,228741,1,0,0:0:0:0:
480,352,228824,1,8,0:0:0:0:
480,352,228907,1,0,0:0:0:0:
480,352,228991,1,8,0:0:0:0:
480,352,229074,1,0,0:0:0:0:
480,352,229241,1,8,0:0:0:0:
480,352,229324,1,8,0:0:0:0:
480,352,229407,1,8,0:0:0:0:
480,352,229491,1,0,0:0:0:0:
480,352,229574,1,8,0:0:0:0:
480,352,229741,1,8,0:0:0:0:
480,352,229824,1,0,0:0:0:0:
480,352,229907,1,8,0:0:0:0:
480,352,229991,1,0,0:0:0:0:
480,352,230074,1,8,0:0:0:0:
480,352,230157,1,0,0:0:0:0:
480,352,230241,1,8,0:0:0:0:
480,352,230407,1,0,0:0:0:0:
480,352,230463,1,0,0:0:0:0:
480,352,230519,1,8,0:0:0:0:
480,352,230574,1,8,0:0:0:0:
480,352,230630,1,0,0:0:0:0:
480,352,230685,1,0,0:0:0:0:
480,352,230741,1,8,0:0:0:0:
480,352,230796,1,8,0:0:0:0:
480,352,230852,1,0,0:0:0:0:
480,352,230963,1,0,0:0:0:0:
480,352,231074,1,8,0:0:0:0:
480,352,231130,1,8,0:0:0:0:
480,352,231185,1,0,0:0:0:0:
480,352,231241,1,0,0:0:0:0:
480,352,231296,1,8,0:0:0:0:
480,352,231352,1,8,0:0:0:0:
480,352,231407,1,0,0:0:0:0:
480,352,231463,1,0,0:0:0:0:
480,352,231519,1,8,0:0:0:0:
480,352,231574,1,8,0:0:0:0:
480,352,231630,1,0,0:0:0:0:
480,352,231685,1,0,0:0:0:0:
480,352,231741,1,0,0:0:0:0:
480,352,231852,1,8,0:0:0:0:
480,352,231963,1,8,0:0:0:0:
480,352,232074,1,0,0:0:0:0:
480,352,232157,1,0,0:0:0:0:
480,352,232241,1,8,0:0:0:0:
480,352,232324,1,0,0:0:0:0:
480,352,232407,1,8,0:0:0:0:
480,352,232491,1,0,0:0:0:0:
480,352,232574,1,8,0:0:0:0:
480,352,232657,1,0,0:0:0:0:
480,352,232741,1,8,0:0:0:0:
480,352,232824,1,0,0:0:0:0:
480,352,232907,1,8,0:0:0:0:
480,352,233074,1,8,0:0:0:0:
480,352,233157,1,8,0:0:0:0:
480,352,233241,1,0,0:0:0:0:
480,352,233324,1,8,0:0:0:0:
480,352,233407,1,0,0:0:0:0:
480,352,233491,1,0,0:0:0:0:
480,352,233574,1,8,0:0:0:0:
480,352,233657,1,0,0:0:0:0:
480,352,233741,1,8,0:0:0:0:
480,352,233796,1,8,0:0:0:0:
480,352,233852,1,8,0:0:0:0:
480,352,233907,1,0,0:0:0:0:
480,352,233963,1,0,0:0:0:0:
480,352,234019,1,0,0:0:0:0:
480,352,234074,1,8,0:0:0:0:
480,352,234157,1,8,0:0:0:0:
480,352,234241,1,0,0:0:0:0:
480,352,234324,1,0,0:0:0:0:
480,352,234407,1,8,0:0:0:0:
480,352,234449,1,8,0:0:0:0:
480,352,234491,1,0,0:0:0:0:
480,352,234532,1,0,0:0:0:0:
480,352,234574,1,8,0:0:0:0:
480,352,234657,1,8,0:0:0:0:
480,352,234741,1,0,0:0:0:0:
480,352,234852,1,0,0:0:0:0:
480,352,234963,1,0,0:0:0:0:
480,352,235074,1,8,0:0:0:0:
480,352,235241,1,0,0:0:0:0:
480,352,235407,1,8,0:0:0:0:
480,352,235574,1,0,0:0:0:0:
480,352,235907,1,0,0:0:0:0:
480,352,235991,1,8,0:0:0:0:
480,352,236157,1,8,0:0:0:0:
480,352,236241,1,8,0:0:0:0:
480,352,236324,1,0,0:0:0:0:
480,352,236407,1,0,0:0:0:0:
480,352,236491,1,0,0:0:0:0:
480,352,236574,1,8,0:0:0:0:
480,352,236741,1,0,0:0:0:0:
480,352,236907,1,8,0:0:0:0:
480,352,237074,1,0,0:0:0:0:
480,352,237157,1,8,0:0:0:0:
480,352,237407,1,0,0:0:0:0:
480,352,237574,1,0,0:0:0:0:
480,352,237741,1,8,0:0:0:0:
480,352,237907,1,0,0:0:0:0:
480,352,237991,1,8,0:0:0:0:
480,352,238157,1,0,0:0:0:0:
480,352,238241,1,8,0:0:0:0:
480,352,238491,1,0,0:0:0:0:
480,352,238741,1,8,0:0:0:0:
480,352,238907,1,0,0:0:0:0:
480,352,238991,1,0,0:0:0:0:
480,352,239074,1,8,0:0:0:0:
480,352,239324,1,0,0:0:0:0:
480,352,239574,1,0,0:0:0:0:
480,352,239824,1,8,0:0:0:0:
480,352,239907,1,8,0:0:0:0:
480,352,239991,1,0,0:0:0:0:
480,352,240074,1,8,0:0:0:0:
480,352,240157,1,8,0:0:0:0:
480,352,240241,1,0,0:0:0:0:
480,352,240324,1,0,0:0:0:0:
480,352,240407,1,8,0:0:0:0:
480,352,240574,1,8,0:0:0:0:
480,352,240741,1,8,0:0:0:0:
480,352,240907,1,0,0:0:0:0:
480,352,241074,1,0,0:0:0:0:
480,352,241157,1,8,0:0:0:0:
480,352,241324,1,8,0:0:0:0:
480,352,241407,1,8,0:0:0:0:
480,352,241574,1,8,0:0:0:0:
480,352,241657,1,8,0:0:0:0:
480,352,241741,1,8,0:0:0:0:
480,352,241907,1,8,0:0:0:0:
480,352,242074,1,8,0:0:0:0:
480,352,242241,1,0,0:0:0:0:
480,352,242491,1,8,0:0:0:0:
480,352,242574,1,0,0:0:0:0:
480,352,242657,1,8,0:0:0:0:
480,352,242741,1,8,0:0:0:0:
480,352,242824,1,0,0:0:0:0:
480,352,242907,1,0,0:0:0:0:
480,352,242991,1,0,0:0:0:0:
480,352,243074,1,8,0:0:0:0:
480,352,243241,1,8,0:0:0:0:
480,352,243324,1,8,0:0:0:0:
480,352,243407,1,0,0:0:0:0:
480,352,243491,1,8,0:0:0:0:
480,352,243574,1,8,0:0:0:0:
480,352,243824,1,8,0:0:0:0:
480,352,244074,1,0,0:0:0:0:
480,352,244157,1,0,0:0:0:0:
480,352,244241,1,0,0:0:0:0:
480,352,244324,1,0,0:0:0:0:
480,352,244407,1,8,0:0:0:0:
480,352,244574,1,0,0:0:0:0:
480,352,244657,1,0,0:0:0:0:
480,352,244741,1,8,0:0:0:0:
480,352,244907,1,0,0:0:0:0:
480,352,245074,1,8,0:0:0:0:
480,352,245157,1,8,0:0:0:0:
480,352,245241,1,0,0:0:0:0:
480,352,245324,1,0,0:0:0:0:
480,352,245407,1,8,0:0:0:0:
480,352,245491,1,8,0:0:0:0:
480,352,245574,1,0,0:0:0:0:
480,352,245657,1,0,0:0:0:0:
480,352,245741,1,8,0:0:0:0:
480,352,245824,1,0,0:0:0:0:
480,352,245907,1,8,0:0:0:0:
480,352,245991,1,0,0:0:0:0:
480,352,246157,1,0,0:0:0:0:
480,352,246324,1,0,0:0:0:0:
480,352,246407,1,8,0:0:0:0:
480,352,247074,1,8,0:0:0:0:
480,352,247157,1,0,0:0:0:0:
480,352,247324,1,8,0:0:0:0:
480,352,247407,1,0,0:0:0:0:
480,352,247574,1,8,0:0:0:0:
480,352,247657,1,0,0:0:0:0:
480,352,247741,1,8,0:0:0:0:
480,352,248074,1,0,0:0:0:0:
480,352,248157,1,8,0:0:0:0:
480,352,248241,1,0,0:0:0:0:
480,352,248324,1,0,0:0:0:0:
480,352,248407,1,8,0:0:0:0:
480,352,248491,1,0,0:0:0:0:
480,352,248574,1,8,0:0:0:0:
480,352,248657,1,0,0:0:0:0:
480,352,248741,1,8,0:0:0:0:
480,352,248907,1,8,0:0:0:0:
480,352,248991,1,8,0:0:0:0:
480,352,249157,1,8,0:0:0:0:
480,352,249241,1,0,0:0:0:0:
480,352,249407,1,0,0:0:0:0:
480,352,249491,1,8,0:0:0:0:
480,352,249657,1,0,0:0:0:0:
480,352,249741,1,8,0:0:0:0:
480,352,249907,1,8,0:0:0:0:
480,352,249991,1,0,0:0:0:0:
480,352,250157,1,0,0:0:0:0:
480,352,250241,1,8,0:0:0:0:
480,352,250407,1,8,0:0:0:0:
480,352,250491,1,0,0:0:0:0:
480,352,250657,1,0,0:0:0:0:
480,352,250741,1,8,0:0:0:0:
480,352,250907,1,8,0:0:0:0:
480,352,250991,1,8,0:0:0:0:
480,352,251074,1,4,0:0:0:0:
480,352,251324,1,8,0:0:0:0:
480,352,251407,1,0,0:0:0:0:
480,352,251491,1,8,0:0:0:0:
480,352,251574,1,8,0:0:0:0:
480,352,251824,1,8,0:0:0:0:
480,352,251907,1,0,0:0:0:0:
480,352,251991,1,0,0:0:0:0:
480,352,252074,1,8,0:0:0:0:
480,352,252241,1,0,0:0:0:0:
480,352,252407,1,8,0:0:0:0:
480,352,252657,1,8,0:0:0:0:
480,352,252741,1,8,0:0:0:0:
480,352,252824,1,0,0:0:0:0:
480,352,252907,1,8,0:0:0:0:
480,352,253157,1,8,0:0:0:0:
480,352,253241,1,0,0:0:0:0:
480,352,253324,1,8,0:0:0:0:
480,352,253407,1,8,0:0:0:0:
480,352,253491,1,0,0:0:0:0:
480,352,253574,1,8,0:0:0:0:
480,352,253657,1,0,0:0:0:0:
480,352,253741,1,8,0:0:0:0:
480,352,253991,1,8,0:0:0:0:
480,352,254074,1,8,0:0:0:0:
480,352,254157,1,8,0:0:0:0:
480,352,254241,1,0,0:0:0:0:
480,352,254407,1,8,0:0:0:0:
480,352,254574,1,8,0:0:0:0:
480,352,254657,1,8,0:0:0:0:
480,352,254741,1,8,0:0:0:0:
480,352,254824,1,0,0:0:0:0:
480,352,254907,1,8,0:0:0:0:
480,352,255074,1,8,0:0:0:0:
480,352,255144,1,0,0:0:0:0:
480,352,255213,1,0,0:0:0:0:
480,352,255282,1,8,0:0:0:0:
480,352,257407,5,8,0:0:0:0:
480,352,257574,1,8,0:0:0:0:
480,352,257742,1,8,0:0:0:0:
480,352,257991,1,8,0:0:0:0:
480,352,258074,1,8,0:0:0:0:
480,352,258241,1,8,0:0:0:0:
480,352,258491,1,8,0:0:0:0:
480,352,258574,1,8,0:0:0:0:
480,352,258741,1,8,0:0:0:0:
480,352,258907,1,8,0:0:0:0:
480,352,259075,1,8,0:0:0:0:
480,352,259241,1,8,0:0:0:0:
480,352,259407,1,8,0:0:0:0:
480,352,259574,1,8,0:0:0:0:
480,352,259657,1,8,0:0:0:0:
480,352,259824,1,0,0:0:0:0:
480,352,259907,1,8,0:0:0:0:
480,352,259991,1,8,0:0:0:0:
480,352,260074,1,8,0:0:0:0:
480,352,260157,1,0,0:0:0:0:
480,352,260241,1,8,0:0:0:0:
480,352,260324,1,8,0:0:0:0:
480,352,260407,1,0,0:0:0:0:
480,352,260574,1,8,0:0:0:0:
480,352,260741,1,0,0:0:0:0:
480,352,260824,1,8,0:0:0:0:
480,352,260907,1,8,0:0:0:0:
480,352,261074,1,0,0:0:0:0:
480,352,261241,1,8,0:0:0:0:
480,352,261296,1,0,0:0:0:0:
480,352,261352,1,8,0:0:0:0:
480,352,261407,1,8,0:0:0:0:
480,352,261491,1,0,0:0:0:0:
480,352,261574,1,8,0:0:0:0:
480,352,261657,1,8,0:0:0:0:
480,352,261741,1,0,0:0:0:0:
480,352,261907,1,8,0:0:0:0:
480,352,262074,1,8,0:0:0:0:
480,352,262158,1,8,0:0:0:0:
480,352,262241,1,0,0:0:0:0:
480,352,262324,1,8,0:0:0:0:
480,352,262491,1,8,0:0:0:0:
480,352,262658,1,8,0:0:0:0:
480,352,262741,1,0,0:0:0:0:
480,352,262908,1,8,0:0:0:0:
480,352,262991,1,8,0:0:0:0:
480,352,263074,1,0,0:0:0:0:
480,352,263158,1,8,0:0:0:0:
480,352,263324,1,8,0:0:0:0:
480,352,263408,1,8,0:0:0:0:
480,352,263491,1,8,0:0:0:0:
480,352,263574,1,0,0:0:0:0:
480,352,263658,1,0,0:0:0:0:
480,352,263741,1,8,0:0:0:0:
480,352,263824,1,0,0:0:0:0:
480,352,263991,1,8,0:0:0:0:
480,352,264074,1,8,0:0:0:0:
480,352,264158,1,8,0:0:0:0:
480,352,264324,1,0,0:0:0:0:
480,352,264408,1,8,0:0:0:0:
480,352,264491,1,8,0:0:0:0:
480,352,264574,1,0,0:0:0:0:
480,352,264658,1,0,0:0:0:0:
480,352,264741,1,8,0:0:0:0:
480,352,264824,1,8,0:0:0:0:
480,352,264908,1,0,0:0:0:0:
480,352,264991,1,0,0:0:0:0:
480,352,265074,1,8,0:0:0:0:
480,352,265158,1,8,0:0:0:0:
480,352,265241,1,0,0:0:0:0:
480,352,265324,1,0,0:0:0:0:
480,352,265408,1,8,0:0:0:0:
480,352,265491,1,0,0:0:0:0:
480,352,265574,1,8,0:0:0:0:
480,352,265658,1,8,0:0:0:0:
480,352,265741,1,0,0:0:0:0:
480,352,265824,1,8,0:0:0:0:
480,352,265908,1,8,0:0:0:0:
480,352,266074,1,0,0:0:0:0:
480,352,266241,1,8,0:0:0:0:
480,352,266324,1,0,0:0:0:0:
480,352,266408,1,8,0:0:0:0:
480,352,266491,1,8,0:0:0:0:
480,352,266574,1,0,0:0:0:0:
480,352,266658,1,0,0:0:0:0:
480,352,266741,1,8,0:0:0:0:
480,352,266824,1,8,0:0:0:0:
480,352,266908,1,0,0:0:0:0:
480,352,266991,1,0,0:0:0:0:
480,352,267074,1,0,0:0:0:0:
480,352,267158,1,8,0:0:0:0:
480,352,267241,1,8,0:0:0:0:
480,352,267408,1,0,0:0:0:0:
480,352,267491,1,8,0:0:0:0:
480,352,267574,1,8,0:0:0:0:
480,352,267658,1,0,0:0:0:0:
480,352,267824,1,0,0:0:0:0:
480,352,267908,1,8,0:0:0:0:
480,352,267991,1,8,0:0:0:0:
480,352,268074,1,0,0:0:0:0:
480,352,268158,1,8,0:0:0:0:
480,352,268241,1,8,0:0:0:0:
480,352,268324,1,8,0:0:0:0:
480,352,268408,1,0,0:0:0:0:
480,352,268491,1,0,0:0:0:0:
480,352,268574,1,8,0:0:0:0:
480,352,268658,1,0,0:0:0:0:
480,352,268741,1,8,0:0:0:0:
480,352,268824,1,0,0:0:0:0:
480,352,268908,1,0,0:0:0:0:
480,352,268991,1,8,0:0:0:0:
480,352,269074,1,8,0:0:0:0:
480,352,269158,1,0,0:0:0:0:
480,352,269241,1,8,0:0:0:0:
480,352,269324,1,8,0:0:0:0:
480,352,269408,1,0,0:0:0:0:
480,352,269491,1,0,0:0:0:0:
480,352,269574,1,8,0:0:0:0:
480,352,269658,1,8,0:0:0:0:
480,352,269741,1,0,0:0:0:0:
480,352,269796,1,8,0:0:0:0:
480,352,269852,1,8,0:0:0:0:
480,352,269908,1,0,0:0:0:0:
480,352,269991,1,0,0:0:0:0:
480,352,270074,1,8,0:0:0:0:
480,352,270130,1,0,0:0:0:0:
480,352,270185,1,0,0:0:0:0:
480,352,270241,1,8,0:0:0:0:
480,352,270324,1,8,0:0:0:0:
480,352,270408,1,0,0:0:0:0:
480,352,270491,1,8,0:0:0:0:
480,352,270574,1,0,0:0:0:0:
480,352,270630,1,0,0:0:0:0:
480,352,270685,1,0,0:0:0:0:
480,352,270741,1,8,0:0:0:0:
480,352,270824,1,8,0:0:0:0:
480,352,270908,1,0,0:0:0:0:
480,352,270991,1,8,0:0:0:0:
480,352,271157,1,8,0:0:0:0:
480,352,271240,1,8,0:0:0:0:
480,352,271574,1,8,0:0:0:0:
480,352,271629,1,8,0:0:0:0:
480,352,271685,1,0,0:0:0:0:
480,352,271740,1,8,0:0:0:0:
480,352,271824,1,8,0:0:0:0:
480,352,271907,1,0,0:0:0:0:
480,352,271990,1,8,0:0:0:0:
480,352,272074,1,8,0:0:0:0:
480,352,272157,1,0,0:0:0:0:
480,352,272240,1,8,0:0:0:0:
480,352,272324,1,0,0:0:0:0:
480,352,272490,1,0,0:0:0:0:
480,352,272657,1,8,0:0:0:0:
480,352,272824,1,0,0:0:0:0:
480,352,272907,1,8,0:0:0:0:
480,352,272990,1,0,0:0:0:0:
480,352,273074,1,8,0:0:0:0:
480,352,273115,1,8,0:0:0:0:
480,352,273157,1,0,0:0:0:0:
480,352,273199,1,0,0:0:0:0:
480,352,273240,1,8,0:0:0:0:
480,352,273324,1,8,0:0:0:0:
480,352,273407,1,4,0:0:0:0:
480,352,273573,1,8,0:0:0:0:
480,352,273657,1,8,0:0:0:0:
480,352,273823,1,0,0:0:0:0:
480,352,273907,1,8,0:0:0:0:
480,352,273990,1,0,0:0:0:0:
480,352,274073,1,0,0:0:0:0:
480,352,274157,1,8,0:0:0:0:
480,352,274240,1,8,0:0:0:0:
480,352,274323,1,0,0:0:0:0:
480,352,274407,1,8,0:0:0:0:
480,352,274462,1,8,0:0:0:0:
480,352,274518,1,8,0:0:0:0:
480,352,274573,1,0,0:0:0:0:
480,352,274657,1,0,0:0:0:0:
480,352,274740,1,8,0:0:0:0:
480,352,274823,1,8,0:0:0:0:
480,352,274907,1,0,0:0:0:0:
480,352,274990,1,0,0:0:0:0:
480,352,275073,1,8,0:0:0:0:
480,352,275157,1,8,0:0:0:0:
480,352,275240,1,0,0:0:0:0:
480,352,275323,1,0,0:0:0:0:
480,352,275407,1,8,0:0:0:0:
480,352,275490,1,8,0:0:0:0:
480,352,275573,1,0,0:0:0:0:
480,352,275657,1,8,0:0:0:0:
480,352,275823,1,0,0:0:0:0:
480,352,275907,1,8,0:0:0:0:
480,352,275962,1,8,0:0:0:0:
480,352,276018,1,8,0:0:0:0:
480,352,276073,1,4,0:0:0:0:
480,352,276240,1,0,0:0:0:0:
480,352,276323,1,8,0:0:0:0:
480,352,276490,1,0,0:0:0:0:
480,352,276573,1,8,0:0:0:0:
480,352,276657,1,8,0:0:0:0:
480,352,276740,1,0,0:0:0:0:
480,352,276823,1,8,0:0:0:0:
480,352,276865,1,8,0:0:0:0:
480,352,276907,1,8,0:0:0:0:
480,352,276990,1,0,0:0:0:0:
480,352,277073,1,8,0:0:0:0:
480,352,277157,1,0,0:0:0:0:
480,352,277240,1,8,0:0:0:0:
480,352,277323,1,8,0:0:0:0:
480,352,277407,1,4,0:0:0:0:
480,352,277573,1,0,0:0:0:0:
480,352,277657,1,12,0:0:0:0:
480,352,277823,1,0,0:0:0:0:
480,352,277907,1,12,0:0:0:0:
480,352,278240,1,8,0:0:0:0:
480,352,278295,1,8,0:0:0:0:
480,352,278351,1,8,0:0:0:0:
480,352,278407,1,0,0:0:0:0:
480,352,278490,1,8,0:0:0:0:
480,352,278573,1,8,0:0:0:0:
480,352,278657,1,8,0:0:0:0:
480,352,278740,1,0,0:0:0:0:
480,352,278907,1,8,0:0:0:0:
480,352,278990,1,8,0:0:0:0:
480,352,279157,1,8,0:0:0:0:
480,352,279240,1,0,0:0:0:0:
480,352,279407,1,8,0:0:0:0:
480,352,279573,1,8,0:0:0:0:
480,352,279629,1,8,0:0:0:0:
480,352,279684,1,8,0:0:0:0:
480,352,279740,1,0,0:0:0:0:
480,352,279823,1,8,0:0:0:0:
480,352,279907,1,8,0:0:0:0:
480,352,279990,1,0,0:0:0:0:
480,352,280073,1,0,0:0:0:0:
480,352,280157,1,0,0:0:0:0:
480,352,280323,1,8,0:0:0:0:
480,352,280407,1,0,0:0:0:0:
480,352,280490,1,0,0:0:0:0:
480,352,280573,1,8,0:0:0:0:
480,352,280823,1,0,0:0:0:0:
480,352,280907,1,8,0:0:0:0:
480,352,280990,1,8,0:0:0:0:
480,352,281073,1,0,0:0:0:0:
480,352,281184,1,8,0:0:0:0:
480,352,281295,1,8,0:0:0:0:
480,352,281407,1,0,0:0:0:0:
480,352,281462,1,8,0:0:0:0:
480,352,281518,1,8,0:0:0:0:
480,352,281573,1,0,0:0:0:0:
480,352,281629,1,8,0:0:0:0:
480,352,281684,1,8,0:0:0:0:
480,352,281740,1,0,0:0:0:0:
480,352,281823,1,8,0:0:0:0:
480,352,281907,1,0,0:0:0:0:
480,352,282157,1,0,0:0:0:0:
480,352,282240,1,8,0:0:0:0:
480,352,282295,1,8,0:0:0:0:
480,352,282351,1,8,0:0:0:0:
480,352,282407,1,0,0:0:0:0:
480,352,282490,1,0,0:0:0:0:
480,352,282573,1,8,0:0:0:0:
480,352,282657,1,0,0:0:0:0:
480,352,282740,1,0,0:0:0:0:
480,352,282823,1,8,0:0:0:0:
480,352,282907,1,8,0:0:0:0:
480,352,282990,1,0,0:0:0:0:
480,352,283157,1,8,0:0:0:0:
480,352,283323,1,8,0:0:0:0:
480,352,283490,1,8,0:0:0:0:
480,352,283573,1,8,0:0:0:0:
480,352,283657,1,0,0:0:0:0:
480,352,283740,1,8,0:0:0:0:
480,352,283823,1,8,0:0:0:0:
480,352,283907,1,0,0:0:0:0:
480,352,283990,1,8,0:0:0:0:
480,352,284073,1,0,0:0:0:0:
480,352,284157,1,0,0:0:0:0:
480,352,284323,1,8,0:0:0:0:
480,352,284490,1,0,0:0:0:0:
480,352,284573,1,8,0:0:0:0:
480,352,284657,1,0,0:0:0:0:
480,352,284740,1,0,0:0:0:0:
480,352,284823,1,8,0:0:0:0:
480,352,284907,1,8,0:0:0:0:
480,352,284990,1,0,0:0:0:0:
480,352,285073,1,8,0:0:0:0:
480,352,285129,1,8,0:0:0:0:
480,352,285184,1,8,0:0:0:0:
480,352,285240,1,0,0:0:0:0:
480,352,285323,1,0,0:0:0:0:
480,352,285407,1,8,0:0:0:0:
480,352,285518,1,8,0:0:0:0:
480,352,285629,1,0,0:0:0:0:
480,352,285740,1,8,0:0:0:0:
480,352,285851,1,8,0:0:0:0:
480,352,285962,1,0,0:0:0:0:
480,352,286073,1,8,0:0:0:0:
480,352,286295,1,8,0:0:0:0:
480,352,286407,1,0,0:0:0:0:
480,352,286462,1,0,0:0:0:0:
480,352,286518,1,0,0:0:0:0:
480,352,286573,1,8,0:0:0:0:
480,352,286629,1,8,0:0:0:0:
480,352,286684,1,8,0:0:0:0:
480,352,286740,1,4,0:0:0:0:
480,352,286907,1,8,0:0:0:0:
480,352,286990,1,0,0:0:0:0:
480,352,287073,1,0,0:0:0:0:
480,352,287157,1,8,0:0:0:0:
480,352,287240,1,8,0:0:0:0:
480,352,287323,1,0,0:0:0:0:
480,352,287490,1,8,0:0:0:0:
480,352,287532,1,8,0:0:0:0:
480,352,287573,1,8,0:0:0:0:
480,352,287657,1,0,0:0:0:0:
480,352,287740,1,8,0:0:0:0:
480,352,287823,1,0,0:0:0:0:
480,352,287907,1,8,0:0:0:0:
480,352,287990,1,8,0:0:0:0:
480,352,288073,1,4,0:0:0:0:
480,352,288240,1,0,0:0:0:0:
480,352,288323,1,12,0:0:0:0:
480,352,288490,1,8,0:0:0:0:
480,352,288573,1,4,0:0:0:0:
480,352,288740,1,0,0:0:0:0:
480,352,288823,1,8,0:0:0:0:
480,352,288990,1,8,0:0:0:0:
480,352,289073,1,0,0:0:0:0:
480,352,289240,1,8,0:0:0:0:
480,352,289323,1,8,0:0:0:0:
480,352,289407,1,0,0:0:0:0:
480,352,289573,1,0,0:0:0:0:
480,352,289657,1,8,0:0:0:0:
480,352,289740,1,0,0:0:0:0:
480,352,289823,1,8,0:0:0:0:
480,352,289907,1,8,0:0:0:0:
480,352,289990,1,0,0:0:0:0:
480,352,290073,1,8,0:0:0:0:
480,352,290240,1,8,0:0:0:0:
480,352,290295,1,8,0:0:0:0:
480,352,290351,1,8,0:0:0:0:
480,352,290407,1,0,0:0:0:0:
480,352,290490,1,8,0:0:0:0:
480,352,290573,1,8,0:0:0:0:
480,352,290657,1,0,0:0:0:0:
480,352,290740,1,8,0:0:0:0:
480,352,290907,1,0,0:0:0:0:
480,352,290990,1,8,0:0:0:0:
480,352,291073,1,0,0:0:0:0:
480,352,291157,1,0,0:0:0:0:
480,352,291240,1,8,0:0:0:0:
480,352,291407,1,8,0:0:0:0:
480,352,291462,1,8,0:0:0:0:
480,352,291518,1,8,0:0:0:0:
480,352,291573,1,0,0:0:0:0:
480,352,291657,1,8,0:0:0:0:
480,352,291740,1,0,0:0:0:0:
480,352,291823,1,0,0:0:0:0:
480,352,291907,1,8,0:0:0:0:
480,352,291990,1,8,0:0:0:0:
480,352,292073,1,4,0:0:0:0:
480,352,292240,1,8,0:0:0:0:
480,352,292323,1,0,0:0:0:0:
480,352,292407,1,8,0:0:0:0:
480,352,292490,1,8,0:0:0:0:
480,352,292573,1,0,0:0:0:0:
480,352,292657,1,8,0:0:0:0:
480,352,292740,1,0,0:0:0:0:
480,352,292823,1,0,0:0:0:0:
480,352,292907,1,8,0:0:0:0:
480,352,292990,1,8,0:0:0:0:
480,352,293073,1,0,0:0:0:0:
480,352,293157,1,8,0:0:0:0:
480,352,293323,1,8,0:0:0:0:
480,352,293407,1,0,0:0:0:0:
480,352,293490,1,8,0:0:0:0:
480,352,293657,1,8,0:0:0:0:
480,352,293740,1,0,0:0:0:0:
480,352,293823,1,8,0:0:0:0:
480,352,293990,1,0,0:0:0:0:
480,352,294073,1,8,0:0:0:0:
480,352,294157,1,0,0:0:0:0:
480,352,294240,1,0,0:0:0:0:
480,352,294323,1,8,0:0:0:0:
480,352,294407,1,0,0:0:0:0:
480,352,294490,1,8,0:0:0:0:
480,352,294573,1,8,0:0:0:0:
480,352,294657,1,0,0:0:0:0:
480,352,294740,1,0,0:0:0:0:
480,352,294823,1,8,0:0:0:0:
480,352,294907,1,0,0:0:0:0:
480,352,294990,1,8,0:0:0:0:
480,352,295073,1,8,0:0:0:0:
480,352,295157,1,0,0:0:0:0:
480,352,295240,1,8,0:0:0:0:
480,352,295323,1,8,0:0:0:0:
480,352,295407,1,0,0:0:0:0:
480,352,295490,1,8,0:0:0:0:
480,352,295573,1,8,0:0:0:0:
480,352,295657,1,0,0:0:0:0:
480,352,295740,1,8,0:0:0:0:
480,352,295823,1,8,0:0:0:0:
480,352,295907,1,0,0:0:0:0:
480,352,295990,1,8,0:0:0:0:
480,352,296073,1,0,0:0:0:0:
480,352,296240,1,8,0:0:0:0:
480,352,296323,1,8,0:0:0:0:
480,352,296407,1,0,0:0:0:0:
480,352,296490,1,8,0:0:0:0:
480,352,296573,1,0,0:0:0:0:
480,352,296657,1,0,0:0:0:0:
480,352,296740,1,8,0:0:0:0:
480,352,296795,1,0,0:0:0:0:
480,352,296851,1,8,0:0:0:0:
480,352,296907,1,0,0:0:0:0:
480,352,296962,1,8,0:0:0:0:
480,352,297073,1,8,0:0:0:0:
480,352,297129,1,0,0:0:0:0:
480,352,297184,1,8,0:0:0:0:
480,352,297240,1,0,0:0:0:0:
480,352,297295,1,8,0:0:0:0:
480,352,297407,1,0,0:0:0:0:
480,352,297490,1,8,0:0:0:0:
480,352,297573,1,8,0:0:0:0:
480,352,297657,1,0,0:0:0:0:
480,352,297740,1,0,0:0:0:0:
480,352,297823,1,8,0:0:0:0:
480,352,297907,1,0,0:0:0:0:
480,352,297990,1,8,0:0:0:0:
480,352,298073,1,0,0:0:0:0:
480,352,298157,1,8,0:0:0:0:
480,352,298323,1,0,0:0:0:0:
480,352,298407,1,8,0:0:0:0:
480,352,298490,1,8,0:0:0:0:
480,352,298573,1,0,0:0:0:0:
480,352,298657,1,0,0:0:0:0:
480,352,298740,1,8,0:0:0:0:
480,352,298823,1,8,0:0:0:0:
480,352,298907,1,0,0:0:0:0:
480,352,298990,1,8,0:0:0:0:
480,352,299073,1,8,0:0:0:0:
480,352,299157,1,0,0:0:0:0:
480,352,299240,1,12,0:0:0:0:
480,352,299490,1,8,0:0:0:0:
480,352,299573,1,8,0:0:0:0:
480,352,299657,1,8,0:0:0:0:
480,352,299740,1,8,0:0:0:0:
480,352,299823,1,0,0:0:0:0:
480,352,299907,1,8,0:0:0:0:
480,352,299990,1,8,0:0:0:0:
480,352,300073,1,0,0:0:0:0:
480,352,300295,1,8,0:0:0:0:
480,352,300407,1,0,0:0:0:0:
480,352,300629,1,0,0:0:0:0:
480,352,300740,1,8,0:0:0:0:
480,352,301073,1,8,0:0:0:0:
480,352,301295,1,8,0:0:0:0:
480,352,301407,1,0,0:0:0:0:
480,352,301629,1,8,0:0:0:0:
480,352,301740,1,0,0:0:0:0:
480,352,301962,1,0,0:0:0:0:
480,352,302073,1,8,0:0:0:0:
480,352,302295,1,8,0:0:0:0:
480,352,302407,1,8,0:0:0:0:
480,352,302629,1,8,0:0:0:0:
480,352,302740,1,0,0:0:0:0:
480,352,303073,1,0,0:0:0:0:
480,352,303295,1,0,0:0:0:0:
480,352,303407,1,8,0:0:0:0:
480,352,303740,1,8,0:0:0:0:
480,352,303962,1,8,0:0:0:0:
480,352,304073,1,0,0:0:0:0:
480,352,304295,1,0,0:0:0:0:
480,352,304407,1,0,0:0:0:0:
480,352,304629,1,0,0:0:0:0:
480,352,304740,1,8,0:0:0:0:
480,352,304962,1,8,0:0:0:0:
480,352,305073,1,0,0:0:0:0:
480,352,305184,1,8,0:0:0:0:
480,352,305295,1,8,0:0:0:0:
480,352,305407,1,0,0:0:0:0:
480,352,305490,1,0,0:0:0:0:
480,352,305573,1,0,0:0:0:0:
480,352,305657,1,8,0:0:0:0:
480,352,305740,1,0,0:0:0:0:
480,352,305823,1,0,0:0:0:0:
480,352,305907,1,8,0:0:0:0:
480,352,306073,1,4,0:0:0:0:
480,352,306240,1,8,0:0:0:0:
480,352,306323,1,8,0:0:0:0:
480,352,306490,1,0,0:0:0:0:
480,352,306573,1,8,0:0:0:0:
480,352,306657,1,8,0:0:0:0:
480,352,306740,1,0,0:0:0:0:
480,352,306907,1,0,0:0:0:0:
480,352,307073,1,8,0:0:0:0:
480,352,307407,1,0,0:0:0:0:
480,352,307573,1,0,0:0:0:0:
480,352,307740,1,8,0:0:0:0:
480,352,308073,1,0,0:0:0:0:
480,352,308240,1,0,0:0:0:0:
480,352,308407,1,8,0:0:0:0:
480,352,308573,1,8,0:0:0:0:
480,352,308740,1,0,0:0:0:0:
480,352,308907,1,0,0:0:0:0:
480,352,309073,1,8,0:0:0:0:
480,352,309240,1,8,0:0:0:0:
480,352,309323,1,8,0:0:0:0:
480,352,309407,1,0,0:0:0:0:
480,352,309573,1,0,0:0:0:0:
480,352,309740,1,8,0:0:0:0:
480,352,310073,1,0,0:0:0:0:
480,352,310240,1,0,0:0:0:0:
480,352,310407,1,8,0:0:0:0:
480,352,310740,1,0,0:0:0:0:
480,352,310907,1,8,0:0:0:0:
480,352,311073,1,0,0:0:0:0:
480,352,311240,1,8,0:0:0:0:
480,352,311407,1,0,0:0:0:0:
480,352,311573,1,8,0:0:0:0:
480,352,311740,1,0,0:0:0:0:
480,352,311907,1,8,0:0:0:0:
480,352,311990,1,8,0:0:0:0:
480,352,312073,1,4,0:0:0:0:
480,352,312240,1,8,0:0:0:0:
480,352,312323,1,0,0:0:0:0:
480,352,312490,1,0,0:0:0:0:
480,352,312573,1,8,0:0:0:0:
480,352,312740,1,0,0:0:0:0:
480,352,312823,1,8,0:0:0:0:
480,352,312907,1,8,0:0:0:0:
480,352,312990,1,0,0:0:0:0:
480,352,313073,1,0,0:0:0:0:
480,352,313157,1,0,0:0:0:0:
480,352,313240,1,8,0:0:0:0:
480,352,313407,1,4,0:0:0:0:
480,352,313573,1,8,0:0:0:0:
480,352,313657,1,8,0:0:0:0:
480,352,313740,1,0,0:0:0:0:
480,352,313823,1,0,0:0:0:0:
480,352,313907,1,8,0:0:0:0:
480,352,314073,1,0,0:0:0:0:
480,352,314157,1,0,0:0:0:0:
480,352,314240,1,8,0:0:0:0:
480,352,314323,1,8,0:0:0:0:
480,352,314407,1,0,0:0:0:0:
480,352,314490,1,8,0:0:0:0:
480,352,314573,1,8,0:0:0:0:
480,352,314740,1,12,0:0:0:0:
480,352,314907,1,0,0:0:0:0:
480,352,314990,1,0,0:0:0:0:
480,352,315073,1,8,0:0:0:0:
480,352,315240,1,0,0:0:0:0:
480,352,315407,1,12,0:0:0:0:
480,352,315573,1,0,0:0:0:0:
480,352,315657,1,0,0:0:0:0:
480,352,315740,1,8,0:0:0:0:
480,352,315907,1,0,0:0:0:0:
480,352,316073,1,12,0:0:0:0:
480,352,316240,1,0,0:0:0:0:
480,352,316323,1,0,0:0:0:0:
480,352,316407,1,12,0:0:0:0:
480,352,316573,1,0,0:0:0:0:
480,352,316657,1,0,0:0:0:0:
480,352,316740,1,12,0:0:0:0:
480,352,316907,1,0,0:0:0:0:
480,352,316990,1,0,0:0:0:0:
480,352,317073,1,8,0:0:0:0:
480,352,317115,1,8,0:0:0:0:
480,352,317157,1,0,0:0:0:0:
480,352,317198,1,0,0:0:0:0:
480,352,317240,1,8,0:0:0:0:
480,352,317323,1,8,0:0:0:0:
480,352,317407,1,4,0:0:0:0:
480,352,317573,1,0,0:0:0:0:
480,352,317657,1,0,0:0:0:0:
480,352,317823,1,0,0:0:0:0:
480,352,317907,1,0,0:0:0:0:
480,352,317990,1,8,0:0:0:0:
480,352,318157,1,0,0:0:0:0:
480,352,318240,1,8,0:0:0:0:
480,352,318323,1,8,0:0:0:0:
480,352,318490,1,8,0:0:0:0:
480,352,318657,1,8,0:0:0:0:
480,352,318740,1,0,0:0:0:0:
480,352,318907,1,0,0:0:0:0:
480,352,318990,1,8,0:0:0:0:
480,352,319157,1,0,0:0:0:0:
480,352,319240,1,8,0:0:0:0:
480,352,319323,1,8,0:0:0:0:
480,352,319490,1,8,0:0:0:0:
480,352,319573,1,8,0:0:0:0:
480,352,319657,1,8,0:0:0:0:
480,352,319823,1,8,0:0:0:0:
480,352,319990,1,8,0:0:0:0:
480,352,320073,1,8,0:0:0:0:
480,352,320184,1,0,0:0:0:0:
480,352,320295,1,0,0:0:0:0:
480,352,320407,1,8,0:0:0:0:
480,352,320518,1,8,0:0:0:0:
480,352,320629,1,8,0:0:0:0:
480,352,320740,1,0,0:0:0:0:
480,352,320823,1,0,0:0:0:0:
480,352,320907,1,8,0:0:0:0:
480,352,320990,1,0,0:0:0:0:
480,352,321073,1,8,0:0:0:0:
480,352,321157,1,8,0:0:0:0:
480,352,321240,1,0,0:0:0:0:
480,352,321323,1,8,0:0:0:0:
480,352,321406,1,0,0:0:0:0:
480,352,321489,1,0,0:0:0:0:
480,352,321572,1,8,0:0:0:0:
480,352,321739,1,8,0:0:0:0:
480,352,321822,1,0,0:0:0:0:
480,352,321989,1,0,0:0:0:0:
480,352,322072,1,8,0:0:0:0:
480,352,322156,1,8,0:0:0:0:
480,352,322239,1,0,0:0:0:0:
480,352,322406,1,8,0:0:0:0:
480,352,322489,1,8,0:0:0:0:
480,352,322572,1,0,0:0:0:0:
480,352,322656,1,0,0:0:0:0:
480,352,322739,1,8,0:0:0:0:
480,352,322794,1,8,0:0:0:0:
480,352,322850,1,8,0:0:0:0:
480,352,322906,1,0,0:0:0:0:
480,352,322961,1,0,0:0:0:0:
480,352,323017,1,0,0:0:0:0:
480,352,323072,1,12,0:0:0:0:
