osu file format v14

[General]
AudioFilename: audio.mp3
AudioLeadIn: 0
PreviewTime: 56492
Countdown: 0
SampleSet: Normal
StackLeniency: 0.7
Mode: 1
LetterboxInBreaks: 0
WidescreenStoryboard: 0

[Editor]
DistanceSpacing: 0.2
BeatDivisor: 4
GridSize: 32
TimelineZoom: 2.1

[Metadata]
Title:1,2,3,4!
TitleUnicode:1,2,3,4!
Artist:Cansol
ArtistUnicode:Cansol
Creator:uone
Version:Inner Oni
Source:BOFXVII
Tags:THE BMS OF FIGHTERS XVII -VISION THE RETRO FUTURE- Ssimille video game electronic instrumental
BeatmapID:3385691
BeatmapSetID:1658671

[Difficulty]
HPDrainRate:6
CircleSize:2
OverallDifficulty:6.5
ApproachRate:7
SliderMultiplier:1.4
SliderTickRate:1

[Events]
//Background and Video events
0,0,"bg.jpg",0,20
//Break Periods
//Storyboard Layer 0 (Background)
//Storyboard Layer 1 (Fail)
//Storyboard Layer 2 (Pass)
//Storyboard Layer 3 (Foreground)
//Storyboard Layer 4 (Overlay)
//Storyboard Sound Samples

[TimingPoints]
32,337.078651685393,4,1,0,70,1,8
32,-100,4,1,0,70,0,0
1717,-105.263157894737,4,1,0,70,0,0
2054,-111.111111111111,4,1,0,70,0,0
2391,-117.647058823529,4,1,0,70,0,0
2728,-125,4,1,0,70,0,0
3234,-133.333333333333,4,1,0,70,0,0
8079,-117.647058823529,4,1,0,80,0,0
8458,-111.984437809402,4,1,0,80,0,0
8627,-109.14472578748,4,1,0,80,0,0
8796,-106.305013765559,4,1,0,80,0,0
8964,-103.482104773353,4,1,0,80,0,0
9048,-102.07065027725,4,1,0,80,0,0
9217,-99.2309382553285,4,1,0,80,0,0
9301,-97.8194837592255,4,1,0,80,0,0
9470,-94.979771737304,4,1,0,80,0,0
9638,-92.1568627450981,4,1,0,80,0,0
9723,-90.7286052192795,4,1,0,80,0,0
9807,-89.3171507231766,4,1,0,80,0,0
9975,-86.4942417309706,4,1,0,80,0,0
10144,-83.6545297090491,4,1,0,80,0,0
10228,-82.2430752129461,4,1,0,80,0,0
10312,-80.8316207168431,4,1,0,80,0,0
10397,-79.4033631910246,4,1,0,80,0,0
10481,-77.9919086949216,4,1,0,80,0,0
10593,-76.1099693667843,4,1,0,80,0,0
10706,-74.2112270089315,4,1,0,80,0,0
10818,-72.3292876807942,4,1,0,80,0,0
10987,-69.4895756588727,4,1,0,80,0,0
11113,-50,4,1,0,60,0,0
12124,-57.1428571428571,4,1,0,80,0,0
12503,-66.6666666666667,4,1,0,80,0,0
12840,-80,4,1,0,80,0,0
13178,-100,4,1,0,80,0,0
13473,-133.333333333333,4,1,0,90,0,0
18908,-83.3333333333333,4,1,0,90,0,0
20369,-81.9372374598468,4,1,0,90,0,0
20481,-80.5534964170991,4,1,0,90,0,0
20593,-79.1697553743514,4,1,0,90,0,0
20678,-78.1195947615518,4,1,0,90,0,0
20762,-77.081788979491,4,1,0,90,0,0
20846,-76.0439831974302,4,1,0,90,0,0
20930,-75.0061774153694,4,1,0,90,0,0
21099,-72.918211020509,4,1,0,90,0,0
21267,-70.8425994563875,4,1,0,90,0,0
21436,-68.7546330615271,4,1,0,90,0,0
21562,-50,4,1,0,60,0,0
22911,-57.1428571428571,4,1,0,80,0,0
23290,-66.6666666666667,4,1,0,80,0,0
23627,-80,4,1,0,80,0,0
23964,-100,4,1,0,80,0,0
24259,-133.333333333333,4,1,0,90,0,0
29694,-117.647058823529,4,1,0,90,0,0
35088,-105.263157894737,4,1,0,90,0,0
40481,-86.9565217391306,4,1,0,90,0,0
45916,-105.263157894737,4,1,0,80,0,0
56239,-102.040816326531,4,1,0,80,0,0
56324,-99.009900990099,4,1,0,80,0,0
56408,-96.1538461538461,4,1,0,80,0,0
56492,-93.4579439252336,4,1,0,80,0,0
56576,-90.9090909090909,4,1,0,80,0,0
56619,-90.9090909090909,4,1,0,90,0,0
56661,-83.3333333333333,4,1,0,90,0,1
66015,-84.1188865476322,4,1,0,90,0,1
66099,-84.9098846971902,4,1,0,90,0,1
66183,-85.7159001017064,4,1,0,90,0,1
66267,-86.5373645179692,4,1,0,90,0,1
66352,-87.3847926267281,4,1,0,90,0,1
66520,-89.109492481203,4,1,0,90,0,1
66605,-90.0083066334401,4,1,0,90,0,1
66773,-91.8392057149776,4,1,0,90,0,1
66942,-93.7577255871446,4,1,0,90,0,1
67026,-94.7414439170622,4,1,0,90,0,1
67110,-95.746023731381,4,1,0,90,0,1
67194,-96.7721357489156,4,1,0,90,0,1
67279,-97.8330968657294,4,1,0,90,0,1
67363,-98.9046811839875,4,1,0,90,0,1
67447,-100,4,1,0,90,0,0
67489,-133.333333333333,4,1,0,70,0,0
72124,-117.647058823529,4,1,0,90,0,0
72335,-110.942731557149,4,1,0,90,0,0
72503,-104.27807486631,4,1,0,90,0,0
72588,-100.90607594535,4,1,0,90,0,0
72672,-97.5737475999302,4,1,0,90,0,0
72756,-94.2414192545106,4,1,0,90,0,0
72840,-90.9090909090909,4,1,0,90,0,1
76885,-90.9090909090909,4,1,0,90,0,0
76928,-100,4,1,0,70,0,0
78571,-105.263157894737,4,1,0,70,0,0
78908,-111.111111111111,4,1,0,70,0,0
79245,-117.647058823529,4,1,0,70,0,0
79582,-125,4,1,0,70,0,0
80088,-133.333333333333,4,1,0,70,0,0
83964,-136.986301369863,4,1,0,70,0,0
84301,-140.845070422535,4,1,0,70,0,0
84638,-144.927536231884,4,1,0,70,0,0
84849,-100,4,1,0,90,0,0
88093,-93.9470214551121,4,1,0,90,0,0
88346,-90.9145391346039,4,1,0,90,0,0
88767,-85.8683926645092,4,1,0,90,0,0
89020,-82.835910344001,4,1,0,90,0,0
89189,-80.810260098286,4,1,0,90,0,0
89610,-75.7641136281913,4,1,0,90,0,0
89863,-72.7316313076831,4,1,0,90,0,0
90031,-70.7179671580966,4,1,0,90,0,0
90200,-68.6923169123816,4,1,0,90,0,0
90284,-67.6854848375884,4,1,0,90,0,0
90369,-66.6666666666667,4,1,0,90,0,0
90706,-83.3333333333333,4,1,0,90,0,0
90958,-85.619918699187,4,1,0,90,0,0
91043,-86.4197530864198,4,1,0,90,0,0
91211,-88.0453849886164,4,1,0,90,0,0
91296,-88.8914010098726,4,1,0,90,0,0
91380,-89.7435897435897,4,1,0,90,0,0
91548,-91.4979443022264,4,1,0,90,0,0
91717,-93.3333333333333,4,1,0,90,0,0
91829,-94.5908015557961,4,1,0,90,0,0
91942,-95.8943089430894,4,1,0,90,0,0
92054,-97.2222222222222,4,1,0,90,0,0
92138,-98.2425453939697,4,1,0,90,0,0
92223,-99.2970492907354,4,1,0,90,0,0
92307,-100.361625186131,4,1,0,90,0,0
92391,-101.449275362319,4,1,0,90,0,0
92560,-103.710542512969,4,1,0,90,0,0
92644,-104.872410420557,4,1,0,90,0,0
92728,-106.060606060606,4,1,0,90,0,0
92897,-108.5346215781,4,1,0,90,0,0
93023,-117.647058823529,4,1,0,80,0,0
94414,-116.535124057036,4,1,0,80,0,0
94582,-114.337417695025,4,1,0,80,0,0
94666,-113.238564514019,4,1,0,80,0,0
94751,-112.126629747525,4,1,0,80,0,0
94835,-111.02777656652,4,1,0,80,0,0
94919,-109.928923385514,4,1,0,80,0,0
95003,-108.830070204509,4,1,0,80,0,0
95088,-107.718135438015,4,1,0,80,0,0
95172,-106.61928225701,4,1,0,80,0,0
95256,-105.520429076004,4,1,0,80,0,0
95340,-104.421575894998,4,1,0,80,0,0
95397,-103.675925522173,4,1,0,80,0,0
95453,-102.943356734836,4,1,0,80,0,0
95509,-102.210787947499,4,1,0,80,0,0
95565,-101.478219160162,4,1,0,80,0,0
95635,-76.9230769230769,4,1,0,90,0,0
95678,-76.9230769230769,4,1,0,90,0,1
98711,-90.9090909090909,4,1,0,90,0,1
101071,-83.3333333333333,4,1,0,90,0,1
106633,-83.3333333333333,4,1,0,90,0,0
107138,-110.609243697479,4,1,0,90,0,0
109329,-90.5728539480475,4,1,0,90,0,1
111942,-83.050713778689,4,1,0,90,0,1
114807,-86.2068965517241,4,1,0,90,0,1
114891,-84.7457627118644,4,1,0,90,0,1
114975,-83.3333333333333,4,1,0,90,0,1
115060,-81.9672131147541,4,1,0,90,0,1
115228,-84.7457627118644,4,1,0,90,0,1
115312,-83.3333333333333,4,1,0,90,0,1
115397,-81.9672131147541,4,1,0,90,0,1
115481,-80.6451612903226,4,1,0,90,0,1
115649,-83.3333333333333,4,1,0,90,0,1
115734,-81.9672131147541,4,1,0,90,0,1
115818,-80.6451612903226,4,1,0,90,0,1
115902,-79.3650793650794,4,1,0,90,0,0
115944,-78.125,4,1,0,70,0,0
117293,-133.333333333333,4,1,0,90,0,0
122897,-153.846153846154,4,1,0,90,0,0
126731,-153.846153846154,4,1,0,60,0,0
127405,-166.666666666667,4,1,0,70,0,0
128079,-83.3333333333333,4,1,0,90,0,0
132234,-82.4932048430937,4,1,0,90,0,0
132301,-81.6654311835928,4,1,0,90,0,0
132369,-80.8253026933531,4,1,0,90,0,0
132503,-79.1697553743514,4,1,0,90,0,0
132560,-78.4655300222387,4,1,0,90,0,0
132616,-77.7736595008649,4,1,0,90,0,0
132672,-77.081788979491,4,1,0,90,0,0
132728,-76.3899184581171,4,1,0,90,0,0
132840,-75.0061774153694,4,1,0,90,0,0
132889,-74.4007907091673,4,1,0,90,0,0
132937,-73.807758833704,4,1,0,90,0,0
132985,-73.2147269582407,4,1,0,90,0,0
133033,-72.6216950827774,4,1,0,90,0,0
133081,-72.0286632073141,4,1,0,90,0,0
133178,-70.8302446256486,4,1,0,90,0,0
133220,-70.3113417346182,4,1,0,90,0,0
133262,-69.7924388435879,4,1,0,90,0,0
133346,-68.7546330615271,4,1,0,90,0,0
133388,-68.2357301704967,4,1,0,90,0,0
133430,-67.7168272794663,4,1,0,90,0,0
133515,-66.6666666666667,4,1,0,90,0,0
133852,-68.9655172413793,4,1,0,90,0,0
134189,-71.4285714285714,4,1,0,90,0,0
134526,-74.0740740740741,4,1,0,90,0,0
134694,-75.4674728473855,4,1,0,90,0,0
134863,-76.9230769230769,4,1,0,90,0,0
135031,-78.4268094019083,4,1,0,90,0,0
135200,-80,4,1,0,90,0,0
135312,-81.0778299049681,4,1,0,90,0,0
135425,-82.1951219512195,4,1,0,90,0,0
135537,-83.3333333333333,4,1,0,90,0,0
135706,-85.111756534916,4,1,0,90,0,0
135874,-86.9565217391304,4,1,0,90,0,0
135958,-87.9092213382027,4,1,0,90,0,0
136043,-88.8947507254023,4,1,0,90,0,0
136127,-89.8906375033342,4,1,0,90,0,0
136211,-90.9090909090909,4,1,0,90,0,0
136296,-90.0359527478172,4,1,0,90,0,0
136464,-88.3102208525937,4,1,0,90,0,0
136548,-87.447354904982,4,1,0,90,0,0
136717,-85.7113507960966,4,1,0,90,0,0
136801,-84.8484848484849,4,1,0,90,0,0
136885,-83.9856189008731,4,1,0,90,0,0
137054,-82.2496147919877,4,1,0,90,0,0
137138,-81.386748844376,4,1,0,90,0,0
137223,-80.5136106831022,4,1,0,90,0,0
137307,-79.6507447354905,4,1,0,90,0,0
137391,-78.7878787878788,4,1,0,90,0,0
137475,-77.9250128402671,4,1,0,90,0,0
137517,-77.4935798664612,4,1,0,90,0,0
137560,-77.0518746789933,4,1,0,90,0,0
137644,-76.1890087313816,4,1,0,90,0,0
137728,-75.3261427837699,4,1,0,90,0,0
137784,-74.7508988186954,4,1,0,90,0,0
137840,-74.175654853621,4,1,0,90,0,0
137897,-73.5901386748844,4,1,0,90,0,0
137981,-72.7272727272727,4,1,0,90,0,0
138023,-72.2958397534669,4,1,0,90,0,0
138065,-71.864406779661,4,1,0,90,0,0
138149,-71.0015408320493,4,1,0,90,0,0
138234,-70.1284026707756,4,1,0,90,0,0
138318,-69.2655367231639,4,1,0,90,0,0
138402,-68.4026707755521,4,1,0,90,0,0
138444,-67.9712378017463,4,1,0,90,0,0
138487,-67.5295326142784,4,1,0,90,0,0
138571,-66.6666666666667,4,1,0,90,0,0

[HitObjects]
256,192,1380,5,8,0:0:0:0:
256,192,1717,1,8,0:0:0:0:
256,192,2054,1,8,0:0:0:0:
256,192,2391,1,8,0:0:0:0:
256,192,2728,1,0,0:0:0:0:
256,192,3234,1,0,0:0:0:0:
256,192,3402,1,0,0:0:0:0:
256,192,3908,1,8,0:0:0:0:
256,192,4076,1,0,0:0:0:0:
256,192,4245,1,0,0:0:0:0:
256,192,4751,1,0,0:0:0:0:
256,192,4919,1,0,0:0:0:0:
256,192,5088,1,8,0:0:0:0:
256,192,5256,1,8,0:0:0:0:
256,192,5425,1,0,0:0:0:0:
256,192,5930,1,0,0:0:0:0:
256,192,6099,1,0,0:0:0:0:
256,192,6605,1,8,0:0:0:0:
256,192,6773,1,0,0:0:0:0:
256,192,6942,1,0,0:0:0:0:
256,192,7447,1,0,0:0:0:0:
256,192,7616,1,0,0:0:0:0:
256,192,7784,1,8,0:0:0:0:
256,192,7869,1,8,0:0:0:0:
256,192,7953,1,8,0:0:0:0:
256,192,8037,1,8,0:0:0:0:
256,192,8121,1,0,0:0:0:0:
256,192,8458,1,0,0:0:0:0:
256,192,8627,1,8,0:0:0:0:
256,192,8796,1,0,0:0:0:0:
256,192,8964,1,8,0:0:0:0:
256,192,9048,1,0,0:0:0:0:
256,192,9217,1,0,0:0:0:0:
256,192,9301,1,8,0:0:0:0:
256,192,9470,1,0,0:0:0:0:
256,192,9638,1,8,0:0:0:0:
256,192,9723,1,0,0:0:0:0:
256,192,9807,1,8,0:0:0:0:
256,192,9975,1,8,0:0:0:0:
256,192,10144,1,0,0:0:0:0:
256,192,10228,1,8,0:0:0:0:
256,192,10312,1,8,0:0:0:0:
256,192,10397,1,8,0:0:0:0:
256,192,10481,1,0,0:0:0:0:
256,192,10593,1,8,0:0:0:0:
256,192,10706,1,8,0:0:0:0:
256,192,10818,1,0,0:0:0:0:
256,192,10987,1,8,0:0:0:0:
256,192,11155,12,0,11998,0:0:0:0:
256,192,12166,5,8,0:0:0:0:
256,192,12503,1,8,0:0:0:0:
256,192,12840,1,8,0:0:0:0:
256,192,13178,1,8,0:0:0:0:
256,192,13515,1,4,0:0:0:0:
256,192,14189,1,8,0:0:0:0:
256,192,14273,1,8,0:0:0:0:
256,192,14357,1,8,0:0:0:0:
256,192,14442,1,8,0:0:0:0:
256,192,14526,1,8,0:0:0:0:
256,192,14610,1,8,0:0:0:0:
256,192,14694,1,8,0:0:0:0:
256,192,14779,1,8,0:0:0:0:
256,192,14863,1,4,0:0:0:0:
256,192,15369,1,8,0:0:0:0:
256,192,15537,1,8,0:0:0:0:
256,192,15621,1,8,0:0:0:0:
256,192,15706,1,8,0:0:0:0:
256,192,15790,1,8,0:0:0:0:
256,192,15874,1,0,0:0:0:0:
256,192,16043,1,8,0:0:0:0:
256,192,16211,1,4,0:0:0:0:
256,192,16436,1,8,0:0:0:0:
256,192,16661,1,8,0:0:0:0:
256,192,16885,1,8,0:0:0:0:
256,192,16970,1,8,0:0:0:0:
256,192,17054,1,8,0:0:0:0:
256,192,17138,1,8,0:0:0:0:
256,192,17223,1,0,0:0:0:0:
256,192,17391,1,0,0:0:0:0:
256,192,17560,1,4,0:0:0:0:
256,192,17728,1,8,0:0:0:0:
256,192,17897,1,8,0:0:0:0:
256,192,18065,1,8,0:0:0:0:
256,192,18234,1,0,0:0:0:0:
256,192,18402,1,0,0:0:0:0:
256,192,18487,1,8,0:0:0:0:
256,192,18655,1,8,0:0:0:0:
256,192,18739,1,8,0:0:0:0:
256,192,18908,1,0,0:0:0:0:
256,192,19076,1,0,0:0:0:0:
256,192,19161,1,0,0:0:0:0:
256,192,19245,1,8,0:0:0:0:
256,192,19414,1,8,0:0:0:0:
256,192,19498,1,8,0:0:0:0:
256,192,19582,1,0,0:0:0:0:
256,192,19666,1,8,0:0:0:0:
256,192,19835,1,8,0:0:0:0:
256,192,19919,1,0,0:0:0:0:
256,192,20088,1,8,0:0:0:0:
256,192,20256,1,0,0:0:0:0:
256,192,20369,1,8,0:0:0:0:
256,192,20481,1,0,0:0:0:0:
256,192,20593,1,8,0:0:0:0:
256,192,20678,1,8,0:0:0:0:
256,192,20762,1,0,0:0:0:0:
256,192,20846,1,0,0:0:0:0:
256,192,20930,1,8,0:0:0:0:
256,192,21099,1,8,0:0:0:0:
256,192,21267,1,8,0:0:0:0:
256,192,21436,1,8,0:0:0:0:
256,192,21605,12,8,22784,0:0:0:0:
256,192,22953,5,8,0:0:0:0:
256,192,23290,1,8,0:0:0:0:
256,192,23627,1,8,0:0:0:0:
256,192,23964,1,8,0:0:0:0:
256,192,24301,1,4,0:0:0:0:
256,192,24470,1,0,0:0:0:0:
256,192,24807,1,8,0:0:0:0:
256,192,24849,1,8,0:0:0:0:
256,192,24891,1,8,0:0:0:0:
256,192,24975,1,0,0:0:0:0:
256,192,25481,1,0,0:0:0:0:
256,192,25649,1,8,0:0:0:0:
256,192,25818,1,8,0:0:0:0:
256,192,25902,1,8,0:0:0:0:
256,192,25987,1,0,0:0:0:0:
256,192,26071,1,0,0:0:0:0:
256,192,26239,1,0,0:0:0:0:
256,192,26324,1,8,0:0:0:0:
256,192,26408,1,8,0:0:0:0:
256,192,26492,1,0,0:0:0:0:
256,192,26576,1,0,0:0:0:0:
256,192,26661,1,8,0:0:0:0:
256,192,26829,1,8,0:0:0:0:
256,192,26914,1,8,0:0:0:0:
256,192,26998,1,0,0:0:0:0:
256,192,27166,1,0,0:0:0:0:
256,192,27503,1,8,0:0:0:0:
256,192,27546,1,8,0:0:0:0:
256,192,27588,1,8,0:0:0:0:
256,192,27672,1,0,0:0:0:0:
256,192,28178,1,0,0:0:0:0:
256,192,28346,1,8,0:0:0:0:
256,192,28515,1,8,0:0:0:0:
256,192,28599,1,0,0:0:0:0:
256,192,28683,1,8,0:0:0:0:
256,192,28767,1,8,0:0:0:0:
256,192,28852,1,0,0:0:0:0:
256,192,29020,1,8,0:0:0:0:
256,192,29189,1,8,0:0:0:0:
256,192,29357,1,8,0:0:0:0:
256,192,29526,1,8,0:0:0:0:
256,192,29694,1,4,0:0:0:0:
256,192,29863,1,0,0:0:0:0:
256,192,29947,1,0,0:0:0:0:
256,192,30032,1,8,0:0:0:0:
256,192,30200,1,0,0:0:0:0:
256,192,30453,1,0,0:0:0:0:
256,192,30621,1,8,0:0:0:0:
256,192,30706,1,0,0:0:0:0:
256,192,30874,1,0,0:0:0:0:
256,192,30958,1,8,0:0:0:0:
256,192,31127,1,0,0:0:0:0:
256,192,31211,1,8,0:0:0:0:
256,192,31296,1,8,0:0:0:0:
256,192,31380,1,0,0:0:0:0:
256,192,31548,1,8,0:0:0:0:
256,192,31717,2,0,L|288:192,6,29.7500005674362
256,192,32391,1,8,0:0:0:0:
256,192,32560,1,8,0:0:0:0:
256,192,32644,1,0,0:0:0:0:
256,192,32728,1,8,0:0:0:0:
256,192,32897,1,8,0:0:0:0:
256,192,32981,1,8,0:0:0:0:
256,192,33065,1,0,0:0:0:0:
256,192,33149,1,8,0:0:0:0:
256,192,33234,1,0,0:0:0:0:
256,192,33402,1,8,0:0:0:0:
256,192,33571,1,0,0:0:0:0:
256,192,33655,1,8,0:0:0:0:
256,192,33824,1,8,0:0:0:0:
256,192,33908,1,0,0:0:0:0:
256,192,33992,1,0,0:0:0:0:
256,192,34076,1,8,0:0:0:0:
256,192,34245,1,0,0:0:0:0:
256,192,34329,1,0,0:0:0:0:
256,192,34414,1,8,0:0:0:0:
256,192,34582,1,8,0:0:0:0:
256,192,34751,1,8,0:0:0:0:
256,192,34919,1,8,0:0:0:0:
256,192,35088,1,4,0:0:0:0:
256,192,35340,1,0,0:0:0:0:
256,192,35425,1,8,0:0:0:0:
256,192,35593,1,8,0:0:0:0:
256,192,35678,1,8,0:0:0:0:
256,192,35762,1,0,0:0:0:0:
256,192,35846,1,0,0:0:0:0:
256,192,36015,1,0,0:0:0:0:
256,192,36099,1,8,0:0:0:0:
256,192,36183,1,0,0:0:0:0:
256,192,36267,1,8,0:0:0:0:
256,192,36352,1,8,0:0:0:0:
256,192,36436,1,0,0:0:0:0:
256,192,36605,1,0,0:0:0:0:
256,192,36773,1,8,0:0:0:0:
256,192,36857,1,8,0:0:0:0:
256,192,36942,1,0,0:0:0:0:
256,192,37026,1,0,0:0:0:0:
256,192,37110,1,8,0:0:0:0:
256,192,37279,1,8,0:0:0:0:
256,192,37447,1,8,0:0:0:0:
256,192,37616,1,8,0:0:0:0:
256,192,37784,1,0,0:0:0:0:
256,192,37869,1,8,0:0:0:0:
256,192,37953,1,8,0:0:0:0:
256,192,38037,1,0,0:0:0:0:
256,192,38206,1,8,0:0:0:0:
256,192,38290,1,0,0:0:0:0:
256,192,38374,1,0,0:0:0:0:
256,192,38458,1,8,0:0:0:0:
256,192,38543,1,0,0:0:0:0:
256,192,38711,1,0,0:0:0:0:
256,192,38796,1,8,0:0:0:0:
256,192,38964,1,8,0:0:0:0:
256,192,39048,1,8,0:0:0:0:
256,192,39133,1,0,0:0:0:0:
256,192,39217,1,0,0:0:0:0:
256,192,39301,1,0,0:0:0:0:
256,192,39385,1,8,0:0:0:0:
256,192,39554,1,8,0:0:0:0:
256,192,39638,1,0,0:0:0:0:
256,192,39723,1,0,0:0:0:0:
256,192,39807,1,8,0:0:0:0:
256,192,39975,1,0,0:0:0:0:
256,192,40060,1,8,0:0:0:0:
256,192,40228,1,8,0:0:0:0:
256,192,40312,1,0,0:0:0:0:
256,192,40481,1,0,0:0:0:0:
256,192,40565,1,8,0:0:0:0:
256,192,40818,1,8,0:0:0:0:
256,192,40987,1,0,0:0:0:0:
256,192,41071,1,0,0:0:0:0:
256,192,41239,1,8,0:0:0:0:
256,192,41324,1,0,0:0:0:0:
256,192,41492,1,8,0:0:0:0:
256,192,41661,1,0,0:0:0:0:
256,192,41829,1,0,0:0:0:0:
256,192,41914,1,8,0:0:0:0:
256,192,41998,1,0,0:0:0:0:
256,192,42082,1,0,0:0:0:0:
256,192,42166,1,8,0:0:0:0:
256,192,42335,1,8,0:0:0:0:
256,192,42419,1,0,0:0:0:0:
256,192,42588,1,0,0:0:0:0:
256,192,42672,1,0,0:0:0:0:
256,192,42756,1,0,0:0:0:0:
256,192,42840,1,8,0:0:0:0:
256,192,43009,1,0,0:0:0:0:
256,192,43178,1,8,0:0:0:0:
256,192,43262,1,8,0:0:0:0:
256,192,43346,1,8,0:0:0:0:
256,192,43430,1,0,0:0:0:0:
256,192,43599,1,0,0:0:0:0:
256,192,43683,1,8,0:0:0:0:
256,192,43767,1,8,0:0:0:0:
256,192,43852,1,0,0:0:0:0:
256,192,43936,1,0,0:0:0:0:
256,192,44105,1,0,0:0:0:0:
256,192,44189,1,8,0:0:0:0:
256,192,44357,1,8,0:0:0:0:
256,192,44442,1,8,0:0:0:0:
256,192,44526,1,0,0:0:0:0:
256,192,44610,1,0,0:0:0:0:
256,192,44694,1,0,0:0:0:0:
256,192,44779,1,8,0:0:0:0:
256,192,44947,1,8,0:0:0:0:
256,192,45032,1,0,0:0:0:0:
256,192,45116,1,0,0:0:0:0:
256,192,45200,1,8,0:0:0:0:
256,192,45369,1,8,0:0:0:0:
256,192,45425,1,8,0:0:0:0:
256,192,45481,1,8,0:0:0:0:
256,192,45537,1,8,0:0:0:0:
256,192,45706,1,8,0:0:0:0:
256,192,45874,1,4,0:0:0:0:
256,192,46211,1,8,0:0:0:0:
256,192,46380,1,0,0:0:0:0:
256,192,46464,1,8,0:0:0:0:
256,192,46548,1,0,0:0:0:0:
256,192,46717,1,0,0:0:0:0:
256,192,46885,1,8,0:0:0:0:
256,192,47054,1,0,0:0:0:0:
256,192,47138,1,0,0:0:0:0:
256,192,47223,1,8,0:0:0:0:
256,192,47391,1,0,0:0:0:0:
256,192,47728,1,0,0:0:0:0:
256,192,47897,1,8,0:0:0:0:
256,192,48149,1,8,0:0:0:0:
256,192,48318,1,0,0:0:0:0:
256,192,48402,1,8,0:0:0:0:
256,192,48487,1,8,0:0:0:0:
256,192,48571,1,0,0:0:0:0:
256,192,48739,1,0,0:0:0:0:
256,192,48908,1,8,0:0:0:0:
256,192,49076,1,8,0:0:0:0:
256,192,49161,1,8,0:0:0:0:
256,192,49245,1,0,0:0:0:0:
256,192,49414,1,0,0:0:0:0:
256,192,49582,1,8,0:0:0:0:
256,192,49751,1,8,0:0:0:0:
256,192,49919,1,8,0:0:0:0:
256,192,50256,1,8,0:0:0:0:
256,192,50425,1,0,0:0:0:0:
256,192,50593,1,8,0:0:0:0:
256,192,50846,1,0,0:0:0:0:
256,192,50930,1,8,0:0:0:0:
256,192,51099,1,8,0:0:0:0:
256,192,51183,1,8,0:0:0:0:
256,192,51267,1,0,0:0:0:0:
256,192,51605,1,8,0:0:0:0:
256,192,51773,1,0,0:0:0:0:
256,192,51857,1,0,0:0:0:0:
256,192,51942,1,0,0:0:0:0:
256,192,52110,1,0,0:0:0:0:
256,192,52279,1,8,0:0:0:0:
256,192,52447,1,0,0:0:0:0:
256,192,52532,1,8,0:0:0:0:
256,192,52700,1,8,0:0:0:0:
256,192,52784,1,0,0:0:0:0:
256,192,52953,1,8,0:0:0:0:
256,192,53121,1,0,0:0:0:0:
256,192,53290,1,0,0:0:0:0:
256,192,53374,1,0,0:0:0:0:
256,192,53458,1,8,0:0:0:0:
256,192,53543,1,8,0:0:0:0:
256,192,53627,1,0,0:0:0:0:
256,192,53739,1,8,0:0:0:0:
256,192,53852,1,8,0:0:0:0:
256,192,53964,1,0,0:0:0:0:
256,192,54133,1,8,0:0:0:0:
256,192,54301,1,0,0:0:0:0:
256,192,54470,1,8,0:0:0:0:
256,192,54554,1,8,0:0:0:0:
256,192,54638,1,8,0:0:0:0:
256,192,54807,1,0,0:0:0:0:
256,192,55144,1,8,0:0:0:0:
256,192,55312,1,0,0:0:0:0:
256,192,55481,1,0,0:0:0:0:
256,192,55565,1,0,0:0:0:0:
256,192,55649,1,8,0:0:0:0:
256,192,55818,1,0,0:0:0:0:
256,192,55987,1,8,0:0:0:0:
256,192,56155,1,0,0:0:0:0:
256,192,56239,1,0,0:0:0:0:
256,192,56324,1,8,0:0:0:0:
256,192,56408,1,8,0:0:0:0:
256,192,56492,1,8,0:0:0:0:
256,192,56576,1,8,0:0:0:0:
256,192,56661,1,4,0:0:0:0:
256,192,56829,1,0,0:0:0:0:
256,192,56914,1,8,0:0:0:0:
256,192,56998,1,0,0:0:0:0:
256,192,57082,1,0,0:0:0:0:
256,192,57251,1,0,0:0:0:0:
256,192,57335,1,8,0:0:0:0:
256,192,57503,1,0,0:0:0:0:
256,192,57672,1,0,0:0:0:0:
256,192,57756,1,0,0:0:0:0:
256,192,57840,1,8,0:0:0:0:
256,192,57925,1,8,0:0:0:0:
256,192,58009,1,0,0:0:0:0:
256,192,58178,1,8,0:0:0:0:
256,192,58262,1,8,0:0:0:0:
256,192,58346,1,0,0:0:0:0:
256,192,58430,1,0,0:0:0:0:
256,192,58599,1,0,0:0:0:0:
256,192,58683,1,8,0:0:0:0:
256,192,58852,1,0,0:0:0:0:
256,192,59020,1,0,0:0:0:0:
256,192,59105,1,8,0:0:0:0:
256,192,59189,1,8,0:0:0:0:
256,192,59273,1,0,0:0:0:0:
256,192,59357,1,8,0:0:0:0:
256,192,59442,1,0,0:0:0:0:
256,192,59610,1,0,0:0:0:0:
256,192,59779,1,0,0:0:0:0:
256,192,59863,1,8,0:0:0:0:
256,192,59947,1,8,0:0:0:0:
256,192,60032,1,0,0:0:0:0:
256,192,60200,1,8,0:0:0:0:
256,192,60284,1,0,0:0:0:0:
256,192,60369,1,8,0:0:0:0:
256,192,60537,1,0,0:0:0:0:
256,192,60621,1,0,0:0:0:0:
256,192,60706,1,8,0:0:0:0:
256,192,60790,1,8,0:0:0:0:
256,192,60874,1,8,0:0:0:0:
256,192,60958,1,0,0:0:0:0:
256,192,61127,1,8,0:0:0:0:
256,192,61211,1,0,0:0:0:0:
256,192,61296,1,0,0:0:0:0:
256,192,61380,1,8,0:0:0:0:
256,192,61548,1,0,0:0:0:0:
256,192,61633,1,0,0:0:0:0:
256,192,61717,1,8,0:0:0:0:
256,192,61801,1,0,0:0:0:0:
256,192,61885,1,8,0:0:0:0:
256,192,61970,1,8,0:0:0:0:
256,192,62054,1,0,0:0:0:0:
256,192,62223,1,0,0:0:0:0:
256,192,62307,1,0,0:0:0:0:
256,192,62391,1,8,0:0:0:0:
256,192,62560,1,0,0:0:0:0:
256,192,62644,1,8,0:0:0:0:
256,192,62812,1,8,0:0:0:0:
256,192,62897,1,0,0:0:0:0:
256,192,62981,1,0,0:0:0:0:
256,192,63065,1,8,0:0:0:0:
256,192,63149,1,0,0:0:0:0:
256,192,63234,1,8,0:0:0:0:
256,192,63318,1,8,0:0:0:0:
256,192,63402,1,0,0:0:0:0:
256,192,63571,1,8,0:0:0:0:
256,192,63655,1,0,0:0:0:0:
256,192,63739,1,8,0:0:0:0:
256,192,63824,1,8,0:0:0:0:
256,192,63908,1,0,0:0:0:0:
256,192,63992,1,8,0:0:0:0:
256,192,64161,1,8,0:0:0:0:
256,192,64245,1,0,0:0:0:0:
256,192,64414,1,0,0:0:0:0:
256,192,64498,1,8,0:0:0:0:
256,192,64582,1,8,0:0:0:0:
256,192,64666,1,0,0:0:0:0:
256,192,64751,1,8,0:0:0:0:
256,192,64835,1,8,0:0:0:0:
256,192,64919,1,0,0:0:0:0:
256,192,65003,1,0,0:0:0:0:
256,192,65172,1,0,0:0:0:0:
256,192,65256,1,8,0:0:0:0:
256,192,65340,1,8,0:0:0:0:
256,192,65425,1,0,0:0:0:0:
256,192,65593,1,0,0:0:0:0:
256,192,65678,1,0,0:0:0:0:
256,192,65762,1,8,0:0:0:0:
256,192,65930,1,0,0:0:0:0:
256,192,66015,1,0,0:0:0:0:
256,192,66099,1,8,0:0:0:0:
256,192,66183,1,8,0:0:0:0:
256,192,66267,1,8,0:0:0:0:
256,192,66352,1,0,0:0:0:0:
256,192,66520,1,8,0:0:0:0:
256,192,66605,1,0,0:0:0:0:
256,192,66773,1,8,0:0:0:0:
256,192,66942,1,0,0:0:0:0:
256,192,67026,1,0,0:0:0:0:
256,192,67110,1,8,0:0:0:0:
256,192,67194,1,0,0:0:0:0:
256,192,67279,1,8,0:0:0:0:
256,192,67363,1,8,0:0:0:0:
256,192,67447,1,0,0:0:0:0:
256,192,69133,1,8,0:0:0:0:
256,192,69470,1,8,0:0:0:0:
256,192,69807,1,8,0:0:0:0:
256,192,70144,1,8,0:0:0:0:
256,192,70987,1,0,0:0:0:0:
256,192,71155,1,8,0:0:0:0:
256,192,71324,1,8,0:0:0:0:
256,192,71492,1,0,0:0:0:0:
256,192,72166,1,8,0:0:0:0:
256,192,72335,1,8,0:0:0:0:
256,192,72503,1,8,0:0:0:0:
256,192,72588,1,8,0:0:0:0:
256,192,72672,1,8,0:0:0:0:
256,192,72756,1,8,0:0:0:0:
256,192,72840,1,4,0:0:0:0:
256,192,73093,1,0,0:0:0:0:
256,192,73178,1,8,0:0:0:0:
256,192,73346,1,8,0:0:0:0:
256,192,73402,1,0,0:0:0:0:
256,192,73458,1,0,0:0:0:0:
256,192,73515,1,8,0:0:0:0:
256,192,73683,1,8,0:0:0:0:
256,192,73767,1,8,0:0:0:0:
256,192,73852,1,0,0:0:0:0:
256,192,74020,1,8,0:0:0:0:
256,192,74189,1,0,0:0:0:0:
256,192,74273,1,0,0:0:0:0:
256,192,74442,1,0,0:0:0:0:
256,192,74526,1,8,0:0:0:0:
256,192,74694,1,0,0:0:0:0:
256,192,74779,1,8,0:0:0:0:
256,192,74863,1,0,0:0:0:0:
256,192,74947,1,0,0:0:0:0:
256,192,75032,1,8,0:0:0:0:
256,192,75200,1,8,0:0:0:0:
256,192,75284,1,0,0:0:0:0:
256,192,75369,1,8,0:0:0:0:
256,192,75453,1,8,0:0:0:0:
256,192,75537,1,0,0:0:0:0:
256,192,75706,1,0,0:0:0:0:
256,192,75790,1,0,0:0:0:0:
256,192,75874,1,8,0:0:0:0:
256,192,76043,1,8,0:0:0:0:
256,192,76127,1,8,0:0:0:0:
256,192,76211,1,0,0:0:0:0:
256,192,76296,1,0,0:0:0:0:
256,192,76380,1,8,0:0:0:0:
256,192,76464,1,0,0:0:0:0:
256,192,76548,1,8,0:0:0:0:
256,192,76633,1,8,0:0:0:0:
256,192,76717,1,0,0:0:0:0:
256,192,76801,1,8,0:0:0:0:
256,192,76885,1,0,0:0:0:0:
256,192,78234,1,8,0:0:0:0:
256,192,78571,1,8,0:0:0:0:
256,192,78908,1,8,0:0:0:0:
256,192,79245,1,8,0:0:0:0:
256,192,79582,1,0,0:0:0:0:
256,192,80088,1,0,0:0:0:0:
256,192,80256,1,0,0:0:0:0:
256,192,80762,1,8,0:0:0:0:
256,192,80930,1,0,0:0:0:0:
256,192,81099,1,0,0:0:0:0:
256,192,81605,1,0,0:0:0:0:
256,192,81773,1,0,0:0:0:0:
256,192,81942,1,8,0:0:0:0:
256,192,82110,1,8,0:0:0:0:
256,192,82279,1,0,0:0:0:0:
256,192,82447,1,8,0:0:0:0:
256,192,82616,1,8,0:0:0:0:
256,192,82784,1,0,0:0:0:0:
256,192,83290,1,0,0:0:0:0:
256,192,83458,1,0,0:0:0:0:
256,192,83627,1,8,0:0:0:0:
256,192,83964,1,8,0:0:0:0:
256,192,84301,1,8,0:0:0:0:
256,192,84638,1,8,0:0:0:0:
256,192,84891,1,4,0:0:0:0:
256,192,85397,1,4,0:0:0:0:
256,192,85649,1,4,0:0:0:0:
256,192,86071,1,4,0:0:0:0:
256,192,86324,1,4,0:0:0:0:
256,192,86492,1,4,0:0:0:0:
256,192,86829,1,0,0:0:0:0:
256,192,86914,1,8,0:0:0:0:
256,192,86998,1,8,0:0:0:0:
256,192,87166,1,8,0:0:0:0:
256,192,87335,1,8,0:0:0:0:
256,192,87503,1,8,0:0:0:0:
256,192,87588,1,4,0:0:0:0:
256,192,88093,1,4,0:0:0:0:
256,192,88346,1,4,0:0:0:0:
256,192,88767,1,4,0:0:0:0:
256,192,89020,1,12,0:0:0:0:
256,192,89189,1,12,0:0:0:0:
256,192,89610,1,12,0:0:0:0:
256,192,89863,1,12,0:0:0:0:
256,192,90032,1,12,0:0:0:0:
256,192,90200,1,8,0:0:0:0:
256,192,90284,1,8,0:0:0:0:
256,192,90369,1,4,0:0:0:0:
256,192,90706,1,8,0:0:0:0:
256,192,90958,1,8,0:0:0:0:
256,192,91043,1,0,0:0:0:0:
256,192,91211,1,8,0:0:0:0:
256,192,91296,1,8,0:0:0:0:
256,192,91380,1,0,0:0:0:0:
256,192,91548,1,8,0:0:0:0:
256,192,91717,1,0,0:0:0:0:
256,192,91829,1,8,0:0:0:0:
256,192,91942,1,0,0:0:0:0:
256,192,92054,1,8,0:0:0:0:
256,192,92138,1,8,0:0:0:0:
256,192,92223,1,0,0:0:0:0:
256,192,92307,1,0,0:0:0:0:
256,192,92391,1,8,0:0:0:0:
256,192,92560,1,8,0:0:0:0:
256,192,92644,1,0,0:0:0:0:
256,192,92728,1,8,0:0:0:0:
256,192,92897,1,8,0:0:0:0:
256,192,93065,1,0,0:0:0:0:
256,192,93149,1,8,0:0:0:0:
256,192,93234,1,8,0:0:0:0:
256,192,93318,1,0,0:0:0:0:
256,192,93487,1,8,0:0:0:0:
256,192,93571,1,8,0:0:0:0:
256,192,93655,1,0,0:0:0:0:
256,192,93908,1,0,0:0:0:0:
256,192,93992,1,8,0:0:0:0:
256,192,94161,1,0,0:0:0:0:
256,192,94329,1,8,0:0:0:0:
256,192,94414,1,0,0:0:0:0:
256,192,94582,1,0,0:0:0:0:
256,192,94666,1,0,0:0:0:0:
256,192,94751,1,8,0:0:0:0:
256,192,94835,1,0,0:0:0:0:
256,192,94919,1,8,0:0:0:0:
256,192,95003,1,8,0:0:0:0:
256,192,95088,1,0,0:0:0:0:
256,192,95172,1,0,0:0:0:0:
256,192,95256,1,0,0:0:0:0:
256,192,95340,1,8,0:0:0:0:
256,192,95397,1,8,0:0:0:0:
256,192,95453,1,0,0:0:0:0:
256,192,95509,1,0,0:0:0:0:
256,192,95565,1,8,0:0:0:0:
256,192,95678,1,4,0:0:0:0:
256,192,96183,1,4,0:0:0:0:
256,192,96436,1,4,0:0:0:0:
256,192,96857,1,4,0:0:0:0:
256,192,97110,1,4,0:0:0:0:
256,192,97279,1,4,0:0:0:0:
256,192,97700,1,4,0:0:0:0:
256,192,97869,1,0,0:0:0:0:
256,192,97953,1,8,0:0:0:0:
256,192,98121,1,8,0:0:0:0:
256,192,98290,1,8,0:0:0:0:
256,192,98374,1,4,0:0:0:0:
256,192,98711,1,8,0:0:0:0:
256,192,98796,1,8,0:0:0:0:
256,192,98880,1,0,0:0:0:0:
256,192,99133,1,0,0:0:0:0:
256,192,99385,1,8,0:0:0:0:
256,192,99470,1,8,0:0:0:0:
256,192,99554,1,0,0:0:0:0:
256,192,99723,1,8,0:0:0:0:
256,192,99807,1,0,0:0:0:0:
256,192,99975,1,0,0:0:0:0:
256,192,100060,1,0,0:0:0:0:
256,192,100144,1,8,0:0:0:0:
256,192,100312,1,8,0:0:0:0:
256,192,100397,1,0,0:0:0:0:
256,192,100565,1,0,0:0:0:0:
256,192,100649,1,8,0:0:0:0:
256,192,100818,1,8,0:0:0:0:
256,192,100987,1,8,0:0:0:0:
256,192,101071,1,4,0:0:0:0:
256,192,101239,1,0,0:0:0:0:
256,192,101324,1,8,0:0:0:0:
256,192,101408,1,8,0:0:0:0:
256,192,101492,1,8,0:0:0:0:
256,192,101576,1,0,0:0:0:0:
256,192,101745,1,0,0:0:0:0:
256,192,101829,1,8,0:0:0:0:
256,192,101914,1,0,0:0:0:0:
256,192,101998,1,8,0:0:0:0:
256,192,102082,1,0,0:0:0:0:
256,192,102166,1,8,0:0:0:0:
256,192,102251,1,8,0:0:0:0:
256,192,102335,1,8,0:0:0:0:
256,192,102419,1,0,0:0:0:0:
256,192,102588,1,8,0:0:0:0:
256,192,102672,1,8,0:0:0:0:
256,192,102756,1,0,0:0:0:0:
256,192,102840,1,8,0:0:0:0:
256,192,102925,1,0,0:0:0:0:
256,192,103009,1,8,0:0:0:0:
256,192,103093,1,0,0:0:0:0:
256,192,103178,1,0,0:0:0:0:
256,192,103262,1,8,0:0:0:0:
256,192,103346,1,0,0:0:0:0:
256,192,103515,1,0,0:0:0:0:
256,192,103571,1,8,0:0:0:0:
256,192,103627,1,0,0:0:0:0:
256,192,103683,1,8,0:0:0:0:
256,192,103739,1,0,0:0:0:0:
256,192,103796,1,8,0:0:0:0:
256,192,103852,1,0,0:0:0:0:
256,192,103936,1,8,0:0:0:0:
256,192,104020,1,8,0:0:0:0:
256,192,104105,1,0,0:0:0:0:
256,192,104273,1,8,0:0:0:0:
256,192,104357,1,8,0:0:0:0:
256,192,104442,1,0,0:0:0:0:
256,192,104526,1,8,0:0:0:0:
256,192,104694,1,8,0:0:0:0:
256,192,104779,1,0,0:0:0:0:
256,192,104863,1,0,0:0:0:0:
256,192,104947,1,8,0:0:0:0:
256,192,105116,1,8,0:0:0:0:
256,192,105200,1,0,0:0:0:0:
256,192,105369,1,0,0:0:0:0:
256,192,105453,1,0,0:0:0:0:
256,192,105537,1,8,0:0:0:0:
256,192,105621,1,8,0:0:0:0:
256,192,105790,1,8,0:0:0:0:
256,192,105874,1,0,0:0:0:0:
256,192,105958,1,8,0:0:0:0:
256,192,106043,1,0,0:0:0:0:
256,192,106127,1,0,0:0:0:0:
256,192,106211,1,8,0:0:0:0:
256,192,106380,1,0,0:0:0:0:
256,192,106464,1,8,0:0:0:0:
256,192,106633,1,4,0:0:0:0:
256,192,107138,1,0,0:0:0:0:
256,192,107223,1,0,0:0:0:0:
256,192,107812,1,0,0:0:0:0:
256,192,107897,1,0,0:0:0:0:
256,192,108065,1,0,0:0:0:0:
256,192,108655,1,0,0:0:0:0:
256,192,108739,1,0,0:0:0:0:
256,192,108908,1,8,0:0:0:0:
256,192,108992,1,0,0:0:0:0:
256,192,109076,1,8,0:0:0:0:
256,192,109245,1,8,0:0:0:0:
256,192,109329,1,4,0:0:0:0:
256,192,109582,1,8,0:0:0:0:
256,192,109835,1,0,0:0:0:0:
256,192,109919,1,0,0:0:0:0:
256,192,110088,1,0,0:0:0:0:
256,192,110256,1,8,0:0:0:0:
256,192,110425,1,8,0:0:0:0:
256,192,110509,1,0,0:0:0:0:
256,192,110593,1,0,0:0:0:0:
256,192,110762,1,0,0:0:0:0:
256,192,110930,1,8,0:0:0:0:
256,192,111015,1,8,0:0:0:0:
256,192,111099,1,0,0:0:0:0:
256,192,111183,1,0,0:0:0:0:
256,192,111267,1,0,0:0:0:0:
256,192,111352,1,8,0:0:0:0:
256,192,111520,1,0,0:0:0:0:
256,192,111605,1,8,0:0:0:0:
256,192,111773,1,8,0:0:0:0:
256,192,111942,1,4,0:0:0:0:
256,192,112110,1,0,0:0:0:0:
256,192,112194,1,8,0:0:0:0:
256,192,112363,1,8,0:0:0:0:
256,192,112447,1,8,0:0:0:0:
256,192,112616,1,4,0:0:0:0:
256,192,112784,1,0,0:0:0:0:
256,192,112869,1,8,0:0:0:0:
256,192,112953,1,0,0:0:0:0:
256,192,113121,1,8,0:0:0:0:
256,192,113206,1,8,0:0:0:0:
256,192,113290,1,4,0:0:0:0:
256,192,113458,1,4,0:0:0:0:
256,192,113627,1,8,0:0:0:0:
256,192,113711,1,0,0:0:0:0:
256,192,113796,1,8,0:0:0:0:
256,192,113880,1,8,0:0:0:0:
256,192,113964,1,4,0:0:0:0:
256,192,114133,1,4,0:0:0:0:
256,192,114301,1,12,0:0:0:0:
256,192,114470,1,12,0:0:0:0:
256,192,114638,1,4,0:0:0:0:
256,192,114807,1,0,0:0:0:0:
256,192,114891,1,0,0:0:0:0:
256,192,114975,1,0,0:0:0:0:
256,192,115060,1,8,0:0:0:0:
256,192,115228,1,8,0:0:0:0:
256,192,115312,1,8,0:0:0:0:
256,192,115397,1,8,0:0:0:0:
256,192,115481,1,0,0:0:0:0:
256,192,115649,1,0,0:0:0:0:
256,192,115734,1,0,0:0:0:0:
256,192,115818,1,0,0:0:0:0:
256,192,115902,1,8,0:0:0:0:
256,192,117335,1,8,0:0:0:0:
256,192,117419,1,8,0:0:0:0:
256,192,117503,1,0,0:0:0:0:
256,192,117588,1,0,0:0:0:0:
256,192,117672,1,8,0:0:0:0:
256,192,117756,1,8,0:0:0:0:
256,192,117840,1,0,0:0:0:0:
256,192,118009,1,8,0:0:0:0:
256,192,118093,1,0,0:0:0:0:
256,192,118262,1,0,0:0:0:0:
256,192,118346,1,8,0:0:0:0:
256,192,118515,1,0,0:0:0:0:
256,192,118683,1,8,0:0:0:0:
256,192,118852,1,0,0:0:0:0:
256,192,118936,1,0,0:0:0:0:
256,192,119020,1,8,0:0:0:0:
256,192,119105,1,0,0:0:0:0:
256,192,119273,1,0,0:0:0:0:
256,192,119357,1,8,0:0:0:0:
256,192,119442,1,8,0:0:0:0:
256,192,119526,1,0,0:0:0:0:
256,192,119694,1,8,0:0:0:0:
256,192,119779,1,8,0:0:0:0:
256,192,119863,1,8,0:0:0:0:
256,192,119947,1,8,0:0:0:0:
256,192,120032,1,0,0:0:0:0:
256,192,120144,1,0,0:0:0:0:
256,192,120256,1,0,0:0:0:0:
256,192,120369,1,8,0:0:0:0:
256,192,120453,1,8,0:0:0:0:
256,192,120537,1,0,0:0:0:0:
256,192,120621,1,8,0:0:0:0:
256,192,120706,1,0,0:0:0:0:
256,192,120874,1,0,0:0:0:0:
256,192,121043,1,8,0:0:0:0:
256,192,121211,1,0,0:0:0:0:
256,192,121380,1,8,0:0:0:0:
256,192,121548,1,0,0:0:0:0:
256,192,121633,1,0,0:0:0:0:
256,192,121717,1,8,0:0:0:0:
256,192,121829,1,0,0:0:0:0:
256,192,121942,1,0,0:0:0:0:
256,192,122054,1,8,0:0:0:0:
256,192,122223,1,8,0:0:0:0:
256,192,122391,1,8,0:0:0:0:
256,192,122475,1,8,0:0:0:0:
256,192,122560,1,8,0:0:0:0:
256,192,122644,1,8,0:0:0:0:
256,192,122728,1,0,0:0:0:0:
256,192,122897,1,8,0:0:0:0:
256,192,122981,1,8,0:0:0:0:
256,192,123065,1,0,0:0:0:0:
256,192,123149,1,0,0:0:0:0:
256,192,123234,1,8,0:0:0:0:
256,192,123318,1,8,0:0:0:0:
256,192,123402,1,0,0:0:0:0:
256,192,123571,1,8,0:0:0:0:
256,192,123655,1,0,0:0:0:0:
256,192,123739,1,0,0:0:0:0:
256,192,123908,1,8,0:0:0:0:
256,192,123992,1,0,0:0:0:0:
448,384,124161,1,0,0:0:0:0:
448,384,124245,1,8,0:0:0:0:
256,192,124329,1,8,0:0:0:0:
256,192,124414,1,0,0:0:0:0:
256,192,124582,1,8,0:0:0:0:
256,192,124666,1,0,0:0:0:0:
256,192,124751,1,8,0:0:0:0:
256,192,124835,1,8,0:0:0:0:
256,192,124919,1,0,0:0:0:0:
256,192,125088,1,8,0:0:0:0:
256,192,125172,1,8,0:0:0:0:
256,192,125256,1,8,0:0:0:0:
256,192,125340,1,8,0:0:0:0:
256,192,125425,1,0,0:0:0:0:
256,192,125509,1,0,0:0:0:0:
256,192,125593,1,0,0:0:0:0:
256,192,125678,1,0,0:0:0:0:
256,192,125762,1,8,0:0:0:0:
256,192,125930,1,8,0:0:0:0:
256,192,126099,1,0,0:0:0:0:
256,192,126183,1,8,0:0:0:0:
256,192,126267,1,0,0:0:0:0:
256,192,126352,1,0,0:0:0:0:
256,192,126436,1,8,0:0:0:0:
256,192,126548,1,0,0:0:0:0:
256,192,126661,1,0,0:0:0:0:
256,192,126773,12,0,127279,0:0:0:0:
256,192,127447,5,0,0:0:0:0:
256,192,127560,1,0,0:0:0:0:
256,192,127672,1,8,0:0:0:0:
256,192,127784,1,0,0:0:0:0:
256,192,127897,1,8,0:0:0:0:
256,192,128009,1,8,0:0:0:0:
256,192,128121,1,4,0:0:0:0:
256,192,128290,1,0,0:0:0:0:
256,192,128374,1,8,0:0:0:0:
256,192,128543,1,8,0:0:0:0:
256,192,128627,1,0,0:0:0:0:
256,192,128711,1,0,0:0:0:0:
256,192,128880,1,8,0:0:0:0:
256,192,128964,1,0,0:0:0:0:
256,192,129048,1,0,0:0:0:0:
256,192,129133,1,8,0:0:0:0:
256,192,129217,1,8,0:0:0:0:
256,192,129301,1,8,0:0:0:0:
256,192,129385,1,8,0:0:0:0:
256,192,129470,1,0,0:0:0:0:
256,192,129554,1,8,0:0:0:0:
256,192,129638,1,0,0:0:0:0:
256,192,129723,1,0,0:0:0:0:
256,192,129807,1,8,0:0:0:0:
256,192,129919,1,8,0:0:0:0:
256,192,130032,1,8,0:0:0:0:
256,192,130144,1,0,0:0:0:0:
256,192,130312,1,0,0:0:0:0:
256,192,130481,1,8,0:0:0:0:
256,192,130565,1,0,0:0:0:0:
256,192,130649,1,8,0:0:0:0:
256,192,130734,1,8,0:0:0:0:
256,192,130818,1,0,0:0:0:0:
256,192,130930,1,0,0:0:0:0:
256,192,131043,1,0,0:0:0:0:
256,192,131239,1,8,0:0:0:0:
256,192,131324,1,0,0:0:0:0:
256,192,131492,1,8,0:0:0:0:
256,192,131605,1,0,0:0:0:0:
256,192,131717,1,0,0:0:0:0:
256,192,131829,1,8,0:0:0:0:
256,192,131998,1,8,0:0:0:0:
256,192,132166,1,0,0:0:0:0:
256,192,132234,1,0,0:0:0:0:
256,192,132301,1,8,0:0:0:0:
256,192,132369,1,0,0:0:0:0:
256,192,132503,1,8,0:0:0:0:
256,192,132560,1,8,0:0:0:0:
256,192,132616,1,0,0:0:0:0:
256,192,132672,1,0,0:0:0:0:
256,192,132728,1,8,0:0:0:0:
256,192,132840,1,0,0:0:0:0:
256,192,132889,1,0,0:0:0:0:
256,192,132937,1,0,0:0:0:0:
256,192,132985,1,8,0:0:0:0:
256,192,133033,1,8,0:0:0:0:
256,192,133081,1,0,0:0:0:0:
256,192,133178,1,8,0:0:0:0:
256,192,133220,1,8,0:0:0:0:
256,192,133262,1,0,0:0:0:0:
256,192,133346,1,0,0:0:0:0:
256,192,133388,1,0,0:0:0:0:
256,192,133430,1,8,0:0:0:0:
256,192,133515,1,4,0:0:0:0:
256,192,133852,1,8,0:0:0:0:
256,192,134189,1,4,0:0:0:0:
256,192,134526,1,8,0:0:0:0:
256,192,134694,1,8,0:0:0:0:
256,192,134863,1,4,0:0:0:0:
256,192,135032,1,0,0:0:0:0:
256,192,135200,1,8,0:0:0:0:
256,192,135312,1,8,0:0:0:0:
256,192,135425,1,8,0:0:0:0:
256,192,135537,1,4,0:0:0:0:
256,192,135706,1,0,0:0:0:0:
256,192,135874,1,8,0:0:0:0:
256,192,135958,1,8,0:0:0:0:
256,192,136043,1,8,0:0:0:0:
256,192,136127,1,8,0:0:0:0:
256,192,136211,1,0,0:0:0:0:
256,192,136296,1,8,0:0:0:0:
256,192,136464,1,8,0:0:0:0:
256,192,136548,1,0,0:0:0:0:
256,192,136717,1,8,0:0:0:0:
256,192,136801,1,0,0:0:0:0:
256,192,136885,1,0,0:0:0:0:
256,192,137054,1,8,0:0:0:0:
256,192,137138,1,8,0:0:0:0:
256,192,137223,1,0,0:0:0:0:
256,192,137307,1,0,0:0:0:0:
256,192,137391,1,8,0:0:0:0:
256,192,137475,1,8,0:0:0:0:
256,192,137517,1,8,0:0:0:0:
256,192,137560,1,0,0:0:0:0:
256,192,137644,1,0,0:0:0:0:
256,192,137728,1,8,0:0:0:0:
256,192,137784,1,0,0:0:0:0:
256,192,137840,1,0,0:0:0:0:
256,192,137897,1,8,0:0:0:0:
256,192,137981,1,8,0:0:0:0:
256,192,138023,1,8,0:0:0:0:
256,192,138065,1,0,0:0:0:0:
256,192,138149,1,8,0:0:0:0:
256,192,138234,1,0,0:0:0:0:
256,192,138318,1,0,0:0:0:0:
256,192,138402,1,8,0:0:0:0:
256,192,138444,1,8,0:0:0:0:
256,192,138487,1,8,0:0:0:0:
256,192,138571,1,4,0:0:0:0:
