osu file format v14

[General]
AudioFilename: w.mp3
AudioLeadIn: 0
PreviewTime: 25971
Countdown: 0
SampleSet: Normal
StackLeniency: 0.7
Mode: 1
LetterboxInBreaks: 0
WidescreenStoryboard: 1

[Editor]
DistanceSpacing: 0.9
BeatDivisor: 4
GridSize: 32
TimelineZoom: 0.7

[Metadata]
Title:Pangaea Girls (Magic Feeling)
TitleUnicode:Pangaea Girls (Magic Feeling)
Artist:Candy Claws
ArtistUnicode:Candy Claws
Creator:meiqth
Version:Futsuu (Inception)
Source:
Tags:Ceres & Calypso in the Deep Time and Pangea shoegaze psychedelic neo-psychedelia rock english dream pop
BeatmapID:4161804
BeatmapSetID:2001463

[Difficulty]
HPDrainRate:7
CircleSize:2
OverallDifficulty:4
ApproachRate:10
SliderMultiplier:1.1
SliderTickRate:1

[Events]
//Background and Video events
0,0,"wallpaperflare.com_wallpaper.jpg",0,0
//Break Periods
//Storyboard Layer 0 (Background)
//Storyboard Layer 1 (Fail)
//Storyboard Layer 2 (Pass)
//Storyboard Layer 3 (Foreground)
//Storyboard Layer 4 (Overlay)
//Storyboard Sound Samples

[TimingPoints]
15,500,4,1,0,60,1,8
15,-33.3333333333333,4,1,0,60,0,0
96,500,4,1,0,60,1,0
7471,-83.3333333333333,4,1,0,100,0,0
28096,-80,4,1,0,100,0,1
40096,-80,4,1,0,100,0,0
41633,-80.3212851405623,4,1,0,100,0,0
43966,-83.3333333333333,4,1,0,100,0,0
64096,-80,4,1,0,100,0,1
76096,-80,4,1,0,100,0,0
77596,-83.3333333333333,4,1,0,75,0,0
92595,-83.3333333333333,4,1,0,93,0,0
93095,-83.3333333333333,4,1,0,95,0,0
93595,-83.3333333333333,4,1,0,98,0,0
93845,-83.3333333333333,4,1,0,99,0,0
94096,-83.3333333333333,4,1,0,100,0,0
110096,-80.6451612903226,4,1,0,100,0,1
122096,-80.6451612903226,4,1,0,100,0,0
123596,-83.3333333333333,4,1,0,75,0,0
138533,-83.3333333333333,4,1,0,93,0,0
139033,-83.3333333333333,4,1,0,95,0,0
139533,-83.3333333333333,4,1,0,98,0,0
139783,-83.3333333333333,4,1,0,99,0,0
156096,500,4,1,0,100,1,8
158096,500,4,1,0,100,1,1
158096,-75.7575757575758,4,1,0,100,0,1
182096,-75.7575757575758,4,1,0,100,0,0

[HitObjects]
256,192,7596,5,8,0:0:0:0:
256,192,8096,1,4,0:0:0:0:
256,192,8846,1,8,0:0:0:0:
256,192,9096,1,0,0:0:0:0:
256,192,9596,1,8,0:0:0:0:
256,192,9846,1,8,0:0:0:0:
256,192,10096,1,0,0:0:0:0:
256,192,10596,1,0,0:0:0:0:
256,192,11096,1,8,0:0:0:0:
256,192,11346,1,0,0:0:0:0:
256,192,11596,1,8,0:0:0:0:
256,192,12096,1,0,0:0:0:0:
256,192,12846,1,0,0:0:0:0:
256,192,13096,1,8,0:0:0:0:
256,192,13596,1,0,0:0:0:0:
256,192,14096,1,8,0:0:0:0:
256,192,14846,1,8,0:0:0:0:
256,192,15096,1,0,0:0:0:0:
256,192,15596,1,0,0:0:0:0:
256,192,16096,1,8,0:0:0:0:
256,192,16846,1,0,0:0:0:0:
256,192,17096,1,8,0:0:0:0:
256,192,17596,1,0,0:0:0:0:
256,192,17846,1,8,0:0:0:0:
256,192,18096,1,0,0:0:0:0:
256,192,18596,1,0,0:0:0:0:
256,192,19096,1,8,0:0:0:0:
256,192,19346,1,8,0:0:0:0:
256,192,19596,1,8,0:0:0:0:
256,192,20096,1,8,0:0:0:0:
256,192,20846,1,8,0:0:0:0:
256,192,21096,1,0,0:0:0:0:
256,192,21596,1,0,0:0:0:0:
256,192,22096,1,8,0:0:0:0:
256,192,22846,1,0,0:0:0:0:
256,192,23096,1,8,0:0:0:0:
256,192,23596,1,0,0:0:0:0:
256,192,24096,1,8,0:0:0:0:
256,192,24596,1,8,0:0:0:0:
256,192,25096,1,0,0:0:0:0:
256,192,25596,1,8,0:0:0:0:
256,192,26096,1,4,0:0:0:0:
256,192,26596,1,4,0:0:0:0:
256,192,27096,1,4,0:0:0:0:
256,192,28096,1,12,0:0:0:0:
256,192,28596,1,8,0:0:0:0:
256,192,29096,1,8,0:0:0:0:
256,192,29596,1,0,0:0:0:0:
256,192,29846,1,8,0:0:0:0:
256,192,30096,1,0,0:0:0:0:
256,192,30596,1,0,0:0:0:0:
256,192,31096,1,8,0:0:0:0:
256,192,31471,1,8,0:0:0:0:
256,192,31846,1,8,0:0:0:0:
256,192,32096,1,0,0:0:0:0:
256,192,32596,1,0,0:0:0:0:
256,192,33096,1,8,0:0:0:0:
256,192,33596,1,8,0:0:0:0:
256,192,33846,1,0,0:0:0:0:
256,192,34096,1,8,0:0:0:0:
256,192,34596,1,0,0:0:0:0:
256,192,35096,1,8,0:0:0:0:
256,192,35471,1,0,0:0:0:0:
256,192,35846,1,0,0:0:0:0:
256,192,36096,1,8,0:0:0:0:
256,192,36596,1,8,0:0:0:0:
256,192,37096,1,8,0:0:0:0:
256,192,37596,1,0,0:0:0:0:
256,192,37846,1,8,0:0:0:0:
256,192,38096,1,0,0:0:0:0:
256,192,38596,1,0,0:0:0:0:
256,192,39096,1,8,0:0:0:0:
256,192,39346,1,8,0:0:0:0:
256,192,39596,1,0,0:0:0:0:
256,192,39846,1,0,0:0:0:0:
256,192,40096,1,12,0:0:0:0:
256,192,44096,1,4,0:0:0:0:
256,192,44846,1,8,0:0:0:0:
256,192,45096,1,0,0:0:0:0:
256,192,45596,1,8,0:0:0:0:
256,192,45846,1,0,0:0:0:0:
256,192,46096,1,8,0:0:0:0:
256,192,46596,1,0,0:0:0:0:
256,192,47096,1,0,0:0:0:0:
256,192,47346,1,0,0:0:0:0:
256,192,47596,1,0,0:0:0:0:
256,192,48096,1,8,0:0:0:0:
256,192,48846,1,8,0:0:0:0:
256,192,49096,1,0,0:0:0:0:
256,192,49596,1,8,0:0:0:0:
256,192,50096,1,0,0:0:0:0:
256,192,50846,1,8,0:0:0:0:
256,192,51096,1,0,0:0:0:0:
256,192,51596,1,0,0:0:0:0:
256,192,52096,1,8,0:0:0:0:
256,192,52846,1,0,0:0:0:0:
256,192,53096,1,8,0:0:0:0:
256,192,53596,1,0,0:0:0:0:
256,192,53846,1,8,0:0:0:0:
256,192,54096,1,8,0:0:0:0:
256,192,54596,1,0,0:0:0:0:
256,192,55096,1,8,0:0:0:0:
256,192,55346,1,0,0:0:0:0:
256,192,55596,1,8,0:0:0:0:
256,192,56096,1,0,0:0:0:0:
256,192,56846,1,8,0:0:0:0:
256,192,57096,1,0,0:0:0:0:
256,192,57596,1,0,0:0:0:0:
256,192,58096,1,8,0:0:0:0:
256,192,58846,1,8,0:0:0:0:
256,192,59096,1,0,0:0:0:0:
256,192,59596,1,8,0:0:0:0:
256,192,60096,1,0,0:0:0:0:
256,192,60596,1,0,0:0:0:0:
256,192,61096,1,8,0:0:0:0:
256,192,61596,1,8,0:0:0:0:
256,192,62096,1,4,0:0:0:0:
256,192,62596,1,4,0:0:0:0:
256,192,63096,1,4,0:0:0:0:
256,192,64096,1,12,0:0:0:0:
256,192,64596,1,8,0:0:0:0:
256,192,65096,1,8,0:0:0:0:
256,192,65596,1,0,0:0:0:0:
256,192,65846,1,8,0:0:0:0:
256,192,66096,1,0,0:0:0:0:
256,192,66596,1,0,0:0:0:0:
256,192,67096,1,8,0:0:0:0:
256,192,67471,1,0,0:0:0:0:
256,192,67846,1,0,0:0:0:0:
256,192,68096,1,8,0:0:0:0:
256,192,68596,1,0,0:0:0:0:
256,192,69096,1,0,0:0:0:0:
256,192,69596,1,8,0:0:0:0:
256,192,69846,1,8,0:0:0:0:
256,192,70096,1,0,0:0:0:0:
256,192,70596,1,8,0:0:0:0:
256,192,71096,1,0,0:0:0:0:
256,192,71471,1,0,0:0:0:0:
256,192,71846,1,0,0:0:0:0:
256,192,72096,1,8,0:0:0:0:
256,192,72596,1,8,0:0:0:0:
256,192,73096,1,8,0:0:0:0:
256,192,73596,1,0,0:0:0:0:
256,192,73846,1,0,0:0:0:0:
256,192,74096,1,8,0:0:0:0:
256,192,74596,1,0,0:0:0:0:
256,192,75096,1,8,0:0:0:0:
256,192,75346,1,8,0:0:0:0:
256,192,75596,1,0,0:0:0:0:
256,192,75846,1,0,0:0:0:0:
256,192,76096,1,12,0:0:0:0:
256,192,78096,5,8,0:0:0:0:
256,192,79096,1,0,0:0:0:0:
256,192,79596,1,0,0:0:0:0:
256,192,80096,1,8,0:0:0:0:
256,192,81096,1,8,0:0:0:0:
256,192,81596,1,0,0:0:0:0:
256,192,82096,1,8,0:0:0:0:
256,192,82596,1,8,0:0:0:0:
256,192,83096,1,0,0:0:0:0:
256,192,83596,1,0,0:0:0:0:
256,192,84096,1,8,0:0:0:0:
256,192,85096,1,0,0:0:0:0:
256,192,86096,1,8,0:0:0:0:
256,192,86471,1,8,0:0:0:0:
256,192,86846,1,8,0:0:0:0:
256,192,87096,1,0,0:0:0:0:
256,192,88096,1,8,0:0:0:0:
256,192,88471,1,8,0:0:0:0:
256,192,88846,1,8,0:0:0:0:
256,192,89096,1,0,0:0:0:0:
256,192,90096,1,8,0:0:0:0:
256,192,90471,1,8,0:0:0:0:
256,192,90846,1,8,0:0:0:0:
256,192,91096,1,0,0:0:0:0:
256,192,92096,1,8,0:0:0:0:
256,192,92596,1,0,0:0:0:0:
256,192,93096,1,0,0:0:0:0:
256,192,93596,1,0,0:0:0:0:
256,192,93846,1,0,0:0:0:0:
256,192,94096,1,12,0:0:0:0:
256,192,95096,1,8,0:0:0:0:
256,192,95471,1,8,0:0:0:0:
256,192,95846,1,8,0:0:0:0:
256,192,96096,1,0,0:0:0:0:
256,192,96596,1,0,0:0:0:0:
256,192,97096,1,8,0:0:0:0:
256,192,97471,1,0,0:0:0:0:
256,192,97846,1,0,0:0:0:0:
256,192,98096,1,8,0:0:0:0:
256,192,98596,1,8,0:0:0:0:
256,192,99096,1,0,0:0:0:0:
256,192,99471,1,0,0:0:0:0:
256,192,99846,1,0,0:0:0:0:
256,192,100096,1,8,0:0:0:0:
256,192,100596,1,8,0:0:0:0:
256,192,101096,1,0,0:0:0:0:
256,192,102096,1,8,0:0:0:0:
256,192,102596,1,8,0:0:0:0:
256,192,103096,1,0,0:0:0:0:
256,192,103471,1,8,0:0:0:0:
256,192,103846,1,8,0:0:0:0:
256,192,104096,1,0,0:0:0:0:
256,192,104596,1,0,0:0:0:0:
256,192,105096,1,8,0:0:0:0:
256,192,105471,1,0,0:0:0:0:
256,192,105846,1,0,0:0:0:0:
256,192,106096,1,8,0:0:0:0:
256,192,106596,1,8,0:0:0:0:
256,192,107096,1,8,0:0:0:0:
256,192,107596,1,8,0:0:0:0:
256,192,108096,1,4,0:0:0:0:
256,192,108596,1,4,0:0:0:0:
256,192,109096,1,4,0:0:0:0:
256,192,110096,1,12,0:0:0:0:
256,192,110596,1,8,0:0:0:0:
256,192,111096,1,8,0:0:0:0:
256,192,111596,1,0,0:0:0:0:
256,192,111846,1,0,0:0:0:0:
256,192,112096,1,8,0:0:0:0:
256,192,112596,1,0,0:0:0:0:
256,192,113096,1,0,0:0:0:0:
256,192,113471,1,8,0:0:0:0:
256,192,113846,1,8,0:0:0:0:
256,192,114096,1,0,0:0:0:0:
256,192,114596,1,0,0:0:0:0:
256,192,115096,1,0,0:0:0:0:
256,192,115596,1,8,0:0:0:0:
256,192,115846,1,8,0:0:0:0:
256,192,116096,1,0,0:0:0:0:
256,192,116596,1,0,0:0:0:0:
256,192,117096,1,8,0:0:0:0:
256,192,117471,1,8,0:0:0:0:
256,192,117846,1,0,0:0:0:0:
256,192,118096,1,8,0:0:0:0:
256,192,118596,1,8,0:0:0:0:
256,192,119096,1,8,0:0:0:0:
256,192,119596,1,0,0:0:0:0:
256,192,119846,1,8,0:0:0:0:
256,192,120096,1,0,0:0:0:0:
256,192,120596,1,8,0:0:0:0:
256,192,121096,1,8,0:0:0:0:
256,192,121346,1,8,0:0:0:0:
256,192,121596,1,0,0:0:0:0:
256,192,121846,1,0,0:0:0:0:
256,192,122096,1,12,0:0:0:0:
256,192,124096,5,0,0:0:0:0:
256,192,125096,1,0,0:0:0:0:
256,192,126096,1,8,0:0:0:0:
256,192,127096,1,0,0:0:0:0:
256,192,127596,1,0,0:0:0:0:
256,192,128096,1,8,0:0:0:0:
256,192,128596,1,0,0:0:0:0:
256,192,129096,1,8,0:0:0:0:
256,192,130096,1,8,0:0:0:0:
256,192,130471,1,0,0:0:0:0:
256,192,131721,1,0,0:0:0:0:
256,192,132096,1,8,0:0:0:0:
256,192,133096,1,8,0:0:0:0:
256,192,133471,1,0,0:0:0:0:
256,192,133846,1,0,0:0:0:0:
256,192,134221,1,8,0:0:0:0:
256,192,138096,1,8,0:0:0:0:
256,192,138596,1,8,0:0:0:0:
256,192,139096,1,0,0:0:0:0:
256,192,139596,1,8,0:0:0:0:
256,192,139846,1,0,0:0:0:0:
256,192,140096,1,12,0:0:0:0:
256,192,140846,1,8,0:0:0:0:
256,192,141096,1,0,0:0:0:0:
256,192,141471,1,0,0:0:0:0:
256,192,141846,1,0,0:0:0:0:
256,192,142096,1,8,0:0:0:0:
256,192,142596,1,8,0:0:0:0:
256,192,143096,1,0,0:0:0:0:
256,192,143471,1,0,0:0:0:0:
256,192,143846,1,8,0:0:0:0:
256,192,144096,1,0,0:0:0:0:
256,192,144596,1,0,0:0:0:0:
256,192,144846,1,0,0:0:0:0:
256,192,145096,1,8,0:0:0:0:
256,192,145596,1,8,0:0:0:0:
256,192,145846,1,0,0:0:0:0:
256,192,146346,1,0,0:0:0:0:
256,192,146596,1,8,0:0:0:0:
256,192,147096,1,0,0:0:0:0:
256,192,148096,1,8,0:0:0:0:
256,192,148846,1,0,0:0:0:0:
256,192,149096,1,0,0:0:0:0:
256,192,149471,1,8,0:0:0:0:
256,192,149846,1,8,0:0:0:0:
256,192,150096,1,0,0:0:0:0:
256,192,150596,1,0,0:0:0:0:
256,192,151096,1,8,0:0:0:0:
256,192,151471,1,8,0:0:0:0:
256,192,151846,1,8,0:0:0:0:
256,192,152096,1,0,0:0:0:0:
256,192,152596,1,0,0:0:0:0:
256,192,153096,1,0,0:0:0:0:
256,192,153596,1,0,0:0:0:0:
256,192,154096,1,12,0:0:0:0:
256,192,154596,1,12,0:0:0:0:
256,192,155096,1,12,0:0:0:0:
256,192,158096,5,12,0:0:0:0:
256,192,158596,1,8,0:0:0:0:
256,192,159096,1,8,0:0:0:0:
256,192,159596,1,0,0:0:0:0:
256,192,159846,1,8,0:0:0:0:
256,192,160096,1,0,0:0:0:0:
256,192,160596,1,0,0:0:0:0:
256,192,161096,1,0,0:0:0:0:
256,192,161471,1,8,0:0:0:0:
256,192,161846,1,8,0:0:0:0:
256,192,162096,1,0,0:0:0:0:
256,192,162596,1,0,0:0:0:0:
256,192,163096,1,8,0:0:0:0:
256,192,163596,1,0,0:0:0:0:
256,192,163846,1,8,0:0:0:0:
256,192,164096,1,0,0:0:0:0:
256,192,164596,1,8,0:0:0:0:
256,192,165096,1,0,0:0:0:0:
256,192,165471,1,0,0:0:0:0:
256,192,165846,1,8,0:0:0:0:
256,192,166096,1,0,0:0:0:0:
256,192,166596,1,0,0:0:0:0:
256,192,167096,1,0,0:0:0:0:
256,192,167596,1,8,0:0:0:0:
256,192,167846,1,8,0:0:0:0:
256,192,168096,1,0,0:0:0:0:
256,192,168596,1,8,0:0:0:0:
256,192,168846,1,0,0:0:0:0:
256,192,169096,1,8,0:0:0:0:
256,192,169596,1,0,0:0:0:0:
256,192,170096,1,8,0:0:0:0:
256,192,170596,1,8,0:0:0:0:
256,192,171096,1,8,0:0:0:0:
256,192,171596,1,8,0:0:0:0:
256,192,171846,1,8,0:0:0:0:
256,192,172096,1,0,0:0:0:0:
256,192,172596,1,0,0:0:0:0:
256,192,172846,1,8,0:0:0:0:
256,192,173096,1,0,0:0:0:0:
256,192,173471,1,0,0:0:0:0:
256,192,173846,1,8,0:0:0:0:
256,192,174096,1,0,0:0:0:0:
256,192,174596,1,8,0:0:0:0:
256,192,175096,1,8,0:0:0:0:
256,192,175596,1,0,0:0:0:0:
256,192,175846,1,0,0:0:0:0:
256,192,176096,1,8,0:0:0:0:
256,192,176596,1,8,0:0:0:0:
256,192,176846,1,0,0:0:0:0:
256,192,177096,1,8,0:0:0:0:
256,192,177471,1,8,0:0:0:0:
256,192,177846,1,8,0:0:0:0:
256,192,178096,1,0,0:0:0:0:
256,192,178596,1,8,0:0:0:0:
256,192,179096,1,8,0:0:0:0:
256,192,179596,1,0,0:0:0:0:
256,192,179846,1,8,0:0:0:0:
256,192,180096,1,0,0:0:0:0:
256,192,180596,1,8,0:0:0:0:
256,192,181096,1,8,0:0:0:0:
256,192,181346,1,8,0:0:0:0:
256,192,181596,1,0,0:0:0:0:
256,192,181846,1,0,0:0:0:0:
256,192,182096,1,12,0:0:0:0:
