osu file format v14

[General]
AudioFilename: audio.mp3
AudioLeadIn: 0
PreviewTime: 79999
Countdown: 0
SampleSet: Soft
StackLeniency: 0.7
Mode: 3
LetterboxInBreaks: 0
SpecialStyle: 0
WidescreenStoryboard: 0

[Editor]
Bookmarks: 12631,46315,68771,79999,102455,124911,136139,147367,169824,192280,214736,225788
DistanceSpacing: 1
BeatDivisor: 4
GridSize: 32
TimelineZoom: 1.6

[Metadata]
Title:Dust Powered Sniper Rifle
TitleUnicode:Dust Powered Sniper Rifle
Artist:Candle
ArtistUnicode:Candle
Creator:Irone OSU
Version:Crystallized
Source:
Tags:electronic instrumental future bass future core drum and bass dnb d&b hybrid CandleKing10
BeatmapID:4478355
BeatmapSetID:2129710

[Difficulty]
HPDrainRate:8
CircleSize:7
OverallDifficulty:8
ApproachRate:5
SliderMultiplier:1.4
SliderTickRate:1

[Events]
//Background and Video events
0,0,"79898339_p0.jpg",0,0
//Break Periods
//Storyboard Layer 0 (Background)
//Storyboard Layer 1 (Fail)
//Storyboard Layer 2 (Pass)
//Storyboard Layer 3 (Foreground)
//Storyboard Layer 4 (Overlay)
//Storyboard Sound Samples

[TimingPoints]
1413,350.877192982456,4,2,1,69,1,0
80009,-100,4,2,1,69,0,1
124921,-100,4,2,1,69,0,0

[HitObjects]
329,192,12641,5,0,0:0:0:0:
329,192,12816,1,0,0:0:0:0:
329,192,12991,1,0,0:0:0:0:
329,192,13167,1,0,0:0:0:0:
329,192,13342,1,0,0:0:0:0:
329,192,13518,1,0,0:0:0:0:
329,192,13693,1,0,0:0:0:0:
329,192,13869,1,0,0:0:0:0:
329,192,14044,1,0,0:0:0:0:
329,192,14220,1,0,0:0:0:0:
329,192,14395,1,0,0:0:0:0:
329,192,14570,1,0,0:0:0:0:
329,192,14746,1,0,0:0:0:0:
109,192,14746,1,0,0:0:0:0:
109,192,14921,1,0,0:0:0:0:
109,192,15097,1,0,0:0:0:0:
109,192,15272,1,0,0:0:0:0:
402,192,15272,1,0,0:0:0:0:
402,192,15448,1,0,0:0:0:0:
402,192,15623,1,0,0:0:0:0:
402,192,15798,1,0,0:0:0:0:
402,192,15974,1,0,0:0:0:0:
402,192,16149,1,0,0:0:0:0:
402,192,16325,1,0,0:0:0:0:
402,192,16500,1,0,0:0:0:0:
402,192,16676,1,0,0:0:0:0:
402,192,16851,1,0,0:0:0:0:
402,192,17027,1,0,0:0:0:0:
402,192,17202,1,0,0:0:0:0:
402,192,17377,1,0,0:0:0:0:
402,192,17553,1,0,0:0:0:0:
182,192,17553,1,0,0:0:0:0:
182,192,17728,1,0,0:0:0:0:
182,192,17904,1,0,0:0:0:0:
182,192,18079,1,0,0:0:0:0:
329,192,18079,1,0,0:0:0:0:
329,192,18255,1,0,0:0:0:0:
329,192,18430,1,0,0:0:0:0:
329,192,18605,1,0,0:0:0:0:
329,192,18781,1,0,0:0:0:0:
329,192,18956,1,0,0:0:0:0:
329,192,19132,1,0,0:0:0:0:
329,192,19307,1,0,0:0:0:0:
329,192,19483,1,0,0:0:0:0:
329,192,19658,1,0,0:0:0:0:
329,192,19834,1,0,0:0:0:0:
329,192,20009,1,0,0:0:0:0:
329,192,20184,1,0,0:0:0:0:
109,192,20360,1,0,0:0:0:0:
329,192,20360,1,0,0:0:0:0:
109,192,20535,1,0,0:0:0:0:
109,192,20711,1,0,0:0:0:0:
109,192,20886,1,0,0:0:0:0:
402,192,20886,1,0,0:0:0:0:
402,192,21062,1,0,0:0:0:0:
402,192,21237,1,0,0:0:0:0:
402,192,21412,1,0,0:0:0:0:
402,192,21588,1,0,0:0:0:0:
402,192,21763,1,0,0:0:0:0:
402,192,21939,1,0,0:0:0:0:
402,192,22114,1,0,0:0:0:0:
402,192,22290,1,0,0:0:0:0:
402,192,22465,1,0,0:0:0:0:
402,192,22641,1,0,0:0:0:0:
402,192,22816,1,0,0:0:0:0:
402,192,22991,1,0,0:0:0:0:
402,192,23167,1,0,0:0:0:0:
182,192,23167,1,0,0:0:0:0:
329,192,23255,1,0,0:0:0:0:
182,192,23342,1,0,0:0:0:0:
36,192,23430,1,0,0:0:0:0:
182,192,23518,1,0,0:0:0:0:
475,192,23605,1,0,0:0:0:0:
182,192,23693,1,0,0:0:0:0:
329,192,23693,1,0,0:0:0:0:
36,192,23781,1,0,0:0:0:0:
329,192,23869,1,0,0:0:0:0:
475,192,23869,1,0,0:0:0:0:
402,192,23869,1,0,0:0:0:0:
109,192,23869,1,0,0:0:0:0:
182,192,23956,1,0,0:0:0:0:
256,192,24044,1,0,0:0:0:0:
402,192,24132,1,0,0:0:0:0:
329,192,24220,1,0,0:0:0:0:
182,192,24307,1,0,0:0:0:0:
109,192,24395,1,0,0:0:0:0:
475,192,24395,1,0,0:0:0:0:
36,192,24395,1,0,0:0:0:0:
402,192,24483,1,0,0:0:0:0:
329,192,24570,1,0,0:0:0:0:
182,192,24658,1,0,0:0:0:0:
36,192,24746,1,0,0:0:0:0:
256,192,24834,1,0,0:0:0:0:
402,192,24921,1,0,0:0:0:0:
475,192,24921,1,0,0:0:0:0:
109,192,24921,1,0,0:0:0:0:
182,192,25009,1,0,0:0:0:0:
256,192,25097,1,0,0:0:0:0:
329,192,25184,1,0,0:0:0:0:
475,192,25272,1,0,0:0:0:0:
36,192,25272,1,0,0:0:0:0:
109,192,25272,1,0,0:0:0:0:
256,192,25360,1,0,0:0:0:0:
329,192,25448,1,0,0:0:0:0:
402,192,25535,1,0,0:0:0:0:
109,192,25623,1,0,0:0:0:0:
256,192,25711,1,0,0:0:0:0:
329,192,25798,1,0,0:0:0:0:
36,192,25798,1,0,0:0:0:0:
475,192,25798,1,0,0:0:0:0:
109,192,25886,1,0,0:0:0:0:
182,192,25974,1,0,0:0:0:0:
329,192,25974,1,0,0:0:0:0:
475,192,26062,1,0,0:0:0:0:
256,192,26149,1,0,0:0:0:0:
402,192,26237,1,0,0:0:0:0:
182,192,26325,1,0,0:0:0:0:
109,192,26325,1,0,0:0:0:0:
36,192,26325,1,0,0:0:0:0:
475,192,26412,1,0,0:0:0:0:
329,192,26500,1,0,0:0:0:0:
182,192,26500,1,0,0:0:0:0:
402,192,26588,1,0,0:0:0:0:
256,192,26676,1,0,0:0:0:0:
36,192,26676,1,0,0:0:0:0:
109,192,26676,1,0,0:0:0:0:
402,192,26763,1,0,0:0:0:0:
329,192,26851,1,0,0:0:0:0:
256,192,26939,1,0,0:0:0:0:
402,192,27027,1,0,0:0:0:0:
182,192,27114,1,0,0:0:0:0:
475,192,27202,1,0,0:0:0:0:
109,192,27202,1,0,0:0:0:0:
36,192,27202,1,0,0:0:0:0:
256,192,27290,1,0,0:0:0:0:
402,192,27377,1,0,0:0:0:0:
329,192,27465,1,0,0:0:0:0:
182,192,27553,1,0,0:0:0:0:
36,192,27641,1,0,0:0:0:0:
256,192,27728,1,0,0:0:0:0:
402,192,27728,1,0,0:0:0:0:
475,192,27728,1,0,0:0:0:0:
182,192,27816,1,0,0:0:0:0:
329,192,27904,1,0,0:0:0:0:
182,192,27991,1,0,0:0:0:0:
402,192,28079,1,0,0:0:0:0:
36,192,28079,1,0,0:0:0:0:
109,192,28079,1,0,0:0:0:0:
256,192,28167,1,0,0:0:0:0:
329,192,28255,1,0,0:0:0:0:
475,192,28342,1,0,0:0:0:0:
182,192,28430,1,0,0:0:0:0:
256,192,28518,1,0,0:0:0:0:
402,192,28605,1,0,0:0:0:0:
475,192,28605,1,0,0:0:0:0:
36,192,28605,1,0,0:0:0:0:
109,192,28693,1,0,0:0:0:0:
182,192,28781,1,0,0:0:0:0:
475,192,28781,1,0,0:0:0:0:
329,192,28869,1,0,0:0:0:0:
402,192,28956,1,0,0:0:0:0:
182,192,29044,1,0,0:0:0:0:
36,192,29132,1,0,0:0:0:0:
475,192,29132,1,0,0:0:0:0:
256,192,29132,1,0,0:0:0:0:
329,192,29220,1,0,0:0:0:0:
182,192,29307,1,0,0:0:0:0:
36,192,29307,1,0,0:0:0:0:
256,192,29395,1,0,0:0:0:0:
109,192,29483,1,0,0:0:0:0:
475,192,29483,1,0,0:0:0:0:
402,192,29483,1,0,0:0:0:0:
256,192,29570,1,0,0:0:0:0:
182,192,29658,1,0,0:0:0:0:
109,192,29746,1,0,0:0:0:0:
475,192,29834,1,0,0:0:0:0:
329,192,29921,1,0,0:0:0:0:
256,192,30009,1,0,0:0:0:0:
109,192,30009,1,0,0:0:0:0:
36,192,30009,1,0,0:0:0:0:
402,192,30097,1,0,0:0:0:0:
329,192,30184,1,0,0:0:0:0:
182,192,30272,1,0,0:0:0:0:
36,192,30360,1,0,0:0:0:0:
256,192,30448,1,0,0:0:0:0:
402,192,30535,1,0,0:0:0:0:
475,192,30535,1,0,0:0:0:0:
109,192,30535,1,0,0:0:0:0:
329,192,30623,1,0,0:0:0:0:
182,192,30711,1,0,0:0:0:0:
329,192,30798,1,0,0:0:0:0:
256,192,30886,1,0,0:0:0:0:
109,192,30886,1,0,0:0:0:0:
36,192,30886,1,0,0:0:0:0:
402,192,30974,1,0,0:0:0:0:
475,192,31062,1,0,0:0:0:0:
182,192,31149,1,0,0:0:0:0:
256,192,31237,1,0,0:0:0:0:
329,192,31325,1,0,0:0:0:0:
36,192,31412,1,0,0:0:0:0:
402,192,31412,1,0,0:0:0:0:
475,192,31412,1,0,0:0:0:0:
109,192,31500,1,0,0:0:0:0:
256,192,31588,1,0,0:0:0:0:
402,192,31588,1,0,0:0:0:0:
36,192,31676,1,0,0:0:0:0:
182,192,31763,1,0,0:0:0:0:
329,192,31851,1,0,0:0:0:0:
109,192,31939,1,0,0:0:0:0:
475,192,31939,1,0,0:0:0:0:
402,192,32027,1,0,0:0:0:0:
329,192,32114,1,0,0:0:0:0:
109,192,32114,1,0,0:0:0:0:
475,192,32202,1,0,0:0:0:0:
256,192,32290,1,0,0:0:0:0:
36,192,32290,1,0,0:0:0:0:
182,192,32290,1,0,0:0:0:0:
475,192,32377,1,0,0:0:0:0:
329,192,32465,1,0,0:0:0:0:
182,192,32553,1,0,0:0:0:0:
402,192,32641,1,0,0:0:0:0:
329,192,32728,1,0,0:0:0:0:
182,192,32816,1,0,0:0:0:0:
36,192,32816,1,0,0:0:0:0:
475,192,32816,1,0,0:0:0:0:
402,192,32904,1,0,0:0:0:0:
256,192,32991,1,0,0:0:0:0:
109,192,33079,1,0,0:0:0:0:
329,192,33167,1,0,0:0:0:0:
182,192,33255,1,0,0:0:0:0:
475,192,33342,1,0,0:0:0:0:
36,192,33342,1,0,0:0:0:0:
402,192,33342,1,0,0:0:0:0:
329,192,33430,1,0,0:0:0:0:
109,192,33518,1,0,0:0:0:0:
329,192,33605,1,0,0:0:0:0:
182,192,33693,1,0,0:0:0:0:
36,192,33693,1,0,0:0:0:0:
475,192,33693,1,0,0:0:0:0:
256,192,33781,1,0,0:0:0:0:
329,192,33869,1,0,0:0:0:0:
109,192,33956,1,0,0:0:0:0:
256,192,34044,1,0,0:0:0:0:
402,192,34132,1,0,0:0:0:0:
475,192,34220,1,0,0:0:0:0:
182,192,34220,1,0,0:0:0:0:
36,192,34220,1,0,0:0:0:0:
329,192,34307,1,0,0:0:0:0:
402,192,34395,1,0,0:0:0:0:
182,192,34395,1,0,0:0:0:0:
256,192,34483,1,0,0:0:0:0:
36,192,34570,1,0,0:0:0:0:
109,192,34658,1,0,0:0:0:0:
182,192,34746,1,0,0:0:0:0:
402,192,34746,1,0,0:0:0:0:
475,192,34746,1,0,0:0:0:0:
329,192,34834,1,0,0:0:0:0:
182,192,34921,1,0,0:0:0:0:
36,192,34921,1,0,0:0:0:0:
256,192,35009,1,0,0:0:0:0:
109,192,35097,1,0,0:0:0:0:
329,192,35097,1,0,0:0:0:0:
475,192,35097,1,0,0:0:0:0:
36,192,35097,1,0,0:0:0:0:
402,192,35097,1,0,0:0:0:0:
182,192,35272,1,0,0:0:0:0:
256,192,35360,1,0,0:0:0:0:
402,192,35448,128,0,35798:0:0:0:0:
475,192,35448,128,0,35798:0:0:0:0:
182,192,35535,1,0,0:0:0:0:
36,192,35623,1,0,0:0:0:0:
329,192,35623,1,0,0:0:0:0:
109,192,35623,1,0,0:0:0:0:
256,192,35711,1,0,0:0:0:0:
182,192,35798,1,0,0:0:0:0:
329,192,35886,1,0,0:0:0:0:
109,192,35974,128,0,36325:0:0:0:0:
36,192,35974,128,0,36325:0:0:0:0:
256,192,36062,1,0,0:0:0:0:
402,192,36149,1,0,0:0:0:0:
475,192,36149,1,0,0:0:0:0:
182,192,36149,1,0,0:0:0:0:
329,192,36237,1,0,0:0:0:0:
182,192,36325,1,0,0:0:0:0:
402,192,36325,1,0,0:0:0:0:
256,192,36412,1,0,0:0:0:0:
36,192,36412,1,0,0:0:0:0:
109,192,36500,1,0,0:0:0:0:
475,192,36500,128,0,36851:0:0:0:0:
329,192,36500,128,0,36851:0:0:0:0:
182,192,36588,1,0,0:0:0:0:
36,192,36676,1,0,0:0:0:0:
109,192,36763,1,0,0:0:0:0:
256,192,36851,1,0,0:0:0:0:
402,192,36939,1,0,0:0:0:0:
182,192,37027,128,0,37377:0:0:0:0:
36,192,37027,128,0,37377:0:0:0:0:
475,192,37027,1,0,0:0:0:0:
329,192,37114,1,0,0:0:0:0:
256,192,37202,1,0,0:0:0:0:
475,192,37290,1,0,0:0:0:0:
402,192,37377,1,0,0:0:0:0:
329,192,37465,1,0,0:0:0:0:
109,192,37553,1,0,0:0:0:0:
36,192,37553,1,0,0:0:0:0:
256,192,37553,128,0,37904:0:0:0:0:
182,192,37641,1,0,0:0:0:0:
402,192,37728,1,0,0:0:0:0:
475,192,37728,1,0,0:0:0:0:
182,192,37816,1,0,0:0:0:0:
329,192,37816,1,0,0:0:0:0:
475,192,37904,1,0,0:0:0:0:
36,192,37904,1,0,0:0:0:0:
109,192,37904,1,0,0:0:0:0:
402,192,38079,1,0,0:0:0:0:
182,192,38167,1,0,0:0:0:0:
36,192,38255,128,0,38605:0:0:0:0:
329,192,38255,128,0,38605:0:0:0:0:
256,192,38342,1,0,0:0:0:0:
109,192,38430,1,0,0:0:0:0:
402,192,38430,1,0,0:0:0:0:
475,192,38430,1,0,0:0:0:0:
182,192,38518,1,0,0:0:0:0:
256,192,38605,1,0,0:0:0:0:
402,192,38693,1,0,0:0:0:0:
182,192,38781,128,0,39132:0:0:0:0:
475,192,38781,128,0,39132:0:0:0:0:
329,192,38869,1,0,0:0:0:0:
36,192,38956,1,0,0:0:0:0:
109,192,38956,1,0,0:0:0:0:
402,192,38956,1,0,0:0:0:0:
256,192,39044,1,0,0:0:0:0:
36,192,39132,1,0,0:0:0:0:
402,192,39132,1,0,0:0:0:0:
329,192,39220,1,0,0:0:0:0:
182,192,39220,1,0,0:0:0:0:
36,192,39307,1,0,0:0:0:0:
109,192,39307,128,0,39658:0:0:0:0:
256,192,39307,128,0,39658:0:0:0:0:
475,192,39395,1,0,0:0:0:0:
402,192,39483,1,0,0:0:0:0:
329,192,39570,1,0,0:0:0:0:
182,192,39658,1,0,0:0:0:0:
36,192,39746,1,0,0:0:0:0:
256,192,39834,128,0,40184:0:0:0:0:
402,192,39834,128,0,40184:0:0:0:0:
475,192,39834,1,0,0:0:0:0:
109,192,39921,1,0,0:0:0:0:
329,192,40009,1,0,0:0:0:0:
182,192,40097,1,0,0:0:0:0:
36,192,40184,1,0,0:0:0:0:
109,192,40272,1,0,0:0:0:0:
256,192,40360,128,0,40711:0:0:0:0:
182,192,40360,1,0,0:0:0:0:
402,192,40360,1,0,0:0:0:0:
36,192,40448,1,0,0:0:0:0:
402,192,40535,1,0,0:0:0:0:
475,192,40535,1,0,0:0:0:0:
182,192,40623,1,0,0:0:0:0:
329,192,40623,1,0,0:0:0:0:
109,192,40711,1,0,0:0:0:0:
36,192,40711,1,0,0:0:0:0:
475,192,40711,1,0,0:0:0:0:
256,192,40886,1,0,0:0:0:0:
329,192,40974,1,0,0:0:0:0:
36,192,41062,1,0,0:0:0:0:
109,192,41062,1,0,0:0:0:0:
402,192,41062,1,0,0:0:0:0:
256,192,41149,1,0,0:0:0:0:
36,192,41237,1,0,0:0:0:0:
109,192,41237,1,0,0:0:0:0:
329,192,41325,1,0,0:0:0:0:
182,192,41412,1,0,0:0:0:0:
402,192,41412,1,0,0:0:0:0:
475,192,41412,1,0,0:0:0:0:
36,192,41500,1,0,0:0:0:0:
256,192,41588,1,0,0:0:0:0:
402,192,41676,1,0,0:0:0:0:
36,192,41763,1,0,0:0:0:0:
182,192,41763,1,0,0:0:0:0:
329,192,41763,1,0,0:0:0:0:
475,192,41851,1,0,0:0:0:0:
329,192,41939,1,0,0:0:0:0:
182,192,41939,1,0,0:0:0:0:
109,192,42027,1,0,0:0:0:0:
36,192,42027,1,0,0:0:0:0:
256,192,42114,1,0,0:0:0:0:
402,192,42114,1,0,0:0:0:0:
475,192,42114,1,0,0:0:0:0:
182,192,42202,1,0,0:0:0:0:
36,192,42290,1,0,0:0:0:0:
109,192,42377,1,0,0:0:0:0:
475,192,42465,1,0,0:0:0:0:
329,192,42465,1,0,0:0:0:0:
182,192,42465,1,0,0:0:0:0:
36,192,42553,1,0,0:0:0:0:
329,192,42641,1,0,0:0:0:0:
475,192,42641,1,0,0:0:0:0:
256,192,42728,1,0,0:0:0:0:
402,192,42816,1,0,0:0:0:0:
182,192,42816,1,0,0:0:0:0:
36,192,42816,1,0,0:0:0:0:
329,192,42904,1,0,0:0:0:0:
109,192,42991,1,0,0:0:0:0:
256,192,43079,1,0,0:0:0:0:
402,192,43167,1,0,0:0:0:0:
475,192,43167,1,0,0:0:0:0:
182,192,43167,1,0,0:0:0:0:
36,192,43255,1,0,0:0:0:0:
182,192,43342,1,0,0:0:0:0:
402,192,43342,1,0,0:0:0:0:
109,192,43430,1,0,0:0:0:0:
329,192,43430,1,0,0:0:0:0:
256,192,43518,1,0,0:0:0:0:
36,192,43518,1,0,0:0:0:0:
475,192,43518,1,0,0:0:0:0:
402,192,43605,1,0,0:0:0:0:
182,192,43605,1,0,0:0:0:0:
329,192,43693,1,0,0:0:0:0:
109,192,43693,1,0,0:0:0:0:
256,192,43781,1,0,0:0:0:0:
36,192,43781,1,0,0:0:0:0:
182,192,43869,1,0,0:0:0:0:
402,192,43869,1,0,0:0:0:0:
36,192,43956,1,0,0:0:0:0:
329,192,43956,1,0,0:0:0:0:
475,192,44044,1,0,0:0:0:0:
109,192,44044,1,0,0:0:0:0:
402,192,44044,1,0,0:0:0:0:
182,192,44132,1,0,0:0:0:0:
256,192,44132,1,0,0:0:0:0:
329,192,44220,1,0,0:0:0:0:
402,192,44220,1,0,0:0:0:0:
109,192,44307,1,0,0:0:0:0:
182,192,44307,1,0,0:0:0:0:
256,192,44395,1,0,0:0:0:0:
329,192,44395,1,0,0:0:0:0:
109,192,44483,1,0,0:0:0:0:
36,192,44483,1,0,0:0:0:0:
182,192,44570,1,0,0:0:0:0:
256,192,44570,1,0,0:0:0:0:
475,192,44570,1,0,0:0:0:0:
402,192,44658,1,0,0:0:0:0:
36,192,44658,1,0,0:0:0:0:
109,192,44746,1,0,0:0:0:0:
329,192,44746,1,0,0:0:0:0:
182,192,44834,1,0,0:0:0:0:
402,192,44834,1,0,0:0:0:0:
256,192,44921,1,0,0:0:0:0:
475,192,44921,1,0,0:0:0:0:
36,192,44921,1,0,0:0:0:0:
109,192,44965,1,0,0:0:0:0:
182,192,45009,1,0,0:0:0:0:
329,192,45053,1,0,0:0:0:0:
402,192,45097,1,0,0:0:0:0:
475,192,45141,1,0,0:0:0:0:
36,192,45184,1,0,0:0:0:0:
109,192,45228,1,0,0:0:0:0:
182,192,45272,1,0,0:0:0:0:
256,192,45316,1,0,0:0:0:0:
402,192,45360,1,0,0:0:0:0:
475,192,45404,1,0,0:0:0:0:
109,192,45448,1,0,0:0:0:0:
36,192,45448,1,0,0:0:0:0:
329,192,45491,1,0,0:0:0:0:
256,192,45535,1,0,0:0:0:0:
182,192,45579,1,0,0:0:0:0:
109,192,45623,1,0,0:0:0:0:
36,192,45667,1,0,0:0:0:0:
402,192,45711,1,0,0:0:0:0:
329,192,45755,1,0,0:0:0:0:
256,192,45798,1,0,0:0:0:0:
182,192,45842,1,0,0:0:0:0:
109,192,45886,1,0,0:0:0:0:
36,192,45930,1,0,0:0:0:0:
402,192,45974,1,0,0:0:0:0:
475,192,45974,1,0,0:0:0:0:
329,192,46018,1,0,0:0:0:0:
256,192,46062,1,0,0:0:0:0:
182,192,46105,1,0,0:0:0:0:
109,192,46149,1,0,0:0:0:0:
475,192,46193,1,0,0:0:0:0:
402,192,46237,1,0,0:0:0:0:
329,192,46281,1,0,0:0:0:0:
36,192,46325,128,0,47641:0:0:0:0:
109,192,46325,128,0,47641:0:0:0:0:
182,192,46325,128,0,47641:0:0:0:0:
256,192,46325,128,0,47641:0:0:0:0:
256,192,47728,128,0,48079:0:0:0:0:
182,192,47728,128,0,48079:0:0:0:0:
402,192,47728,128,0,48079:0:0:0:0:
36,192,47728,128,0,48079:0:0:0:0:
475,192,47728,1,0,0:0:0:0:
329,192,48255,128,0,48605:0:0:0:0:
256,192,48255,128,0,48605:0:0:0:0:
475,192,48255,128,0,48605:0:0:0:0:
109,192,48255,128,0,48605:0:0:0:0:
36,192,48255,1,0,0:0:0:0:
329,192,48781,128,0,50448:0:0:0:0:
402,192,48781,128,0,50448:0:0:0:0:
475,192,48781,128,0,50448:0:0:0:0:
182,192,48781,128,0,49132:0:0:0:0:
36,192,48781,1,0,0:0:0:0:
36,192,49132,1,0,0:0:0:0:
109,192,49220,1,0,0:0:0:0:
256,192,49307,1,0,0:0:0:0:
182,192,49395,1,0,0:0:0:0:
36,192,49483,1,0,0:0:0:0:
109,192,49570,1,0,0:0:0:0:
256,192,49658,1,0,0:0:0:0:
182,192,49746,1,0,0:0:0:0:
36,192,49834,1,0,0:0:0:0:
109,192,49921,1,0,0:0:0:0:
256,192,50009,1,0,0:0:0:0:
182,192,50097,1,0,0:0:0:0:
36,192,50184,1,0,0:0:0:0:
109,192,50272,1,0,0:0:0:0:
256,192,50360,1,0,0:0:0:0:
182,192,50448,1,0,0:0:0:0:
329,192,50535,128,0,50886:0:0:0:0:
402,192,50535,128,0,50886:0:0:0:0:
109,192,50535,128,0,50886:0:0:0:0:
36,192,50535,128,0,50886:0:0:0:0:
475,192,50535,1,0,0:0:0:0:
256,192,51062,128,0,51412:0:0:0:0:
182,192,51062,128,0,51412:0:0:0:0:
402,192,51062,128,0,51412:0:0:0:0:
475,192,51062,128,0,51412:0:0:0:0:
109,192,51062,1,0,0:0:0:0:
402,192,51588,128,0,51939:0:0:0:0:
182,192,51588,128,0,53255:0:0:0:0:
109,192,51588,128,0,53255:0:0:0:0:
36,192,51588,128,0,53255:0:0:0:0:
475,192,51588,1,0,0:0:0:0:
329,192,51939,1,0,0:0:0:0:
256,192,52027,1,0,0:0:0:0:
402,192,52114,1,0,0:0:0:0:
475,192,52202,1,0,0:0:0:0:
329,192,52290,1,0,0:0:0:0:
256,192,52377,1,0,0:0:0:0:
402,192,52465,1,0,0:0:0:0:
475,192,52553,1,0,0:0:0:0:
329,192,52641,1,0,0:0:0:0:
256,192,52728,1,0,0:0:0:0:
402,192,52816,1,0,0:0:0:0:
475,192,52904,1,0,0:0:0:0:
329,192,52991,1,0,0:0:0:0:
256,192,53079,1,0,0:0:0:0:
402,192,53167,1,0,0:0:0:0:
475,192,53255,1,0,0:0:0:0:
329,192,53342,128,0,53693:0:0:0:0:
256,192,53342,128,0,53693:0:0:0:0:
182,192,53342,128,0,53693:0:0:0:0:
36,192,53342,128,0,53693:0:0:0:0:
109,192,53342,1,0,0:0:0:0:
329,192,53869,128,0,54220:0:0:0:0:
109,192,53869,128,0,54220:0:0:0:0:
256,192,53869,128,0,54220:0:0:0:0:
475,192,53869,128,0,54220:0:0:0:0:
402,192,53869,1,0,0:0:0:0:
36,192,54395,128,0,56763:0:0:0:0:
475,192,54395,128,0,56062:0:0:0:0:
256,192,54395,128,0,56062:0:0:0:0:
182,192,54395,128,0,54746:0:0:0:0:
329,192,54395,1,0,0:0:0:0:
402,192,54746,1,0,0:0:0:0:
109,192,54834,1,0,0:0:0:0:
329,192,54921,1,0,0:0:0:0:
182,192,55009,1,0,0:0:0:0:
402,192,55097,1,0,0:0:0:0:
109,192,55184,1,0,0:0:0:0:
329,192,55272,1,0,0:0:0:0:
182,192,55360,1,0,0:0:0:0:
402,192,55448,1,0,0:0:0:0:
109,192,55535,1,0,0:0:0:0:
329,192,55623,1,0,0:0:0:0:
182,192,55711,1,0,0:0:0:0:
402,192,55798,1,0,0:0:0:0:
109,192,55886,1,0,0:0:0:0:
329,192,55974,1,0,0:0:0:0:
182,192,56062,1,0,0:0:0:0:
109,192,56149,128,0,56763:0:0:0:0:
475,192,56149,128,0,57465:0:0:0:0:
329,192,56149,1,0,0:0:0:0:
402,192,56149,1,0,0:0:0:0:
256,192,56237,1,0,0:0:0:0:
402,192,56325,1,0,0:0:0:0:
329,192,56412,1,0,0:0:0:0:
182,192,56500,1,0,0:0:0:0:
402,192,56588,1,0,0:0:0:0:
256,192,56676,1,0,0:0:0:0:
329,192,56763,1,0,0:0:0:0:
182,192,56851,1,0,0:0:0:0:
402,192,56851,128,0,57465:0:0:0:0:
36,192,56851,128,0,57465:0:0:0:0:
109,192,56851,1,0,0:0:0:0:
256,192,56939,1,0,0:0:0:0:
109,192,57027,1,0,0:0:0:0:
182,192,57114,1,0,0:0:0:0:
329,192,57202,1,0,0:0:0:0:
109,192,57290,1,0,0:0:0:0:
256,192,57377,1,0,0:0:0:0:
182,192,57465,1,0,0:0:0:0:
329,192,57553,128,0,58869:0:0:0:0:
402,192,57553,128,0,58869:0:0:0:0:
475,192,57553,128,0,58869:0:0:0:0:
256,192,57553,128,0,57904:0:0:0:0:
36,192,57553,1,0,0:0:0:0:
36,192,57904,1,0,0:0:0:0:
109,192,57991,1,0,0:0:0:0:
182,192,58079,1,0,0:0:0:0:
256,192,58167,1,0,0:0:0:0:
36,192,58255,1,0,0:0:0:0:
109,192,58342,1,0,0:0:0:0:
182,192,58430,1,0,0:0:0:0:
256,192,58518,1,0,0:0:0:0:
36,192,58605,1,0,0:0:0:0:
109,192,58693,1,0,0:0:0:0:
182,192,58781,1,0,0:0:0:0:
256,192,58869,1,0,0:0:0:0:
109,192,58956,128,0,59307:0:0:0:0:
36,192,58956,128,0,59307:0:0:0:0:
475,192,58956,1,0,0:0:0:0:
402,192,58956,128,0,59307:0:0:0:0:
182,192,58956,128,0,59307:0:0:0:0:
256,192,59483,128,0,59834:0:0:0:0:
329,192,59483,128,0,59834:0:0:0:0:
36,192,59483,128,0,59834:0:0:0:0:
109,192,59483,1,0,0:0:0:0:
402,192,59483,128,0,60009:0:0:0:0:
475,192,59834,128,0,60009:0:0:0:0:
256,192,60009,128,0,60360:0:0:0:0:
182,192,60009,128,0,61676:0:0:0:0:
109,192,60009,128,0,61676:0:0:0:0:
36,192,60009,128,0,61676:0:0:0:0:
329,192,60009,1,0,0:0:0:0:
475,192,60360,1,0,0:0:0:0:
402,192,60448,1,0,0:0:0:0:
256,192,60535,1,0,0:0:0:0:
329,192,60623,1,0,0:0:0:0:
475,192,60711,1,0,0:0:0:0:
402,192,60798,1,0,0:0:0:0:
256,192,60886,1,0,0:0:0:0:
329,192,60974,1,0,0:0:0:0:
475,192,61062,1,0,0:0:0:0:
402,192,61149,1,0,0:0:0:0:
256,192,61237,1,0,0:0:0:0:
329,192,61325,1,0,0:0:0:0:
475,192,61412,1,0,0:0:0:0:
402,192,61500,1,0,0:0:0:0:
256,192,61588,1,0,0:0:0:0:
329,192,61676,1,0,0:0:0:0:
402,192,61763,128,0,62114:0:0:0:0:
475,192,61763,128,0,62114:0:0:0:0:
109,192,61763,1,0,0:0:0:0:
182,192,61763,128,0,62114:0:0:0:0:
36,192,61763,128,0,62114:0:0:0:0:
256,192,62290,128,0,62641:0:0:0:0:
402,192,62290,128,0,62641:0:0:0:0:
109,192,62290,128,0,62641:0:0:0:0:
475,192,62290,128,0,62641:0:0:0:0:
182,192,62290,1,0,0:0:0:0:
256,192,62816,128,0,63167:0:0:0:0:
402,192,62816,128,0,63342:0:0:0:0:
329,192,62816,128,0,63167:0:0:0:0:
475,192,62816,128,0,64483:0:0:0:0:
109,192,62816,1,0,0:0:0:0:
109,192,63167,1,0,0:0:0:0:
36,192,63255,1,0,0:0:0:0:
182,192,63342,1,0,0:0:0:0:
329,192,63342,128,0,64483:0:0:0:0:
256,192,63430,1,0,0:0:0:0:
109,192,63518,1,0,0:0:0:0:
402,192,63518,128,0,64483:0:0:0:0:
36,192,63605,1,0,0:0:0:0:
182,192,63693,1,0,0:0:0:0:
256,192,63781,1,0,0:0:0:0:
109,192,63869,1,0,0:0:0:0:
36,192,63956,1,0,0:0:0:0:
182,192,64044,1,0,0:0:0:0:
256,192,64132,1,0,0:0:0:0:
109,192,64220,1,0,0:0:0:0:
36,192,64307,1,0,0:0:0:0:
182,192,64395,1,0,0:0:0:0:
256,192,64483,1,0,0:0:0:0:
36,192,64570,128,0,64921:0:0:0:0:
402,192,64570,128,0,64921:0:0:0:0:
329,192,64570,128,0,64921:0:0:0:0:
475,192,64570,1,0,0:0:0:0:
109,192,64570,128,0,64921:0:0:0:0:
182,192,65097,128,0,65448:0:0:0:0:
109,192,65097,128,0,65448:0:0:0:0:
329,192,65097,128,0,65448:0:0:0:0:
475,192,65097,128,0,65448:0:0:0:0:
36,192,65097,1,0,0:0:0:0:
182,192,65623,128,0,67991:0:0:0:0:
256,192,65623,128,0,67290:0:0:0:0:
475,192,65623,128,0,65886:0:0:0:0:
329,192,65623,128,0,67290:0:0:0:0:
109,192,65623,1,0,0:0:0:0:
36,192,65974,1,0,0:0:0:0:
475,192,66062,1,0,0:0:0:0:
109,192,66149,1,0,0:0:0:0:
402,192,66237,1,0,0:0:0:0:
36,192,66325,1,0,0:0:0:0:
475,192,66412,1,0,0:0:0:0:
109,192,66500,1,0,0:0:0:0:
402,192,66588,1,0,0:0:0:0:
36,192,66676,1,0,0:0:0:0:
475,192,66763,1,0,0:0:0:0:
109,192,66851,1,0,0:0:0:0:
402,192,66939,1,0,0:0:0:0:
36,192,67027,1,0,0:0:0:0:
475,192,67114,1,0,0:0:0:0:
109,192,67202,1,0,0:0:0:0:
402,192,67290,1,0,0:0:0:0:
36,192,67377,128,0,68693:0:0:0:0:
109,192,67377,128,0,67991:0:0:0:0:
256,192,67377,1,0,0:0:0:0:
475,192,67377,1,0,0:0:0:0:
329,192,67465,1,0,0:0:0:0:
402,192,67553,1,0,0:0:0:0:
256,192,67641,1,0,0:0:0:0:
475,192,67728,1,0,0:0:0:0:
329,192,67816,1,0,0:0:0:0:
402,192,67904,1,0,0:0:0:0:
256,192,67991,1,0,0:0:0:0:
402,192,68079,128,0,68693:0:0:0:0:
475,192,68079,128,0,68693:0:0:0:0:
329,192,68079,1,0,0:0:0:0:
109,192,68079,1,0,0:0:0:0:
182,192,68167,1,0,0:0:0:0:
256,192,68255,1,0,0:0:0:0:
109,192,68342,1,0,0:0:0:0:
329,192,68430,1,0,0:0:0:0:
182,192,68518,1,0,0:0:0:0:
256,192,68605,1,0,0:0:0:0:
109,192,68693,1,0,0:0:0:0:
36,192,68781,1,0,0:0:0:0:
182,192,68781,1,0,0:0:0:0:
402,192,68781,1,0,0:0:0:0:
475,192,68781,1,0,0:0:0:0:
329,192,68781,1,0,0:0:0:0:
109,192,69132,1,0,0:0:0:0:
329,192,69132,1,0,0:0:0:0:
475,192,69132,1,0,0:0:0:0:
182,192,69132,1,0,0:0:0:0:
402,192,69132,1,0,0:0:0:0:
109,192,69307,1,0,0:0:0:0:
36,192,69307,1,0,0:0:0:0:
182,192,69658,1,0,0:0:0:0:
329,192,69658,1,0,0:0:0:0:
256,192,69658,1,0,0:0:0:0:
475,192,69834,1,0,0:0:0:0:
329,192,69834,1,0,0:0:0:0:
182,192,69834,1,0,0:0:0:0:
109,192,69834,1,0,0:0:0:0:
36,192,69834,1,0,0:0:0:0:
182,192,70184,1,0,0:0:0:0:
256,192,70184,1,0,0:0:0:0:
36,192,70184,1,0,0:0:0:0:
256,192,70535,1,0,0:0:0:0:
329,192,70535,1,0,0:0:0:0:
109,192,70535,1,0,0:0:0:0:
475,192,70535,1,0,0:0:0:0:
402,192,70535,1,0,0:0:0:0:
182,192,70711,1,0,0:0:0:0:
256,192,70711,1,0,0:0:0:0:
329,192,71062,1,0,0:0:0:0:
402,192,71062,1,0,0:0:0:0:
36,192,71062,1,0,0:0:0:0:
36,192,71237,1,0,0:0:0:0:
256,192,71237,1,0,0:0:0:0:
329,192,71237,1,0,0:0:0:0:
475,192,71237,1,0,0:0:0:0:
182,192,71237,1,0,0:0:0:0:
329,192,71588,1,0,0:0:0:0:
402,192,71588,1,0,0:0:0:0:
109,192,71588,1,0,0:0:0:0:
402,192,71939,1,0,0:0:0:0:
475,192,71939,1,0,0:0:0:0:
182,192,71939,1,0,0:0:0:0:
36,192,71939,1,0,0:0:0:0:
256,192,71939,1,0,0:0:0:0:
402,192,72114,1,0,0:0:0:0:
329,192,72114,1,0,0:0:0:0:
36,192,72465,1,0,0:0:0:0:
256,192,72465,1,0,0:0:0:0:
475,192,72465,1,0,0:0:0:0:
36,192,72641,1,0,0:0:0:0:
182,192,72641,1,0,0:0:0:0:
402,192,72641,1,0,0:0:0:0:
475,192,72641,1,0,0:0:0:0:
109,192,72641,1,0,0:0:0:0:
329,192,72991,1,0,0:0:0:0:
256,192,72991,1,0,0:0:0:0:
475,192,72991,1,0,0:0:0:0:
256,192,73342,1,0,0:0:0:0:
182,192,73342,1,0,0:0:0:0:
402,192,73342,1,0,0:0:0:0:
36,192,73342,1,0,0:0:0:0:
475,192,73342,1,0,0:0:0:0:
329,192,73518,1,0,0:0:0:0:
256,192,73518,1,0,0:0:0:0:
182,192,73869,1,0,0:0:0:0:
109,192,73869,1,0,0:0:0:0:
475,192,73869,1,0,0:0:0:0:
475,192,74044,1,0,0:0:0:0:
256,192,74044,1,0,0:0:0:0:
182,192,74044,1,0,0:0:0:0:
36,192,74044,1,0,0:0:0:0:
329,192,74044,1,0,0:0:0:0:
329,192,74220,1,0,0:0:0:0:
402,192,74220,1,0,0:0:0:0:
256,192,74395,1,0,0:0:0:0:
36,192,74395,1,0,0:0:0:0:
109,192,74395,1,0,0:0:0:0:
256,192,74570,1,0,0:0:0:0:
402,192,74746,1,0,0:0:0:0:
182,192,74746,1,0,0:0:0:0:
36,192,74746,1,0,0:0:0:0:
329,192,74746,1,0,0:0:0:0:
109,192,74746,1,0,0:0:0:0:
402,192,74921,1,0,0:0:0:0:
475,192,74921,1,0,0:0:0:0:
109,192,75097,1,0,0:0:0:0:
329,192,75272,1,0,0:0:0:0:
182,192,75272,1,0,0:0:0:0:
256,192,75272,1,0,0:0:0:0:
36,192,75448,1,0,0:0:0:0:
182,192,75448,1,0,0:0:0:0:
329,192,75448,1,0,0:0:0:0:
402,192,75448,1,0,0:0:0:0:
475,192,75448,1,0,0:0:0:0:
109,192,75623,1,0,0:0:0:0:
329,192,75798,1,0,0:0:0:0:
256,192,75798,1,0,0:0:0:0:
475,192,75798,1,0,0:0:0:0:
329,192,75974,1,0,0:0:0:0:
256,192,76149,1,0,0:0:0:0:
182,192,76149,1,0,0:0:0:0:
402,192,76149,1,0,0:0:0:0:
36,192,76149,1,0,0:0:0:0:
475,192,76149,1,0,0:0:0:0:
329,192,76325,1,0,0:0:0:0:
256,192,76325,1,0,0:0:0:0:
402,192,76500,1,0,0:0:0:0:
182,192,76676,1,0,0:0:0:0:
109,192,76676,1,0,0:0:0:0:
475,192,76676,1,0,0:0:0:0:
475,192,76851,1,0,0:0:0:0:
256,192,76851,1,0,0:0:0:0:
182,192,76851,1,0,0:0:0:0:
36,192,76851,1,0,0:0:0:0:
329,192,76851,1,0,0:0:0:0:
402,192,77027,1,0,0:0:0:0:
329,192,77202,1,0,0:0:0:0:
36,192,77202,1,0,0:0:0:0:
109,192,77202,1,0,0:0:0:0:
182,192,77290,1,0,0:0:0:0:
256,192,77377,1,0,0:0:0:0:
475,192,77377,1,0,0:0:0:0:
402,192,77465,1,0,0:0:0:0:
36,192,77553,1,0,0:0:0:0:
109,192,77553,1,0,0:0:0:0:
329,192,77553,1,0,0:0:0:0:
182,192,77553,1,0,0:0:0:0:
402,192,77641,1,0,0:0:0:0:
109,192,77728,1,0,0:0:0:0:
256,192,77728,1,0,0:0:0:0:
475,192,77728,1,0,0:0:0:0:
329,192,77816,1,0,0:0:0:0:
402,192,77904,1,0,0:0:0:0:
36,192,77904,1,0,0:0:0:0:
109,192,77991,1,0,0:0:0:0:
475,192,78079,1,0,0:0:0:0:
182,192,78079,1,0,0:0:0:0:
329,192,78079,1,0,0:0:0:0:
109,192,78167,1,0,0:0:0:0:
402,192,78255,1,0,0:0:0:0:
475,192,78255,1,0,0:0:0:0:
36,192,78255,1,0,0:0:0:0:
256,192,78255,1,0,0:0:0:0:
182,192,78342,1,0,0:0:0:0:
109,192,78430,1,0,0:0:0:0:
329,192,78430,1,0,0:0:0:0:
256,192,78518,1,0,0:0:0:0:
182,192,78605,1,0,0:0:0:0:
36,192,78605,1,0,0:0:0:0:
402,192,78605,1,0,0:0:0:0:
475,192,78605,1,0,0:0:0:0:
182,192,78781,1,0,0:0:0:0:
256,192,78781,1,0,0:0:0:0:
329,192,78956,1,0,0:0:0:0:
109,192,78956,1,0,0:0:0:0:
475,192,78956,1,0,0:0:0:0:
256,192,79132,1,0,0:0:0:0:
36,192,79132,1,0,0:0:0:0:
402,192,79132,1,0,0:0:0:0:
402,192,79307,1,0,0:0:0:0:
109,192,79307,1,0,0:0:0:0:
36,192,79483,1,0,0:0:0:0:
256,192,79483,1,0,0:0:0:0:
475,192,79483,1,0,0:0:0:0:
182,192,79658,1,0,0:0:0:0:
402,192,79658,1,0,0:0:0:0:
109,192,79834,1,0,0:0:0:0:
329,192,79834,1,0,0:0:0:0:
36,192,79834,1,0,0:0:0:0:
402,192,80009,128,0,80272:0:0:0:0:
475,192,80009,128,0,80272:0:0:0:0:
36,192,80009,128,0,80477:0:0:0:0:
256,192,80009,128,0,80360:0:0:0:0:
182,192,80009,1,0,0:0:0:0:
402,192,80360,1,0,0:0:0:0:
109,192,80360,128,0,80535:0:0:0:0:
475,192,80360,1,0,0:0:0:0:
182,192,80418,128,0,80594:0:0:0:0:
329,192,80477,128,0,80711:0:0:0:0:
256,192,80535,128,0,80652:0:0:0:0:
402,192,80623,128,0,81003:0:0:0:0:
36,192,80711,1,0,0:0:0:0:
329,192,80886,128,0,81062:0:0:0:0:
109,192,80886,1,0,0:0:0:0:
182,192,80945,128,0,81179:0:0:0:0:
256,192,81003,128,0,81120:0:0:0:0:
109,192,81062,128,0,81237:0:0:0:0:
36,192,81062,128,0,81296:0:0:0:0:
475,192,81062,1,0,0:0:0:0:
402,192,81237,1,0,0:0:0:0:
182,192,81412,128,0,81588:0:0:0:0:
256,192,81412,128,0,81646:0:0:0:0:
402,192,81412,128,0,81763:0:0:0:0:
475,192,81412,128,0,81763:0:0:0:0:
36,192,81588,1,0,0:0:0:0:
109,192,81646,1,0,0:0:0:0:
182,192,81705,1,0,0:0:0:0:
256,192,81763,1,0,0:0:0:0:
256,192,81939,128,0,82173:0:0:0:0:
109,192,81939,128,0,82290:0:0:0:0:
36,192,81939,128,0,82290:0:0:0:0:
329,192,81939,128,0,82114:0:0:0:0:
475,192,82114,1,0,0:0:0:0:
402,192,82173,1,0,0:0:0:0:
329,192,82231,1,0,0:0:0:0:
256,192,82290,1,0,0:0:0:0:
256,192,82465,128,0,82699:0:0:0:0:
182,192,82465,128,0,82641:0:0:0:0:
329,192,82465,128,0,83079:0:0:0:0:
402,192,82465,128,0,83079:0:0:0:0:
36,192,82641,1,0,0:0:0:0:
109,192,82699,1,0,0:0:0:0:
182,192,82758,1,0,0:0:0:0:
256,192,82816,1,0,0:0:0:0:
36,192,82904,1,0,0:0:0:0:
182,192,82991,1,0,0:0:0:0:
109,192,83079,1,0,0:0:0:0:
36,192,83167,1,0,0:0:0:0:
402,192,83167,1,0,0:0:0:0:
256,192,83167,128,0,83298:0:0:0:0:
475,192,83167,128,0,83562:0:0:0:0:
402,192,83342,128,0,83605:0:0:0:0:
182,192,83386,128,0,84044:0:0:0:0:
329,192,83430,128,0,83649:0:0:0:0:
256,192,83518,128,0,83693:0:0:0:0:
475,192,83693,1,0,0:0:0:0:
109,192,83693,128,0,84000:0:0:0:0:
36,192,83693,1,0,0:0:0:0:
36,192,83869,128,0,83956:0:0:0:0:
329,192,83869,128,0,84044:0:0:0:0:
402,192,83869,128,0,84088:0:0:0:0:
475,192,83869,128,0,84132:0:0:0:0:
256,192,84044,1,0,0:0:0:0:
109,192,84220,128,0,84570:0:0:0:0:
36,192,84220,128,0,84570:0:0:0:0:
402,192,84220,128,0,84395:0:0:0:0:
475,192,84220,128,0,84453:0:0:0:0:
256,192,84395,1,0,0:0:0:0:
329,192,84453,1,0,0:0:0:0:
402,192,84512,1,0,0:0:0:0:
475,192,84570,1,0,0:0:0:0:
109,192,84746,128,0,84921:0:0:0:0:
36,192,84746,128,0,84980:0:0:0:0:
402,192,84746,128,0,85097:0:0:0:0:
475,192,84746,128,0,85097:0:0:0:0:
256,192,84921,1,0,0:0:0:0:
182,192,84980,1,0,0:0:0:0:
109,192,85038,1,0,0:0:0:0:
36,192,85097,1,0,0:0:0:0:
36,192,85272,128,0,85886:0:0:0:0:
182,192,85272,128,0,85886:0:0:0:0:
402,192,85272,128,0,85448:0:0:0:0:
475,192,85272,128,0,85506:0:0:0:0:
256,192,85448,1,0,0:0:0:0:
329,192,85506,1,0,0:0:0:0:
402,192,85565,1,0,0:0:0:0:
475,192,85623,1,0,0:0:0:0:
329,192,85711,1,0,0:0:0:0:
402,192,85798,1,0,0:0:0:0:
256,192,85886,1,0,0:0:0:0:
109,192,85974,1,0,0:0:0:0:
36,192,85974,1,0,0:0:0:0:
475,192,85974,128,0,86237:0:0:0:0:
402,192,86003,128,0,86179:0:0:0:0:
329,192,86032,128,0,86120:0:0:0:0:
109,192,86149,128,0,86412:0:0:0:0:
182,192,86179,128,0,86354:0:0:0:0:
256,192,86208,128,0,86296:0:0:0:0:
402,192,86325,128,0,86529:0:0:0:0:
329,192,86383,128,0,86471:0:0:0:0:
256,192,86442,128,0,86646:0:0:0:0:
182,192,86500,128,0,86588:0:0:0:0:
36,192,86500,1,0,0:0:0:0:
329,192,86559,128,0,86705:0:0:0:0:
402,192,86617,128,0,86763:0:0:0:0:
109,192,86676,128,0,86880:0:0:0:0:
36,192,86676,1,0,0:0:0:0:
475,192,86676,128,0,86822:0:0:0:0:
182,192,86734,128,0,86910:0:0:0:0:
256,192,86793,128,0,86939:0:0:0:0:
329,192,86851,128,0,86968:0:0:0:0:
182,192,87027,128,0,87202:0:0:0:0:
109,192,87027,128,0,87260:0:0:0:0:
36,192,87027,128,0,87377:0:0:0:0:
475,192,87027,128,0,87377:0:0:0:0:
329,192,87202,1,0,0:0:0:0:
256,192,87260,1,0,0:0:0:0:
182,192,87319,1,0,0:0:0:0:
109,192,87377,1,0,0:0:0:0:
329,192,87553,128,0,87728:0:0:0:0:
402,192,87553,128,0,87787:0:0:0:0:
36,192,87553,128,0,87904:0:0:0:0:
475,192,87553,128,0,87904:0:0:0:0:
182,192,87728,1,0,0:0:0:0:
256,192,87787,1,0,0:0:0:0:
329,192,87845,1,0,0:0:0:0:
402,192,87904,1,0,0:0:0:0:
402,192,88079,128,0,88693:0:0:0:0:
36,192,88079,128,0,88693:0:0:0:0:
182,192,88079,128,0,88255:0:0:0:0:
109,192,88079,128,0,88313:0:0:0:0:
329,192,88255,1,0,0:0:0:0:
256,192,88313,1,0,0:0:0:0:
182,192,88372,1,0,0:0:0:0:
109,192,88430,1,0,0:0:0:0:
329,192,88518,1,0,0:0:0:0:
182,192,88605,1,0,0:0:0:0:
256,192,88693,1,0,0:0:0:0:
36,192,88781,1,0,0:0:0:0:
329,192,88781,128,0,89044:0:0:0:0:
402,192,88781,128,0,88956:0:0:0:0:
475,192,88781,128,0,88869:0:0:0:0:
256,192,88956,128,0,89132:0:0:0:0:
36,192,88956,128,0,89132:0:0:0:0:
475,192,89044,1,0,0:0:0:0:
109,192,89132,1,0,0:0:0:0:
182,192,89220,1,0,0:0:0:0:
475,192,89307,1,0,0:0:0:0:
256,192,89307,128,0,89570:0:0:0:0:
402,192,89307,128,0,89746:0:0:0:0:
329,192,89483,128,0,89658:0:0:0:0:
475,192,89483,128,0,89834:0:0:0:0:
109,192,89483,128,0,89746:0:0:0:0:
36,192,89483,128,0,89746:0:0:0:0:
182,192,89834,128,0,90097:0:0:0:0:
36,192,89834,128,0,90097:0:0:0:0:
256,192,89834,128,0,90272:0:0:0:0:
329,192,89834,128,0,90448:0:0:0:0:
402,192,90184,1,0,0:0:0:0:
475,192,90184,1,0,0:0:0:0:
182,192,90184,1,0,0:0:0:0:
36,192,90184,1,0,0:0:0:0:
256,192,90360,1,0,0:0:0:0:
329,192,90535,128,0,90711:0:0:0:0:
475,192,90535,128,0,91062:0:0:0:0:
36,192,90535,128,0,91062:0:0:0:0:
182,192,90535,128,0,90711:0:0:0:0:
109,192,90711,1,0,0:0:0:0:
256,192,90711,1,0,0:0:0:0:
402,192,90711,1,0,0:0:0:0:
182,192,90886,1,0,0:0:0:0:
329,192,90886,1,0,0:0:0:0:
109,192,90886,128,0,91062:0:0:0:0:
402,192,90886,128,0,91062:0:0:0:0:
256,192,91237,128,0,91500:0:0:0:0:
402,192,91237,128,0,91588:0:0:0:0:
475,192,91237,128,0,91588:0:0:0:0:
109,192,91237,128,0,91500:0:0:0:0:
109,192,91588,1,0,0:0:0:0:
36,192,91588,1,0,0:0:0:0:
109,192,91676,1,0,0:0:0:0:
182,192,91676,1,0,0:0:0:0:
402,192,91763,1,0,0:0:0:0:
475,192,91763,1,0,0:0:0:0:
329,192,91851,1,0,0:0:0:0:
402,192,91851,1,0,0:0:0:0:
182,192,91939,128,0,92056:0:0:0:0:
36,192,91939,128,0,92173:0:0:0:0:
256,192,91997,128,0,92085:0:0:0:0:
109,192,92114,128,0,92231:0:0:0:0:
329,192,92114,1,0,0:0:0:0:
402,192,92114,1,0,0:0:0:0:
182,192,92173,128,0,92260:0:0:0:0:
256,192,92290,128,0,92465:0:0:0:0:
36,192,92290,128,0,92407:0:0:0:0:
402,192,92290,128,0,92494:0:0:0:0:
475,192,92290,128,0,92524:0:0:0:0:
109,192,92348,128,0,92436:0:0:0:0:
329,192,92641,128,0,92816:0:0:0:0:
475,192,92641,128,0,92991:0:0:0:0:
109,192,92641,128,0,92991:0:0:0:0:
36,192,92641,128,0,92991:0:0:0:0:
182,192,92816,1,0,0:0:0:0:
256,192,92874,1,0,0:0:0:0:
402,192,92933,1,0,0:0:0:0:
329,192,92991,1,0,0:0:0:0:
182,192,93167,128,0,93342:0:0:0:0:
36,192,93167,128,0,93518:0:0:0:0:
475,192,93167,128,0,93518:0:0:0:0:
402,192,93167,128,0,93518:0:0:0:0:
329,192,93342,1,0,0:0:0:0:
256,192,93401,1,0,0:0:0:0:
109,192,93459,1,0,0:0:0:0:
182,192,93518,1,0,0:0:0:0:
36,192,93693,128,0,94307:0:0:0:0:
109,192,93693,128,0,94307:0:0:0:0:
329,192,93693,128,0,93927:0:0:0:0:
402,192,93693,128,0,93869:0:0:0:0:
182,192,93869,1,0,0:0:0:0:
256,192,93927,1,0,0:0:0:0:
402,192,93986,1,0,0:0:0:0:
329,192,94044,1,0,0:0:0:0:
182,192,94132,1,0,0:0:0:0:
329,192,94220,1,0,0:0:0:0:
402,192,94307,1,0,0:0:0:0:
475,192,94395,1,0,0:0:0:0:
36,192,94395,1,0,0:0:0:0:
256,192,94395,128,0,94658:0:0:0:0:
182,192,94439,128,0,94614:0:0:0:0:
109,192,94483,128,0,94570:0:0:0:0:
329,192,94527,128,0,94702:0:0:0:0:
402,192,94570,128,0,94746:0:0:0:0:
182,192,94746,1,0,0:0:0:0:
329,192,94804,1,0,0:0:0:0:
109,192,94834,1,0,0:0:0:0:
402,192,94892,128,0,95214:0:0:0:0:
36,192,94921,1,0,0:0:0:0:
182,192,94921,1,0,0:0:0:0:
329,192,94980,128,0,95184:0:0:0:0:
256,192,95067,128,0,95155:0:0:0:0:
36,192,95097,1,0,0:0:0:0:
475,192,95097,128,0,95243:0:0:0:0:
109,192,95097,1,0,0:0:0:0:
182,192,95272,128,0,95448:0:0:0:0:
256,192,95301,128,0,95448:0:0:0:0:
329,192,95331,128,0,95448:0:0:0:0:
109,192,95448,128,0,95623:0:0:0:0:
36,192,95448,128,0,95682:0:0:0:0:
402,192,95448,128,0,95798:0:0:0:0:
475,192,95448,128,0,95798:0:0:0:0:
256,192,95623,1,0,0:0:0:0:
329,192,95682,1,0,0:0:0:0:
109,192,95740,1,0,0:0:0:0:
36,192,95798,1,0,0:0:0:0:
402,192,95974,128,0,96149:0:0:0:0:
475,192,95974,128,0,96208:0:0:0:0:
109,192,95974,128,0,96325:0:0:0:0:
36,192,95974,128,0,96325:0:0:0:0:
256,192,96149,1,0,0:0:0:0:
182,192,96208,1,0,0:0:0:0:
402,192,96266,1,0,0:0:0:0:
475,192,96325,1,0,0:0:0:0:
402,192,96500,128,0,97114:0:0:0:0:
475,192,96500,128,0,97114:0:0:0:0:
182,192,96500,128,0,96851:0:0:0:0:
36,192,96500,128,0,96734:0:0:0:0:
256,192,96676,1,0,0:0:0:0:
329,192,96734,1,0,0:0:0:0:
109,192,96793,1,0,0:0:0:0:
36,192,96851,1,0,0:0:0:0:
256,192,96939,1,0,0:0:0:0:
109,192,97027,1,0,0:0:0:0:
182,192,97114,1,0,0:0:0:0:
402,192,97202,1,0,0:0:0:0:
475,192,97202,1,0,0:0:0:0:
256,192,97202,128,0,97377:0:0:0:0:
36,192,97202,128,0,97553:0:0:0:0:
109,192,97260,128,0,97494:0:0:0:0:
182,192,97319,128,0,97436:0:0:0:0:
475,192,97377,1,0,0:0:0:0:
402,192,97465,1,0,0:0:0:0:
329,192,97553,1,0,0:0:0:0:
329,192,97728,1,0,0:0:0:0:
109,192,97728,1,0,0:0:0:0:
182,192,97728,128,0,98079:0:0:0:0:
475,192,97816,1,0,0:0:0:0:
402,192,97904,1,0,0:0:0:0:
109,192,97904,128,0,98123:0:0:0:0:
36,192,97904,128,0,98167:0:0:0:0:
256,192,97904,128,0,98035:0:0:0:0:
402,192,98079,1,0,0:0:0:0:
329,192,98138,1,0,0:0:0:0:
256,192,98196,1,0,0:0:0:0:
182,192,98255,128,0,98430:0:0:0:0:
109,192,98255,128,0,98489:0:0:0:0:
36,192,98255,128,0,98605:0:0:0:0:
475,192,98255,128,0,98605:0:0:0:0:
329,192,98430,1,0,0:0:0:0:
256,192,98489,1,0,0:0:0:0:
182,192,98547,1,0,0:0:0:0:
402,192,98605,1,0,0:0:0:0:
329,192,98781,128,0,98956:0:0:0:0:
402,192,98781,128,0,99015:0:0:0:0:
475,192,98781,128,0,99132:0:0:0:0:
36,192,98781,128,0,99132:0:0:0:0:
182,192,98956,1,0,0:0:0:0:
256,192,99015,1,0,0:0:0:0:
329,192,99073,1,0,0:0:0:0:
109,192,99132,1,0,0:0:0:0:
36,192,99307,128,0,99921:0:0:0:0:
475,192,99307,128,0,99921:0:0:0:0:
402,192,99307,128,0,99483:0:0:0:0:
109,192,99307,128,0,99658:0:0:0:0:
329,192,99483,1,0,0:0:0:0:
256,192,99541,1,0,0:0:0:0:
182,192,99600,1,0,0:0:0:0:
402,192,99658,1,0,0:0:0:0:
256,192,99746,1,0,0:0:0:0:
109,192,99834,1,0,0:0:0:0:
329,192,99921,1,0,0:0:0:0:
36,192,100009,1,0,0:0:0:0:
475,192,100009,1,0,0:0:0:0:
182,192,100009,128,0,100682:0:0:0:0:
256,192,100067,1,0,0:0:0:0:
329,192,100126,128,0,100623:0:0:0:0:
402,192,100184,1,0,0:0:0:0:
475,192,100243,128,0,100565:0:0:0:0:
402,192,100360,128,0,100594:0:0:0:0:
256,192,100360,128,0,100448:0:0:0:0:
109,192,100535,128,0,100711:0:0:0:0:
256,192,100535,128,0,100652:0:0:0:0:
36,192,100535,1,0,0:0:0:0:
329,192,100711,128,0,100974:0:0:0:0:
475,192,100711,1,0,0:0:0:0:
402,192,100711,1,0,0:0:0:0:
256,192,100755,1,0,0:0:0:0:
182,192,100798,128,0,100974:0:0:0:0:
109,192,100842,1,0,0:0:0:0:
36,192,100886,128,0,100974:0:0:0:0:
475,192,101062,128,0,101325:0:0:0:0:
402,192,101062,128,0,101500:0:0:0:0:
256,192,101062,128,0,101676:0:0:0:0:
109,192,101062,128,0,101325:0:0:0:0:
182,192,101412,1,0,0:0:0:0:
109,192,101412,1,0,0:0:0:0:
475,192,101412,1,0,0:0:0:0:
36,192,101412,1,0,0:0:0:0:
402,192,101588,1,0,0:0:0:0:
256,192,101763,128,0,101939:0:0:0:0:
475,192,101763,128,0,102290:0:0:0:0:
36,192,101763,128,0,102290:0:0:0:0:
109,192,101763,128,0,101939:0:0:0:0:
182,192,101939,1,0,0:0:0:0:
329,192,101939,1,0,0:0:0:0:
402,192,101939,1,0,0:0:0:0:
182,192,102114,128,0,102290:0:0:0:0:
109,192,102114,1,0,0:0:0:0:
329,192,102114,128,0,102290:0:0:0:0:
402,192,102114,1,0,0:0:0:0:
109,192,102465,128,0,102728:0:0:0:0:
36,192,102465,128,0,102728:0:0:0:0:
475,192,102465,128,0,102933:0:0:0:0:
256,192,102465,128,0,102816:0:0:0:0:
329,192,102465,1,0,0:0:0:0:
109,192,102816,1,0,0:0:0:0:
402,192,102816,128,0,102991:0:0:0:0:
36,192,102816,1,0,0:0:0:0:
329,192,102874,128,0,103050:0:0:0:0:
182,192,102933,128,0,103167:0:0:0:0:
256,192,102991,128,0,103108:0:0:0:0:
109,192,103079,128,0,103459:0:0:0:0:
475,192,103167,1,0,0:0:0:0:
182,192,103342,128,0,103518:0:0:0:0:
402,192,103342,1,0,0:0:0:0:
329,192,103401,128,0,103635:0:0:0:0:
256,192,103459,128,0,103576:0:0:0:0:
402,192,103518,128,0,103693:0:0:0:0:
475,192,103518,128,0,103752:0:0:0:0:
36,192,103518,1,0,0:0:0:0:
109,192,103693,1,0,0:0:0:0:
329,192,103869,128,0,104044:0:0:0:0:
256,192,103869,128,0,104103:0:0:0:0:
109,192,103869,128,0,104220:0:0:0:0:
36,192,103869,128,0,104220:0:0:0:0:
475,192,104044,1,0,0:0:0:0:
402,192,104103,1,0,0:0:0:0:
329,192,104161,1,0,0:0:0:0:
256,192,104220,1,0,0:0:0:0:
256,192,104395,128,0,104629:0:0:0:0:
402,192,104395,128,0,104921:0:0:0:0:
475,192,104395,128,0,104570:0:0:0:0:
182,192,104395,128,0,104570:0:0:0:0:
36,192,104570,1,0,0:0:0:0:
109,192,104629,1,0,0:0:0:0:
182,192,104687,1,0,0:0:0:0:
256,192,104746,1,0,0:0:0:0:
475,192,104746,128,0,104921:0:0:0:0:
256,192,104921,128,0,105155:0:0:0:0:
329,192,104921,128,0,105097:0:0:0:0:
182,192,104921,128,0,105535:0:0:0:0:
109,192,104921,128,0,105535:0:0:0:0:
475,192,105097,1,0,0:0:0:0:
402,192,105155,1,0,0:0:0:0:
329,192,105214,1,0,0:0:0:0:
256,192,105272,1,0,0:0:0:0:
475,192,105360,1,0,0:0:0:0:
329,192,105448,1,0,0:0:0:0:
402,192,105535,1,0,0:0:0:0:
475,192,105623,1,0,0:0:0:0:
109,192,105623,1,0,0:0:0:0:
256,192,105623,128,0,105755:0:0:0:0:
36,192,105623,128,0,106018:0:0:0:0:
109,192,105798,128,0,106062:0:0:0:0:
329,192,105842,128,0,106500:0:0:0:0:
182,192,105886,128,0,106105:0:0:0:0:
256,192,105974,128,0,106149:0:0:0:0:
36,192,106149,1,0,0:0:0:0:
402,192,106149,128,0,106456:0:0:0:0:
475,192,106149,1,0,0:0:0:0:
182,192,106325,128,0,106500:0:0:0:0:
109,192,106325,128,0,106544:0:0:0:0:
36,192,106325,128,0,106588:0:0:0:0:
475,192,106325,128,0,106412:0:0:0:0:
256,192,106500,1,0,0:0:0:0:
402,192,106676,128,0,107027:0:0:0:0:
475,192,106676,128,0,107027:0:0:0:0:
109,192,106676,128,0,106851:0:0:0:0:
36,192,106676,128,0,106910:0:0:0:0:
256,192,106851,1,0,0:0:0:0:
182,192,106910,1,0,0:0:0:0:
109,192,106968,1,0,0:0:0:0:
36,192,107027,1,0,0:0:0:0:
402,192,107202,128,0,107377:0:0:0:0:
475,192,107202,128,0,107436:0:0:0:0:
109,192,107202,128,0,107553:0:0:0:0:
36,192,107202,128,0,107553:0:0:0:0:
256,192,107377,1,0,0:0:0:0:
329,192,107436,1,0,0:0:0:0:
402,192,107494,1,0,0:0:0:0:
475,192,107553,1,0,0:0:0:0:
475,192,107728,128,0,108342:0:0:0:0:
329,192,107728,128,0,108342:0:0:0:0:
109,192,107728,128,0,107904:0:0:0:0:
36,192,107728,128,0,107962:0:0:0:0:
256,192,107904,1,0,0:0:0:0:
182,192,107962,1,0,0:0:0:0:
109,192,108021,1,0,0:0:0:0:
36,192,108079,1,0,0:0:0:0:
182,192,108167,1,0,0:0:0:0:
109,192,108255,1,0,0:0:0:0:
256,192,108342,1,0,0:0:0:0:
402,192,108430,1,0,0:0:0:0:
475,192,108430,1,0,0:0:0:0:
36,192,108430,128,0,108693:0:0:0:0:
109,192,108459,128,0,108635:0:0:0:0:
182,192,108489,128,0,108576:0:0:0:0:
402,192,108605,128,0,108869:0:0:0:0:
329,192,108635,128,0,108810:0:0:0:0:
256,192,108664,128,0,108752:0:0:0:0:
109,192,108781,128,0,108986:0:0:0:0:
182,192,108839,128,0,108927:0:0:0:0:
256,192,108898,128,0,109103:0:0:0:0:
329,192,108956,128,0,109044:0:0:0:0:
475,192,108956,1,0,0:0:0:0:
182,192,109015,128,0,109161:0:0:0:0:
109,192,109073,128,0,109220:0:0:0:0:
402,192,109132,128,0,109336:0:0:0:0:
475,192,109132,1,0,0:0:0:0:
36,192,109132,128,0,109278:0:0:0:0:
329,192,109190,128,0,109366:0:0:0:0:
256,192,109249,128,0,109395:0:0:0:0:
182,192,109307,128,0,109424:0:0:0:0:
329,192,109483,128,0,109658:0:0:0:0:
402,192,109483,128,0,109717:0:0:0:0:
475,192,109483,128,0,109834:0:0:0:0:
36,192,109483,128,0,109834:0:0:0:0:
182,192,109658,1,0,0:0:0:0:
256,192,109717,1,0,0:0:0:0:
329,192,109775,1,0,0:0:0:0:
402,192,109834,1,0,0:0:0:0:
182,192,110009,128,0,110184:0:0:0:0:
109,192,110009,128,0,110243:0:0:0:0:
475,192,110009,128,0,110360:0:0:0:0:
36,192,110009,128,0,110360:0:0:0:0:
329,192,110184,1,0,0:0:0:0:
256,192,110243,1,0,0:0:0:0:
182,192,110301,1,0,0:0:0:0:
109,192,110360,1,0,0:0:0:0:
109,192,110535,128,0,111149:0:0:0:0:
475,192,110535,128,0,111149:0:0:0:0:
329,192,110535,128,0,110711:0:0:0:0:
402,192,110535,128,0,110769:0:0:0:0:
182,192,110711,1,0,0:0:0:0:
256,192,110769,1,0,0:0:0:0:
329,192,110828,1,0,0:0:0:0:
402,192,110886,1,0,0:0:0:0:
182,192,110974,1,0,0:0:0:0:
329,192,111062,1,0,0:0:0:0:
256,192,111149,1,0,0:0:0:0:
475,192,111237,1,0,0:0:0:0:
182,192,111237,128,0,111500:0:0:0:0:
109,192,111237,128,0,111412:0:0:0:0:
36,192,111237,128,0,111325:0:0:0:0:
256,192,111412,128,0,111588:0:0:0:0:
475,192,111412,128,0,111588:0:0:0:0:
36,192,111500,1,0,0:0:0:0:
402,192,111588,1,0,0:0:0:0:
329,192,111676,1,0,0:0:0:0:
36,192,111763,1,0,0:0:0:0:
256,192,111763,128,0,112027:0:0:0:0:
109,192,111763,128,0,112202:0:0:0:0:
182,192,111939,128,0,112114:0:0:0:0:
36,192,111939,128,0,112290:0:0:0:0:
402,192,111939,128,0,112202:0:0:0:0:
475,192,111939,128,0,112202:0:0:0:0:
329,192,112290,128,0,112553:0:0:0:0:
475,192,112290,128,0,112553:0:0:0:0:
256,192,112290,128,0,112728:0:0:0:0:
182,192,112290,128,0,112904:0:0:0:0:
109,192,112641,1,0,0:0:0:0:
36,192,112641,1,0,0:0:0:0:
329,192,112641,1,0,0:0:0:0:
475,192,112641,1,0,0:0:0:0:
256,192,112816,1,0,0:0:0:0:
182,192,112991,128,0,113167:0:0:0:0:
36,192,112991,128,0,113518:0:0:0:0:
475,192,112991,128,0,113518:0:0:0:0:
329,192,112991,128,0,113167:0:0:0:0:
402,192,113167,1,0,0:0:0:0:
256,192,113167,1,0,0:0:0:0:
109,192,113167,1,0,0:0:0:0:
329,192,113342,1,0,0:0:0:0:
182,192,113342,1,0,0:0:0:0:
402,192,113342,128,0,113518:0:0:0:0:
109,192,113342,128,0,113518:0:0:0:0:
256,192,113693,128,0,113956:0:0:0:0:
109,192,113693,128,0,114044:0:0:0:0:
36,192,113693,128,0,114044:0:0:0:0:
402,192,113693,128,0,113956:0:0:0:0:
402,192,114044,1,0,0:0:0:0:
475,192,114044,1,0,0:0:0:0:
402,192,114132,1,0,0:0:0:0:
329,192,114132,1,0,0:0:0:0:
109,192,114220,1,0,0:0:0:0:
36,192,114220,1,0,0:0:0:0:
182,192,114307,1,0,0:0:0:0:
109,192,114307,1,0,0:0:0:0:
329,192,114395,128,0,114512:0:0:0:0:
475,192,114395,128,0,114629:0:0:0:0:
256,192,114453,128,0,114541:0:0:0:0:
402,192,114570,128,0,114687:0:0:0:0:
182,192,114570,1,0,0:0:0:0:
109,192,114570,1,0,0:0:0:0:
329,192,114629,128,0,114717:0:0:0:0:
256,192,114746,128,0,114921:0:0:0:0:
475,192,114746,128,0,114863:0:0:0:0:
109,192,114746,128,0,114951:0:0:0:0:
36,192,114746,128,0,114980:0:0:0:0:
402,192,114804,128,0,114892:0:0:0:0:
182,192,115097,128,0,115272:0:0:0:0:
36,192,115097,128,0,115448:0:0:0:0:
402,192,115097,128,0,115448:0:0:0:0:
475,192,115097,128,0,115448:0:0:0:0:
329,192,115272,1,0,0:0:0:0:
256,192,115331,1,0,0:0:0:0:
109,192,115389,1,0,0:0:0:0:
182,192,115448,1,0,0:0:0:0:
329,192,115623,128,0,115798:0:0:0:0:
475,192,115623,128,0,115974:0:0:0:0:
36,192,115623,128,0,115798:0:0:0:0:
109,192,115623,128,0,115974:0:0:0:0:
182,192,115798,1,0,0:0:0:0:
256,192,115857,1,0,0:0:0:0:
402,192,115915,1,0,0:0:0:0:
329,192,115974,1,0,0:0:0:0:
36,192,115974,128,0,116149:0:0:0:0:
475,192,116149,128,0,116763:0:0:0:0:
402,192,116149,128,0,116763:0:0:0:0:
182,192,116149,128,0,116383:0:0:0:0:
109,192,116149,128,0,116325:0:0:0:0:
329,192,116325,1,0,0:0:0:0:
256,192,116383,1,0,0:0:0:0:
109,192,116442,1,0,0:0:0:0:
182,192,116500,1,0,0:0:0:0:
329,192,116588,1,0,0:0:0:0:
182,192,116676,1,0,0:0:0:0:
109,192,116763,1,0,0:0:0:0:
36,192,116851,1,0,0:0:0:0:
475,192,116851,1,0,0:0:0:0:
256,192,116851,128,0,117114:0:0:0:0:
329,192,116895,128,0,117070:0:0:0:0:
402,192,116939,128,0,117027:0:0:0:0:
182,192,116983,128,0,117158:0:0:0:0:
109,192,117027,128,0,117202:0:0:0:0:
329,192,117202,1,0,0:0:0:0:
182,192,117260,1,0,0:0:0:0:
402,192,117290,1,0,0:0:0:0:
109,192,117348,128,0,117670:0:0:0:0:
475,192,117377,1,0,0:0:0:0:
329,192,117377,1,0,0:0:0:0:
182,192,117436,128,0,117641:0:0:0:0:
256,192,117524,128,0,117611:0:0:0:0:
475,192,117553,1,0,0:0:0:0:
36,192,117553,128,0,117699:0:0:0:0:
402,192,117553,1,0,0:0:0:0:
329,192,117728,128,0,117904:0:0:0:0:
256,192,117758,128,0,117904:0:0:0:0:
182,192,117787,128,0,117904:0:0:0:0:
402,192,117904,128,0,118079:0:0:0:0:
475,192,117904,128,0,118138:0:0:0:0:
109,192,117904,128,0,118255:0:0:0:0:
36,192,117904,128,0,118255:0:0:0:0:
256,192,118079,1,0,0:0:0:0:
182,192,118138,1,0,0:0:0:0:
402,192,118196,1,0,0:0:0:0:
475,192,118255,1,0,0:0:0:0:
109,192,118430,128,0,118605:0:0:0:0:
36,192,118430,128,0,118664:0:0:0:0:
402,192,118430,128,0,118781:0:0:0:0:
475,192,118430,128,0,118781:0:0:0:0:
256,192,118605,1,0,0:0:0:0:
329,192,118664,1,0,0:0:0:0:
109,192,118722,1,0,0:0:0:0:
36,192,118781,1,0,0:0:0:0:
109,192,118956,128,0,119570:0:0:0:0:
36,192,118956,128,0,119570:0:0:0:0:
329,192,118956,128,0,119307:0:0:0:0:
475,192,118956,128,0,119190:0:0:0:0:
256,192,119132,1,0,0:0:0:0:
182,192,119190,1,0,0:0:0:0:
402,192,119249,1,0,0:0:0:0:
475,192,119307,1,0,0:0:0:0:
256,192,119395,1,0,0:0:0:0:
402,192,119483,1,0,0:0:0:0:
182,192,119483,128,0,119570:0:0:0:0:
329,192,119570,1,0,0:0:0:0:
109,192,119658,1,0,0:0:0:0:
36,192,119658,1,0,0:0:0:0:
256,192,119658,128,0,119834:0:0:0:0:
475,192,119658,128,0,120009:0:0:0:0:
402,192,119717,128,0,119951:0:0:0:0:
329,192,119775,128,0,119892:0:0:0:0:
36,192,119834,1,0,0:0:0:0:
109,192,119921,1,0,0:0:0:0:
182,192,120009,1,0,0:0:0:0:
182,192,120184,1,0,0:0:0:0:
402,192,120184,1,0,0:0:0:0:
329,192,120184,128,0,120535:0:0:0:0:
36,192,120272,1,0,0:0:0:0:
109,192,120360,1,0,0:0:0:0:
402,192,120360,128,0,120579:0:0:0:0:
475,192,120360,128,0,120623:0:0:0:0:
256,192,120360,128,0,120491:0:0:0:0:
109,192,120535,1,0,0:0:0:0:
182,192,120594,1,0,0:0:0:0:
256,192,120652,1,0,0:0:0:0:
329,192,120711,128,0,120886:0:0:0:0:
402,192,120711,128,0,120945:0:0:0:0:
475,192,120711,128,0,121062:0:0:0:0:
36,192,120711,128,0,121062:0:0:0:0:
182,192,120886,1,0,0:0:0:0:
256,192,120945,1,0,0:0:0:0:
329,192,121003,1,0,0:0:0:0:
109,192,121062,1,0,0:0:0:0:
182,192,121237,128,0,121412:0:0:0:0:
109,192,121237,128,0,121471:0:0:0:0:
36,192,121237,128,0,121588:0:0:0:0:
475,192,121237,128,0,121588:0:0:0:0:
329,192,121412,1,0,0:0:0:0:
256,192,121471,1,0,0:0:0:0:
182,192,121529,1,0,0:0:0:0:
402,192,121588,1,0,0:0:0:0:
475,192,121763,128,0,122377:0:0:0:0:
36,192,121763,128,0,122377:0:0:0:0:
109,192,121763,128,0,121939:0:0:0:0:
402,192,121763,128,0,122114:0:0:0:0:
182,192,121939,1,0,0:0:0:0:
256,192,121997,1,0,0:0:0:0:
329,192,122056,1,0,0:0:0:0:
109,192,122114,1,0,0:0:0:0:
256,192,122202,1,0,0:0:0:0:
402,192,122290,1,0,0:0:0:0:
182,192,122377,1,0,0:0:0:0:
475,192,122465,1,0,0:0:0:0:
36,192,122465,1,0,0:0:0:0:
329,192,122465,128,0,123138:0:0:0:0:
256,192,122524,1,0,0:0:0:0:
182,192,122582,128,0,123079:0:0:0:0:
109,192,122641,1,0,0:0:0:0:
36,192,122699,128,0,123021:0:0:0:0:
109,192,122816,128,0,123050:0:0:0:0:
256,192,122816,128,0,122904:0:0:0:0:
402,192,122991,128,0,123167:0:0:0:0:
256,192,122991,128,0,123108:0:0:0:0:
475,192,122991,1,0,0:0:0:0:
182,192,123167,128,0,123430:0:0:0:0:
36,192,123167,1,0,0:0:0:0:
109,192,123167,1,0,0:0:0:0:
256,192,123211,1,0,0:0:0:0:
329,192,123255,128,0,123430:0:0:0:0:
402,192,123298,1,0,0:0:0:0:
475,192,123342,128,0,123430:0:0:0:0:
36,192,123518,128,0,123781:0:0:0:0:
109,192,123518,128,0,123956:0:0:0:0:
256,192,123518,128,0,124132:0:0:0:0:
402,192,123518,128,0,123781:0:0:0:0:
329,192,123869,1,0,0:0:0:0:
402,192,123869,1,0,0:0:0:0:
36,192,123869,1,0,0:0:0:0:
475,192,123869,1,0,0:0:0:0:
109,192,124044,1,0,0:0:0:0:
256,192,124220,128,0,124395:0:0:0:0:
36,192,124220,128,0,124746:0:0:0:0:
475,192,124220,128,0,124746:0:0:0:0:
402,192,124220,128,0,124395:0:0:0:0:
329,192,124395,1,0,0:0:0:0:
182,192,124395,1,0,0:0:0:0:
109,192,124395,1,0,0:0:0:0:
329,192,124570,128,0,124746:0:0:0:0:
402,192,124570,1,0,0:0:0:0:
182,192,124570,128,0,124746:0:0:0:0:
109,192,124570,1,0,0:0:0:0:
475,192,124921,128,0,136149:0:0:0:0:
256,192,124921,128,0,133342:0:0:0:0:
402,192,124921,128,0,134746:0:0:0:0:
109,192,124921,128,0,131939:0:0:0:0:
36,192,124921,128,0,130535:0:0:0:0:
182,192,136149,1,0,0:0:0:0:
109,192,136149,1,0,0:0:0:0:
36,192,136149,1,0,0:0:0:0:
329,192,136149,1,0,0:0:0:0:
402,192,136149,1,0,0:0:0:0:
329,192,136325,1,0,0:0:0:0:
329,192,136500,1,0,0:0:0:0:
475,192,136500,1,0,0:0:0:0:
36,192,136500,1,0,0:0:0:0:
329,192,136676,1,0,0:0:0:0:
182,192,136676,1,0,0:0:0:0:
109,192,136676,1,0,0:0:0:0:
182,192,136851,1,0,0:0:0:0:
182,192,137027,1,0,0:0:0:0:
36,192,137027,1,0,0:0:0:0:
475,192,137027,1,0,0:0:0:0:
182,192,137202,1,0,0:0:0:0:
402,192,137202,1,0,0:0:0:0:
329,192,137202,1,0,0:0:0:0:
402,192,137377,1,0,0:0:0:0:
402,192,137553,1,0,0:0:0:0:
256,192,137553,1,0,0:0:0:0:
109,192,137553,1,0,0:0:0:0:
109,192,137728,1,0,0:0:0:0:
109,192,137904,1,0,0:0:0:0:
109,192,138079,1,0,0:0:0:0:
256,192,138079,1,0,0:0:0:0:
475,192,138079,1,0,0:0:0:0:
402,192,138167,1,0,0:0:0:0:
182,192,138255,1,0,0:0:0:0:
329,192,138255,1,0,0:0:0:0:
36,192,138255,1,0,0:0:0:0:
329,192,138430,1,0,0:0:0:0:
329,192,138605,1,0,0:0:0:0:
182,192,138605,1,0,0:0:0:0:
475,192,138605,1,0,0:0:0:0:
109,192,138781,1,0,0:0:0:0:
256,192,138781,1,0,0:0:0:0:
402,192,138781,1,0,0:0:0:0:
182,192,138956,1,0,0:0:0:0:
36,192,138956,1,0,0:0:0:0:
329,192,138956,1,0,0:0:0:0:
182,192,139132,1,0,0:0:0:0:
182,192,139307,1,0,0:0:0:0:
36,192,139307,1,0,0:0:0:0:
475,192,139307,1,0,0:0:0:0:
182,192,139483,1,0,0:0:0:0:
329,192,139483,1,0,0:0:0:0:
402,192,139483,1,0,0:0:0:0:
329,192,139658,1,0,0:0:0:0:
329,192,139834,1,0,0:0:0:0:
475,192,139834,1,0,0:0:0:0:
36,192,139834,1,0,0:0:0:0:
329,192,140009,1,0,0:0:0:0:
109,192,140009,1,0,0:0:0:0:
182,192,140009,1,0,0:0:0:0:
109,192,140184,1,0,0:0:0:0:
109,192,140360,1,0,0:0:0:0:
256,192,140360,1,0,0:0:0:0:
402,192,140360,1,0,0:0:0:0:
402,192,140535,1,0,0:0:0:0:
402,192,140711,1,0,0:0:0:0:
402,192,140886,1,0,0:0:0:0:
256,192,140886,1,0,0:0:0:0:
36,192,140886,1,0,0:0:0:0:
109,192,140974,1,0,0:0:0:0:
329,192,141062,1,0,0:0:0:0:
182,192,141062,1,0,0:0:0:0:
475,192,141062,1,0,0:0:0:0:
182,192,141237,1,0,0:0:0:0:
182,192,141412,1,0,0:0:0:0:
329,192,141412,1,0,0:0:0:0:
36,192,141412,1,0,0:0:0:0:
402,192,141588,1,0,0:0:0:0:
256,192,141588,1,0,0:0:0:0:
109,192,141588,1,0,0:0:0:0:
329,192,141763,1,0,0:0:0:0:
475,192,141763,1,0,0:0:0:0:
182,192,141763,1,0,0:0:0:0:
36,192,141851,1,0,0:0:0:0:
109,192,141939,1,0,0:0:0:0:
182,192,142027,1,0,0:0:0:0:
329,192,142114,1,0,0:0:0:0:
475,192,142114,1,0,0:0:0:0:
256,192,142202,1,0,0:0:0:0:
182,192,142290,1,0,0:0:0:0:
475,192,142290,1,0,0:0:0:0:
402,192,142290,1,0,0:0:0:0:
36,192,142377,1,0,0:0:0:0:
256,192,142465,1,0,0:0:0:0:
182,192,142553,1,0,0:0:0:0:
109,192,142641,1,0,0:0:0:0:
402,192,142641,1,0,0:0:0:0:
329,192,142728,1,0,0:0:0:0:
182,192,142816,1,0,0:0:0:0:
402,192,142816,1,0,0:0:0:0:
36,192,142816,1,0,0:0:0:0:
256,192,142904,1,0,0:0:0:0:
329,192,142991,1,0,0:0:0:0:
402,192,143079,1,0,0:0:0:0:
475,192,143167,1,0,0:0:0:0:
256,192,143167,1,0,0:0:0:0:
109,192,143167,1,0,0:0:0:0:
182,192,143255,1,0,0:0:0:0:
329,192,143342,1,0,0:0:0:0:
256,192,143430,1,0,0:0:0:0:
402,192,143518,1,0,0:0:0:0:
329,192,143605,1,0,0:0:0:0:
256,192,143693,1,0,0:0:0:0:
36,192,143693,1,0,0:0:0:0:
475,192,143693,1,0,0:0:0:0:
182,192,143781,1,0,0:0:0:0:
402,192,143869,1,0,0:0:0:0:
109,192,143956,1,0,0:0:0:0:
182,192,144044,1,0,0:0:0:0:
256,192,144132,1,0,0:0:0:0:
329,192,144220,1,0,0:0:0:0:
475,192,144220,1,0,0:0:0:0:
109,192,144220,1,0,0:0:0:0:
182,192,144307,1,0,0:0:0:0:
109,192,144395,1,0,0:0:0:0:
402,192,144483,1,0,0:0:0:0:
182,192,144570,1,0,0:0:0:0:
36,192,144570,1,0,0:0:0:0:
329,192,144570,1,0,0:0:0:0:
475,192,144658,1,0,0:0:0:0:
402,192,144746,1,0,0:0:0:0:
329,192,144834,1,0,0:0:0:0:
182,192,144921,1,0,0:0:0:0:
36,192,144921,1,0,0:0:0:0:
256,192,145009,1,0,0:0:0:0:
329,192,145097,1,0,0:0:0:0:
36,192,145097,1,0,0:0:0:0:
109,192,145097,1,0,0:0:0:0:
475,192,145184,1,0,0:0:0:0:
256,192,145272,1,0,0:0:0:0:
329,192,145360,1,0,0:0:0:0:
402,192,145448,1,0,0:0:0:0:
109,192,145448,1,0,0:0:0:0:
182,192,145535,1,0,0:0:0:0:
329,192,145623,1,0,0:0:0:0:
109,192,145623,1,0,0:0:0:0:
475,192,145623,1,0,0:0:0:0:
256,192,145711,1,0,0:0:0:0:
182,192,145798,1,0,0:0:0:0:
109,192,145886,1,0,0:0:0:0:
36,192,145974,1,0,0:0:0:0:
256,192,145974,1,0,0:0:0:0:
402,192,145974,1,0,0:0:0:0:
329,192,146062,1,0,0:0:0:0:
182,192,146149,1,0,0:0:0:0:
329,192,146237,1,0,0:0:0:0:
182,192,146325,1,0,0:0:0:0:
109,192,146412,1,0,0:0:0:0:
256,192,146500,1,0,0:0:0:0:
475,192,146500,1,0,0:0:0:0:
36,192,146500,1,0,0:0:0:0:
402,192,146588,1,0,0:0:0:0:
329,192,146676,1,0,0:0:0:0:
109,192,147377,1,0,0:0:0:0:
256,192,147377,1,0,0:0:0:0:
402,192,147377,1,0,0:0:0:0:
475,192,147377,1,0,0:0:0:0:
36,192,147377,1,0,0:0:0:0:
402,192,147553,1,0,0:0:0:0:
256,192,147728,1,0,0:0:0:0:
475,192,147728,1,0,0:0:0:0:
182,192,147728,128,0,148079:0:0:0:0:
36,192,147728,128,0,148255:0:0:0:0:
329,192,147904,1,0,0:0:0:0:
329,192,148079,1,0,0:0:0:0:
109,192,148255,1,0,0:0:0:0:
256,192,148255,128,0,148781:0:0:0:0:
402,192,148255,128,0,148605:0:0:0:0:
109,192,148430,1,0,0:0:0:0:
36,192,148430,1,0,0:0:0:0:
329,192,148430,1,0,0:0:0:0:
475,192,148430,1,0,0:0:0:0:
182,192,148605,1,0,0:0:0:0:
109,192,148693,1,0,0:0:0:0:
36,192,148781,1,0,0:0:0:0:
329,192,148781,128,0,149132:0:0:0:0:
475,192,148781,128,0,149483:0:0:0:0:
36,192,148956,1,0,0:0:0:0:
182,192,149132,1,0,0:0:0:0:
402,192,149132,1,0,0:0:0:0:
109,192,149132,1,0,0:0:0:0:
256,192,149132,1,0,0:0:0:0:
182,192,149307,128,0,149483:0:0:0:0:
329,192,149307,1,0,0:0:0:0:
329,192,149483,1,0,0:0:0:0:
109,192,149658,1,0,0:0:0:0:
36,192,149658,1,0,0:0:0:0:
256,192,149658,1,0,0:0:0:0:
36,192,149834,1,0,0:0:0:0:
402,192,149834,128,0,150360:0:0:0:0:
182,192,149834,1,0,0:0:0:0:
475,192,149834,128,0,150535:0:0:0:0:
109,192,150009,1,0,0:0:0:0:
329,192,150009,1,0,0:0:0:0:
182,192,150097,1,0,0:0:0:0:
256,192,150184,1,0,0:0:0:0:
36,192,150184,1,0,0:0:0:0:
329,192,150184,1,0,0:0:0:0:
256,192,150360,128,0,150623:0:0:0:0:
182,192,150448,128,0,150535:0:0:0:0:
329,192,150535,128,0,150886:0:0:0:0:
36,192,150535,128,0,151062:0:0:0:0:
109,192,150535,1,0,0:0:0:0:
402,192,150535,1,0,0:0:0:0:
182,192,150711,1,0,0:0:0:0:
182,192,150886,1,0,0:0:0:0:
109,192,151062,1,0,0:0:0:0:
329,192,151062,1,0,0:0:0:0:
475,192,151062,1,0,0:0:0:0:
402,192,151237,1,0,0:0:0:0:
475,192,151237,1,0,0:0:0:0:
256,192,151237,1,0,0:0:0:0:
36,192,151237,1,0,0:0:0:0:
109,192,151412,128,0,151763:0:0:0:0:
329,192,151412,128,0,151588:0:0:0:0:
402,192,151500,1,0,0:0:0:0:
475,192,151588,1,0,0:0:0:0:
256,192,151588,1,0,0:0:0:0:
36,192,151588,1,0,0:0:0:0:
329,192,151763,128,0,152114:0:0:0:0:
182,192,151939,128,0,152290:0:0:0:0:
36,192,151939,1,0,0:0:0:0:
402,192,151939,1,0,0:0:0:0:
475,192,151939,1,0,0:0:0:0:
402,192,152114,128,0,152465:0:0:0:0:
256,192,152290,128,0,152641:0:0:0:0:
475,192,152465,128,0,152728:0:0:0:0:
109,192,152465,1,0,0:0:0:0:
36,192,152465,1,0,0:0:0:0:
329,192,152641,128,0,152728:0:0:0:0:
182,192,152641,1,0,0:0:0:0:
36,192,152641,1,0,0:0:0:0:
402,192,152641,1,0,0:0:0:0:
329,192,152816,128,0,153693:0:0:0:0:
475,192,152816,128,0,153869:0:0:0:0:
256,192,152904,1,0,0:0:0:0:
36,192,152991,1,0,0:0:0:0:
109,192,152991,1,0,0:0:0:0:
182,192,152991,1,0,0:0:0:0:
182,192,153167,1,0,0:0:0:0:
109,192,153342,1,0,0:0:0:0:
402,192,153342,1,0,0:0:0:0:
36,192,153342,1,0,0:0:0:0:
256,192,153342,1,0,0:0:0:0:
182,192,153518,1,0,0:0:0:0:
182,192,153693,1,0,0:0:0:0:
36,192,153869,1,0,0:0:0:0:
256,192,153869,128,0,154220:0:0:0:0:
402,192,153869,128,0,154044:0:0:0:0:
109,192,154044,1,0,0:0:0:0:
36,192,154044,1,0,0:0:0:0:
329,192,154044,1,0,0:0:0:0:
475,192,154044,128,0,154220:0:0:0:0:
329,192,154220,128,0,154395:0:0:0:0:
182,192,154220,1,0,0:0:0:0:
109,192,154307,1,0,0:0:0:0:
402,192,154395,1,0,0:0:0:0:
36,192,154395,128,0,155448:0:0:0:0:
256,192,154395,128,0,155272:0:0:0:0:
402,192,154570,1,0,0:0:0:0:
182,192,154746,1,0,0:0:0:0:
329,192,154746,1,0,0:0:0:0:
475,192,154746,1,0,0:0:0:0:
109,192,154746,1,0,0:0:0:0:
402,192,154921,1,0,0:0:0:0:
402,192,155097,1,0,0:0:0:0:
109,192,155272,1,0,0:0:0:0:
182,192,155272,1,0,0:0:0:0:
329,192,155272,1,0,0:0:0:0:
475,192,155448,1,0,0:0:0:0:
109,192,155448,128,0,155623:0:0:0:0:
256,192,155448,1,0,0:0:0:0:
402,192,155448,1,0,0:0:0:0:
182,192,155623,128,0,157027:0:0:0:0:
402,192,155623,128,0,156851:0:0:0:0:
256,192,155711,1,0,0:0:0:0:
109,192,155798,1,0,0:0:0:0:
36,192,155798,1,0,0:0:0:0:
329,192,155798,1,0,0:0:0:0:
329,192,155974,1,0,0:0:0:0:
256,192,156149,1,0,0:0:0:0:
475,192,156149,1,0,0:0:0:0:
109,192,156149,1,0,0:0:0:0:
36,192,156149,1,0,0:0:0:0:
329,192,156325,1,0,0:0:0:0:
329,192,156500,1,0,0:0:0:0:
256,192,156676,1,0,0:0:0:0:
475,192,156676,1,0,0:0:0:0:
36,192,156676,1,0,0:0:0:0:
109,192,156851,1,0,0:0:0:0:
36,192,156851,1,0,0:0:0:0:
329,192,156851,1,0,0:0:0:0:
475,192,156851,1,0,0:0:0:0:
402,192,157027,128,0,157202:0:0:0:0:
329,192,157114,1,0,0:0:0:0:
475,192,157202,1,0,0:0:0:0:
36,192,157202,1,0,0:0:0:0:
256,192,157202,1,0,0:0:0:0:
109,192,157202,128,0,157553:0:0:0:0:
329,192,157377,128,0,157553:0:0:0:0:
182,192,157553,128,0,157904:0:0:0:0:
402,192,157553,1,0,0:0:0:0:
475,192,157553,1,0,0:0:0:0:
36,192,157553,1,0,0:0:0:0:
402,192,157728,128,0,157904:0:0:0:0:
256,192,157904,128,0,158255:0:0:0:0:
109,192,158079,128,0,158255:0:0:0:0:
475,192,158079,1,0,0:0:0:0:
402,192,158079,1,0,0:0:0:0:
329,192,158255,128,0,158605:0:0:0:0:
475,192,158255,1,0,0:0:0:0:
36,192,158255,1,0,0:0:0:0:
182,192,158255,1,0,0:0:0:0:
182,192,158430,128,0,158605:0:0:0:0:
402,192,158430,1,0,0:0:0:0:
109,192,158518,1,0,0:0:0:0:
36,192,158605,1,0,0:0:0:0:
402,192,158605,128,0,158956:0:0:0:0:
475,192,158605,128,0,159132:0:0:0:0:
36,192,158781,1,0,0:0:0:0:
109,192,158956,1,0,0:0:0:0:
329,192,158956,1,0,0:0:0:0:
182,192,158956,128,0,159132:0:0:0:0:
256,192,158956,1,0,0:0:0:0:
329,192,159132,128,0,159483:0:0:0:0:
402,192,159132,128,0,159658:0:0:0:0:
109,192,159307,1,0,0:0:0:0:
109,192,159483,128,0,159658:0:0:0:0:
256,192,159483,1,0,0:0:0:0:
182,192,159483,1,0,0:0:0:0:
256,192,159658,128,0,159834:0:0:0:0:
329,192,159658,128,0,160009:0:0:0:0:
36,192,159658,1,0,0:0:0:0:
475,192,159658,1,0,0:0:0:0:
36,192,159834,1,0,0:0:0:0:
109,192,159921,1,0,0:0:0:0:
475,192,160009,1,0,0:0:0:0:
402,192,160009,128,0,160184:0:0:0:0:
182,192,160009,1,0,0:0:0:0:
256,192,160184,128,0,160360:0:0:0:0:
182,192,160184,128,0,160535:0:0:0:0:
109,192,160360,1,0,0:0:0:0:
36,192,160360,1,0,0:0:0:0:
402,192,160360,1,0,0:0:0:0:
475,192,160360,1,0,0:0:0:0:
329,192,160535,1,0,0:0:0:0:
182,192,160711,128,0,161237:0:0:0:0:
109,192,160886,128,0,161062:0:0:0:0:
402,192,160886,1,0,0:0:0:0:
329,192,160886,1,0,0:0:0:0:
256,192,161062,128,0,161412:0:0:0:0:
36,192,161062,1,0,0:0:0:0:
402,192,161062,1,0,0:0:0:0:
475,192,161062,1,0,0:0:0:0:
329,192,161237,1,0,0:0:0:0:
109,192,161237,1,0,0:0:0:0:
402,192,161325,1,0,0:0:0:0:
109,192,161412,128,0,161763:0:0:0:0:
36,192,161412,128,0,161939:0:0:0:0:
475,192,161412,1,0,0:0:0:0:
475,192,161588,1,0,0:0:0:0:
402,192,161763,1,0,0:0:0:0:
182,192,161763,1,0,0:0:0:0:
329,192,161763,128,0,161939:0:0:0:0:
256,192,161763,1,0,0:0:0:0:
182,192,161939,128,0,162290:0:0:0:0:
109,192,161939,128,0,162465:0:0:0:0:
402,192,162114,1,0,0:0:0:0:
402,192,162290,128,0,162465:0:0:0:0:
256,192,162290,1,0,0:0:0:0:
329,192,162290,1,0,0:0:0:0:
256,192,162465,128,0,162641:0:0:0:0:
182,192,162465,128,0,162816:0:0:0:0:
475,192,162465,1,0,0:0:0:0:
36,192,162465,1,0,0:0:0:0:
475,192,162641,1,0,0:0:0:0:
402,192,162728,1,0,0:0:0:0:
36,192,162816,1,0,0:0:0:0:
109,192,162816,128,0,162991:0:0:0:0:
329,192,162816,1,0,0:0:0:0:
256,192,162991,128,0,163167:0:0:0:0:
329,192,162991,128,0,163342:0:0:0:0:
402,192,163167,1,0,0:0:0:0:
475,192,163167,1,0,0:0:0:0:
109,192,163167,1,0,0:0:0:0:
36,192,163167,1,0,0:0:0:0:
182,192,163342,128,0,163518:0:0:0:0:
475,192,163518,128,0,163869:0:0:0:0:
256,192,163518,128,0,163693:0:0:0:0:
109,192,163693,1,0,0:0:0:0:
36,192,163693,1,0,0:0:0:0:
329,192,163693,1,0,0:0:0:0:
256,192,163869,128,0,164044:0:0:0:0:
182,192,163869,1,0,0:0:0:0:
402,192,163869,1,0,0:0:0:0:
36,192,163869,128,0,164220:0:0:0:0:
475,192,164044,1,0,0:0:0:0:
402,192,164044,1,0,0:0:0:0:
329,192,164132,1,0,0:0:0:0:
256,192,164220,1,0,0:0:0:0:
475,192,164220,1,0,0:0:0:0:
109,192,164220,128,0,164570:0:0:0:0:
329,192,164395,128,0,164570:0:0:0:0:
182,192,164570,128,0,165097:0:0:0:0:
475,192,164570,1,0,0:0:0:0:
36,192,164570,1,0,0:0:0:0:
256,192,164570,1,0,0:0:0:0:
402,192,164658,1,0,0:0:0:0:
329,192,164746,128,0,164921:0:0:0:0:
256,192,164921,128,0,165623:0:0:0:0:
109,192,165097,128,0,165272:0:0:0:0:
329,192,165097,1,0,0:0:0:0:
402,192,165097,1,0,0:0:0:0:
402,192,165272,128,0,165448:0:0:0:0:
475,192,165272,1,0,0:0:0:0:
182,192,165272,1,0,0:0:0:0:
36,192,165272,1,0,0:0:0:0:
329,192,165448,128,0,165974:0:0:0:0:
36,192,165535,1,0,0:0:0:0:
182,192,165623,128,0,165798:0:0:0:0:
109,192,165623,1,0,0:0:0:0:
402,192,165623,1,0,0:0:0:0:
475,192,165623,1,0,0:0:0:0:
475,192,165798,128,0,165974:0:0:0:0:
256,192,165974,128,0,166325:0:0:0:0:
402,192,165974,128,0,166676:0:0:0:0:
109,192,165974,1,0,0:0:0:0:
36,192,165974,1,0,0:0:0:0:
36,192,166149,1,0,0:0:0:0:
109,192,166237,1,0,0:0:0:0:
329,192,166325,128,0,166500:0:0:0:0:
182,192,166325,1,0,0:0:0:0:
475,192,166500,128,0,166851:0:0:0:0:
109,192,166500,1,0,0:0:0:0:
36,192,166500,1,0,0:0:0:0:
36,192,166676,1,0,0:0:0:0:
182,192,166676,1,0,0:0:0:0:
256,192,166676,1,0,0:0:0:0:
329,192,166676,1,0,0:0:0:0:
109,192,166851,128,0,167728:0:0:0:0:
182,192,166851,128,0,167904:0:0:0:0:
256,192,166939,1,0,0:0:0:0:
329,192,167027,1,0,0:0:0:0:
475,192,167027,1,0,0:0:0:0:
36,192,167027,1,0,0:0:0:0:
256,192,167202,1,0,0:0:0:0:
402,192,167202,1,0,0:0:0:0:
402,192,167377,1,0,0:0:0:0:
475,192,167377,1,0,0:0:0:0:
36,192,167377,1,0,0:0:0:0:
329,192,167377,1,0,0:0:0:0:
329,192,167553,1,0,0:0:0:0:
256,192,167553,1,0,0:0:0:0:
402,192,167728,1,0,0:0:0:0:
475,192,167728,1,0,0:0:0:0:
402,192,167904,1,0,0:0:0:0:
329,192,167904,1,0,0:0:0:0:
109,192,167904,1,0,0:0:0:0:
109,192,168079,128,0,168255:0:0:0:0:
36,192,168079,1,0,0:0:0:0:
256,192,168079,1,0,0:0:0:0:
329,192,168079,1,0,0:0:0:0:
402,192,168255,128,0,168430:0:0:0:0:
182,192,168255,128,0,168430:0:0:0:0:
329,192,168342,1,0,0:0:0:0:
256,192,168430,1,0,0:0:0:0:
109,192,168430,1,0,0:0:0:0:
36,192,168430,1,0,0:0:0:0:
475,192,168518,1,0,0:0:0:0:
402,192,168605,1,0,0:0:0:0:
36,192,168605,128,0,168781:0:0:0:0:
329,192,168693,1,0,0:0:0:0:
182,192,168781,1,0,0:0:0:0:
109,192,168781,1,0,0:0:0:0:
475,192,168781,1,0,0:0:0:0:
402,192,168781,1,0,0:0:0:0:
256,192,168869,1,0,0:0:0:0:
329,192,168956,128,0,169132:0:0:0:0:
36,192,168956,1,0,0:0:0:0:
109,192,169044,1,0,0:0:0:0:
182,192,169132,1,0,0:0:0:0:
256,192,169220,1,0,0:0:0:0:
402,192,169307,1,0,0:0:0:0:
475,192,169307,1,0,0:0:0:0:
109,192,169307,128,0,169483:0:0:0:0:
329,192,169395,1,0,0:0:0:0:
182,192,169483,1,0,0:0:0:0:
36,192,169483,1,0,0:0:0:0:
256,192,169483,1,0,0:0:0:0:
475,192,169483,1,0,0:0:0:0:
402,192,169570,1,0,0:0:0:0:
329,192,169658,128,0,169834:0:0:0:0:
182,192,169658,1,0,0:0:0:0:
109,192,169658,1,0,0:0:0:0:
109,192,169834,128,0,171149:0:0:0:0:
36,192,169834,128,0,171149:0:0:0:0:
256,192,169834,128,0,171149:0:0:0:0:
475,192,169834,128,0,171149:0:0:0:0:
402,192,169834,128,0,170184:0:0:0:0:
109,192,171237,128,0,171588:0:0:0:0:
182,192,171237,128,0,171588:0:0:0:0:
329,192,171237,128,0,171588:0:0:0:0:
475,192,171237,128,0,171588:0:0:0:0:
36,192,171237,1,0,0:0:0:0:
182,192,171763,128,0,172114:0:0:0:0:
256,192,171763,128,0,172114:0:0:0:0:
402,192,171763,128,0,172114:0:0:0:0:
36,192,171763,128,0,172114:0:0:0:0:
475,192,171763,1,0,0:0:0:0:
256,192,172290,128,0,172641:0:0:0:0:
329,192,172290,128,0,172904:0:0:0:0:
402,192,172290,128,0,172904:0:0:0:0:
475,192,172290,128,0,173430:0:0:0:0:
109,192,172290,1,0,0:0:0:0:
36,192,172641,1,0,0:0:0:0:
109,192,172728,1,0,0:0:0:0:
256,192,172816,1,0,0:0:0:0:
182,192,172904,1,0,0:0:0:0:
36,192,172991,1,0,0:0:0:0:
329,192,172991,128,0,173956:0:0:0:0:
402,192,172991,128,0,173956:0:0:0:0:
109,192,173079,1,0,0:0:0:0:
256,192,173167,1,0,0:0:0:0:
182,192,173255,1,0,0:0:0:0:
36,192,173342,1,0,0:0:0:0:
109,192,173430,1,0,0:0:0:0:
256,192,173518,1,0,0:0:0:0:
475,192,173518,128,0,173956:0:0:0:0:
182,192,173605,1,0,0:0:0:0:
36,192,173693,1,0,0:0:0:0:
109,192,173781,1,0,0:0:0:0:
256,192,173869,1,0,0:0:0:0:
182,192,173956,1,0,0:0:0:0:
329,192,174044,128,0,174307:0:0:0:0:
475,192,174044,128,0,174307:0:0:0:0:
402,192,174044,1,0,0:0:0:0:
109,192,174044,128,0,174307:0:0:0:0:
36,192,174044,128,0,174307:0:0:0:0:
329,192,174424,1,0,0:0:0:0:
182,192,174453,1,0,0:0:0:0:
256,192,174570,1,0,0:0:0:0:
329,192,174687,1,0,0:0:0:0:
182,192,174717,1,0,0:0:0:0:
36,192,174746,128,0,175009:0:0:0:0:
109,192,174746,128,0,175009:0:0:0:0:
402,192,174746,128,0,175009:0:0:0:0:
475,192,174746,128,0,175009:0:0:0:0:
329,192,175141,128,0,175228:0:0:0:0:
402,192,175184,1,0,0:0:0:0:
182,192,175316,128,0,175404:0:0:0:0:
109,192,175360,1,0,0:0:0:0:
256,192,175448,1,0,0:0:0:0:
36,192,175448,1,0,0:0:0:0:
402,192,175448,128,0,176149:0:0:0:0:
475,192,175448,128,0,176500:0:0:0:0:
109,192,175623,1,0,0:0:0:0:
329,192,175798,1,0,0:0:0:0:
36,192,175798,1,0,0:0:0:0:
256,192,175798,1,0,0:0:0:0:
182,192,175798,1,0,0:0:0:0:
329,192,175974,1,0,0:0:0:0:
109,192,176062,1,0,0:0:0:0:
256,192,176149,1,0,0:0:0:0:
36,192,176237,1,0,0:0:0:0:
182,192,176325,1,0,0:0:0:0:
329,192,176325,1,0,0:0:0:0:
402,192,176325,1,0,0:0:0:0:
256,192,176500,1,0,0:0:0:0:
329,192,176500,1,0,0:0:0:0:
109,192,176500,1,0,0:0:0:0:
36,192,176500,1,0,0:0:0:0:
182,192,176676,1,0,0:0:0:0:
402,192,176851,128,0,177202:0:0:0:0:
256,192,176851,128,0,177202:0:0:0:0:
36,192,176851,1,0,0:0:0:0:
109,192,177027,1,0,0:0:0:0:
182,192,177202,1,0,0:0:0:0:
329,192,177202,1,0,0:0:0:0:
475,192,177202,1,0,0:0:0:0:
36,192,177202,1,0,0:0:0:0:
182,192,177377,128,0,177728:0:0:0:0:
36,192,177377,128,0,177728:0:0:0:0:
402,192,177465,1,0,0:0:0:0:
256,192,177553,1,0,0:0:0:0:
329,192,177641,1,0,0:0:0:0:
402,192,177728,1,0,0:0:0:0:
109,192,177728,1,0,0:0:0:0:
475,192,177728,1,0,0:0:0:0:
329,192,177904,1,0,0:0:0:0:
475,192,177904,1,0,0:0:0:0:
109,192,177904,128,0,178956:0:0:0:0:
36,192,177904,128,0,179307:0:0:0:0:
182,192,178079,1,0,0:0:0:0:
402,192,178079,1,0,0:0:0:0:
182,192,178255,1,0,0:0:0:0:
402,192,178255,1,0,0:0:0:0:
475,192,178255,1,0,0:0:0:0:
329,192,178430,1,0,0:0:0:0:
256,192,178605,1,0,0:0:0:0:
402,192,178605,1,0,0:0:0:0:
475,192,178605,1,0,0:0:0:0:
182,192,178605,1,0,0:0:0:0:
256,192,178781,1,0,0:0:0:0:
475,192,178869,1,0,0:0:0:0:
329,192,178956,1,0,0:0:0:0:
256,192,179044,1,0,0:0:0:0:
402,192,179132,1,0,0:0:0:0:
475,192,179132,1,0,0:0:0:0:
182,192,179132,1,0,0:0:0:0:
109,192,179307,1,0,0:0:0:0:
182,192,179307,1,0,0:0:0:0:
329,192,179307,1,0,0:0:0:0:
402,192,179307,1,0,0:0:0:0:
256,192,179483,1,0,0:0:0:0:
182,192,179658,128,0,180184:0:0:0:0:
329,192,179658,128,0,180184:0:0:0:0:
475,192,179658,1,0,0:0:0:0:
402,192,179834,1,0,0:0:0:0:
109,192,180009,1,0,0:0:0:0:
36,192,180009,1,0,0:0:0:0:
256,192,180009,1,0,0:0:0:0:
475,192,180009,1,0,0:0:0:0:
402,192,180184,1,0,0:0:0:0:
256,192,180272,1,0,0:0:0:0:
109,192,180360,128,0,180886:0:0:0:0:
402,192,180360,128,0,180886:0:0:0:0:
36,192,180360,1,0,0:0:0:0:
182,192,180448,1,0,0:0:0:0:
329,192,180535,1,0,0:0:0:0:
475,192,180535,1,0,0:0:0:0:
36,192,180711,1,0,0:0:0:0:
256,192,180711,1,0,0:0:0:0:
475,192,180711,1,0,0:0:0:0:
182,192,180711,1,0,0:0:0:0:
256,192,180886,1,0,0:0:0:0:
329,192,180886,1,0,0:0:0:0:
182,192,181062,1,0,0:0:0:0:
329,192,181062,128,0,181763:0:0:0:0:
402,192,181062,128,0,182114:0:0:0:0:
109,192,181237,1,0,0:0:0:0:
36,192,181412,1,0,0:0:0:0:
182,192,181412,1,0,0:0:0:0:
256,192,181412,1,0,0:0:0:0:
475,192,181412,1,0,0:0:0:0:
36,192,181588,1,0,0:0:0:0:
182,192,181676,1,0,0:0:0:0:
109,192,181763,1,0,0:0:0:0:
256,192,181851,1,0,0:0:0:0:
182,192,181939,1,0,0:0:0:0:
36,192,181939,1,0,0:0:0:0:
475,192,181939,1,0,0:0:0:0:
36,192,182114,1,0,0:0:0:0:
109,192,182114,1,0,0:0:0:0:
256,192,182114,1,0,0:0:0:0:
329,192,182114,1,0,0:0:0:0:
402,192,182290,1,0,0:0:0:0:
109,192,182465,128,0,182816:0:0:0:0:
256,192,182465,128,0,182816:0:0:0:0:
475,192,182465,1,0,0:0:0:0:
329,192,182641,1,0,0:0:0:0:
182,192,182816,1,0,0:0:0:0:
36,192,182816,1,0,0:0:0:0:
402,192,182816,1,0,0:0:0:0:
475,192,182816,1,0,0:0:0:0:
329,192,182991,128,0,183342:0:0:0:0:
182,192,182991,128,0,183342:0:0:0:0:
36,192,183079,1,0,0:0:0:0:
256,192,183167,1,0,0:0:0:0:
475,192,183255,1,0,0:0:0:0:
109,192,183342,1,0,0:0:0:0:
36,192,183342,1,0,0:0:0:0:
402,192,183342,128,0,183518:0:0:0:0:
36,192,183518,128,0,184921:0:0:0:0:
182,192,183518,128,0,184570:0:0:0:0:
256,192,183518,1,0,0:0:0:0:
329,192,183518,1,0,0:0:0:0:
402,192,183693,1,0,0:0:0:0:
475,192,183693,1,0,0:0:0:0:
475,192,183869,1,0,0:0:0:0:
402,192,183869,1,0,0:0:0:0:
109,192,183869,1,0,0:0:0:0:
256,192,184044,1,0,0:0:0:0:
329,192,184220,1,0,0:0:0:0:
109,192,184220,1,0,0:0:0:0:
402,192,184220,1,0,0:0:0:0:
475,192,184220,1,0,0:0:0:0:
329,192,184395,1,0,0:0:0:0:
402,192,184483,1,0,0:0:0:0:
475,192,184570,1,0,0:0:0:0:
329,192,184658,1,0,0:0:0:0:
182,192,184746,1,0,0:0:0:0:
109,192,184746,1,0,0:0:0:0:
256,192,184921,1,0,0:0:0:0:
109,192,184921,1,0,0:0:0:0:
402,192,184921,1,0,0:0:0:0:
475,192,184921,1,0,0:0:0:0:
329,192,185097,1,0,0:0:0:0:
36,192,185272,1,0,0:0:0:0:
182,192,185272,128,0,185623:0:0:0:0:
475,192,185272,128,0,185623:0:0:0:0:
256,192,185448,1,0,0:0:0:0:
329,192,185623,1,0,0:0:0:0:
402,192,185623,1,0,0:0:0:0:
109,192,185623,1,0,0:0:0:0:
36,192,185623,1,0,0:0:0:0:
256,192,185798,128,0,186149:0:0:0:0:
402,192,185798,128,0,186149:0:0:0:0:
182,192,185886,1,0,0:0:0:0:
109,192,185974,1,0,0:0:0:0:
36,192,186062,1,0,0:0:0:0:
182,192,186149,1,0,0:0:0:0:
329,192,186149,1,0,0:0:0:0:
475,192,186149,1,0,0:0:0:0:
109,192,186325,128,0,186676:0:0:0:0:
256,192,186325,128,0,186676:0:0:0:0:
36,192,186325,1,0,0:0:0:0:
475,192,186325,1,0,0:0:0:0:
402,192,186500,1,0,0:0:0:0:
329,192,186500,1,0,0:0:0:0:
329,192,186676,1,0,0:0:0:0:
402,192,186676,1,0,0:0:0:0:
182,192,186676,1,0,0:0:0:0:
256,192,186851,128,0,187027:0:0:0:0:
36,192,187027,128,0,187728:0:0:0:0:
329,192,187027,128,0,187728:0:0:0:0:
475,192,187027,1,0,0:0:0:0:
109,192,187027,1,0,0:0:0:0:
256,192,187202,1,0,0:0:0:0:
182,192,187290,1,0,0:0:0:0:
109,192,187377,1,0,0:0:0:0:
256,192,187465,1,0,0:0:0:0:
475,192,187553,1,0,0:0:0:0:
402,192,187553,1,0,0:0:0:0:
109,192,187728,1,0,0:0:0:0:
182,192,187728,1,0,0:0:0:0:
402,192,187728,1,0,0:0:0:0:
475,192,187728,1,0,0:0:0:0:
256,192,187904,1,0,0:0:0:0:
182,192,188079,128,0,188430:0:0:0:0:
36,192,188079,128,0,188430:0:0:0:0:
402,192,188079,1,0,0:0:0:0:
329,192,188255,1,0,0:0:0:0:
256,192,188430,1,0,0:0:0:0:
109,192,188430,1,0,0:0:0:0:
402,192,188430,1,0,0:0:0:0:
475,192,188430,1,0,0:0:0:0:
182,192,188605,128,0,188956:0:0:0:0:
329,192,188605,128,0,188956:0:0:0:0:
109,192,188693,1,0,0:0:0:0:
36,192,188781,1,0,0:0:0:0:
402,192,188869,1,0,0:0:0:0:
475,192,188956,1,0,0:0:0:0:
256,192,188956,1,0,0:0:0:0:
36,192,188956,1,0,0:0:0:0:
109,192,189132,1,0,0:0:0:0:
475,192,189132,128,0,190535:0:0:0:0:
329,192,189132,128,0,190184:0:0:0:0:
182,192,189132,1,0,0:0:0:0:
36,192,189307,1,0,0:0:0:0:
256,192,189307,1,0,0:0:0:0:
36,192,189483,1,0,0:0:0:0:
256,192,189483,1,0,0:0:0:0:
402,192,189483,1,0,0:0:0:0:
109,192,189658,1,0,0:0:0:0:
182,192,189834,1,0,0:0:0:0:
256,192,189834,1,0,0:0:0:0:
36,192,189834,1,0,0:0:0:0:
402,192,189834,1,0,0:0:0:0:
182,192,190009,1,0,0:0:0:0:
109,192,190097,1,0,0:0:0:0:
256,192,190184,1,0,0:0:0:0:
182,192,190272,1,0,0:0:0:0:
36,192,190360,1,0,0:0:0:0:
329,192,190360,1,0,0:0:0:0:
109,192,190360,1,0,0:0:0:0:
36,192,190535,1,0,0:0:0:0:
182,192,190535,1,0,0:0:0:0:
329,192,190535,1,0,0:0:0:0:
402,192,190535,1,0,0:0:0:0:
256,192,190711,1,0,0:0:0:0:
402,192,190886,128,0,191412:0:0:0:0:
36,192,190886,128,0,191676:0:0:0:0:
475,192,190886,1,0,0:0:0:0:
329,192,191062,1,0,0:0:0:0:
109,192,191237,1,0,0:0:0:0:
182,192,191237,1,0,0:0:0:0:
256,192,191237,1,0,0:0:0:0:
475,192,191237,1,0,0:0:0:0:
329,192,191412,1,0,0:0:0:0:
182,192,191500,128,0,191676:0:0:0:0:
329,192,191588,128,0,191676:0:0:0:0:
402,192,191588,128,0,191676:0:0:0:0:
475,192,191588,1,0,0:0:0:0:
402,192,191763,128,0,191851:0:0:0:0:
475,192,191763,128,0,191851:0:0:0:0:
36,192,191763,1,0,0:0:0:0:
256,192,191939,1,0,0:0:0:0:
182,192,192017,1,0,0:0:0:0:
329,192,192056,1,0,0:0:0:0:
109,192,192095,1,0,0:0:0:0:
256,192,192114,1,0,0:0:0:0:
402,192,192134,1,0,0:0:0:0:
182,192,192173,1,0,0:0:0:0:
329,192,192212,1,0,0:0:0:0:
256,192,192290,1,0,0:0:0:0:
109,192,192290,1,0,0:0:0:0:
36,192,192290,1,0,0:0:0:0:
402,192,192290,1,0,0:0:0:0:
475,192,192290,1,0,0:0:0:0:
329,192,192465,1,0,0:0:0:0:
475,192,192465,1,0,0:0:0:0:
182,192,192465,1,0,0:0:0:0:
109,192,192553,1,0,0:0:0:0:
36,192,192641,1,0,0:0:0:0:
256,192,192641,1,0,0:0:0:0:
402,192,192641,1,0,0:0:0:0:
475,192,192641,1,0,0:0:0:0:
182,192,192728,1,0,0:0:0:0:
109,192,192816,1,0,0:0:0:0:
329,192,192816,1,0,0:0:0:0:
36,192,192816,1,0,0:0:0:0:
256,192,192904,1,0,0:0:0:0:
182,192,192991,1,0,0:0:0:0:
402,192,192991,1,0,0:0:0:0:
109,192,192991,1,0,0:0:0:0:
329,192,193079,1,0,0:0:0:0:
182,192,193167,1,0,0:0:0:0:
256,192,193167,1,0,0:0:0:0:
36,192,193167,1,0,0:0:0:0:
329,192,193255,1,0,0:0:0:0:
402,192,193342,1,0,0:0:0:0:
36,192,193342,1,0,0:0:0:0:
475,192,193342,1,0,0:0:0:0:
109,192,193342,1,0,0:0:0:0:
182,192,193430,1,0,0:0:0:0:
256,192,193518,1,0,0:0:0:0:
402,192,193518,1,0,0:0:0:0:
329,192,193605,1,0,0:0:0:0:
182,192,193693,1,0,0:0:0:0:
475,192,193693,1,0,0:0:0:0:
36,192,193693,1,0,0:0:0:0:
402,192,193781,1,0,0:0:0:0:
329,192,193869,1,0,0:0:0:0:
109,192,193869,1,0,0:0:0:0:
256,192,193956,1,0,0:0:0:0:
182,192,194044,1,0,0:0:0:0:
402,192,194044,1,0,0:0:0:0:
475,192,194044,1,0,0:0:0:0:
36,192,194044,1,0,0:0:0:0:
329,192,194132,1,0,0:0:0:0:
256,192,194220,1,0,0:0:0:0:
36,192,194220,1,0,0:0:0:0:
109,192,194307,1,0,0:0:0:0:
182,192,194395,1,0,0:0:0:0:
402,192,194395,1,0,0:0:0:0:
475,192,194395,1,0,0:0:0:0:
329,192,194483,1,0,0:0:0:0:
256,192,194570,1,0,0:0:0:0:
109,192,194570,1,0,0:0:0:0:
475,192,194570,1,0,0:0:0:0:
402,192,194658,1,0,0:0:0:0:
329,192,194746,1,0,0:0:0:0:
182,192,194746,1,0,0:0:0:0:
36,192,194746,1,0,0:0:0:0:
109,192,194746,1,0,0:0:0:0:
402,192,194834,1,0,0:0:0:0:
256,192,194921,1,0,0:0:0:0:
475,192,194921,1,0,0:0:0:0:
36,192,194921,1,0,0:0:0:0:
109,192,195009,1,0,0:0:0:0:
402,192,195097,1,0,0:0:0:0:
182,192,195097,1,0,0:0:0:0:
475,192,195097,1,0,0:0:0:0:
329,192,195184,1,0,0:0:0:0:
256,192,195272,1,0,0:0:0:0:
109,192,195272,1,0,0:0:0:0:
182,192,195360,1,0,0:0:0:0:
329,192,195448,1,0,0:0:0:0:
402,192,195448,1,0,0:0:0:0:
36,192,195448,1,0,0:0:0:0:
475,192,195448,1,0,0:0:0:0:
256,192,195535,1,0,0:0:0:0:
109,192,195623,1,0,0:0:0:0:
402,192,195623,1,0,0:0:0:0:
329,192,195711,1,0,0:0:0:0:
256,192,195798,1,0,0:0:0:0:
182,192,195798,1,0,0:0:0:0:
475,192,195798,1,0,0:0:0:0:
109,192,195886,1,0,0:0:0:0:
329,192,195974,1,0,0:0:0:0:
256,192,195974,1,0,0:0:0:0:
36,192,195974,1,0,0:0:0:0:
182,192,196062,1,0,0:0:0:0:
109,192,196149,1,0,0:0:0:0:
329,192,196149,1,0,0:0:0:0:
402,192,196149,1,0,0:0:0:0:
36,192,196149,1,0,0:0:0:0:
182,192,196237,1,0,0:0:0:0:
475,192,196325,1,0,0:0:0:0:
402,192,196325,1,0,0:0:0:0:
256,192,196325,1,0,0:0:0:0:
109,192,196412,1,0,0:0:0:0:
182,192,196500,1,0,0:0:0:0:
329,192,196500,1,0,0:0:0:0:
475,192,196500,1,0,0:0:0:0:
36,192,196588,1,0,0:0:0:0:
109,192,196676,1,0,0:0:0:0:
402,192,196676,1,0,0:0:0:0:
182,192,196763,1,0,0:0:0:0:
329,192,196851,1,0,0:0:0:0:
475,192,196851,1,0,0:0:0:0:
256,192,196851,1,0,0:0:0:0:
36,192,196851,1,0,0:0:0:0:
109,192,196939,1,0,0:0:0:0:
475,192,197027,1,0,0:0:0:0:
182,192,197027,1,0,0:0:0:0:
402,192,197114,1,0,0:0:0:0:
256,192,197202,1,0,0:0:0:0:
329,192,197202,1,0,0:0:0:0:
36,192,197290,1,0,0:0:0:0:
329,192,197377,1,0,0:0:0:0:
402,192,197377,1,0,0:0:0:0:
182,192,197377,1,0,0:0:0:0:
109,192,197465,1,0,0:0:0:0:
36,192,197553,1,0,0:0:0:0:
256,192,197553,1,0,0:0:0:0:
402,192,197553,1,0,0:0:0:0:
475,192,197553,1,0,0:0:0:0:
182,192,197641,1,0,0:0:0:0:
109,192,197728,1,0,0:0:0:0:
329,192,197728,1,0,0:0:0:0:
36,192,197728,1,0,0:0:0:0:
256,192,197816,1,0,0:0:0:0:
182,192,197904,1,0,0:0:0:0:
109,192,197904,1,0,0:0:0:0:
402,192,197904,1,0,0:0:0:0:
329,192,197991,1,0,0:0:0:0:
475,192,198079,1,0,0:0:0:0:
256,192,198079,1,0,0:0:0:0:
36,192,198079,1,0,0:0:0:0:
109,192,198167,1,0,0:0:0:0:
402,192,198255,1,0,0:0:0:0:
475,192,198255,1,0,0:0:0:0:
182,192,198255,1,0,0:0:0:0:
329,192,198255,1,0,0:0:0:0:
109,192,198342,1,0,0:0:0:0:
256,192,198430,1,0,0:0:0:0:
36,192,198430,1,0,0:0:0:0:
329,192,198518,1,0,0:0:0:0:
182,192,198605,1,0,0:0:0:0:
402,192,198605,1,0,0:0:0:0:
109,192,198693,1,0,0:0:0:0:
256,192,198781,1,0,0:0:0:0:
36,192,198781,1,0,0:0:0:0:
402,192,198781,1,0,0:0:0:0:
329,192,198869,1,0,0:0:0:0:
182,192,198956,1,0,0:0:0:0:
475,192,198956,1,0,0:0:0:0:
109,192,198956,1,0,0:0:0:0:
36,192,198956,1,0,0:0:0:0:
256,192,199044,1,0,0:0:0:0:
329,192,199132,1,0,0:0:0:0:
109,192,199132,1,0,0:0:0:0:
182,192,199220,1,0,0:0:0:0:
256,192,199307,1,0,0:0:0:0:
402,192,199307,1,0,0:0:0:0:
475,192,199307,1,0,0:0:0:0:
36,192,199395,1,0,0:0:0:0:
109,192,199483,1,0,0:0:0:0:
329,192,199483,1,0,0:0:0:0:
256,192,199570,1,0,0:0:0:0:
36,192,199658,1,0,0:0:0:0:
402,192,199658,1,0,0:0:0:0:
475,192,199658,1,0,0:0:0:0:
182,192,199658,1,0,0:0:0:0:
329,192,199746,1,0,0:0:0:0:
109,192,199834,1,0,0:0:0:0:
475,192,199834,1,0,0:0:0:0:
256,192,199834,1,0,0:0:0:0:
402,192,199921,1,0,0:0:0:0:
329,192,200009,1,0,0:0:0:0:
36,192,200009,1,0,0:0:0:0:
109,192,200009,1,0,0:0:0:0:
182,192,200097,1,0,0:0:0:0:
256,192,200184,1,0,0:0:0:0:
402,192,200184,1,0,0:0:0:0:
475,192,200184,1,0,0:0:0:0:
182,192,200272,1,0,0:0:0:0:
109,192,200360,1,0,0:0:0:0:
329,192,200360,1,0,0:0:0:0:
402,192,200360,1,0,0:0:0:0:
36,192,200360,1,0,0:0:0:0:
256,192,200448,1,0,0:0:0:0:
182,192,200535,1,0,0:0:0:0:
36,192,200535,1,0,0:0:0:0:
475,192,200535,1,0,0:0:0:0:
256,192,200623,1,0,0:0:0:0:
329,192,200711,1,0,0:0:0:0:
475,192,200711,1,0,0:0:0:0:
109,192,200711,1,0,0:0:0:0:
182,192,200798,1,0,0:0:0:0:
36,192,200886,1,0,0:0:0:0:
256,192,200886,1,0,0:0:0:0:
109,192,200974,1,0,0:0:0:0:
182,192,201062,1,0,0:0:0:0:
402,192,201062,1,0,0:0:0:0:
475,192,201062,1,0,0:0:0:0:
329,192,201062,1,0,0:0:0:0:
256,192,201149,1,0,0:0:0:0:
402,192,201237,1,0,0:0:0:0:
109,192,201237,1,0,0:0:0:0:
329,192,201325,1,0,0:0:0:0:
36,192,201412,1,0,0:0:0:0:
256,192,201412,1,0,0:0:0:0:
182,192,201500,1,0,0:0:0:0:
402,192,201588,1,0,0:0:0:0:
109,192,201588,1,0,0:0:0:0:
329,192,201588,1,0,0:0:0:0:
256,192,201676,1,0,0:0:0:0:
182,192,201763,1,0,0:0:0:0:
36,192,201763,1,0,0:0:0:0:
402,192,201763,1,0,0:0:0:0:
475,192,201763,1,0,0:0:0:0:
329,192,201851,1,0,0:0:0:0:
256,192,201939,1,0,0:0:0:0:
109,192,201939,1,0,0:0:0:0:
36,192,201939,1,0,0:0:0:0:
329,192,202027,1,0,0:0:0:0:
182,192,202114,1,0,0:0:0:0:
402,192,202114,1,0,0:0:0:0:
109,192,202114,1,0,0:0:0:0:
256,192,202202,1,0,0:0:0:0:
475,192,202290,1,0,0:0:0:0:
402,192,202290,1,0,0:0:0:0:
36,192,202290,1,0,0:0:0:0:
329,192,202377,1,0,0:0:0:0:
182,192,202465,1,0,0:0:0:0:
36,192,202465,1,0,0:0:0:0:
475,192,202465,1,0,0:0:0:0:
256,192,202465,1,0,0:0:0:0:
402,192,202553,1,0,0:0:0:0:
329,192,202641,1,0,0:0:0:0:
182,192,202641,1,0,0:0:0:0:
109,192,202641,1,0,0:0:0:0:
475,192,202728,1,0,0:0:0:0:
256,192,202816,1,0,0:0:0:0:
329,192,202816,1,0,0:0:0:0:
36,192,202816,1,0,0:0:0:0:
109,192,202904,1,0,0:0:0:0:
256,192,202991,1,0,0:0:0:0:
182,192,202991,1,0,0:0:0:0:
402,192,202991,1,0,0:0:0:0:
36,192,203079,1,0,0:0:0:0:
329,192,203167,1,0,0:0:0:0:
402,192,203167,1,0,0:0:0:0:
475,192,203167,1,0,0:0:0:0:
109,192,203167,1,0,0:0:0:0:
182,192,203255,1,0,0:0:0:0:
329,192,203342,1,0,0:0:0:0:
256,192,203342,1,0,0:0:0:0:
36,192,203342,1,0,0:0:0:0:
109,192,203430,1,0,0:0:0:0:
475,192,203518,1,0,0:0:0:0:
402,192,203518,1,0,0:0:0:0:
182,192,203518,1,0,0:0:0:0:
329,192,203605,1,0,0:0:0:0:
256,192,203693,1,0,0:0:0:0:
475,192,203693,1,0,0:0:0:0:
36,192,203693,1,0,0:0:0:0:
402,192,203781,1,0,0:0:0:0:
329,192,203869,1,0,0:0:0:0:
109,192,203869,1,0,0:0:0:0:
36,192,203869,1,0,0:0:0:0:
182,192,203869,1,0,0:0:0:0:
402,192,203956,1,0,0:0:0:0:
475,192,204044,1,0,0:0:0:0:
256,192,204044,1,0,0:0:0:0:
182,192,204044,1,0,0:0:0:0:
329,192,204132,1,0,0:0:0:0:
402,192,204220,1,0,0:0:0:0:
109,192,204220,1,0,0:0:0:0:
36,192,204220,1,0,0:0:0:0:
182,192,204307,1,0,0:0:0:0:
475,192,204395,1,0,0:0:0:0:
256,192,204395,1,0,0:0:0:0:
402,192,204395,1,0,0:0:0:0:
182,192,204483,1,0,0:0:0:0:
109,192,204570,1,0,0:0:0:0:
329,192,204570,1,0,0:0:0:0:
475,192,204570,1,0,0:0:0:0:
36,192,204570,1,0,0:0:0:0:
256,192,204658,1,0,0:0:0:0:
182,192,204746,1,0,0:0:0:0:
109,192,204746,1,0,0:0:0:0:
402,192,204746,1,0,0:0:0:0:
329,192,204834,1,0,0:0:0:0:
256,192,204921,1,0,0:0:0:0:
182,192,204921,1,0,0:0:0:0:
475,192,204921,1,0,0:0:0:0:
109,192,205009,1,0,0:0:0:0:
256,192,205097,1,0,0:0:0:0:
329,192,205097,1,0,0:0:0:0:
36,192,205097,1,0,0:0:0:0:
109,192,205184,1,0,0:0:0:0:
182,192,205272,1,0,0:0:0:0:
329,192,205272,1,0,0:0:0:0:
402,192,205272,1,0,0:0:0:0:
475,192,205272,1,0,0:0:0:0:
36,192,205360,1,0,0:0:0:0:
402,192,205448,1,0,0:0:0:0:
475,192,205448,1,0,0:0:0:0:
256,192,205448,1,0,0:0:0:0:
182,192,205535,1,0,0:0:0:0:
109,192,205623,1,0,0:0:0:0:
329,192,205623,1,0,0:0:0:0:
36,192,205623,1,0,0:0:0:0:
256,192,205711,1,0,0:0:0:0:
402,192,205798,1,0,0:0:0:0:
475,192,205798,1,0,0:0:0:0:
182,192,205798,1,0,0:0:0:0:
256,192,205886,1,0,0:0:0:0:
329,192,205974,1,0,0:0:0:0:
109,192,205974,1,0,0:0:0:0:
36,192,205974,1,0,0:0:0:0:
475,192,205974,1,0,0:0:0:0:
182,192,206062,1,0,0:0:0:0:
256,192,206149,1,0,0:0:0:0:
329,192,206149,1,0,0:0:0:0:
36,192,206149,1,0,0:0:0:0:
109,192,206237,1,0,0:0:0:0:
182,192,206325,1,0,0:0:0:0:
256,192,206325,1,0,0:0:0:0:
402,192,206325,1,0,0:0:0:0:
36,192,206412,1,0,0:0:0:0:
402,192,206500,1,0,0:0:0:0:
475,192,206500,1,0,0:0:0:0:
182,192,206500,1,0,0:0:0:0:
329,192,206588,1,0,0:0:0:0:
36,192,206676,1,0,0:0:0:0:
256,192,206676,1,0,0:0:0:0:
475,192,206676,1,0,0:0:0:0:
109,192,206676,1,0,0:0:0:0:
402,192,206763,1,0,0:0:0:0:
182,192,206851,1,0,0:0:0:0:
36,192,206851,1,0,0:0:0:0:
329,192,206851,1,0,0:0:0:0:
402,192,206939,1,0,0:0:0:0:
256,192,207027,1,0,0:0:0:0:
109,192,207027,1,0,0:0:0:0:
329,192,207114,1,0,0:0:0:0:
402,192,207202,1,0,0:0:0:0:
475,192,207202,1,0,0:0:0:0:
109,192,207202,1,0,0:0:0:0:
182,192,207290,1,0,0:0:0:0:
36,192,207377,1,0,0:0:0:0:
256,192,207377,1,0,0:0:0:0:
402,192,207377,1,0,0:0:0:0:
475,192,207377,1,0,0:0:0:0:
109,192,207465,1,0,0:0:0:0:
182,192,207553,1,0,0:0:0:0:
329,192,207553,1,0,0:0:0:0:
402,192,207553,1,0,0:0:0:0:
109,192,207641,1,0,0:0:0:0:
36,192,207728,1,0,0:0:0:0:
256,192,207728,1,0,0:0:0:0:
329,192,207728,1,0,0:0:0:0:
475,192,207816,1,0,0:0:0:0:
109,192,207904,1,0,0:0:0:0:
36,192,207904,1,0,0:0:0:0:
256,192,207904,1,0,0:0:0:0:
329,192,207991,1,0,0:0:0:0:
182,192,208079,1,0,0:0:0:0:
109,192,208079,1,0,0:0:0:0:
475,192,208079,1,0,0:0:0:0:
402,192,208079,1,0,0:0:0:0:
256,192,208167,1,0,0:0:0:0:
329,192,208255,1,0,0:0:0:0:
402,192,208255,1,0,0:0:0:0:
36,192,208255,1,0,0:0:0:0:
109,192,208342,1,0,0:0:0:0:
182,192,208430,1,0,0:0:0:0:
329,192,208430,1,0,0:0:0:0:
402,192,208518,1,0,0:0:0:0:
256,192,208605,1,0,0:0:0:0:
475,192,208605,1,0,0:0:0:0:
36,192,208605,1,0,0:0:0:0:
402,192,208693,1,0,0:0:0:0:
109,192,208781,1,0,0:0:0:0:
36,192,208781,1,0,0:0:0:0:
329,192,208781,1,0,0:0:0:0:
182,192,208781,1,0,0:0:0:0:
256,192,208869,1,0,0:0:0:0:
109,192,208956,1,0,0:0:0:0:
402,192,208956,1,0,0:0:0:0:
475,192,208956,1,0,0:0:0:0:
182,192,209044,1,0,0:0:0:0:
475,192,209132,1,0,0:0:0:0:
402,192,209132,1,0,0:0:0:0:
256,192,209132,1,0,0:0:0:0:
182,192,209220,1,0,0:0:0:0:
109,192,209307,1,0,0:0:0:0:
36,192,209307,1,0,0:0:0:0:
329,192,209307,1,0,0:0:0:0:
256,192,209395,1,0,0:0:0:0:
182,192,209483,1,0,0:0:0:0:
36,192,209483,1,0,0:0:0:0:
402,192,209483,1,0,0:0:0:0:
475,192,209483,1,0,0:0:0:0:
329,192,209570,1,0,0:0:0:0:
256,192,209658,1,0,0:0:0:0:
109,192,209658,1,0,0:0:0:0:
475,192,209658,1,0,0:0:0:0:
329,192,209746,1,0,0:0:0:0:
402,192,209834,1,0,0:0:0:0:
109,192,209834,1,0,0:0:0:0:
36,192,209834,1,0,0:0:0:0:
182,192,209921,1,0,0:0:0:0:
256,192,210009,1,0,0:0:0:0:
402,192,210009,1,0,0:0:0:0:
475,192,210009,1,0,0:0:0:0:
36,192,210097,1,0,0:0:0:0:
109,192,210184,1,0,0:0:0:0:
329,192,210184,1,0,0:0:0:0:
475,192,210184,1,0,0:0:0:0:
402,192,210184,1,0,0:0:0:0:
182,192,210272,1,0,0:0:0:0:
109,192,210360,1,0,0:0:0:0:
36,192,210360,1,0,0:0:0:0:
329,192,210360,1,0,0:0:0:0:
256,192,210448,1,0,0:0:0:0:
182,192,210535,1,0,0:0:0:0:
475,192,210535,1,0,0:0:0:0:
36,192,210535,1,0,0:0:0:0:
402,192,210623,1,0,0:0:0:0:
329,192,210711,1,0,0:0:0:0:
256,192,210711,1,0,0:0:0:0:
109,192,210711,1,0,0:0:0:0:
36,192,210798,1,0,0:0:0:0:
329,192,210886,1,0,0:0:0:0:
402,192,210886,1,0,0:0:0:0:
182,192,210886,1,0,0:0:0:0:
475,192,210886,1,0,0:0:0:0:
109,192,210974,1,0,0:0:0:0:
256,192,211062,1,0,0:0:0:0:
36,192,211062,1,0,0:0:0:0:
402,192,211062,1,0,0:0:0:0:
109,192,211149,1,0,0:0:0:0:
182,192,211237,1,0,0:0:0:0:
329,192,211237,1,0,0:0:0:0:
402,192,211325,1,0,0:0:0:0:
475,192,211412,1,0,0:0:0:0:
256,192,211412,1,0,0:0:0:0:
109,192,211412,1,0,0:0:0:0:
402,192,211500,1,0,0:0:0:0:
329,192,211588,1,0,0:0:0:0:
109,192,211588,1,0,0:0:0:0:
36,192,211588,1,0,0:0:0:0:
182,192,211588,1,0,0:0:0:0:
475,192,211676,1,0,0:0:0:0:
182,192,211763,1,0,0:0:0:0:
329,192,211763,1,0,0:0:0:0:
256,192,211763,1,0,0:0:0:0:
36,192,211851,1,0,0:0:0:0:
329,192,211939,1,0,0:0:0:0:
402,192,211939,1,0,0:0:0:0:
475,192,211939,1,0,0:0:0:0:
256,192,212027,1,0,0:0:0:0:
182,192,212114,1,0,0:0:0:0:
36,192,212114,1,0,0:0:0:0:
329,192,212202,1,0,0:0:0:0:
109,192,212290,1,0,0:0:0:0:
256,192,212290,1,0,0:0:0:0:
475,192,212290,1,0,0:0:0:0:
36,192,212290,1,0,0:0:0:0:
402,192,212377,1,0,0:0:0:0:
329,192,212465,1,0,0:0:0:0:
109,192,212465,1,0,0:0:0:0:
182,192,212553,1,0,0:0:0:0:
256,192,212641,1,0,0:0:0:0:
475,192,212641,1,0,0:0:0:0:
402,192,212728,1,0,0:0:0:0:
329,192,212816,1,0,0:0:0:0:
256,192,212816,1,0,0:0:0:0:
36,192,212816,1,0,0:0:0:0:
109,192,212904,1,0,0:0:0:0:
329,192,212991,1,0,0:0:0:0:
402,192,212991,1,0,0:0:0:0:
182,192,212991,1,0,0:0:0:0:
475,192,212991,1,0,0:0:0:0:
109,192,213079,1,0,0:0:0:0:
402,192,213167,1,0,0:0:0:0:
256,192,213167,1,0,0:0:0:0:
475,192,213167,1,0,0:0:0:0:
182,192,213255,1,0,0:0:0:0:
109,192,213342,1,0,0:0:0:0:
36,192,213342,1,0,0:0:0:0:
329,192,213342,1,0,0:0:0:0:
256,192,213430,1,0,0:0:0:0:
182,192,213518,1,0,0:0:0:0:
402,192,213518,1,0,0:0:0:0:
329,192,213605,1,0,0:0:0:0:
256,192,213693,1,0,0:0:0:0:
109,192,213693,1,0,0:0:0:0:
475,192,213693,1,0,0:0:0:0:
36,192,213693,1,0,0:0:0:0:
402,192,213781,1,0,0:0:0:0:
329,192,213869,1,0,0:0:0:0:
182,192,213869,1,0,0:0:0:0:
402,192,213956,1,0,0:0:0:0:
36,192,214044,1,0,0:0:0:0:
182,192,214044,1,0,0:0:0:0:
256,192,214044,1,0,0:0:0:0:
329,192,214132,1,0,0:0:0:0:
109,192,214220,1,0,0:0:0:0:
402,192,214220,1,0,0:0:0:0:
475,192,214220,1,0,0:0:0:0:
182,192,214307,1,0,0:0:0:0:
256,192,214395,1,0,0:0:0:0:
475,192,214395,1,0,0:0:0:0:
36,192,214395,1,0,0:0:0:0:
329,192,214395,1,0,0:0:0:0:
109,192,214483,1,0,0:0:0:0:
256,192,214570,1,0,0:0:0:0:
182,192,214570,1,0,0:0:0:0:
475,192,214570,1,0,0:0:0:0:
329,192,214658,1,0,0:0:0:0:
182,192,214746,1,0,0:0:0:0:
36,192,214746,1,0,0:0:0:0:
109,192,214746,1,0,0:0:0:0:
402,192,214746,1,0,0:0:0:0:
329,192,214834,1,0,0:0:0:0:
256,192,214921,1,0,0:0:0:0:
109,192,215009,1,0,0:0:0:0:
182,192,215097,1,0,0:0:0:0:
329,192,215184,1,0,0:0:0:0:
402,192,215272,1,0,0:0:0:0:
36,192,215272,1,0,0:0:0:0:
475,192,215272,1,0,0:0:0:0:
109,192,215360,1,0,0:0:0:0:
182,192,215448,1,0,0:0:0:0:
329,192,215535,1,0,0:0:0:0:
475,192,215623,1,0,0:0:0:0:
256,192,215711,1,0,0:0:0:0:
109,192,215798,1,0,0:0:0:0:
36,192,215798,1,0,0:0:0:0:
402,192,215798,1,0,0:0:0:0:
329,192,215886,1,0,0:0:0:0:
256,192,215974,1,0,0:0:0:0:
182,192,216062,1,0,0:0:0:0:
36,192,216149,1,0,0:0:0:0:
475,192,216149,1,0,0:0:0:0:
402,192,216149,1,0,0:0:0:0:
256,192,216237,1,0,0:0:0:0:
182,192,216325,1,0,0:0:0:0:
109,192,216412,1,0,0:0:0:0:
402,192,216500,1,0,0:0:0:0:
256,192,216588,1,0,0:0:0:0:
182,192,216676,1,0,0:0:0:0:
475,192,216676,1,0,0:0:0:0:
36,192,216676,1,0,0:0:0:0:
402,192,216763,1,0,0:0:0:0:
329,192,216851,1,0,0:0:0:0:
182,192,216851,1,0,0:0:0:0:
36,192,216939,1,0,0:0:0:0:
256,192,217027,1,0,0:0:0:0:
109,192,217114,1,0,0:0:0:0:
329,192,217202,1,0,0:0:0:0:
402,192,217202,1,0,0:0:0:0:
475,192,217202,1,0,0:0:0:0:
36,192,217290,1,0,0:0:0:0:
182,192,217377,1,0,0:0:0:0:
329,192,217377,1,0,0:0:0:0:
109,192,217465,1,0,0:0:0:0:
256,192,217553,1,0,0:0:0:0:
475,192,217553,1,0,0:0:0:0:
402,192,217553,1,0,0:0:0:0:
109,192,217641,1,0,0:0:0:0:
182,192,217728,1,0,0:0:0:0:
256,192,217816,1,0,0:0:0:0:
109,192,217904,1,0,0:0:0:0:
329,192,217991,1,0,0:0:0:0:
36,192,218079,1,0,0:0:0:0:
402,192,218079,1,0,0:0:0:0:
475,192,218079,1,0,0:0:0:0:
256,192,218167,1,0,0:0:0:0:
109,192,218255,1,0,0:0:0:0:
182,192,218342,1,0,0:0:0:0:
329,192,218430,1,0,0:0:0:0:
475,192,218518,1,0,0:0:0:0:
256,192,218605,1,0,0:0:0:0:
109,192,218605,1,0,0:0:0:0:
36,192,218605,1,0,0:0:0:0:
329,192,218693,1,0,0:0:0:0:
182,192,218781,1,0,0:0:0:0:
329,192,218869,1,0,0:0:0:0:
109,192,218956,1,0,0:0:0:0:
475,192,218956,1,0,0:0:0:0:
402,192,218956,1,0,0:0:0:0:
256,192,219044,1,0,0:0:0:0:
182,192,219132,1,0,0:0:0:0:
36,192,219220,1,0,0:0:0:0:
329,192,219307,1,0,0:0:0:0:
256,192,219395,1,0,0:0:0:0:
109,192,219483,1,0,0:0:0:0:
36,192,219483,1,0,0:0:0:0:
475,192,219483,1,0,0:0:0:0:
402,192,219570,1,0,0:0:0:0:
329,192,219658,1,0,0:0:0:0:
36,192,219658,1,0,0:0:0:0:
182,192,219746,1,0,0:0:0:0:
109,192,219834,1,0,0:0:0:0:
329,192,219921,1,0,0:0:0:0:
475,192,220009,1,0,0:0:0:0:
36,192,220009,1,0,0:0:0:0:
256,192,220009,1,0,0:0:0:0:
182,192,220097,1,0,0:0:0:0:
329,192,220184,1,0,0:0:0:0:
475,192,220184,1,0,0:0:0:0:
256,192,220272,1,0,0:0:0:0:
402,192,220360,1,0,0:0:0:0:
36,192,220360,1,0,0:0:0:0:
109,192,220360,1,0,0:0:0:0:
256,192,220448,1,0,0:0:0:0:
329,192,220535,1,0,0:0:0:0:
402,192,220623,1,0,0:0:0:0:
36,192,220711,1,0,0:0:0:0:
182,192,220798,1,0,0:0:0:0:
256,192,220886,1,0,0:0:0:0:
402,192,220886,1,0,0:0:0:0:
475,192,220886,1,0,0:0:0:0:
109,192,220974,1,0,0:0:0:0:
182,192,221062,1,0,0:0:0:0:
329,192,221149,1,0,0:0:0:0:
475,192,221237,1,0,0:0:0:0:
256,192,221325,1,0,0:0:0:0:
109,192,221412,1,0,0:0:0:0:
36,192,221412,1,0,0:0:0:0:
402,192,221412,1,0,0:0:0:0:
182,192,221500,1,0,0:0:0:0:
329,192,221588,1,0,0:0:0:0:
182,192,221676,1,0,0:0:0:0:
256,192,221763,1,0,0:0:0:0:
402,192,221763,1,0,0:0:0:0:
475,192,221763,1,0,0:0:0:0:
109,192,221851,1,0,0:0:0:0:
36,192,221939,1,0,0:0:0:0:
329,192,222027,1,0,0:0:0:0:
256,192,222114,1,0,0:0:0:0:
182,192,222202,1,0,0:0:0:0:
475,192,222290,1,0,0:0:0:0:
109,192,222290,1,0,0:0:0:0:
36,192,222290,1,0,0:0:0:0:
402,192,222377,1,0,0:0:0:0:
256,192,222465,1,0,0:0:0:0:
109,192,222465,1,0,0:0:0:0:
475,192,222553,1,0,0:0:0:0:
329,192,222641,1,0,0:0:0:0:
182,192,222728,1,0,0:0:0:0:
402,192,222816,1,0,0:0:0:0:
36,192,222816,1,0,0:0:0:0:
109,192,222904,1,0,0:0:0:0:
182,192,222991,1,0,0:0:0:0:
402,192,222991,1,0,0:0:0:0:
36,192,223079,1,0,0:0:0:0:
256,192,223167,1,0,0:0:0:0:
475,192,223167,1,0,0:0:0:0:
329,192,223167,1,0,0:0:0:0:
36,192,223255,1,0,0:0:0:0:
182,192,223342,1,0,0:0:0:0:
329,192,223430,1,0,0:0:0:0:
109,192,223518,1,0,0:0:0:0:
182,192,223605,1,0,0:0:0:0:
329,192,223693,1,0,0:0:0:0:
475,192,223693,1,0,0:0:0:0:
36,192,223693,1,0,0:0:0:0:
109,192,223781,1,0,0:0:0:0:
256,192,223869,1,0,0:0:0:0:
402,192,223956,1,0,0:0:0:0:
182,192,224044,1,0,0:0:0:0:
329,192,224132,1,0,0:0:0:0:
36,192,224220,1,0,0:0:0:0:
475,192,224220,1,0,0:0:0:0:
109,192,224220,1,0,0:0:0:0:
182,192,224307,1,0,0:0:0:0:
402,192,224395,1,0,0:0:0:0:
182,192,224483,1,0,0:0:0:0:
329,192,224570,1,0,0:0:0:0:
475,192,224570,1,0,0:0:0:0:
36,192,224570,1,0,0:0:0:0:
256,192,224658,1,0,0:0:0:0:
182,192,224746,1,0,0:0:0:0:
402,192,224834,1,0,0:0:0:0:
256,192,224921,1,0,0:0:0:0:
109,192,225009,1,0,0:0:0:0:
36,192,225097,1,0,0:0:0:0:
329,192,225097,1,0,0:0:0:0:
475,192,225097,1,0,0:0:0:0:
182,192,225184,1,0,0:0:0:0:
109,192,225272,1,0,0:0:0:0:
329,192,225272,1,0,0:0:0:0:
256,192,225360,1,0,0:0:0:0:
475,192,225448,1,0,0:0:0:0:
402,192,225535,1,0,0:0:0:0:
329,192,225623,1,0,0:0:0:0:
109,192,225623,1,0,0:0:0:0:
36,192,225623,1,0,0:0:0:0:
182,192,225711,1,0,0:0:0:0:
329,192,225798,1,0,0:0:0:0:
475,192,225798,1,0,0:0:0:0:
