osu file format v14

[General]
AudioFilename: audio.mp3
AudioLeadIn: 0
PreviewTime: 18567
Countdown: 0
SampleSet: Soft
StackLeniency: 0.7
Mode: 0
LetterboxInBreaks: 0
WidescreenStoryboard: 1

[Editor]
DistanceSpacing: 4.5
BeatDivisor: 4
GridSize: 4
TimelineZoom: 1

[Metadata]
Title:Punky Momo
TitleUnicode:Punky Momo
Artist:Candace (CV: Ashley Tisdale) & Vanessa (CV: Olivia Olson)
ArtistUnicode:Candace (CV: Ashley Tisdale) & Vanessa (CV: Olivia Olson)
Creator:X4D
Version:hitty momo
Source:Phineas and Ferb
Tags:flynn doofenshmirtz rock & roll ducky Theme Song Danny Jacob Laura Dickinson It's No Picnic end credits Dan Povenmire Jeff "Swampy" Marsh AimAssist
BeatmapID:1848535
BeatmapSetID:884375

[Difficulty]
HPDrainRate:6
CircleSize:3.9
OverallDifficulty:8.5
ApproachRate:9.4
SliderMultiplier:1.4
SliderTickRate:1

[Events]
//Background and Video events
0,0,"wp2136057.jpg",0,0
//Break Periods
//Storyboard Layer 0 (Background)
//Storyboard Layer 1 (Fail)
//Storyboard Layer 2 (Pass)
//Storyboard Layer 3 (Foreground)
//Storyboard Sound Samples

[TimingPoints]
295,351.390922401171,4,2,1,100,1,0
5917,-83.3333333333333,4,2,1,100,0,0
18040,-100,4,2,1,60,0,0
18567,-83.3333333333333,4,2,1,100,0,0
23838,-83.3333333333333,4,2,1,70,0,0
24013,-83.3333333333333,4,2,1,60,0,0
24189,-83.3333333333333,4,2,1,100,0,0
29109,-200,4,2,1,70,0,0
29811,-200,4,2,1,5,0,0

[Colours]
Combo1 : 243,223,30
Combo2 : 225,143,28
Combo3 : 121,191,130
Combo4 : 122,190,202
SliderBorder : 249,254,162
SliderTrackOverride : 117,74,25

[HitObjects]
85,119,295,5,2,2:3:0:0:
283,259,646,1,0,3:0:0:0:
283,259,822,1,0,3:0:0:0:
106,222,1173,1,0,1:0:0:0:
283,259,1349,1,0,3:0:0:0:
85,119,1700,5,2,2:3:0:0:
283,259,2051,1,0,3:0:0:0:
283,259,2227,1,0,3:0:0:0:
106,222,2578,1,0,1:0:0:0:
283,259,2754,1,0,3:0:0:0:
257,175,2930,1,2,0:0:0:0:
85,119,3106,5,2,2:3:0:0:
283,259,3457,1,0,3:0:0:0:
283,259,3633,1,0,3:0:0:0:
106,222,3984,1,0,1:0:0:0:
283,259,4160,1,0,3:0:0:0:
85,119,4511,5,2,2:3:0:0:
283,259,4862,1,0,3:0:0:0:
283,259,5038,1,0,3:0:0:0:
106,222,5389,1,0,1:0:0:0:
283,259,5565,1,0,3:0:0:0:
257,175,5741,1,2,3:2:0:0:
41,153,5917,5,4,1:2:0:0:
20,70,6092,1,0,3:0:0:0:
135,87,6268,1,8,0:0:0:0:
136,165,6444,1,0,1:0:0:0:
210,106,6620,1,2,2:3:0:0:
136,165,6795,1,0,1:0:0:0:
135,87,6971,1,8,0:0:0:0:
210,106,7147,1,2,2:3:0:0:
41,153,7322,5,2,1:2:0:0:
20,70,7497,1,0,3:0:0:0:
135,87,7673,1,8,1:2:0:0:
136,165,7849,1,0,0:0:0:0:
210,106,8025,1,2,1:3:0:0:
210,106,8201,1,2,1:3:0:0:
135,87,8376,1,10,1:2:0:0:
210,106,8552,1,2,2:3:0:0:
340,83,8728,5,2,1:3:0:0:
20,70,8904,1,0,3:0:0:0:
340,83,9079,1,8,2:0:0:0:
145,36,9255,1,0,1:0:0:0:
340,83,9431,1,2,2:3:0:0:
20,70,9606,1,0,1:0:0:0:
340,83,9782,1,8,2:2:0:0:
340,83,9958,1,2,2:3:0:0:
340,83,10133,5,2,1:3:0:0:
174,51,10485,1,8,0:0:0:0:
210,106,10836,1,2,1:3:0:0:
210,106,11012,1,2,1:3:0:0:
135,87,11187,1,10,1:2:0:0:
210,106,11363,1,2,0:0:0:0:
302,71,11539,5,6,1:2:0:0:
20,70,11715,1,0,3:0:0:0:
302,71,11890,1,10,0:0:0:0:
145,36,12066,1,0,1:0:0:0:
302,71,12242,1,2,0:0:0:0:
145,36,12417,1,0,1:0:0:0:
302,71,12593,1,10,0:0:0:0:
302,71,12945,5,2,1:2:0:0:
20,70,13121,1,0,3:0:0:0:
302,71,13296,1,10,0:0:0:0:
145,36,13472,1,0,0:0:0:0:
302,71,13648,1,2,1:2:0:0:
145,36,13823,1,0,1:0:0:0:
302,71,13999,1,10,0:0:0:0:
302,71,14350,5,2,1:2:0:0:
20,70,14526,1,0,3:0:0:0:
302,71,14701,1,10,0:0:0:0:
145,36,14877,1,0,1:0:0:0:
302,71,15053,1,2,0:0:0:0:
145,36,15228,1,8,1:2:0:0:
302,71,15316,1,8,0:0:0:0:
302,71,15404,1,10,0:0:0:0:
85,119,15756,5,4,1:2:0:0:
283,259,16107,1,0,3:0:0:0:
283,259,16283,1,0,3:0:0:0:
106,222,16634,1,0,1:0:0:0:
283,259,16810,1,0,3:0:0:0:
85,119,17161,5,2,1:3:0:0:
283,259,17512,1,0,3:0:0:0:
283,259,17688,1,0,3:0:0:0:
302,71,17864,1,8,0:0:0:0:
302,71,18567,5,6,1:2:0:0:
302,71,18918,1,10,0:0:0:0:
145,36,19094,1,0,1:0:0:0:
302,71,19270,1,2,0:0:0:0:
145,36,19445,1,0,1:0:0:0:
302,71,19621,1,10,0:0:0:0:
302,71,19972,5,2,1:2:0:0:
302,71,20323,1,10,0:0:0:0:
302,71,20675,1,2,1:2:0:0:
145,36,20850,1,0,1:0:0:0:
302,71,21026,1,10,0:0:0:0:
302,71,21378,5,6,1:2:0:0:
302,71,21729,1,10,0:0:0:0:
145,36,21905,1,0,1:0:0:0:
302,71,22081,1,2,0:0:0:0:
145,36,22256,1,0,1:0:0:0:
302,71,22432,1,10,0:0:0:0:
302,71,22784,5,6,1:2:0:0:
302,71,23134,1,10,0:0:0:0:
302,71,23486,1,10,0:0:0:0:
302,71,23662,5,0,1:0:0:0:
302,71,23838,5,0,1:0:0:0:
302,71,24013,5,0,1:0:0:0:
421,220,24189,5,14,1:2:0:0:
421,220,24540,5,10,0:0:0:0:
164,214,24716,1,2,1:3:0:0:
421,220,24892,5,10,0:0:0:0:
164,214,25068,1,2,1:3:0:0:
421,220,25243,5,10,0:0:0:0:
421,220,25595,5,10,1:2:0:0:
421,220,25946,5,10,0:0:0:0:
164,214,26122,1,2,3:0:0:0:
421,220,26298,5,10,1:2:0:0:
164,214,26474,1,2,1:3:0:0:
421,220,26649,5,10,0:0:0:0:
421,220,27000,5,14,1:2:0:0:
421,220,27351,5,10,0:0:0:0:
164,214,27527,1,2,3:0:0:0:
421,220,27703,5,10,0:0:0:0:
164,214,27879,1,2,3:0:0:0:
421,220,28054,5,10,0:0:0:0:
