osu file format v14

[General]
AudioFilename: audio.mp3
AudioLeadIn: 0
PreviewTime: 18567
Countdown: 0
SampleSet: Soft
StackLeniency: 0.7
Mode: 0
LetterboxInBreaks: 0
WidescreenStoryboard: 1

[Editor]
DistanceSpacing: 3
BeatDivisor: 4
GridSize: 4
TimelineZoom: 1

[Metadata]
Title:Punky Momo
TitleUnicode:Punky Momo
Artist:Candace (CV: Ashley Tisdale) & Vanessa (CV: Olivia Olson)
ArtistUnicode:Candace (CV: Ashley Tisdale) & Vanessa (CV: Olivia Olson)
Creator:X4D
Version:Expert
Source:Phineas and Ferb
Tags:flynn doofenshmirtz rock & roll ducky Theme Song Danny Jacob Laura Dickinson It's No Picnic end credits Dan Povenmire Jeff "Swampy" Marsh AimAssist
BeatmapID:1848536
BeatmapSetID:884375

[Difficulty]
HPDrainRate:5.5
CircleSize:3.9
OverallDifficulty:7.7
ApproachRate:9.3
SliderMultiplier:1.4
SliderTickRate:1

[Events]
//Background and Video events
0,0,"wp2136057.jpg",0,0
//Break Periods
//Storyboard Layer 0 (Background)
//Storyboard Layer 1 (Fail)
//Storyboard Layer 2 (Pass)
//Storyboard Layer 3 (Foreground)
//Storyboard Sound Samples

[TimingPoints]
295,351.390922401171,4,2,1,100,1,0
5917,-83.3333333333333,4,2,1,100,0,0
18040,-100,4,2,1,60,0,0
18567,-83.3333333333333,4,2,1,100,0,0
23838,-83.3333333333333,4,2,1,70,0,0
24013,-83.3333333333333,4,2,1,60,0,0
24189,-83.3333333333333,4,2,1,100,0,0
29109,-200,4,2,1,70,0,0
29811,-200,4,2,1,5,0,0

[Colours]
Combo1 : 243,223,30
Combo2 : 225,143,28
Combo3 : 121,191,130
Combo4 : 122,190,202
SliderBorder : 249,254,162
SliderTrackOverride : 117,74,25

[HitObjects]
97,160,295,6,0,P|145:147|190:145,1,70,2|0,2:3|0:0,0:0:0:0:
282,176,646,1,0,3:0:0:0:
198,77,822,1,0,3:0:0:0:
374,136,997,2,0,P|357:188|359:223,1,70,0|0,0:0|1:0,0:0:0:0:
298,344,1349,2,0,P|281:292|283:257,1,70,0|0,3:0|0:0,0:0:0:0:
198,77,1700,6,0,L|205:164,1,70,2|0,2:3|0:0,0:0:0:0:
55,100,2051,1,0,3:0:0:0:
74,250,2227,2,0,L|81:163,1,70,0|0,3:0|0:0,0:0:0:0:
233,326,2579,1,0,1:0:0:0:
153,219,2754,1,0,3:0:0:0:
159,364,2930,1,2,0:0:0:0:
298,255,3106,6,0,P|356:253|388:264,1,70,2|0,2:3|0:0,0:0:0:0:
315,347,3457,1,0,3:0:0:0:
442,317,3633,1,0,3:0:0:0:
307,229,3808,2,0,L|223:241,1,70,0|0,0:0|1:0,0:0:0:0:
384,165,4160,2,0,L|468:177,1,70,0|0,3:0|0:0,0:0:0:0:
286,109,4511,6,0,P|240:118|207:147,1,70,2|0,2:3|0:0,0:0:0:0:
361,62,4863,1,0,3:0:0:0:
152,24,5038,2,0,P|198:33|231:62,1,70,0|0,3:0|0:0,0:0:0:0:
39,119,5390,1,0,1:0:0:0:
221,130,5565,1,0,3:0:0:0:
0,231,5741,1,2,3:2:0:0:
301,335,5917,6,0,L|288:249,1,83.9999974365235,4|0,1:2|3:0,0:0:0:0:
221,130,6268,1,8,0:0:0:0:
131,366,6444,2,0,L|144:280,1,83.9999974365235,0|2,1:0|2:3,0:0:0:0:
221,130,6795,1,0,1:0:0:0:
368,232,6971,2,0,P|422:227|456:216,1,83.9999974365235,8|2,0:0|2:3,0:0:0:0:
299,53,7322,6,0,L|199:39,1,83.9999974365235,2|0,1:2|3:0,0:0:0:0:
153,224,7674,2,0,L|253:210,1,83.9999974365235,8|0,1:2|0:0,0:0:0:0:
104,88,8025,1,2,1:3:0:0:
16,262,8201,1,2,1:3:0:0:
139,349,8376,1,10,1:2:0:0:
60,175,8552,1,2,2:3:0:0:
159,360,8728,6,0,P|214:348|252:348,1,83.9999974365235,2|0,1:3|3:0,0:0:0:0:
165,242,9079,1,8,2:0:0:0:
454,306,9255,2,0,P|399:294|361:294,1,83.9999974365235,0|2,1:0|2:3,0:0:0:0:
165,242,9606,1,0,1:0:0:0:
326,118,9782,2,0,L|321:211,1,83.9999974365235,8|2,2:2|2:3,0:0:0:0:
130,53,10133,6,0,P|183:41|234:57,1,83.9999974365235,2|0,1:3|0:0,0:0:0:0:
220,198,10485,2,0,P|167:210|116:194,1,83.9999974365235,8|0,0:0|0:0,0:0:0:0:
326,118,10836,1,2,1:3:0:0:
366,310,11012,1,2,1:3:0:0:
312,135,11188,1,10,1:2:0:0:
352,327,11363,1,2,0:0:0:0:
132,131,11539,6,0,L|36:118,1,83.9999974365235,6|0,1:2|3:0,0:0:0:0:
174,264,11890,1,10,0:0:0:0:
312,135,12066,2,0,L|408:122,1,83.9999974365235,0|2,1:0|0:0,0:0:0:0:
174,264,12417,1,0,1:0:0:0:
352,327,12593,2,0,P|360:277|360:232,1,83.9999974365235,10|0,0:0|0:0,0:0:0:0:
172,38,12945,6,0,L|183:124,1,83.9999974365235,2|0,1:2|3:0,0:0:0:0:
342,231,13296,2,0,L|353:145,1,83.9999974365235,10|0,0:0|0:0,0:0:0:0:
117,250,13647,1,2,1:2:0:0:
322,251,13823,1,0,1:0:0:0:
47,311,13999,1,10,0:0:0:0:
37,323,14350,6,0,P|89:329|137:342,1,83.9999974365235,2|0,1:2|3:0,0:0:0:0:
19,223,14702,1,10,0:0:0:0:
268,141,14877,2,0,P|216:147|168:160,1,83.9999974365235,0|2,1:0|0:0,0:0:0:0:
48,47,15229,1,8,1:2:0:0:
68,51,15316,1,8,0:0:0:0:
86,61,15404,1,10,0:0:0:0:
86,61,15756,6,0,L|92:152,1,83.9999974365235,4|0,1:2|0:0,0:0:0:0:
185,248,16107,1,0,3:0:0:0:
217,124,16283,1,0,3:0:0:0:
52,329,16458,2,0,P|106:313|156:313,1,83.9999974365235,0|0,0:0|1:0,0:0:0:0:
285,247,16810,2,0,P|231:231|181:231,1,83.9999974365235,0|0,3:0|0:0,0:0:0:0:
25,179,17161,6,0,L|136:185,1,83.9999974365235,2|0,1:3|0:0,0:0:0:0:
41,101,17513,1,0,3:0:0:0:
258,89,17688,2,0,L|147:95,1,83.9999974365235,0|8,3:0|0:0,0:0:0:0:
99,38,18040,6,0,P|137:52|159:88,2,70,0|0|0,0:0|0:0|0:0,0:0:0:0:
120,199,18567,6,0,P|181:181|227:177,1,83.9999974365235,6|0,1:2|0:0,0:0:0:0:
68,276,18918,1,10,0:0:0:0:
376,242,19094,2,0,P|315:224|269:220,1,83.9999974365235,0|2,1:0|0:0,0:0:0:0:
140,329,19445,2,0,L|228:310,1,83.9999974365235,0|10,1:0|0:0,0:0:0:0:
350,355,19797,1,0,0:0:0:0:
52,354,19972,6,0,P|35:301|39:255,1,83.9999974365235,2|0,1:2|0:0,0:0:0:0:
278,140,20324,2,0,P|295:193|291:239,1,83.9999974365235,10|0,0:0|0:0,0:0:0:0:
75,42,20675,1,2,1:2:0:0:
163,136,20851,1,0,1:0:0:0:
311,31,21027,1,10,0:0:0:0:
151,147,21202,1,0,0:0:0:0:
384,117,21378,6,0,P|441:117|494:128,1,83.9999974365235,6|0,1:2|0:0,0:0:0:0:
314,222,21729,1,10,0:0:0:0:
151,147,21905,2,0,P|94:147|41:158,1,83.9999974365235,0|2,1:0|0:0,0:0:0:0:
198,293,22256,1,0,1:0:0:0:
409,207,22432,2,0,L|508:198,1,83.9999974365235,10|0,0:0|0:0,0:0:0:0:
292,344,22784,5,6,1:2:0:0:
272,341,23135,1,10,0:0:0:0:
252,338,23486,5,10,0:0:0:0:
361,209,23662,1,0,1:0:0:0:
195,180,23838,1,0,1:0:0:0:
306,273,24013,1,0,1:0:0:0:
88,256,24189,5,14,1:2:0:0:
301,124,24365,1,0,0:0:0:0:
77,161,24540,5,10,0:0:0:0:
306,273,24716,1,2,1:3:0:0:
19,222,24892,5,10,0:0:0:0:
329,153,25068,1,2,1:3:0:0:
31,90,25243,5,10,0:0:0:0:
235,206,25419,1,0,0:0:0:0:
183,34,25595,6,0,P|127:22|72:35,1,83.9999974365235,10|0,1:2|0:0,0:0:0:0:
79,313,25946,2,0,P|135:325|190:312,1,83.9999974365235,10|2,0:0|3:0,0:0:0:0:
368,71,26297,5,10,1:2:0:0:
306,273,26473,1,2,1:3:0:0:
293,31,26649,5,10,0:0:0:0:
381,226,26825,1,0,0:0:0:0:
470,28,27000,5,14,1:2:0:0:
328,357,27176,1,0,0:0:0:0:
126,164,27352,1,10,0:0:0:0:
479,329,27527,5,2,3:0:0:0:
265,131,27703,1,10,0:0:0:0:
115,359,27879,1,2,3:0:0:0:
395,44,28054,6,0,P|442:54|497:82,1,83.9999974365235,10|0,0:0|0:0,0:0:0:0:
81,98,28406,1,0,0:0:0:0:
74,109,29109,6,0,L|87:248,1,140,0|0,0:0|0:0,0:0:0:0:
